osu file format v14

[General]
AudioFilename: audio.mp3
AudioLeadIn: 0
PreviewTime: 168598
Countdown: 0
SampleSet: Soft
StackLeniency: 0.7
Mode: 0
LetterboxInBreaks: 0
WidescreenStoryboard: 0

[Editor]
Bookmarks: 8598,89791,139941,169791,179343
DistanceSpacing: 1.1
BeatDivisor: 3
GridSize: 4
TimelineZoom: 2.900004

[Metadata]
Title:Paradisus-Paradoxum
TitleUnicode:Paradisus-Paradoxum
Artist:MYTH & ROID
ArtistUnicode:MYTH & ROID
Creator:Cellina
Version:Tragic Love
Source:Re:ゼロから始める異世界生活
Tags:akitoshi kalibe nasya n_a_s_y_a shirakai toybot curi [c_u_r_i] reana dailycare habiholic re : zero kara hajimeru isekai seikatsu life in a different world from zero re:zero
BeatmapID:1084742
BeatmapSetID:510183

[Difficulty]
HPDrainRate:6
CircleSize:4
OverallDifficulty:8.8
ApproachRate:9.6
SliderMultiplier:1.9
SliderTickRate:1

[Events]
//Background and Video events
0,0,"710129.png",0,0
//Break Periods
2,90986,97641
2,140141,147790
2,169792,178835
//Storyboard Layer 0 (Background)
//Storyboard Layer 1 (Fail)
//Storyboard Layer 2 (Pass)
//Storyboard Layer 3 (Foreground)
//Storyboard Sound Samples

[TimingPoints]
1434,298.507462686567,4,2,1,20,1,0
8598,-100,4,2,1,60,0,0
10389,-100,4,2,0,60,0,0
10687,-83.3333333333333,4,2,0,60,0,0
10986,-100,4,2,1,70,0,0
15762,-142.857142857143,4,2,1,70,0,0
16135,-142.857142857143,4,2,1,5,0,0
16210,-100,4,2,1,70,0,0
16359,-133.333333333333,4,2,1,70,0,0
16956,-142.857142857143,4,2,1,70,0,0
17329,-142.857142857143,4,2,1,5,0,0
17404,-100,4,2,1,70,0,0
17553,-133.333333333333,4,2,1,70,0,0
18150,-200,4,2,1,70,0,0
19195,-100,4,2,1,70,0,0
30090,-125,4,2,2,40,0,0
32180,-90.9090909090909,4,2,2,40,0,0
32478,-125,4,2,2,40,0,0
39642,-100,4,2,1,60,0,0
48598,-100,4,2,0,20,0,0
48896,-100,4,2,0,40,0,0
49195,-100,4,2,1,60,0,0
60538,-100,4,2,0,60,0,0
61135,-100,4,2,1,75,0,1
75463,-142.857142857143,4,2,1,75,0,1
75836,-142.857142857143,4,2,1,5,0,1
75911,-100,4,2,1,75,0,0
76060,-133.333333333333,4,2,1,75,0,0
76657,-142.857142857143,4,2,1,5,0,0
77105,-100,4,2,1,75,0,0
77254,-133.333333333333,4,2,1,75,0,0
77851,-200,4,2,1,75,0,0
78822,-200,4,2,1,5,0,0
78896,-200,4,2,1,75,0,0
79344,-100,4,2,1,75,0,0
99344,-100,4,2,1,50,0,0
100538,-125,4,2,3,60,0,0
102628,-90.9090909090909,4,2,3,60,0,0
102926,-125,4,2,3,60,0,0
105016,-90.9090909090909,4,2,3,60,0,0
105314,-100,4,2,3,60,0,0
107702,-100,4,2,1,65,0,0
110687,-100,4,2,0,60,0,0
111284,-100,4,2,1,75,0,1
125613,-142.857142857143,4,2,1,75,0,0
125986,-142.857142857143,4,2,1,5,0,0
126060,-100,4,2,1,75,0,0
126210,-133.333333333333,4,2,1,75,0,0
126807,-142.857142857143,4,2,1,75,0,0
127180,-142.857142857143,4,2,1,5,0,0
127254,-100,4,2,1,75,0,0
127404,-133.333333333333,4,2,1,75,0,0
128001,-200,4,2,1,75,0,0
128971,-200,4,2,1,5,0,0
129045,-200,4,2,1,75,0,0
129493,-100,4,2,1,75,0,0
148299,-100,4,2,1,60,0,0
149941,-83.3333333333333,4,2,1,60,0,0
150687,-100,4,2,1,60,0,0
152329,-83.3333333333333,4,2,1,60,0,0
153075,-100,4,2,1,60,0,0
153672,-200,4,2,0,50,0,0
154269,-100,4,2,1,60,0,0
154717,-83.3333333333333,4,2,1,60,0,0
155463,-100,4,2,1,60,0,0
159493,-83.3333333333333,4,2,1,60,0,0
160239,-100,4,2,1,60,0,0
161881,-83.3333333333333,4,2,1,60,0,0
162628,-100,4,2,1,60,0,0
179343,-100,4,2,2,40,0,0
179344,-125,4,2,2,40,0,0
183225,-111.111111111111,4,2,2,40,0,0
184119,-111.111111111111,4,2,1,65,0,0
188896,-100,4,2,1,80,0,1
203225,-142.857142857143,4,2,1,80,0,0
203598,-142.857142857143,4,2,1,5,0,0
203672,-100,4,2,1,80,0,0
203822,-133.333333333333,4,2,1,80,0,0
204419,-142.857142857143,4,2,1,80,0,0
204792,-142.857142857143,4,2,1,5,0,0
204866,-100,4,2,1,80,0,0
205016,-133.333333333333,4,2,1,80,0,0
205613,-200,4,2,1,80,0,0
206583,-200,4,2,1,5,0,0
206657,-200,4,2,1,80,0,0
206807,-100,4,2,1,80,0,0
227105,-100,4,2,1,60,0,0

[Colours]
Combo1 : 255,128,255
Combo2 : 128,255,255
Combo3 : 192,192,192
Combo4 : 255,128,64

[HitObjects]
125,156,8598,5,10,0:0:0:0:
340,305,8747,2,0,P|348:253|367:168,1,95,10|0,0:0|0:0,0:0:0:0:
356,100,9045,5,2,0:0:0:0:
141,249,9195,1,8,0:0:0:0:
141,249,9344,2,0,P|133:197|114:112,1,95,10|0,0:0|0:0,0:0:0:0:
356,211,9642,6,0,P|444:222|493:132,1,190,10|10,0:0|0:0,0:0:0:0:
262,182,10090,1,10,0:0:0:0:
262,182,10389,6,0,L|272:346,1,142.5,2|0,0:0|0:0,0:0:0:0:
241,337,10687,6,0,L|250:166,1,170.999994781494,2|0,0:0|0:0,0:0:0:0:
265,126,10986,6,0,B|145:140|210:62|68:73,1,190,6|8,0:1|0:0,0:0:0:0:
13,281,11433,2,0,P|61:272|125:267,1,95,2|0,0:0|0:0,0:0:0:0:
244,40,11732,1,2,0:0:0:0:
103,158,11881,1,8,0:0:0:0:
255,265,12031,1,0,0:0:0:0:
179,104,12180,6,0,L|184:218,1,95,2|0,0:0|0:0,0:0:0:0:
336,42,12478,1,8,0:0:0:0:
255,265,12628,2,0,P|183:288|148:309,1,95,2|0,0:0|0:0,0:0:0:0:
268,168,12926,1,2,0:0:0:0:
374,353,13075,2,0,P|377:298|386:222,1,95,8|0,0:0|0:0,0:0:0:0:
336,42,13374,6,0,P|261:108|264:143,1,142.5,2|0,0:0|0:0,0:0:0:0:
268,168,13672,1,8,0:0:0:0:
461,168,13822,2,0,P|466:111|446:44,1,95,2|0,0:0|0:0,0:0:0:0:
255,265,14120,1,2,0:0:0:0:
463,247,14269,1,8,0:0:0:0:
349,128,14419,2,0,L|345:189,1,47.5,0|0,0:0|0:0,0:0:0:0:
434,367,14568,6,0,L|430:319,1,47.5,0|0,3:0|3:0,0:0:0:0:
269,186,14717,1,0,3:0:0:0:
221,190,14792,1,0,3:0:0:0:
184,219,14866,1,0,3:0:0:0:
174,265,14941,1,0,3:0:0:0:
188,310,15016,1,0,3:0:0:0:
225,338,15090,1,0,3:0:0:0:
272,339,15165,6,0,P|287:327|338:301,1,47.5,2|2,3:3|3:3,0:0:0:0:
167,183,15314,2,0,P|152:171|101:145,1,47.5,2|2,3:3|3:3,0:0:0:0:
344,28,15463,1,2,3:3:0:0:
382,56,15538,1,2,3:3:0:0:
396,101,15613,1,2,3:3:0:0:
383,146,15687,1,2,3:3:0:0:
345,175,15762,6,0,P|443:182|466:240,1,166.249994926453,6|0,0:0|0:0,0:0:0:0:
311,312,16210,2,0,B|309:294|310:234,1,47.5,2|0,0:0|0:0,0:0:0:0:
483,94,16359,6,0,P|470:157|467:257,1,142.500005435944,8|0,0:0|0:0,0:0:0:0:
167,175,16956,6,0,P|69:182|46:240,1,166.249994926453,2|0,0:0|0:0,0:0:0:0:
201,312,17404,2,0,B|203:294|202:234,1,47.5,2|0,0:0|0:0,0:0:0:0:
29,94,17553,6,0,P|42:157|45:257,1,142.500005435944,8|0,0:0|0:0,0:0:0:0:
46,234,18150,6,0,P|115:181|255:310,1,308.75,2|0,0:0|0:0,0:0:0:0:
255,331,19195,1,8,0:0:0:0:
359,58,19642,6,0,L|355:175,1,95,8|0,0:0|0:0,0:0:0:0:
466,31,19941,1,0,0:0:0:0:
412,255,20090,2,0,P|357:240|281:232,1,95,8|0,0:0|0:0,0:0:0:0:
47,173,20389,1,0,0:0:0:0:
47,173,20463,1,0,0:0:0:0:
47,173,20538,6,0,P|121:107|203:129,1,190,6|8,0:0|0:0,0:0:0:0:
126,339,20986,1,2,0:0:0:0:
126,339,21060,1,0,0:0:0:0:
126,339,21135,2,0,P|46:333|-13:333,1,95,0|2,0:0|0:0,0:0:0:0:
231,225,21433,1,8,0:0:0:0:
231,225,21732,5,2,0:0:0:0:
261,355,21881,1,0,0:0:0:0:
137,199,22031,1,8,0:0:0:0:
308,101,22180,1,2,0:0:0:0:
158,288,22329,5,0,0:0:0:0:
228,23,22478,1,2,0:0:0:0:
372,217,22628,2,0,L|481:211,1,95,8|0,0:0|0:0,0:0:0:0:
261,355,22926,6,0,P|263:257|255:143,1,190,2|8,0:0|0:0,0:0:0:0:
75,297,23374,1,2,0:0:0:0:
75,297,23448,1,0,0:0:0:0:
75,297,23523,2,0,P|144:280|192:271,1,95,0|2,0:0|0:0,0:0:0:0:
328,227,23822,1,8,0:0:0:0:
328,227,24120,5,2,0:0:0:0:
261,24,24269,1,0,0:0:0:0:
159,186,24419,1,8,0:0:0:0:
352,45,24568,2,0,P|413:49|450:50,1,95,2|0,0:0|0:0,0:0:0:0:
473,344,24866,5,2,0:0:0:0:
328,227,25016,1,8,0:0:0:0:
165,313,25165,1,8,0:0:0:0:
291,329,25314,6,0,L|283:119,1,190,6|8,0:0|0:0,0:0:0:0:
108,29,25762,1,2,0:0:0:0:
108,29,25836,1,0,0:0:0:0:
108,29,25911,2,0,L|104:123,1,95,0|2,0:0|0:0,0:0:0:0:
330,35,26210,1,8,0:0:0:0:
330,35,26508,5,2,0:0:0:0:
216,195,26657,1,0,0:0:0:0:
108,29,26807,1,8,0:0:0:0:
283,139,26956,2,0,L|383:146,1,95,2|0,0:0|0:0,0:0:0:0:
129,311,27254,2,0,P|120:264|125:202,1,95,2|8,0:0|0:0,0:0:0:0:
409,315,27553,6,0,P|321:254|228:285,1,190,0|0,0:0|0:0,0:0:0:0:
201,359,28000,1,8,0:0:0:0:
330,178,28150,1,2,0:0:0:0:
330,178,28224,1,0,0:0:0:0:
330,178,28299,2,0,L|326:64,1,95,0|2,0:0|0:0,0:0:0:0:
148,29,28598,1,8,0:0:0:0:
148,29,28896,5,2,0:0:0:0:
245,271,29045,1,2,0:0:0:0:
43,151,29195,1,2,0:3:0:0:
77,126,29269,1,2,0:3:0:0:
119,119,29344,1,2,0:3:0:0:
161,123,29419,1,2,0:3:0:0:
196,145,29493,1,2,0:3:0:0:
63,288,29642,5,2,0:0:0:0:
226,70,29792,1,10,0:0:0:0:
256,360,29941,1,10,0:0:0:0:
130,204,30090,1,4,0:0:0:0:
256,360,30389,6,0,P|263:280|275:204,1,152,2|0,0:0|0:0,0:0:0:0:
382,120,30836,1,2,0:0:0:0:
382,120,30911,1,0,0:0:0:0:
382,120,30986,2,0,P|336:126|305:133,1,76,0|0,0:0|0:0,0:0:0:0:
161,199,31284,5,2,0:0:0:0:
160,191,31359,1,0,0:0:0:0:
159,183,31433,1,0,0:0:0:0:
159,175,31508,1,0,0:0:0:0:
159,167,31583,1,0,0:0:0:0:
301,0,31732,5,2,0:0:0:0:
300,8,31806,1,0,0:0:0:0:
298,18,31881,2,0,L|292:67,2,38,0|0|0,0:0|0:0|0:0,0:0:0:0:
78,121,32180,6,0,P|142:71|225:103,1,156.750004783631,2|0,0:0|0:0,0:0:0:0:
262,174,32478,5,2,0:0:0:0:
264,181,32553,1,0,0:0:0:0:
266,188,32628,1,0,0:0:0:0:
268,195,32702,1,0,0:0:0:0:
270,202,32777,1,0,0:0:0:0:
148,346,32926,5,0,0:0:0:0:
140,348,33001,1,0,0:0:0:0:
133,350,33075,2,0,L|128:289,1,38,0|0,0:0|0:0,0:0:0:0:
51,252,33225,2,0,L|54:214,1,38,0|0,0:0|0:0,0:0:0:0:
66,104,33374,5,2,0:0:0:0:
71,109,33448,1,0,0:0:0:0:
75,115,33523,1,0,0:0:0:0:
78,121,33598,1,0,0:0:0:0:
79,128,33672,1,0,0:0:0:0:
51,252,33822,1,0,0:0:0:0:
51,252,33896,1,0,0:0:0:0:
51,252,33971,2,0,L|109:248,1,38,2|0,0:0|0:0,0:0:0:0:
221,176,34120,6,0,L|279:180,1,38
337,86,34269,2,0,L|395:82,4,38,0|0|2|0|0,0:0|0:0|0:0|0:0|0:0,0:0:0:0:
153,35,34717,1,0,0:0:0:0:
153,35,34792,1,0,0:0:0:0:
153,35,34866,6,0,L|148:118,1,76,2|0,0:0|0:0,0:0:0:0:
252,209,35165,1,0,0:0:0:0:
256,202,35239,1,0,0:0:0:0:
258,194,35314,1,0,0:0:0:0:
259,186,35389,1,0,0:0:0:0:
258,178,35463,1,0,0:0:0:0:
124,319,35613,2,0,L|189:316,1,38,0|0,0:0|0:0,0:0:0:0:
232,372,35762,6,0,B|262:364|291:327|291:327|321:355|375:358,1,152,2|0,0:0|0:0,0:0:0:0:
377,230,36210,1,0,0:0:0:0:
371,234,36284,1,0,0:0:0:0:
368,241,36359,1,2,0:0:0:0:
366,248,36433,1,0,0:0:0:0:
365,255,36508,1,0,0:0:0:0:
463,356,36657,6,0,L|459:300,1,38,0|0,0:0|0:0,0:0:0:0:
242,255,36807,1,0,0:0:0:0:
249,246,36881,2,0,L|253:190,1,38,0|2,0:0|0:0,0:0:0:0:
372,109,37105,1,2,0:0:0:0:
181,178,37254,5,2,0:0:0:0:
50,225,37404,1,0,0:0:0:0:
50,225,37478,1,0,0:0:0:0:
50,225,37553,1,0,0:0:0:0:
195,83,37702,5,2,0:0:0:0:
201,86,37777,1,0,0:0:0:0:
208,87,37851,1,0,0:0:0:0:
215,87,37926,1,0,0:0:0:0:
222,86,38001,1,0,0:0:0:0:
62,45,38150,2,0,L|65:98,3,38,2|0|0|0,0:0|0:0|0:0|0:0,0:0:0:0:
107,165,38448,6,0,L|106:183,8,19,0|0|0|0|0|0|0|0|0,0:0|0:0|0:0|0:0|0:0|0:0|0:0|0:0|0:0,0:0:0:0:
167,268,38896,2,0,L|167:286,6,19,0|0|0|0|0|0|0,0:0|0:0|0:0|0:0|0:0|0:0|0:0,0:0:0:0:
77,355,39195,2,0,L|37:351,2,38
39,351,39642,6,0,L|245:367,1,190,6|8,0:0|0:0,0:0:0:0:
355,181,40090,1,2,0:0:0:0:
455,338,40239,2,0,P|401:351|356:364,1,95,0|2,0:0|0:0,0:0:0:0:
206,155,40538,1,8,0:0:0:0:
352,273,40687,1,0,0:0:0:0:
228,366,40836,6,0,L|115:359,1,95,2|0,0:0|0:0,0:0:0:0:
276,223,41135,1,8,0:0:0:0:
86,230,41284,2,0,L|275:222,1,190,2|2,0:0|0:0,0:0:0:0:
369,77,41732,2,0,P|308:66|286:137,1,142.5,8|0,0:0|0:0,0:0:0:0:
361,180,42031,6,0,P|416:173|459:171,1,95,2|0,0:0|0:0,0:0:0:0:
356,270,42329,1,8,0:0:0:0:
283,130,42478,2,0,P|207:144|152:96,1,142.5,2|0,0:0|0:0,0:0:0:0:
153,77,42777,1,2,0:0:0:0:
359,86,42926,2,0,B|369:132|369:132|359:186,1,95,8|0,0:0|0:0,0:0:0:0:
283,38,43225,5,2,0:0:0:0:
456,102,43374,1,0,0:0:0:0:
275,221,43523,2,0,P|203:216|143:214,1,95,8|2,0:0|0:0,0:0:0:0:
348,301,43822,1,8,3:0:0:0:
348,310,43896,1,8,3:0:0:0:
348,319,43971,1,8,3:0:0:0:
349,328,44045,1,8,3:0:0:0:
350,337,44120,5,2,3:0:0:0:
387,307,44195,1,2,3:0:0:0:
403,262,44269,1,2,3:0:0:0:
393,215,44344,1,2,3:0:0:0:
361,179,44419,5,6,0:0:0:0:
257,324,44568,1,0,0:0:0:0:
479,220,44717,1,8,0:0:0:0:
274,130,44866,2,0,P|198:138|106:142,1,142.5,2|0,0:0|0:0,0:0:0:0:
99,141,45165,1,2,0:0:0:0:
325,31,45314,2,0,P|375:37|419:41,1,95,8|0,0:0|0:0,0:0:0:0:
303,249,45613,5,2,0:0:0:0:
213,39,45762,1,0,0:0:0:0:
365,178,45911,2,0,P|421:185|484:183,1,95,8|2,0:0|0:0,0:0:0:0:
274,130,46210,1,0,0:0:0:0:
211,323,46359,2,0,P|163:323|116:330,1,95,2|8,0:0|0:0,0:0:0:0:
37,174,46657,1,0,0:0:0:0:
37,174,46732,1,0,0:0:0:0:
37,174,46807,6,0,L|41:100,1,47.5,8|0,0:0|0:0,0:0:0:0:
208,275,46956,1,0,0:0:0:0:
208,275,47031,1,0,0:0:0:0:
208,275,47106,6,0,L|212:349,1,47.5,8|0,0:0|0:0,0:0:0:0:
319,125,47254,1,0,0:0:0:0:
319,125,47329,1,0,0:0:0:0:
319,125,47404,6,0,L|323:51,1,47.5,8|0,0:0|0:0,0:0:0:0:
454,288,47553,2,0,L|456:335,1,47.5,0|0,0:0|0:0,0:0:0:0:
142,202,47702,1,8,0:0:0:0:
183,178,47777,1,0,0:0:0:0:
229,182,47851,1,0,0:0:0:0:
268,209,47926,1,0,0:0:0:0:
286,253,48001,5,8,0:0:0:0:
55,176,48200,1,8,0:0:0:0:
419,122,48399,1,0,0:0:0:0:
213,355,48598,5,2,0:0:0:0:
299,29,48896,1,2,0:0:0:0:
189,221,49195,6,0,P|92:213|-6:208,1,190,6|8,0:0|0:0,0:0:0:0:
196,96,49642,1,0,0:0:0:0:
290,286,49792,2,0,P|343:280|402:277,1,95,2|0,0:0|0:0,0:0:0:0:
406,36,50090,1,8,0:0:0:0:
321,190,50239,1,0,0:0:0:0:
466,320,50389,6,0,B|477:273|477:273|460:203,1,95,2|0,0:0|0:0,0:0:0:0:
329,84,50687,2,0,B|364:117|364:117|433:137,1,95,8|0,0:0|0:0,0:0:0:0:
485,135,50911,1,0,0:0:0:0:
485,135,50986,1,2,0:0:0:0:
308,205,51135,1,0,0:0:0:0:
492,18,51284,2,0,L|488:136,1,95,8|0,0:0|0:0,0:0:0:0:
310,299,51583,6,0,P|303:251|313:186,1,95,2|0,0:0|0:0,0:0:0:0:
414,355,51881,1,8,0:0:0:0:
212,275,52031,1,0,0:0:0:0:
410,191,52180,2,0,P|458:195|516:195,1,95,2|0,0:0|0:0,0:0:0:0:
236,376,52478,2,0,P|188:372|130:372,1,95,8|0,0:0|0:0,0:0:0:0:
52,138,52777,5,2,0:0:0:0:
299,114,52926,1,0,0:0:0:0:
107,263,53075,1,8,0:0:0:0:
310,299,53225,1,0,0:0:0:0:
157,64,53374,5,2,0:3:0:0:
143,69,53448,1,2,0:3:0:0:
129,74,53523,2,0,L|133:132,1,47.5,2|2,0:3|0:3,0:0:0:0:
316,223,53672,2,0,L|312:281,1,47.5,8|8,0:3|0:3,0:0:0:0:
111,354,53822,1,8,0:3:0:0:
111,354,53896,1,8,0:3:0:0:
111,354,53971,6,0,B|97:306|97:306|110:246,1,95,6|0,0:0|0:0,0:0:0:0:
244,135,54269,1,8,0:0:0:0:
185,311,54419,1,0,0:0:0:0:
25,138,54568,2,0,L|131:147,1,95,2|0,0:0|0:0,0:0:0:0:
371,332,54866,2,0,P|318:351|260:342,1,95,8|0,0:0|0:0,0:0:0:0:
244,135,55165,6,0,P|329:115|386:176,1,142.5,2|0,0:0|0:0,0:0:0:0:
376,166,55463,1,8,0:0:0:0:
139,236,55613,1,0,0:0:0:0:
139,236,55687,1,0,0:0:0:0:
139,236,55762,2,0,P|133:170|142:100,1,95,2|0,0:0|0:0,0:0:0:0:
280,348,56060,1,8,0:0:0:0:
280,348,56359,6,0,B|227:351|227:351|192:334|192:334|125:340,1,142.5,8|0,0:0|0:0,0:0:0:0:
69,366,56657,5,8,0:0:0:0:
273,237,56807,1,0,0:0:0:0:
12,124,56956,5,8,0:0:0:0:
248,231,57105,1,0,0:0:0:0:
79,27,57254,1,8,0:0:0:0:
0,251,57404,1,0,0:0:0:0:
175,96,57553,5,8,0:0:0:0:
40,300,57702,1,0,0:0:0:0:
27,306,57777,1,0,0:0:0:0:
14,312,57851,2,0,L|18:257,1,47.5,8|0,0:0|0:0,0:0:0:0:
185,168,58001,2,0,L|181:120,1,47.5,0|0,0:0|0:0,0:0:0:0:
46,40,58150,5,8,0:0:0:0:
294,159,58299,1,0,0:0:0:0:
25,24,58448,5,8,0:0:0:0:
142,316,58598,1,0,0:0:0:0:
2,5,58747,5,10,0:0:0:0:
185,168,58896,2,0,L|295:159,1,95,10|0,0:0|0:0,0:0:0:0:
455,5,59195,5,2,0:0:0:0:
242,70,59344,1,10,0:0:0:0:
398,235,59493,2,0,P|403:188|391:104,1,95,10|0,0:0|0:0,0:0:0:0:
145,107,59792,6,0,L|153:249,1,142.5,2|0,0:0|0:0,0:0:0:0:
155,269,60090,1,10,0:0:0:0:
142,87,60239,1,10,0:0:0:0:
142,87,60538,6,0,P|50:43|3:82,1,142.5,2|0,0:0|0:0,0:0:0:0:
54,187,60836,2,0,L|166:180,1,95,2|0,0:0|0:0,0:0:0:0:
484,97,61135,6,0,B|464:91|431:93|431:93|399:79|399:79|368:83|307:72,1,142.5,6|0,0:0|0:0,0:0:0:0:
270,75,61433,1,8,0:0:0:0:
409,227,61583,2,0,P|457:222|508:219,1,95,2|0,0:0|0:0,0:0:0:0:
264,169,61881,1,2,0:0:0:0:
361,303,62031,1,8,0:0:0:0:
194,367,62180,1,0,0:0:0:0:
368,290,62329,6,0,L|366:384,1,95,2|0,0:0|0:0,0:0:0:0:
181,179,62628,1,8,0:0:0:0:
409,227,62777,2,0,P|405:177|404:92,1,95,2|0,0:0|0:0,0:0:0:0:
272,75,63075,1,2,0:0:0:0:
273,315,63225,2,0,P|202:268|127:285,1,142.5,8|0,0:0|0:0,0:0:0:0:
125,292,63523,6,0,L|23:293,1,95,2|0,0:0|0:0,0:0:0:0:
188,97,63822,1,8,0:0:0:0:
280,334,63971,2,0,P|364:328|409:328,1,95,2|0,0:0|0:0,0:0:0:0:
300,139,64269,1,2,0:0:0:0:
185,356,64419,1,8,0:0:0:0:
361,222,64568,2,0,L|426:228,2,47.5,0|0|2,0:0|0:0|0:0,0:0:0:0:
297,47,64866,5,8,0:0:0:0:
143,206,65016,2,0,B|95:218|95:218|19:212,1,95,8|8,0:0|0:0,0:0:0:0:
264,74,65314,5,2,0:3:0:0:
297,47,65389,1,2,0:3:0:0:
339,45,65463,1,2,0:3:0:0:
375,68,65538,1,2,0:3:0:0:
387,109,65613,1,8,0:3:0:0:
378,150,65687,1,8,0:3:0:0:
356,187,65762,1,8,0:3:0:0:
361,229,65836,1,8,0:3:0:0:
386,263,65911,6,0,P|434:257|486:254,1,95,6|0,0:0|0:0,0:0:0:0:
275,194,66210,1,8,0:0:0:0:
306,384,66359,2,0,P|311:336|302:272,1,95,2|0,0:0|0:0,0:0:0:0:
437,382,66657,1,2,0:0:0:0:
196,266,66807,2,0,P|148:272|96:275,1,95,8|0,0:0|0:0,0:0:0:0:
159,94,67105,5,2,0:0:0:0:
115,364,67254,1,0,0:0:0:0:
163,100,67404,1,8,0:0:0:0:
201,315,67553,5,2,0:0:0:0:
201,315,67628,1,0,0:0:0:0:
201,315,67702,1,0,0:0:0:0:
75,142,67852,1,2,0:0:0:0:
285,253,68001,2,0,P|334:246|387:243,1,95,8|0,0:0|0:0,0:0:0:0:
270,4,68299,6,0,L|258:115,1,95,10|0,0:0|0:0,0:0:0:0:
394,149,68598,5,10,0:0:0:0:
118,235,68747,1,0,0:0:0:0:
427,232,68896,5,10,0:0:0:0:
85,152,69045,1,0,0:0:0:0:
420,235,69195,5,10,0:0:0:0:
90,159,69344,1,0,0:0:0:0:
394,149,69493,5,2,0:3:0:0:
432,128,69568,1,2,0:3:0:0:
444,87,69642,1,2,0:3:0:0:
434,45,69717,1,2,0:3:0:0:
404,13,69792,1,2,0:3:0:0:
362,4,69866,1,2,0:3:0:0:
320,16,69941,1,2,0:3:0:0:
297,52,70016,1,2,0:3:0:0:
269,83,70090,5,8,0:3:0:0:
225,103,70165,1,8,0:3:0:0:
173,105,70239,1,8,0:3:0:0:
125,81,70314,1,8,0:3:0:0:
164,115,70389,1,8,0:0:0:0:
166,166,70463,1,8,0:0:0:0:
142,213,70538,1,8,0:0:0:0:
92,231,70613,1,8,0:0:0:0:
41,221,70687,6,0,P|16:148|64:93,1,142.5,6|0,0:0|0:0,0:0:0:0:
125,81,70986,1,8,0:0:0:0:
205,290,71135,2,0,L|200:389,1,95,2|0,0:0|0:0,0:0:0:0:
285,99,71433,1,2,0:0:0:0:
91,160,71583,1,8,0:0:0:0:
323,228,71732,1,0,0:0:0:0:
104,332,71881,6,0,P|42:325|-16:317,1,95,2|0,0:0|0:0,0:0:0:0:
177,151,72180,1,8,0:0:0:0:
297,357,72329,2,0,P|344:350|391:345,1,95,2|0,0:0|0:0,0:0:0:0:
453,227,72628,1,2,0:0:0:0:
202,296,72777,2,0,P|110:291|87:252,1,142.5,8|0,0:0|0:0,0:0:0:0:
87,254,73075,6,0,L|91:153,1,95,2|0,0:0|0:0,0:0:0:0:
303,37,73374,1,8,0:0:0:0:
309,310,73523,2,0,P|383:353|434:330,1,142.5,2|0,0:0|0:0,0:0:0:0:
510,277,73822,2,0,P|507:224|506:168,1,95,2|8,0:0|0:0,0:0:0:0:
506,182,74045,1,0,0:0:0:0:
506,182,74120,6,0,B|391:203|431:135|313:154,1,190,8|2,0:0|0:0,0:0:0:0:
210,348,74568,1,8,0:0:0:0:
360,245,74717,1,2,0:0:0:0:
240,124,74866,5,0,0:0:0:0:
206,151,74941,1,0,0:0:0:0:
163,155,75016,1,10,0:3:0:0:
122,141,75090,1,10,0:3:0:0:
96,106,75165,5,8,0:0:0:0:
147,114,75239,1,8,0:0:0:0:
179,155,75314,1,8,0:0:0:0:
178,207,75389,1,8,0:0:0:0:
138,240,75463,6,0,P|62:237|18:335,1,166.249994926453,6|0,0:0|0:0,0:0:0:0:
185,358,75911,2,0,P|188:329|175:286,1,47.5,2|0,0:0|0:0,0:0:0:0:
21,328,76060,6,0,B|103:317|72:369|179:356,1,142.500005435944,8|0,0:0|0:0,0:0:0:0:
374,240,76657,6,0,P|450:237|494:335,1,166.249994926453,2|0,0:0|0:0,0:0:0:0:
327,358,77105,2,0,P|324:329|337:286,1,47.5,2|0,0:0|0:0,0:0:0:0:
491,328,77254,6,0,B|409:317|440:369|333:356,1,142.500005435944,8|0,0:0|0:0,0:0:0:0:
355,357,77851,6,0,P|255:258|367:174,1,308.75,2|0,0:0|0:0,0:0:0:0:
372,178,78896,1,8,0:0:0:0:
372,178,79344,6,0,L|377:74,1,95,8|0,0:0|0:0,0:0:0:0:
471,151,79642,1,0,0:0:0:0:
291,74,79792,2,0,P|225:124|161:123,1,142.5,8|0,0:0|0:0,0:0:0:0:
84,107,80090,1,0,0:0:0:0:
84,107,80165,1,0,0:0:0:0:
84,107,80239,6,0,P|88:55|90:1,1,95,6|0,0:0|0:0,0:0:0:0:
238,207,80538,1,8,0:0:0:0:
70,188,80687,2,0,L|8:193,2,47.5,2|0|0,0:0|0:0|0:0,0:0:0:0:
207,47,80986,1,2,0:0:0:0:
156,300,81135,2,0,B|145:256|145:256|156:192,1,95,8|0,0:0|0:0,0:0:0:0:
306,71,81433,5,2,0:0:0:0:
70,188,81583,1,0,0:0:0:0:
305,265,81732,1,8,0:0:0:0:
128,127,81881,1,2,0:0:0:0:
95,346,82031,5,0,0:0:0:0:
323,178,82180,1,2,0:0:0:0:
99,350,82329,5,8,0:0:0:0:
325,184,82478,1,0,0:0:0:0:
70,188,82628,6,0,B|194:203|133:128|276:149,1,190,2|8,0:0|0:0,0:0:0:0:
447,116,83075,1,2,0:0:0:0:
447,116,83150,1,0,0:0:0:0:
447,116,83225,2,0,P|378:67|318:91,1,142.5,0|0,0:0|0:0,0:0:0:0:
321,89,83523,2,0,L|326:210,1,95,8|0,0:0|0:0,0:0:0:0:
451,348,83822,5,2,0:0:0:0:
229,238,83970,1,0,0:0:0:0:
433,129,84120,1,8,0:0:0:0:
324,296,84269,1,2,0:0:0:0:
144,209,84419,5,8,0:3:0:0:
101,206,84493,1,8,0:3:0:0:
62,224,84568,1,8,0:3:0:0:
45,263,84642,1,8,0:3:0:0:
55,304,84717,1,2,0:3:0:0:
87,331,84792,1,2,0:3:0:0:
129,335,84866,1,2,0:3:0:0:
169,321,84941,1,2,0:3:0:0:
211,325,85016,5,6,0:0:0:0:
250,127,85165,1,0,0:0:0:0:
215,329,85314,5,8,0:0:0:0:
254,131,85463,1,2,0:0:0:0:
67,354,85613,6,0,P|31:283|65:217,1,142.5,0|0,0:0|0:0,0:0:0:0:
62,224,85911,1,8,0:0:0:0:
251,36,86060,2,0,L|254:145,1,95,0|2,0:0|0:0,0:0:0:0:
120,90,86359,5,0,0:0:0:0:
350,156,86508,1,8,0:0:0:0:
120,90,86657,1,2,0:0:0:0:
338,62,86807,5,0,0:0:0:0:
174,205,86956,1,2,0:0:0:0:
429,99,87105,1,8,0:0:0:0:
172,14,87254,1,0,0:0:0:0:
172,14,87329,1,0,0:0:0:0:
172,14,87404,5,2,0:0:0:0:
350,156,87553,1,0,0:0:0:0:
145,300,87702,1,8,0:0:0:0:
265,122,87851,1,2,0:0:0:0:
437,257,88001,6,0,P|473:186|439:120,1,142.5,0|0,0:0|0:0,0:0:0:0:
442,127,88299,1,8,0:0:0:0:
268,297,88448,1,0,0:0:0:0:
244,87,88598,5,10,0:0:0:0:
356,344,88747,1,10,0:0:0:0:
364,340,88822,1,0,0:0:0:0:
372,336,88896,2,0,L|375:268,1,47.5,10|0,0:0|0:0,0:0:0:0:
139,209,89045,2,0,L|136:141,1,47.5,10|0,0:0|0:0,0:0:0:0:
296,18,89195,5,2,0:0:0:0:
268,297,89344,1,8,0:0:0:0:
299,24,89493,5,8,0:0:0:0:
270,302,89642,1,8,0:0:0:0:
94,254,98150,6,0,P|87:165|77:102,2,142.5,8|8|0,0:0|0:0|0:0,0:0:0:0:
94,254,98672,1,0,0:0:0:0:
94,254,98747,2,0,B|202:230|164:308|289:279,1,190,8|0,0:0|0:0,0:0:0:0:
316,270,99120,1,0,0:0:0:0:
341,235,99195,1,0,0:0:0:0:
334,193,99269,1,0,0:0:0:0:
304,161,99344,6,0,L|235:165,3,47.5
232,87,99642,2,0,L|163:91,3,47.5,0|0|0|0,0:0|0:0|0:0|0:0,0:0:0:0:
114,53,99941,5,8,0:3:0:0:
74,36,100016,1,8,0:3:0:0:
32,43,100090,1,8,0:3:0:0:
9,79,100165,1,8,0:3:0:0:
13,121,100239,1,2,0:3:0:0:
45,148,100314,1,2,0:3:0:0:
69,183,100389,1,2,0:3:0:0:
67,225,100463,1,2,0:3:0:0:
42,260,100538,6,0,P|128:257|223:259,1,152,12|8,0:0|0:0,0:0:0:0:
308,210,100986,2,0,L|302:303,1,76,0|0,0:0|0:0,0:0:0:0:
245,131,101284,1,8,0:0:0:0:
145,166,101433,2,0,L|140:90,1,76,0|0,0:0|0:0,0:0:0:0:
226,25,101732,5,8,0:0:0:0:
39,8,101881,2,0,P|37:45|40:83,1,76,0|0,0:0|0:0,0:0:0:0:
245,131,102180,5,8,0:0:0:0:
118,263,102329,2,0,L|216:256,1,76,0|0,0:0|0:0,0:0:0:0:
365,311,102628,2,0,P|428:303|379:252,1,156.750004783631,2|0,0:0|0:0,0:0:0:0:
365,311,102926,6,0,B|325:298|289:311|289:311|277:348|226:361,1,152,8|0,0:0|0:0,0:0:0:0:
188,181,103374,2,0,L|194:274,1,76,8|0,0:0|0:0,0:0:0:0:
28,308,103672,1,0,0:0:0:0:
113,338,103822,2,0,L|117:262,1,76,8|0,0:0|0:0,0:0:0:0:
62,73,104120,5,8,0:0:0:0:
32,170,104269,1,0,0:0:0:0:
172,78,104419,2,0,P|214:66|255:61,1,76,0|8,0:0|0:0,0:0:0:0:
55,64,104717,5,0,0:0:0:0:
157,194,104866,1,0,0:0:0:0:
254,62,105016,2,0,P|326:64|318:160,1,156.750004783631,2|0,0:0|0:0,0:0:0:0:
319,210,105314,5,8,0:0:0:0:
439,191,105463,1,0,0:0:0:0:
319,210,105613,5,8,0:0:0:0:
439,191,105762,1,0,0:0:0:0:
241,177,105911,5,8,0:0:0:0:
273,362,106060,1,0,0:0:0:0:
107,244,106210,5,8,0:0:0:0:
319,210,106359,1,0,0:0:0:0:
63,122,106508,5,8,0:0:0:0:
325,123,106657,1,0,0:0:0:0:
182,32,106807,5,8,0:0:0:0:
107,244,106956,2,0,P|46:237|4:235,1,95,0|8,0:0|0:0,0:0:0:0:
226,115,107254,1,0,0:0:0:0:
331,307,107404,2,0,P|424:336|471:295,1,142.5,10|0,0:0|0:0,0:0:0:0:
456,315,107702,6,0,L|452:259,1,47.5,8|8,0:3|0:3,0:0:0:0:
396,177,107851,2,0,L|400:120,1,47.5,8|8,0:3|0:3,0:0:0:0:
314,362,108001,6,0,L|309:305,1,47.5,8|8,0:3|0:3,0:0:0:0:
245,157,108150,2,0,L|249:100,1,47.5,8|8,0:3|0:3,0:0:0:0:
205,315,108299,5,2,0:3:0:0:
164,348,108374,1,2,0:3:0:0:
112,351,108448,1,2,0:3:0:0:
65,325,108523,1,2,0:3:0:0:
51,274,108598,1,8,0:0:0:0:
71,226,108672,1,8,0:0:0:0:
120,207,108747,1,8,0:0:0:0:
170,221,108822,1,8,0:0:0:0:
198,264,108896,5,10,0:0:0:0:
55,130,109045,2,0,P|59:84|64:7,1,95,10|0,0:0|0:0,0:0:0:0:
319,33,109344,5,2,0:0:0:0:
120,207,109493,1,10,0:0:0:0:
366,129,109642,2,0,P|415:136|475:140,1,95,10|0,0:0|0:0,0:0:0:0:
268,204,109941,6,0,P|177:173|135:192,1,142.5,2|0,0:0|0:0,0:0:0:0:
120,207,110239,1,10,0:0:0:0:
412,313,110389,1,10,0:0:0:0:
412,313,110687,6,0,P|406:235|402:168,1,142.5,2|0,0:0|0:0,0:0:0:0:
422,132,110986,1,2,0:0:0:0:
382,148,111060,1,0,0:0:0:0:
339,142,111135,1,0,0:0:0:0:
309,111,111210,1,0,0:0:0:0:
305,68,111284,6,0,P|350:13|437:36,1,142.5,6|0,0:0|0:0,0:0:0:0:
430,24,111583,1,8,0:0:0:0:
328,217,111732,2,0,P|261:219|168:232,1,142.5,2|0,0:0|0:0,0:0:0:0:
166,236,112031,2,0,P|172:179|162:126,1,95,2|8,0:0|0:0,0:0:0:0:
16,273,112329,1,0,0:0:0:0:
4,81,112478,6,0,B|108:88,1,95,2|0,0:0|0:0,0:0:0:0:
230,18,112777,1,8,0:0:0:0:
62,185,112926,1,2,0:0:0:0:
102,8,113075,5,0,0:0:0:0:
186,228,113225,1,2,0:0:0:0:
373,88,113374,2,0,P|426:81|486:95,1,95,8|0,0:0|0:0,0:0:0:0:
323,331,113672,6,0,L|316:164,1,142.5,2|0,0:0|0:0,0:0:0:0:
316,170,113971,1,8,0:0:0:0:
63,300,114120,2,0,P|143:297|194:344,1,142.5,2|0,0:0|0:0,0:0:0:0:
195,353,114419,2,0,L|185:233,1,95,2|8,0:0|0:0,0:0:0:0:
98,87,114717,2,0,L|28:97,2,47.5,0|0|2,0:0|0:0|0:0,0:0:0:0:
288,71,115016,5,8,0:0:0:0:
103,187,115165,2,0,B|57:199|57:199|-16:187,1,95,8|10,0:0|0:0,0:0:0:0:
288,71,115463,5,2,0:3:0:0:
325,50,115538,1,2,0:3:0:0:
367,55,115613,1,2,0:3:0:0:
396,85,115687,1,2,0:3:0:0:
397,127,115762,1,8,0:3:0:0:
382,166,115836,1,8,0:3:0:0:
342,183,115911,1,8,0:3:0:0:
300,172,115986,1,8,0:3:0:0:
266,146,116060,6,0,B|388:133|331:189|483:169,1,190,6|8,0:0|0:0,0:0:0:0:
207,237,116508,1,2,0:0:0:0:
321,342,116657,2,0,P|319:282|318:210,1,95,0|2,0:0|0:0,0:0:0:0:
151,49,116956,2,0,P|143:97|152:145,1,95,8|0,0:0|0:0,0:0:0:0:
207,237,117254,5,2,0:0:0:0:
17,159,117404,1,0,0:0:0:0:
210,242,117553,1,8,0:0:0:0:
57,56,117702,5,2,0:0:0:0:
57,56,117777,1,0,0:0:0:0:
57,56,117851,1,0,0:0:0:0:
97,318,118001,1,2,0:0:0:0:
245,150,118150,2,0,P|178:145|113:137,1,95,8|0,0:0|0:0,0:0:0:0:
331,35,118448,6,0,L|339:135,1,95,10|0,0:0|0:0,0:0:0:0:
459,99,118747,5,10,0:0:0:0:
181,206,118896,1,0,0:0:0:0:
407,306,119045,5,10,0:0:0:0:
106,172,119195,1,0,0:0:0:0:
313,40,119344,5,10,0:0:0:0:
238,346,119493,1,0,0:0:0:0:
132,90,119642,5,10,0:0:0:0:
89,87,119716,1,0,0:0:0:0:
51,105,119791,1,10,0:0:0:0:
26,139,119865,1,0,0:0:0:0:
21,181,119940,1,10,0:0:0:0:
36,220,120015,1,0,0:0:0:0:
69,247,120089,1,10,0:0:0:0:
111,255,120164,1,0,0:0:0:0:
157,244,120239,5,2,0:3:0:0:
209,241,120314,1,2,0:3:0:0:
258,259,120389,1,2,0:3:0:0:
288,301,120463,1,2,0:3:0:0:
293,353,120538,5,8,0:3:0:0:
315,305,120613,1,8,0:3:0:0:
364,289,120687,1,8,0:3:0:0:
416,292,120762,1,8,0:3:0:0:
460,319,120836,6,0,L|468:154,1,142.5,6|0,0:0|0:0,0:0:0:0:
471,98,121135,1,8,0:0:0:0:
280,206,121284,2,0,P|285:260|288:305,1,95,2|0,0:0|0:0,0:0:0:0:
195,88,121583,1,2,0:0:0:0:
374,202,121733,1,8,0:0:0:0:
207,324,121881,1,0,0:0:0:0:
296,103,122031,6,0,P|344:110|403:109,1,95,2|0,0:0|0:0,0:0:0:0:
254,3,122329,1,8,0:0:0:0:
191,193,122478,1,2,0:0:0:0:
191,193,122553,1,0,0:0:0:0:
191,193,122628,2,0,P|105:163|51:187,1,142.5,0|0,0:0|0:0,0:0:0:0:
48,196,122926,2,0,L|57:300,1,95,8|0,0:0|0:0,0:0:0:0:
280,206,123225,5,2,0:0:0:0:
106,360,123374,1,0,0:0:0:0:
340,292,123523,1,8,0:0:0:0:
191,193,123672,2,0,L|31:197,1,142.5,2|0,0:0|0:0,0:0:0:0:
48,196,123971,2,0,P|58:134|39:89,1,95,2|8,0:0|0:0,0:0:0:0:
48,104,124195,1,0,0:0:0:0:
48,104,124269,6,0,B|173:111|100:44|259:53,1,190,8|2,0:0|0:0,0:0:0:0:
329,271,124717,1,8,0:0:0:0:
200,153,124866,1,2,0:0:0:0:
348,57,125016,5,0,0:0:0:0:
348,57,125090,1,0,0:0:0:0:
348,57,125165,2,0,L|412:61,1,47.5,2|0,0:0|0:0,0:0:0:0:
430,269,125314,1,8,0:3:0:0:
379,286,125389,1,8,0:3:0:0:
329,271,125463,1,8,0:3:0:0:
306,223,125538,1,8,0:3:0:0:
322,173,125613,6,0,B|421:189|388:142|499:162,1,166.249994926453,6|0,0:0|0:0,0:0:0:0:
355,93,126060,2,0,P|352:67|353:33,1,47.5,2|0,0:0|0:0,0:0:0:0:
485,159,126210,6,0,P|430:200|430:271,1,142.500005435944,8|0,0:0|0:0,0:0:0:0:
190,173,126807,6,0,B|91:189|124:142|13:162,1,166.249994926453,2|0,0:0|0:0,0:0:0:0:
157,93,127254,2,0,P|160:67|159:33,1,47.5,2|0,0:0|0:0,0:0:0:0:
26,159,127404,6,0,P|82:200|82:271,1,142.500005435944,8|0,0:0|0:0,0:0:0:0:
83,268,128001,6,0,B|272:251|179:327|392:311,1,308.75,2|0,0:0|0:0,0:0:0:0:
408,307,129045,1,8,0:0:0:0:
408,307,129493,6,0,P|412:251|419:197,1,95,8|0,0:0|0:0,0:0:0:0:
227,161,129792,1,0,0:0:0:0:
371,79,129941,2,0,P|461:105|445:165,1,142.5,8|0,0:0|0:0,0:0:0:0:
416,212,130239,1,0,0:0:0:0:
416,212,130314,1,0,0:0:0:0:
416,212,130389,6,0,B|294:205|354:267|223:260,1,190,6|8,0:0|0:0,0:0:0:0:
127,116,130836,1,2,0:0:0:0:
127,116,130911,1,0,0:0:0:0:
127,116,130986,2,0,B|114:165|114:165|126:224,1,95,0|2,0:0|0:0,0:0:0:0:
371,79,131284,2,0,L|259:84,1,95,8|0,0:0|0:0,0:0:0:0:
49,39,131583,5,2,0:0:0:0:
81,279,131732,1,0,0:0:0:0:
54,42,131881,5,8,0:0:0:0:
85,284,132031,1,2,0:0:0:0:
170,120,132180,5,0,0:0:0:0:
158,346,132329,1,2,0:0:0:0:
276,83,132478,5,8,0:0:0:0:
307,329,132628,2,0,L|300:269,1,47.5,0|0,0:0|0:0,0:0:0:0:
433,176,132777,6,0,B|361:176|361:176|321:203|321:203|237:199,1,190,2|8,0:0|0:0,0:0:0:0:
139,19,133225,1,2,0:0:0:0:
139,19,133299,1,0,0:0:0:0:
139,19,133374,2,0,P|149:69|146:128,1,95,0|2,0:0|0:0,0:0:0:0:
59,242,133672,1,8,0:0:0:0:
222,130,133822,1,0,0:0:0:0:
20,62,133971,5,2,0:0:0:0:
157,253,134120,1,0,0:0:0:0:
199,51,134269,1,8,0:0:0:0:
94,323,134419,1,2,0:0:0:0:
301,215,134568,5,8,0:3:0:0:
338,194,134642,1,8,0:3:0:0:
380,196,134717,1,8,0:3:0:0:
413,222,134792,1,8,0:3:0:0:
426,262,134866,1,2,0:3:0:0:
417,304,134941,1,2,0:3:0:0:
388,336,135016,1,2,0:3:0:0:
347,347,135090,1,2,0:3:0:0:
305,334,135165,5,6,0:0:0:0:
279,105,135314,1,0,0:0:0:0:
311,339,135463,5,8,0:0:0:0:
283,109,135613,1,2,0:0:0:0:
206,328,135762,6,0,P|123:341|72:300,1,142.5,0|0,0:0|0:0,0:0:0:0:
75,296,136060,1,8,0:0:0:0:
188,102,136210,2,0,L|284:109,1,95,0|2,0:0|0:0,0:0:0:0:
163,208,136508,5,0,0:0:0:0:
381,123,136657,1,8,0:0:0:0:
124,22,136807,1,2,0:0:0:0:
274,260,136956,5,0,0:0:0:0:
303,24,137105,1,2,0:0:0:0:
279,266,137254,1,8,0:0:0:0:
168,106,137404,1,0,0:0:0:0:
168,106,137478,1,0,0:0:0:0:
168,106,137553,5,2,0:0:0:0:
412,63,137702,1,0,0:0:0:0:
169,231,137851,1,8,0:0:0:0:
401,296,138001,1,2,0:0:0:0:
290,167,138150,6,0,P|358:160|474:150,1,142.5,0|0,0:0|0:0,0:0:0:0:
456,153,138449,1,8,0:0:0:0:
178,338,138598,1,0,0:0:0:0:
261,82,138747,5,10,0:0:0:0:
380,351,138896,1,10,0:0:0:0:
388,347,138971,1,0,0:0:0:0:
396,343,139045,2,0,L|402:273,1,47.5,2|2,0:3|0:3,0:0:0:0:
131,214,139195,2,0,L|125:144,1,47.5,2|2,0:3|0:3,0:0:0:0:
241,49,139344,5,2,0:3:0:0:
271,332,139493,1,2,0:0:0:0:
241,49,139642,5,2,0:0:0:0:
271,332,139792,1,10,0:0:0:0:
252,192,139941,5,4,0:0:0:0:
99,273,148299,6,0,L|93:205,3,47.5,8|8|8|8,0:3|0:3|0:3|0:3,0:0:0:0:
138,151,148598,2,0,L|132:83,3,47.5,8|8|0|8,0:3|0:3|0:0|0:3,0:0:0:0:
77,44,148896,5,2,0:3:0:0:
118,66,148971,1,2,0:3:0:0:
165,67,149045,1,2,0:3:0:0:
209,50,149120,1,2,0:3:0:0:
256,44,149195,1,8,0:0:0:0:
299,61,149269,1,8,0:0:0:0:
325,100,149344,1,8,0:0:0:0:
318,147,149419,1,8,0:0:0:0:
285,180,149493,5,6,0:0:0:0:
272,344,149642,2,0,P|323:337|392:331,1,95,0|8,0:0|0:0,0:0:0:0:
138,151,149941,6,2,P|64:157|0:157,1,113.999996520996,2|0,0:0|0:0,0:1:0:0:
374,233,150239,2,2,P|448:227|512:227,1,113.999996520996,2|8,0:0|0:0,0:1:0:0:
256,192,150538,1,0,0:0:0:0:
377,341,150687,5,2,0:0:0:0:
331,129,150836,1,0,0:0:0:0:
157,258,150986,2,0,P|107:271|55:264,1,95,8|2,0:0|0:0,0:0:0:0:
225,91,151284,5,0,0:0:0:0:
245,343,151433,1,2,0:0:0:0:
225,91,151583,5,8,0:0:0:0:
245,343,151732,1,0,0:0:0:0:
370,127,151881,5,2,0:0:0:0:
137,108,152031,2,0,B|124:62|124:62|139:8,1,95,0|8,0:0|0:0,0:0:0:0:
142,257,152329,6,2,P|84:262|28:273,1,113.999996520996,2|0,0:0|0:0,0:1:0:0:
370,127,152628,2,2,P|428:122|484:111,1,113.999996520996,2|8,0:0|0:0,0:1:0:0:
256,192,152926,1,0,0:0:0:0:
428,295,153075,5,2,0:0:0:0:
260,69,153225,1,0,0:0:0:0:
59,264,153374,2,0,P|52:205|36:141,1,95,8|0,0:0|0:0,0:0:0:0:
136,16,153672,6,0,L|132:67,2,47.5,2|2|2,0:0|0:0|0:0,0:0:0:0:
137,16,154269,5,6,0:0:0:0:
370,149,154419,2,0,P|365:99|363:28,1,95,0|8,0:0|0:0,0:0:0:0:
142,235,154717,6,2,P|148:291|150:365,1,113.999996520996,2|0,0:0|0:0,0:1:0:0:
370,149,155016,2,2,P|364:93|362:19,1,113.999996520996,2|8,0:0|0:0,0:1:0:0:
256,192,155314,1,0,0:0:0:0:
428,273,155463,5,2,0:0:0:0:
285,111,155613,1,0,0:0:0:0:
114,240,155762,2,0,P|59:237|17:193,1,95,8|2,0:0|0:0,0:0:0:0:
225,44,156060,5,0,0:0:0:0:
277,287,156210,1,2,0:0:0:0:
225,44,156359,5,8,0:0:0:0:
277,287,156508,1,0,0:0:0:0:
128,118,156657,6,0,L|21:109,1,95,2|0,0:0|0:0,0:0:0:0:
225,44,156956,1,8,0:0:0:0:
248,256,157105,2,0,P|241:192|252:147,1,95,2|0,0:0|0:0,0:0:0:0:
360,308,157404,1,2,0:0:0:0:
136,226,157553,2,0,L|127:333,1,95,8|0,0:0|0:0,0:0:0:0:
360,308,157851,6,0,L|366:255,3,47.5,8|8|8|8,0:3|0:3|0:3|0:3,0:0:0:0:
439,194,158150,2,0,L|433:146,3,47.5,8|8|8|8,0:3|0:3|0:3|0:3,0:0:0:0:
482,71,158448,5,2,0:3:0:0:
440,48,158523,1,2,0:3:0:0:
392,50,158598,1,2,0:3:0:0:
358,82,158672,1,2,0:3:0:0:
350,129,158747,1,8,0:0:0:0:
313,159,158822,1,8,0:0:0:0:
267,171,158896,1,8,0:0:0:0:
223,152,158971,1,8,0:0:0:0:
194,114,159045,5,6,0:0:0:0:
360,308,159195,2,0,P|363:259|370:191,1,95,0|8,0:0|0:0,0:0:0:0:
144,170,159493,6,2,P|84:177|7:178,1,113.999996520996,2|0,0:0|0:0,0:1:0:0:
367,213,159792,2,2,P|428:207|505:206,1,113.999996520996,2|8,0:0|0:0,0:1:0:0:
256,192,160090,1,0,0:0:0:0:
456,301,160239,5,2,0:0:0:0:
325,109,160389,1,0,0:0:0:0:
199,298,160538,2,0,P|142:284|79:281,1,95,8|2,0:0|0:0,0:0:0:0:
266,18,160836,5,0,0:0:0:0:
298,275,160986,1,2,0:0:0:0:
266,18,161135,5,8,0:0:0:0:
298,275,161284,1,0,0:0:0:0:
371,17,161433,5,2,0:0:0:0:
140,157,161583,2,0,B|128:110|128:110|144:48,1,95,0|8,0:0|0:0,0:0:0:0:
372,227,161881,6,2,P|445:231|488:237,1,113.999996520996,2|0,0:0|0:0,0:1:0:0:
140,157,162180,2,2,P|67:153|24:147,1,113.999996520996,2|8,0:0|0:0,0:1:0:0:
256,192,162478,1,0,0:0:0:0:
347,108,162628,5,2,0:0:0:0:
177,267,162777,1,0,0:0:0:0:
104,47,162926,2,0,P|55:25|8:26,1,95,8|2,0:0|0:0,0:0:0:0:
223,73,163225,5,0,0:0:0:0:
258,321,163374,1,2,0:0:0:0:
223,73,163523,5,8,0:0:0:0:
258,321,163672,1,0,0:0:0:0:
347,108,163822,5,2,0:3:0:0:
383,86,163896,1,2,0:3:0:0:
425,85,163971,1,2,0:3:0:0:
464,102,164045,1,2,0:3:0:0:
491,134,164120,1,2,0:3:0:0:
415,308,164269,5,8,0:3:0:0:
410,310,164344,1,8,0:3:0:0:
405,312,164419,2,0,L|409:262,1,47.5,8|8,0:3|0:3,0:0:0:0:
260,149,164567,5,0,0:0:0:0:
265,147,164642,1,0,0:0:0:0:
270,145,164717,2,0,L|266:195,1,47.5,0|0,0:0|0:0,0:0:0:0:
134,312,164866,5,0,0:0:0:0:
129,314,164941,1,0,0:0:0:0:
124,316,165016,2,0,L|128:266,1,47.5,10|0,0:0|0:0,0:0:0:0:
144,81,165165,2,0,L|140:128,1,47.5,10|0,0:0|0:0,0:0:0:0:
255,349,165314,6,0,L|259:299,1,47.5,10|0,0:0|0:0,0:0:0:0:
277,65,165463,2,0,L|273:112,1,47.5,10|0,0:0|0:0,0:0:0:0:
408,264,165613,5,10,0:0:0:0:
449,273,165687,1,2,0:0:0:0:
489,258,165762,1,2,0:0:0:0:
510,221,165836,1,0,0:0:0:0:
506,178,165911,1,2,0:0:0:0:
478,144,165986,1,2,0:0:0:0:
437,131,166060,1,2,0:0:0:0:
395,143,166135,1,2,0:0:0:0:
373,180,166210,5,8,0:0:0:0:
163,321,166359,2,0,P|160:269|154:211,1,95,10|0,0:0|0:0,0:0:0:0:
155,133,166657,5,10,0:0:0:0:
365,274,166807,1,10,0:0:0:0:
365,274,166956,2,0,P|368:222|374:164,1,95,10|0,0:0|0:0,0:0:0:0:
155,226,167254,6,0,P|54:237|21:147,1,190,10|2,0:0|0:0,0:0:0:0:
256,268,167702,1,10,0:0:0:0:
128,241,179344,6,0,L|132:204,4,38,2|0|0|0|2,0:0|0:0|0:0|0:0|0:0,0:0:0:0:
215,138,179792,2,0,L|211:101,2,38,2|0|0,0:0|0:0|0:0,0:0:0:0:
62,41,180090,2,0,L|58:78,2,38,2|0|0,0:0|0:0|0:0,0:0:0:0:
128,241,180389,1,2,0:0:0:0:
128,241,180463,1,0,0:0:0:0:
128,241,180538,6,0,L|182:237,4,38,0|0|0|0|0,0:0|0:0|0:0|0:0|0:0,0:0:0:0:
243,308,180986,2,0,L|297:312,1,38,0|0,0:0|0:0,0:0:0:0:
354,242,181135,2,0,L|350:182,2,38,2|0|0,0:0|0:0|0:0,0:0:0:0:
443,321,181433,2,0,L|440:358,2,38,2|0|0,0:0|0:0|0:0,0:0:0:0:
484,206,181732,5,2,0:0:0:0:
484,206,181807,1,0,0:0:0:0:
484,206,181881,2,0,L|482:155,1,38,0|0,0:0|0:0,0:0:0:0:
398,80,182031,2,0,L|400:29,1,38,2|0,0:0|0:0,0:0:0:0:
351,204,182180,2,0,L|300:202,2,38,2|0|0,0:0|0:0|0:0,0:0:0:0:
249,114,182478,2,0,L|198:116,2,38,2|0|0,0:0|0:0|0:0,0:0:0:0:
185,229,182777,1,2,0:0:0:0:
185,229,182851,1,0,0:0:0:0:
185,229,182926,6,0,L|132:222,3,38,0|0|0|0,0:0|0:0|0:0|0:0,0:0:0:0:
107,315,183225,2,0,L|44:306,3,42.7499986953736,0|0|0|0,0:0|0:0|0:0|0:0,0:0:0:0:
218,349,183523,5,0,0:0:0:0:
240,317,183598,1,0,0:0:0:0:
275,303,183672,1,0,0:0:0:0:
313,298,183747,1,0,0:0:0:0:
349,309,183822,1,0,0:0:0:0:
384,322,183896,1,0,0:0:0:0:
422,324,183971,1,0,0:0:0:0:
456,308,184045,1,0,0:0:0:0:
479,277,184120,5,8,0:3:0:0:
486,234,184195,1,8,0:3:0:0:
466,191,184269,1,8,0:3:0:0:
424,169,184344,1,8,0:3:0:0:
376,172,184419,1,8,0:3:0:0:
341,203,184493,1,8,0:3:0:0:
335,249,184568,1,8,0:3:0:0:
356,290,184642,1,8,0:3:0:0:
401,303,184717,6,0,L|407:243,1,42.7499986953736,2|2,0:3|0:3,0:0:0:0:
278,72,184866,2,0,L|282:114,1,42.7499986953736,2|2,0:3|0:3,0:0:0:0:
226,346,185016,6,0,L|232:286,1,42.7499986953736,2|2,0:3|0:3,0:0:0:0:
87,75,185165,2,0,L|91:117,1,42.7499986953736,2|2,0:3|0:3,0:0:0:0:
121,370,185314,5,8,0:3:0:0:
70,380,185389,1,8,0:3:0:0:
25,354,185463,1,8,0:3:0:0:
15,303,185538,1,8,0:3:0:0:
43,259,185613,1,8,0:3:0:0:
93,254,185687,1,8,0:3:0:0:
135,282,185762,1,8,0:3:0:0:
179,306,185836,1,8,0:3:0:0:
230,303,185911,6,0,L|294:293,1,42.7499986953736,2|2,0:3|0:3,0:0:0:0:
444,133,186060,2,0,L|401:139,1,42.7499986953736,2|2,0:3|0:3,0:0:0:0:
345,354,186210,6,0,P|360:329|364:282,1,42.7499986953736,2|2,0:3|0:3,0:0:0:0:
208,161,186359,2,0,P|222:186|260:213,1,42.7499986953736,2|2,0:3|0:3,0:0:0:0:
402,139,186508,5,2,0:0:0:0:
425,88,186583,1,2,0:0:0:0:
402,37,186657,1,2,0:0:0:0:
348,22,186732,1,2,0:0:0:0:
300,51,186807,1,2,0:0:0:0:
298,106,186881,1,2,0:0:0:0:
263,149,186956,1,2,0:0:0:0:
208,161,187031,1,2,0:0:0:0:
157,139,187105,5,10,0:0:0:0:
191,186,187179,1,10,0:0:0:0:
185,244,187254,1,10,0:0:0:0:
140,282,187328,1,10,0:0:0:0:
82,280,187403,1,10,0:0:0:0:
40,239,187478,1,10,0:0:0:0:
44,179,187553,1,10,0:0:0:0:
44,179,188896,5,6,0:0:0:0:
346,133,189045,1,0,0:0:0:0:
90,303,189195,1,8,0:0:0:0:
365,329,189344,1,0,0:0:0:0:
190,67,189493,5,2,0:0:0:0:
233,273,189642,1,2,0:0:0:0:
392,59,189792,1,8,0:0:0:0:
163,218,189941,1,0,0:0:0:0:
163,218,190016,1,0,0:0:0:0:
163,218,190090,5,6,0:0:0:0:
413,262,190239,1,0,0:0:0:0:
161,76,190389,1,8,0:0:0:0:
412,46,190538,1,0,0:0:0:0:
257,294,190687,5,2,0:0:0:0:
277,34,190836,1,2,0:0:0:0:
255,302,190986,1,8,0:0:0:0:
422,133,191135,1,0,0:0:0:0:
422,133,191210,1,0,0:0:0:0:
422,133,191284,5,6,0:0:0:0:
88,186,191433,1,0,0:0:0:0:
382,268,191583,1,8,0:0:0:0:
99,60,191732,5,4,0:0:0:0:
135,340,191881,1,2,0:0:0:0:
256,36,192031,5,6,0:0:0:0:
256,316,192180,1,8,0:0:0:0:
413,60,192329,1,4,0:0:0:0:
413,60,192404,1,0,0:0:0:0:
413,60,192479,5,2,0:0:0:0:
377,340,192628,1,8,0:0:0:0:
189,120,192777,5,8,0:0:0:0:
485,162,192926,1,8,0:0:0:0:
256,316,193075,5,4,0:0:0:0:
226,358,193149,1,8,0:3:0:0:
178,374,193224,1,8,0:3:0:0:
129,359,193298,1,8,0:3:0:0:
99,317,193373,1,4,0:0:0:0:
101,265,193448,1,2,0:3:0:0:
133,225,193522,1,2,0:3:0:0:
182,212,193597,1,2,0:3:0:0:
232,229,193672,5,6,0:0:0:0:
31,375,193822,1,0,0:0:0:0:
214,133,193971,1,8,0:0:0:0:
382,368,194120,1,0,0:0:0:0:
382,368,194195,1,0,0:0:0:0:
382,368,194269,5,2,0:0:0:0:
133,225,194419,1,2,0:0:0:0:
424,120,194568,1,8,0:0:0:0:
175,313,194717,1,0,0:0:0:0:
342,59,194866,5,6,0:0:0:0:
381,349,195016,1,0,0:0:0:0:
342,59,195165,5,8,0:0:0:0:
381,349,195314,1,0,0:0:0:0:
158,111,195463,5,2,0:0:0:0:
424,120,195613,1,2,0:0:0:0:
169,261,195762,1,8,0:0:0:0:
394,210,195911,1,0,0:0:0:0:
265,149,196060,2,0,L|260:261,1,95,14|0,0:0|0:0,0:0:0:0:
381,349,196359,5,10,0:0:0:0:
445,100,196508,1,2,0:0:0:0:
269,283,196657,5,12,0:0:0:0:
274,40,196807,1,2,0:0:0:0:
141,272,196956,5,10,0:0:0:0:
54,26,197105,1,6,0:0:0:0:
54,26,197180,1,0,0:0:0:0:
54,26,197254,6,0,L|124:33,1,47.5,8|0,0:0|0:0,0:0:0:0:
377,155,197404,2,0,L|307:162,1,47.5,12|0,0:0|0:0,0:0:0:0:
20,216,197553,6,0,L|90:223,1,47.5,8|0,0:0|0:0,0:0:0:0:
349,30,197702,2,0,L|279:37,1,47.5,8|0,0:0|0:0,0:0:0:0:
181,149,197851,5,8,0:3:0:0:
218,185,197926,1,8,0:3:0:0:
217,237,198001,1,8,0:3:0:0:
180,274,198075,1,8,0:3:0:0:
175,326,198150,1,10,0:3:0:0:
202,370,198225,1,10,0:3:0:0:
253,375,198299,1,10,0:3:0:0:
298,348,198374,1,10,0:3:0:0:
315,299,198448,6,0,L|327:152,1,142.5,6|0,0:0|0:0,0:0:0:0:
332,83,198747,1,8,0:0:0:0:
434,279,198896,1,2,0:0:0:0:
218,185,199045,1,0,0:0:0:0:
418,79,199195,2,0,P|467:87|520:93,1,95,2|8,0:0|0:0,0:0:0:0:
321,230,199493,1,0,0:0:0:0:
190,62,199642,6,0,P|100:46|53:89,1,142.5,2|0,0:0|0:0,0:0:0:0:
53,89,199941,1,8,0:0:0:0:
298,153,200090,1,2,0:0:0:0:
298,153,200165,1,0,0:0:0:0:
298,153,200239,2,0,P|302:97|298:41,1,95,0|2,0:0|0:0,0:0:0:0:
46,227,200538,1,8,0:0:0:0:
218,185,200687,1,0,0:0:0:0:
63,73,200836,5,2,0:0:0:0:
191,331,200986,1,0,0:0:0:0:
407,143,201135,1,8,0:0:0:0:
103,374,201284,6,0,L|115:246,1,95,4|0,0:0|0:0,0:0:0:0:
415,237,201583,2,0,L|403:109,1,95,4|0,0:0|0:0,0:0:0:0:
307,0,201807,1,0,0:0:0:0:
282,22,201881,6,0,B|281:88|338:103|338:103|370:57|422:70,1,190,8|0,0:0|0:0,0:0:0:0:
415,237,202329,1,8,0:0:0:0:
140,161,202478,1,8,0:0:0:0:
262,46,202628,5,2,0:0:0:0:
236,90,202702,1,2,0:0:0:0:
245,141,202777,1,2,0:0:0:0:
289,168,202851,1,0,0:0:0:0:
302,218,202926,1,2,0:0:0:0:
295,270,203001,1,2,0:0:0:0:
256,304,203075,1,2,0:0:0:0:
203,304,203150,1,2,0:0:0:0:
161,272,203225,6,0,P|88:247|16:322,1,166.249994926453,6|0,0:0|0:0,0:0:0:0:
162,364,203672,2,0,P|168:339|163:291,1,47.5,2|0,0:0|0:0,0:0:0:0:
23,156,203822,6,0,B|1:242|48:213|16:319,1,142.500005435944,8|0,0:0|0:0,0:0:0:0:
351,272,204419,6,0,P|424:247|496:322,1,166.249994926453,2|0,0:0|0:0,0:0:0:0:
350,364,204866,2,0,P|344:339|349:291,1,47.5,2|0,0:0|0:0,0:0:0:0:
489,156,205016,6,0,B|511:242|464:213|496:319,1,142.500005435944,8|0,0:0|0:0,0:0:0:0:
488,298,205613,6,0,P|402:346|342:186,1,308.75,2|0,0:0|0:0,0:0:0:0:
358,180,206657,1,8,0:0:0:0:
358,180,207105,6,0,L|350:66,1,95,8|0,0:0|0:0,0:0:0:0:
226,239,207404,1,0,0:0:0:0:
27,72,207553,2,0,B|121:61|77:111|200:90,1,142.5,8|0,0:0|0:0,0:0:0:0:
247,117,207851,1,2,0:0:0:0:
247,117,207926,1,2,0:0:0:0:
247,117,208001,6,0,P|246:57|134:16,1,190,4|8,0:0|0:0,0:0:0:0:
103,239,208448,1,2,0:0:0:0:
103,239,208523,1,0,0:0:0:0:
103,239,208598,2,0,L|203:232,1,95,0|2,0:0|0:0,0:0:0:0:
381,129,208896,1,8,0:0:0:0:
269,277,209045,1,0,0:0:0:0:
400,228,209195,5,2,0:0:0:0:
367,27,209344,1,0,0:0:0:0:
400,228,209493,5,8,0:0:0:0:
367,27,209642,1,2,0:0:0:0:
270,265,209792,5,0,0:0:0:0:
476,162,209941,1,2,0:0:0:0:
255,72,210090,2,0,P|158:90|136:149,1,142.5,8|0,0:0|0:0,0:0:0:0:
139,121,210389,6,0,L|158:236,1,95,2|0,0:0|0:0,0:0:0:0:
330,105,210687,1,8,0:0:0:0:
230,325,210836,1,2,0:0:0:0:
230,325,210911,1,0,0:0:0:0:
230,325,210986,2,0,P|137:315|86:361,1,142.5,0|0,0:0|0:0,0:0:0:0:
100,340,211284,2,0,P|94:282|78:211,1,95,8|0,0:0|0:0,0:0:0:0:
256,183,211583,5,2,0:0:0:0:
25,91,211732,1,0,0:0:0:0:
331,103,211881,1,8,0:0:0:0:
176,259,212031,1,2,0:0:0:0:
285,31,212180,5,2,0:3:0:0:
325,17,212254,1,2,0:3:0:0:
366,24,212329,1,2,0:3:0:0:
400,50,212403,1,2,0:3:0:0:
417,88,212478,1,8,0:3:0:0:
414,130,212553,1,8,0:3:0:0:
392,166,212627,1,8,0:3:0:0:
355,187,212702,1,8,0:3:0:0:
312,184,212777,5,6,0:0:0:0:
285,31,212926,1,0,0:0:0:0:
230,258,213075,1,8,0:0:0:0:
331,103,213224,1,2,0:0:0:0:
156,197,213374,6,0,P|79:212|27:168,1,142.5,0|0,0:0|0:0,0:0:0:0:
28,152,213672,1,8,0:0:0:0:
236,91,213822,2,0,L|345:104,1,95,0|2,0:0|0:0,0:0:0:0:
459,26,214120,5,0,0:0:0:0:
312,184,214269,1,8,0:0:0:0:
491,111,214419,1,2,0:0:0:0:
308,7,214568,5,0,0:0:0:0:
346,268,214717,1,2,0:0:0:0:
308,7,214866,1,8,0:0:0:0:
248,251,215016,5,0,0:0:0:0:
248,251,215090,1,0,0:0:0:0:
248,251,215165,1,2,0:0:0:0:
483,203,215314,1,0,0:0:0:0:
195,91,215463,1,8,0:0:0:0:
458,120,215613,1,2,0:0:0:0:
297,333,215762,6,0,L|122:320,1,142.5,0|0,0:0|0:0,0:0:0:0:
136,320,216060,1,8,0:0:0:0:
365,228,216210,1,0,0:0:0:0:
110,45,216359,5,8,0:3:0:0:
359,9,216508,1,8,0:3:0:0:
367,13,216583,1,8,0:3:0:0:
375,17,216657,2,0,L|367:87,1,47.5,8|8,0:3|0:3,0:0:0:0:
138,164,216807,2,0,L|143:211,1,47.5,8|8,0:3|0:3,0:0:0:0:
297,333,216956,5,2,0:3:0:0:
215,51,217105,1,2,0:3:0:0:
297,333,217254,5,10,0:0:0:0:
215,51,217403,1,10,0:0:0:0:
404,214,217553,5,6,0:0:0:0:
153,161,217702,1,0,0:0:0:0:
375,17,217851,1,8,0:0:0:0:
119,65,218001,1,2,0:0:0:0:
334,204,218150,6,0,B|418:195|393:241|508:224,1,142.5,0|0,0:0|0:0,0:0:0:0:
500,223,218448,1,8,0:0:0:0:
226,380,218598,2,0,B|209:334|209:334|225:270,1,95,0|2,0:0|0:0,0:0:0:0:
388,97,218896,5,0,0:0:0:0:
297,333,219045,1,8,0:0:0:0:
220,78,219195,1,2,0:0:0:0:
390,295,219344,5,0,0:0:0:0:
163,209,219493,1,2,0:0:0:0:
389,73,219642,1,8,0:0:0:0:
136,124,219792,5,0,0:0:0:0:
136,124,219866,1,0,0:0:0:0:
136,124,219941,1,2,0:0:0:0:
381,216,220090,1,0,0:0:0:0:
131,296,220239,1,8,0:0:0:0:
321,152,220389,1,2,0:0:0:0:
475,333,220538,6,0,P|513:262|468:201,1,142.5,0|0,0:0|0:0,0:0:0:0:
471,208,220836,1,8,0:0:0:0:
343,374,220986,1,0,0:0:0:0:
310,75,221135,5,2,0:0:0:0:
213,269,221284,1,2,0:0:0:0:
434,128,221433,1,10,0:0:0:0:
177,20,221583,1,10,0:0:0:0:
344,257,221732,5,10,0:0:0:0:
344,257,221807,1,0,0:0:0:0:
344,257,221881,2,0,L|339:197,1,47.5,2|2,0:0|0:0,0:0:0:0:
446,22,222031,2,0,L|396:56,1,47.5,2|0,0:0|0:0,0:0:0:0:
192,52,222180,2,0,L|246:77,1,47.5,10|0,0:0|0:0,0:0:0:0:
434,128,222329,5,6,0:0:0:0:
167,216,222478,1,0,0:0:0:0:
406,343,222628,1,8,0:0:0:0:
254,189,222777,1,2,0:0:0:0:
77,310,222926,6,0,P|35:254|58:176,1,142.5,0|0,0:0|0:0,0:0:0:0:
63,176,223225,1,8,0:0:0:0:
223,360,223374,2,0,L|322:351,1,95,0|2,0:0|0:0,0:0:0:0:
381,110,223672,5,0,0:0:0:0:
167,216,223822,1,8,0:0:0:0:
417,323,223971,1,2,0:0:0:0:
256,53,224120,5,0,0:0:0:0:
306,333,224269,1,2,0:0:0:0:
259,57,224419,1,8,0:0:0:0:
395,226,224568,1,0,0:0:0:0:
395,226,224642,1,0,0:0:0:0:
395,226,224717,6,0,L|342:223,1,47.5,2|0,0:0|0:0,0:0:0:0:
117,158,224866,2,0,L|170:161,1,47.5,0|0,0:0|0:0,0:0:0:0:
438,188,225016,6,0,L|369:195,1,47.5,8|0,0:0|0:0,0:0:0:0:
74,196,225165,2,0,L|143:189,1,47.5,2|0,0:0|0:0,0:0:0:0:
259,57,225314,5,0,0:0:0:0:
285,102,225389,1,0,0:0:0:0:
281,153,225463,1,2,0:0:0:0:
247,193,225538,1,0,0:0:0:0:
221,238,225613,1,8,0:0:0:0:
228,289,225687,1,0,0:0:0:0:
264,327,225762,1,0,0:0:0:0:
314,338,225836,1,0,0:0:0:0:
360,312,225911,5,8,0:0:0:0:
379,258,225986,1,0,0:0:0:0:
353,207,226060,1,8,0:0:0:0:
297,192,226135,1,0,0:0:0:0:
242,210,226210,1,2,0:0:0:0:
227,264,226284,1,2,0:0:0:0:
191,309,226359,1,2,0:0:0:0:
137,326,226433,1,2,0:0:0:0:
80,318,226508,6,0,L|74:258,1,47.5,2|0,0:0|0:0,0:0:0:0:
130,71,226657,2,0,L|134:118,1,47.5,2|2,0:0|0:0,0:0:0:0:
232,336,226807,6,0,L|226:276,1,47.5,2|0,0:0|0:0,0:0:0:0:
324,36,226956,2,0,L|328:83,1,47.5,8|0,0:0|0:0,0:0:0:0:
405,280,227105,5,14,0:0:0:0:
134,118,227254,2,0,P|144:171|151:236,1,95,10|0,0:0|0:0,0:0:0:0:
149,348,227553,5,2,0:0:0:0:
420,186,227702,1,10,0:0:0:0:
420,186,227851,2,0,P|410:239|403:304,1,95,10|0,0:0|0:0,0:0:0:0:
255,285,228150,6,0,B|250:214|250:214|272:168|272:168|266:81,1,190,10|2,0:0|0:0,0:0:0:0:
266,370,228598,1,8,0:0:0:0:
