osu file format v14

[General]
AudioFilename: audio.mp3
AudioLeadIn: 0
PreviewTime: 168598
Countdown: 0
SampleSet: Soft
StackLeniency: 0.7
Mode: 0
LetterboxInBreaks: 0
WidescreenStoryboard: 0

[Editor]
Bookmarks: 8598,89791,139941,169791,179343
DistanceSpacing: 1.4
BeatDivisor: 4
GridSize: 8
TimelineZoom: 2.400005

[Metadata]
Title:Paradisus-Paradoxum
TitleUnicode:Paradisus-Paradoxum
Artist:MYTH & ROID
ArtistUnicode:MYTH & ROID
Creator:Cellina
Version:Kalibe's Insane
Source:Re:ゼロから始める異世界生活
Tags:akitoshi kalibe nasya n_a_s_y_a shirakai toybot curi [c_u_r_i] reana dailycare habiholic re : zero kara hajimeru isekai seikatsu life in a different world from zero re:zero
BeatmapID:1109078
BeatmapSetID:510183

[Difficulty]
HPDrainRate:6
CircleSize:4
OverallDifficulty:7.5
ApproachRate:9
SliderMultiplier:1.6
SliderTickRate:1

[Events]
//Background and Video events
0,0,"710129.png",0,0
//Break Periods
2,91186,99938
2,140141,147699
2,169992,178744
//Storyboard Layer 0 (Background)
//Storyboard Layer 1 (Fail)
//Storyboard Layer 2 (Pass)
//Storyboard Layer 3 (Foreground)
//Storyboard Sound Samples

[TimingPoints]
1434,298.507462686567,4,2,1,70,1,0
8598,-100,4,2,1,70,0,0
10389,-100,4,2,1,50,0,0
10687,-100,4,2,1,60,0,0
10986,-100,4,2,1,70,0,0
15165,-100,4,2,1,50,0,0
15762,-125,4,2,1,70,0,0
16210,-83.3333333333333,4,2,1,70,0,0
16956,-125,4,2,1,70,0,0
17404,-83.3333333333333,4,2,1,70,0,0
18150,-125,4,2,1,70,0,0
19642,-100,4,2,1,70,0,0
20090,-76.9230769230769,4,2,1,70,0,0
20538,-100,4,2,1,65,0,0
30090,-125,4,2,1,50,0,0
37254,-125,4,2,1,30,0,0
38374,-125,4,2,1,5,0,0
38448,-125,4,2,1,70,0,0
38486,-125,4,2,1,5,0,0
38523,-125,4,2,1,50,0,0
38560,-125,4,2,1,5,0,0
38598,-125,4,2,1,50,0,0
38635,-125,4,2,1,5,0,0
38672,-125,4,2,1,50,0,0
38710,-125,4,2,1,5,0,0
38747,-125,4,2,1,50,0,0
38784,-125,4,2,1,5,0,0
38822,-125,4,2,1,50,0,0
38859,-125,4,2,1,5,0,0
38896,-125,4,2,1,50,0,0
38933,-125,4,2,1,5,0,0
38971,-125,4,2,1,100,0,0
39045,-125,4,2,1,5,0,0
39120,-125,4,2,1,70,0,0
39642,-100,4,2,1,60,0,0
48100,-100,4,2,1,5,0,0
48200,-100,4,2,1,60,0,0
48299,-100,4,2,1,5,0,0
48399,-100,4,2,1,60,0,0
48498,-100,4,2,1,5,0,0
48598,-133.333333333333,4,2,1,30,0,0
48896,-117.647058823529,4,2,1,40,0,0
49195,-100,4,2,1,60,0,0
56359,-100,4,2,1,70,0,0
60538,-100,4,2,1,50,0,0
60762,-100,4,2,1,10,0,0
60836,-100,4,2,1,30,0,0
61060,-100,4,2,1,10,0,0
61135,-100,4,2,1,70,0,1
75463,-125,4,2,1,70,0,0
75911,-83.3333333333333,4,2,1,70,0,0
76657,-125,4,2,1,70,0,0
77105,-83.3333333333333,4,2,1,70,0,0
77851,-125,4,2,1,70,0,0
79344,-100,4,2,1,70,0,0
79791,-76.9230769230769,4,2,1,70,0,0
80239,-100,4,2,1,65,0,1
89792,-100,4,2,1,30,0,0
100538,-111.111111111111,4,2,1,50,0,0
104568,-111.111111111111,4,2,1,60,0,0
105016,-111.111111111111,4,2,1,70,0,0
105314,-111.111111111111,4,2,1,50,0,0
105911,-111.111111111111,4,2,1,60,0,0
106508,-111.111111111111,4,2,1,70,0,0
107105,-111.111111111111,4,2,1,80,0,0
107702,-100,4,2,1,90,0,0
108598,-100,4,2,1,70,0,0
110687,-100,4,2,0,40,0,0
111284,-100,4,2,1,80,0,1
125613,-125,4,2,1,70,0,0
126060,-83.3333333333333,4,2,1,70,0,0
126806,-125,4,2,1,70,0,0
127254,-83.3333333333333,4,2,1,70,0,0
128000,-125,4,2,1,70,0,0
129493,-100,4,2,1,70,0,0
129941,-76.9230769230769,4,2,1,70,0,0
130389,-100,4,2,1,65,0,1
139941,-100,4,2,1,65,0,0
148299,-100,4,2,1,65,0,0
148598,-100,4,2,1,45,0,0
148896,-100,4,2,1,50,0,0
149195,-100,4,2,1,55,0,0
149493,-100,4,2,1,60,0,0
153672,-133.333333333333,4,2,1,30,0,0
153822,-133.333333333333,4,2,0,25,0,0
154269,-100,4,2,1,60,0,0
164120,-100,4,2,1,70,0,0
165612,-83.3333333333333,4,2,1,70,0,0
168598,-133.333333333333,4,2,0,35,0,0
179343,-111.111111111111,4,2,1,70,0,0
179344,-111.111111111111,4,2,0,40,0,0
181359,-111.111111111111,4,2,0,10,0,0
181433,-111.111111111111,4,2,0,40,0,0
181657,-111.111111111111,4,2,0,10,0,0
181732,-111.111111111111,4,2,0,40,0,0
183523,-111.111111111111,4,2,0,50,0,0
183822,-111.111111111111,4,2,0,60,0,0
184119,-100,4,2,1,60,0,0
184120,-100,4,2,1,70,0,0
188001,-100,4,2,0,50,0,0
188896,-86.9565217391304,4,2,1,70,0,1
198448,-86.9565217391304,4,2,1,80,0,1
203225,-125,4,2,1,70,0,0
203672,-83.3333333333333,4,2,1,70,0,0
204418,-125,4,2,1,70,0,0
204866,-83.3333333333333,4,2,1,70,0,0
205612,-125,4,2,1,70,0,0
207104,-100,4,2,1,70,0,0
207552,-76.9230769230769,4,2,1,70,0,0
208001,-90.9090909090909,4,2,1,70,0,1
217478,-90.9090909090909,4,2,1,65,0,0
217553,-90.9090909090909,4,2,1,65,0,1
222254,-90.9090909090909,4,2,1,65,0,0
222329,-90.9090909090909,4,2,1,65,0,1
227105,-90.9090909090909,4,2,1,65,0,0
228896,-90.9090909090909,4,2,1,5,0,0

[Colours]
Combo1 : 255,128,255
Combo2 : 128,255,255
Combo3 : 192,192,192
Combo4 : 255,128,64

[HitObjects]
131,336,8598,6,0,P|106:311|83:248,1,80,10|10,0:0|0:0,0:0:0:0:
136,68,9046,1,2,0:0:0:0:
199,149,9195,2,0,L|107:168,1,80,10|10,0:0|0:0,0:0:0:0:
315,92,9642,6,0,B|293:140|293:140|305:199|305:199|287:250,1,160,2|10,0:0|0:0,0:0:0:0:
205,180,10090,1,10,0:0:0:0:
448,152,10389,6,0,B|460:214|460:214|442:277,1,120,2|0,0:0|0:0,0:0:0:0:
376,328,10687,2,0,B|315:335|315:335|256:318,1,120,2|0,0:0|0:0,0:0:0:0:
182,258,10986,6,0,P|175:150|199:90,1,160,6|8,0:1|0:0,0:0:0:0:
313,64,11433,2,0,P|365:85|306:139,1,160,2|2,0:0|0:0,0:0:0:0:
218,91,11881,1,8,0:0:0:0:
104,120,12031,1,0,0:0:0:0:
218,190,12180,6,0,B|156:160|127:219|59:182,1,160,2|8,0:0|0:0,0:0:0:0:
62,183,12628,1,2,0:0:0:0:
150,274,12777,2,0,P|187:284|245:302,1,80,0|2,0:0|0:0,0:0:0:0:
242,113,13075,2,0,P|229:149|211:218,1,80,8|0,0:0|0:0,0:0:0:0:
166,354,13374,6,0,P|268:323|321:344,1,160,2|8,0:0|0:0,0:0:0:0:
435,383,13822,2,0,P|417:306|449:234,1,160,2|2,0:0|0:0,0:0:0:0:
382,143,14269,1,8,0:0:0:0:
320,248,14419,1,0,0:0:0:0:
240,148,14568,6,0,P|244:108|268:56,1,80,2|2,0:0|0:0,0:0:0:0:
320,248,14866,2,0,P|280:260|236:264,1,80,2|2,0:0|0:0,0:0:0:0:
242,263,15090,1,2,0:0:0:0:
242,263,15165,1,2,0:3:0:0:
382,143,15314,2,0,P|402:179|418:239,1,80,2|2,0:3|0:3,0:0:0:0:
348,328,15613,1,2,0:3:0:0:
348,328,15687,1,2,0:3:0:0:
348,328,15762,6,0,B|280:308|280:308|224:320|224:320|152:304,1,192,6|2,0:0|0:0,0:0:0:0:
12,264,16359,1,8,0:0:0:0:
12,264,16956,6,0,P|11:147|93:121,1,192,2|2,0:0|0:0,0:0:0:0:
218,143,17553,1,8,0:0:0:0:
218,143,18150,6,0,B|242:79|242:79|258:199|258:199|224:256|224:256|242:327|242:327|226:383,1,384,2|0,0:0|0:0,0:0:0:0:
139,325,19195,5,8,0:0:0:0:
425,299,19642,1,8,0:0:0:0:
128,70,20090,6,0,B|160:220|160:220|204:164,1,207.999990478516,8|0,0:0|0:0,0:0:0:0:
258,55,20538,6,0,P|163:31|125:75,1,160,6|8,0:0|0:0,0:0:0:0:
62,179,20986,2,0,P|154:211|196:170,1,160,2|0,0:0|0:0,0:0:0:0:
277,80,21433,1,8,0:0:0:0:
277,80,21732,5,2,0:0:0:0:
391,135,21881,2,0,P|341:142|303:154,1,80,0|8,0:0|0:0,0:0:0:0:
199,211,22180,2,0,P|299:227|369:252,1,160,2|2,0:0|0:0,0:0:0:0:
472,304,22628,1,8,0:0:0:0:
395,224,22777,1,0,0:0:0:0:
290,307,22926,6,0,B|186:316|186:316|127:290,1,160,2|8,0:0|0:0,0:0:0:0:
181,133,23374,1,2,0:0:0:0:
181,133,23448,1,0,0:0:0:0:
181,133,23523,2,0,L|201:220,1,80,0|2,0:0|0:0,0:0:0:0:
107,186,23822,1,8,0:0:0:0:
275,232,23971,1,0,0:0:0:0:
174,311,24120,6,0,P|131:319|92:328,1,80,2|0,0:0|0:0,0:0:0:0:
188,233,24419,1,8,0:0:0:0:
283,317,24568,2,0,P|341:331|461:350,1,160,2|2,0:0|0:0,0:0:0:0:
482,226,25016,1,8,0:0:0:0:
382,258,25165,1,8,0:0:0:0:
242,163,25314,6,0,P|276:264|283:317,1,160,6|8,0:0|0:0,0:0:0:0:
114,283,25762,1,2,0:0:0:0:
114,283,25836,1,0,0:0:0:0:
114,283,25911,2,0,L|198:269,1,80,0|2,0:0|0:0,0:0:0:0:
242,163,26210,1,8,0:0:0:0:
242,163,26508,5,2,0:0:0:0:
152,71,26657,2,0,P|197:52|252:39,1,80,0|8,0:0|0:0,0:0:0:0:
349,83,26956,2,0,P|354:200|337:254,1,160,2|2,0:0|0:0,0:0:0:0:
241,162,27404,1,8,0:0:0:0:
184,256,27553,1,0,0:0:0:0:
87,158,27702,6,0,B|172:127|146:198|253:158,1,160,2|8,0:0|0:0,0:0:0:0:
216,16,28150,1,2,0:0:0:0:
216,16,28225,1,0,0:0:0:0:
216,16,28299,2,0,L|198:105,1,80,0|2,0:0|0:0,0:0:0:0:
172,242,28598,1,8,0:0:0:0:
172,242,28896,5,2,0:0:0:0:
200,94,29045,1,2,0:0:0:0:
253,200,29195,6,0,L|233:142,1,40,2|2,0:0|0:0,0:0:0:0:
186,10,29344,2,0,L|149:176,1,160,2|2,0:0|0:0,0:0:0:0:
265,225,29792,1,10,0:0:0:0:
265,225,29941,1,10,0:0:0:0:
165,352,30090,5,4,0:0:0:0:
165,352,30389,2,0,P|292:343|366:342,1,192,0|0,0:0|0:0,0:0:0:0:
479,194,31284,6,0,P|352:181|269:164,1,192,0|0,0:0|0:0,0:0:0:0:
102,120,32180,1,0,0:0:0:0:
102,120,32478,6,0,P|114:192|128:262,1,128,4|0,0:3|0:0,0:0:0:0:
198,308,32926,2,0,P|213:235|223:168,1,128,0|0,0:0|0:0,0:0:0:0:
182,93,33374,1,0,3:0:0:0:
198,308,33672,5,0,0:0:0:0:
324,162,33971,2,0,B|283:270|356:256|317:358,1,192,0|0,0:0|0:3,0:0:0:0:
320,348,34866,6,0,P|230:312|181:298,1,128,4|0,0:3|0:0,0:0:0:0:
112,343,35314,2,0,P|117:246|130:207,1,128,0|0,0:0|0:0,0:0:0:0:
196,151,35762,6,0,B|255:121|320:134|320:134|370:177|446:169,1,256,0|0,0:3|0:3,0:0:0:0:
296,41,36657,1,0,3:0:0:0:
255,229,36956,2,0,L|234:315,1,64,0|0,3:0|3:0,0:0:0:0:
129,253,37254,6,0,P|190:237|265:228,1,128,8|0,0:3|0:0,0:0:0:0:
105,378,37851,2,0,P|113:314|129:252,1,128,0|0,0:0|0:0,0:0:0:0:
163,162,38299,1,0,0:0:0:0:
256,192,38448,12,0,39642,0:0:0:0:
58,226,39941,5,8,0:0:0:0:
58,226,40090,2,0,L|226:200,1,160,2|2,0:0|0:0,0:0:0:0:
335,283,40538,2,0,P|296:274|244:264,1,80,8|0,0:0|0:0,0:0:0:0:
118,364,40836,6,0,P|202:351|308:348,1,160,2|8,0:0|0:0,0:0:0:0:
412,301,41284,2,0,P|310:283|241:260,1,160,2|2,0:0|0:0,0:0:0:0:
121,212,41732,1,8,0:0:0:0:
121,212,42031,6,0,L|27:229,1,80,2|0,0:0|0:0,0:0:0:0:
92,113,42329,1,8,0:0:0:0:
209,182,42478,2,0,P|214:288|196:349,1,160,2|2,0:0|0:0,0:0:0:0:
61,297,42926,2,0,L|147:280,1,80,8|0,0:0|0:0,0:0:0:0:
292,243,43225,6,0,P|210:227|136:196,1,160,2|8,0:0|0:0,0:0:0:0:
203,68,43672,2,0,P|221:110|233:155,1,80,2|2,0:0|0:0,0:0:0:0:
264,307,43971,5,8,0:0:0:0:
264,307,44045,1,8,0:0:0:0:
264,307,44120,2,0,L|289:249,1,40,8|8,0:0|0:0,0:0:0:0:
368,216,44269,2,0,L|386:275,1,40,8|8,0:0|0:0,0:0:0:0:
414,348,44419,6,0,P|318:337|256:300,1,160,4|8,0:0|0:0,0:0:0:0:
302,118,44866,2,0,P|362:193|379:263,1,160,2|2,0:0|0:0,0:0:0:0:
305,378,45314,1,8,0:0:0:0:
305,378,45613,6,0,L|134:335,1,160,2|8,0:0|0:0,0:0:0:0:
23,269,46060,2,0,P|62:254|106:242,1,80,0|2,0:0|0:0,0:0:0:0:
227,177,46359,2,0,P|206:220|191:262,1,80,2|8,0:0|0:0,0:0:0:0:
149,338,46657,1,0,0:0:0:0:
92,204,46807,6,0,L|43:38,1,160,8|8,0:3|0:0,0:0:0:0:
164,133,47254,1,0,0:0:0:0:
164,133,47329,1,0,0:0:0:0:
164,133,47404,2,0,P|257:143|303:98,1,160,8|8,0:0|0:0,0:0:0:0:
378,30,47851,1,2,0:0:0:0:
502,103,48001,6,0,L|445:117,1,53.3333333333333,8|0,0:0|0:0,0:0:0:0:
375,177,48200,2,0,L|442:200,1,53.3333333333333,2|0,0:0|0:0,0:0:0:0:
494,262,48399,2,0,L|422:273,1,53.3333333333333,10|0,0:0|0:0,0:0:0:0:
320,282,48598,6,0,B|376:268|376:268|437:297,1,120.000004577637,2|0,0:0|0:0,0:0:0:0:
280,368,49195,6,0,P|293:270|304:192,1,160,6|8,0:0|0:0,0:0:0:0:
279,110,49642,1,0,0:0:0:0:
148,162,49792,2,0,P|225:181|304:210,1,160,2|8,0:0|0:0,0:0:0:0:
388,250,50239,1,0,0:0:0:0:
247,285,50389,5,6,0:0:0:0:
247,285,50687,2,0,L|156:303,1,80,8|0,0:0|0:0,0:0:0:0:
300,208,50986,2,0,P|311:109|287:53,1,160,2|8,0:0|0:0,0:0:0:0:
223,131,51433,1,0,0:0:0:0:
328,230,51583,6,0,P|367:243|421:256,1,80,6|0,0:0|0:0,0:0:0:0:
213,170,51881,2,0,P|167:173|116:183,1,80,8|0,0:0|0:0,0:0:0:0:
2,239,52180,2,0,B|101:266|101:266|164:255,1,160,2|8,0:0|0:0,0:0:0:0:
271,232,52628,1,0,0:0:0:0:
133,178,52777,5,6,0:0:0:0:
133,178,53075,2,0,L|36:153,1,80,8|2,0:0|0:1,0:0:0:0:
157,256,53374,1,2,0:0:0:0:
184,239,53448,1,2,0:0:0:0:
204,214,53523,1,2,0:0:0:0:
215,183,53598,1,2,0:0:0:0:
215,151,53672,2,0,P|210:128|197:99,3,40,8|8|8|8,0:3|0:3|0:3|0:3,0:0:0:0:
151,22,53971,6,0,P|127:132|136:191,1,160,6|8,0:0|0:0,0:0:0:0:
396,60,54568,2,0,P|356:66|302:83,1,80,2|0,0:0|0:0,0:0:0:0:
215,151,54866,2,0,P|254:165|313:177,1,80,8|0,0:0|0:0,0:0:0:0:
432,142,55165,6,0,P|407:220|387:308,1,160,6|8,0:0|0:0,0:0:0:0:
327,192,55613,1,0,0:0:0:0:
188,231,55762,2,0,P|225:238|289:257,1,80,2|0,0:0|0:0,0:0:0:0:
468,285,56060,2,0,P|427:288|385:296,1,80,8|0,0:0|0:0,0:0:0:0:
256,337,56359,5,12,0:0:0:0:
265,249,56508,1,2,0:0:0:0:
388,295,56657,1,8,0:0:0:0:
398,207,56807,1,0,0:0:0:0:
186,255,56956,6,0,B|226:258|226:258|272:247,1,80,8|0,0:0|0:0,0:0:0:0:
474,227,57254,2,0,B|434:221|434:221|387:202,1,80,8|0,0:0|0:0,0:0:0:0:
316,48,57553,6,0,P|301:85|300:128,1,80,8|0,0:0|0:0,0:0:0:0:
281,325,57851,2,0,P|279:285|264:248,1,80,8|0,0:0|0:0,0:0:0:0:
97,122,58150,6,0,L|179:151,1,80,8|0,0:0|0:0,0:0:0:0:
378,112,58448,2,0,L|283:126,1,80,8|0,0:0|0:0,0:0:0:0:
108,210,58747,5,10,0:0:0:0:
108,210,58896,1,10,0:0:0:0:
389,32,59195,1,2,0:0:0:0:
389,32,59344,2,0,L|377:116,1,80,10|10,0:0|0:0,0:0:0:0:
117,297,59792,6,0,P|169:264|228:328,1,160,2|10,0:0|0:0,0:0:0:0:
228,325,60239,1,10,0:0:0:0:
511,175,60538,6,0,P|469:179|409:189,1,80,2|0,0:0|0:0,0:0:0:0:
277,142,60836,2,0,P|321:184|364:245,1,120,2|0,0:0|0:0,0:0:0:0:
373,332,61135,6,0,P|397:249|445:164,1,160,4|8,0:0|0:0,0:0:0:0:
316,248,61583,2,0,P|209:240|136:207,1,160,2|2,0:0|0:0,0:0:0:0:
68,175,62031,1,8,0:0:0:0:
191,141,62180,1,0,0:0:0:0:
122,248,62329,6,0,P|83:259|32:267,1,80,2|0,0:0|0:0,0:0:0:0:
118,107,62628,2,0,P|155:122|193:142,1,80,8|2,0:0|0:0,0:0:0:0:
290,219,62926,2,0,L|266:38,1,160,0|8,0:0|0:0,0:0:0:0:
190,140,63374,1,0,0:0:0:0:
111,31,63523,6,0,P|195:44|292:66,1,160,2|8,0:0|0:0,0:0:0:0:
391,23,63971,2,0,P|343:140|355:200,1,160,2|2,0:0|0:0,0:0:0:0:
369,268,64419,1,8,0:0:0:0:
423,152,64568,1,0,0:0:0:0:
318,77,64717,6,0,P|208:62|158:76,1,160,2|8,0:0|0:0,0:0:0:0:
261,148,65165,1,2,0:0:0:0:
147,206,65314,2,0,L|106:196,3,40,2|2|2|0,0:0|0:0|0:0|0:0,0:0:0:0:
217,258,65613,2,0,L|259:255,3,40,8|8|8|8,0:0|0:0|0:0|0:0,0:0:0:0:
129,297,65911,6,0,P|216:312|286:331,1,160,4|8,0:0|0:0,0:0:0:0:
391,362,66359,1,2,0:0:0:0:
506,308,66508,2,0,P|460:292|418:281,1,80,0|2,0:0|0:0,0:0:0:0:
375,167,66807,2,0,P|347:210|333:245,1,80,8|0,0:0|0:0,0:0:0:0:
246,334,67105,6,0,P|217:224|191:160,1,160,2|8,0:0|0:0,0:0:0:0:
132,261,67553,1,2,0:0:0:0:
113,134,67702,2,0,P|206:143|285:127,1,160,0|8,0:0|0:0,0:0:0:0:
368,101,68150,1,0,0:0:0:0:
268,21,68299,6,0,P|252:56|242:117,1,80,4|0,0:0|0:0,0:0:0:0:
409,227,68598,2,0,P|375:204|325:182,1,80,8|0,0:0|0:0,0:0:0:0:
127,235,68896,2,0,P|167:235|221:218,1,80,2|0,0:0|0:0,0:0:0:0:
366,113,69195,2,0,P|347:148|339:201,1,80,8|0,0:0|0:0,0:0:0:0:
350,314,69493,5,8,0:3:0:0:
325,211,69642,1,8,0:3:0:0:
204,255,69792,1,2,0:0:0:0:
182,128,69941,1,2,0:0:0:0:
49,175,70090,6,0,P|90:183|149:197,1,80,8|8,0:3|0:3,0:0:0:0:
261,119,70389,2,0,P|220:122|178:127,1,80,2|2,0:0|0:0,0:0:0:0:
24,258,70687,6,0,B|115:236|91:303|181:272,1,160,4|8,0:0|0:0,0:0:0:0:
305,187,71135,2,0,B|267:291|267:291|284:340,1,160,2|2,3:2|3:2,0:0:0:0:
355,281,71583,1,8,0:0:0:0:
211,209,71732,1,0,3:0:0:0:
290,108,71881,6,0,P|299:152|306:198,1,80,2|0,0:0|3:0,0:0:0:0:
379,291,72180,2,0,P|390:242|404:202,1,80,8|2,0:0|3:2,0:0:0:0:
457,99,72478,1,0,0:0:0:0:
389,175,72628,1,2,3:2:0:0:
457,277,72777,2,0,L|376:291,1,80,8|0,0:0|3:0,0:0:0:0:
278,211,73075,6,0,B|253:297|301:291|265:373,1,160,2|8,0:0|0:0,0:0:0:0:
172,281,73523,2,0,P|186:226|290:220,1,160,2|2,3:2|3:2,0:0:0:0:
357,259,73971,1,8,0:0:0:0:
267,367,74120,6,0,P|201:381|96:350,1,160,4|0,0:0|0:0,0:0:0:0:
40,253,74568,2,0,P|50:212|67:165,1,80,10|0,3:3|0:0,0:0:0:0:
205,217,74866,2,0,P|167:230|122:241,1,80,8|0,0:0|0:0,0:0:0:0:
113,69,75165,2,0,P|128:105|148:169,1,80,2|2,0:0|0:0,0:0:0:0:
192,304,75463,6,0,B|269:347|297:280|396:325,1,192,4|0,0:0|0:0,0:0:0:0:
245,241,76060,1,8,0:0:0:0:
245,241,76657,6,0,P|220:120|264:57,1,192,4|2,0:0|0:0,0:0:0:0:
401,27,77254,1,8,0:0:0:0:
402,57,77851,6,0,B|251:103|308:3|156:49|156:49|208:115|156:173,1,384,4|0,0:0|0:0,0:0:0:0:
73,113,78896,5,4,0:3:0:0:
453,163,79344,1,8,0:0:0:0:
102,224,79792,6,0,B|147:206|200:211|200:211|241:257|307:242,1,207.999990478516,8|0,3:2|0:3,0:0:0:0:
413,189,80239,6,0,P|320:143|263:165,1,160,6|8,0:0|0:0,0:0:0:0:
178,247,80687,2,0,P|163:142|136:77,1,160,2|2,0:0|0:0,0:0:0:0:
85,206,81135,1,8,0:0:0:0:
85,206,81284,1,0,0:0:0:0:
187,276,81433,6,0,P|227:286|288:302,1,80,2|0,0:0|0:0,0:0:0:0:
201,188,81732,1,8,0:0:0:0:
105,307,81881,2,0,P|165:297|279:297,1,160,2|2,0:0|0:0,0:0:0:0:
369,369,82329,2,0,P|377:332|391:283,1,80,8|0,0:0|0:0,0:0:0:0:
512,234,82628,6,0,B|421:263|444:201|359:220,1,160,2|8,0:0|0:0,0:0:0:0:
241,272,83075,1,2,0:0:0:0:
241,272,83150,1,0,0:0:0:0:
241,272,83225,2,0,B|138:275|138:275|79:249,1,160,0|8,0:0|0:0,0:0:0:0:
153,188,83672,1,0,0:0:0:0:
236,299,83822,6,0,L|216:387,1,80,2|0,0:0|0:0,0:0:0:0:
65,329,84120,2,0,L|89:239,1,80,8|2,0:0|0:0,0:0:0:0:
162,148,84419,5,8,0:3:0:0:
162,148,84568,1,8,0:3:0:0:
38,180,84717,1,2,0:0:0:0:
38,180,84866,1,2,0:0:0:0:
65,329,85016,6,0,L|92:225,1,80,6|0,0:0|0:0,0:0:0:0:
180,166,85314,2,0,P|185:202|196:279,1,80,8|2,0:0|0:0,0:0:0:0:
334,207,85613,2,0,P|238:178|166:163,1,160,0|8,0:0|0:0,0:0:0:0:
92,281,86060,6,0,P|170:304|183:229,1,160,0|0,0:0|0:0,0:0:0:0:
112,105,86508,2,0,P|99:149|93:200,1,80,8|2,0:0|0:0,0:0:0:0:
206,71,86807,1,0,0:0:0:0:
206,71,86956,2,0,P|179:40|148:16,1,80,2|8,0:0|0:0,0:0:0:0:
180,166,87254,6,0,P|277:152|343:127,1,160
425,67,87702,1,8,0:0:0:0:
462,189,87851,1,2,0:0:0:0:
334,130,88001,2,0,B|296:204|349:217|310:301,1,160,0|10,0:0|0:0,0:0:0:0:
228,197,88448,1,0,0:0:0:0:
113,256,88598,6,0,P|152:265|201:278,1,80,10|10,0:0|0:0,0:0:0:0:
386,348,88896,2,0,P|347:357|308:367,1,80,10|10,0:0|0:0,0:0:0:0:
199,383,89195,1,2,0:0:0:0:
288,292,89344,1,8,0:0:0:0:
215,186,89493,1,8,0:0:0:0:
100,253,89642,1,8,0:0:0:0:
100,253,90986,5,4,0:0:0:0:
108,157,100538,5,4,0:0:0:0:
108,157,100986,2,0,P|143:148|201:136,1,71.9999978027344,8|0,0:0|0:0,0:0:0:0:
394,218,101433,2,0,P|360:205|309:191,1,71.9999978027344,8|0,0:0|0:0,0:0:0:0:
135,325,101881,6,0,P|156:298|182:260,1,71.9999978027344,8|0,0:0|0:0,0:0:0:0:
256,50,102329,2,0,P|260:84|273:146,1,71.9999978027344,8|0,0:0|0:0,0:0:0:0:
347,204,102628,2,0,P|334:278|323:327,1,107.999996704102,8|0,0:0|0:0,0:0:0:0:
304,336,102926,5,8,0:0:0:0:
304,336,103374,2,0,P|271:326|221:307,1,71.9999978027344,8|0,0:0|0:0,0:0:0:0:
21,226,103822,2,0,P|58:224|121:216,1,71.9999978027344,8|0,0:0|0:0,0:0:0:0:
205,106,104120,5,8,0:0:0:0:
205,106,104269,2,0,P|187:137|164:187,1,71.9999978027344,8|0,0:0|0:0,0:0:0:0:
225,272,104568,2,0,P|259:282|294:289,1,71.9999978027344,8|8,0:0|0:0,0:0:0:0:
509,205,105016,2,0,P|472:207|422:213,1,71.9999978027344,8|0,0:0|0:0,0:0:0:0:
335,152,105314,6,0,P|300:247|294:295,1,143.999995605469,4|8,0:0|0:0,0:0:0:0:
397,239,105762,1,0,0:0:0:0:
243,163,105911,2,0,P|215:268|212:311,1,143.999995605469,2|8,0:0|0:0,0:0:0:0:
294,288,106359,1,0,0:0:0:0:
138,237,106508,5,2,0:0:0:0:
138,237,106807,2,0,P|43:221|4:264,1,143.999995605469,8|2,0:0|0:0,0:0:0:0:
23,362,107254,2,0,P|88:385|148:350,1,143.999995605469
217,238,107702,6,0,P|219:218|214:173,3,40,2|0|2|0,0:1|0:0|0:1|0:0,0:0:0:0:
99,227,108001,2,0,L|152:240,1,40,2|0,0:1|0:0,0:0:0:0:
238,317,108150,2,0,L|190:320,1,40,2|0,0:1|0:0,0:0:0:0:
72,343,108299,2,0,P|48:258|100:226,1,160,2|2,0:1|0:0,0:0:0:0:
238,317,108747,1,0,0:0:0:0:
200,160,108896,5,8,0:0:0:0:
200,160,109045,1,12,0:0:0:0:
446,229,109344,1,8,0:0:0:0:
446,229,109493,2,0,L|429:320,1,80,8|8,0:0|0:0,0:0:0:0:
177,269,109941,6,0,P|252:261|339:251,1,160,12|8,0:0|0:0,0:0:0:0:
455,203,110389,2,0,P|382:185|320:169,1,120,12|0,0:0|0:0,0:0:0:0:
295,177,110687,2,0,P|253:234|279:318,1,160,2|2,0:0|0:2,0:0:0:0:
275,314,111284,6,0,P|171:290|95:274,1,160,6|8,0:0|0:0,0:0:0:0:
0,216,111732,2,0,P|77:205|186:195,1,160,2|2,0:0|0:0,0:0:0:0:
272,168,112180,1,8,0:0:0:0:
160,104,112329,1,0,0:0:0:0:
118,278,112478,6,0,P|155:287|211:297,1,80,2|0,0:0|0:0,0:0:0:0:
349,182,112777,2,0,P|311:185|261:192,1,80,8|2,0:0|0:0,0:0:0:0:
311,337,113075,2,0,P|329:274|350:174,1,160,0|8,0:0|0:0,0:0:0:0:
360,64,113523,1,0,0:0:0:0:
231,100,113672,6,0,B|132:118|176:67|67:84,1,160,2|8,0:0|0:0,0:0:0:0:
19,215,114120,2,0,P|92:229|104:154,1,160,2|2,0:0|0:0,0:0:0:0:
65,67,114568,1,8,0:0:0:0:
195,32,114717,1,0,0:0:0:0:
314,98,114866,6,0,P|272:104|214:113,1,80,2|0,0:0|0:0,0:0:0:0:
108,160,115165,1,8,0:0:0:0:
163,57,115314,1,2,0:0:0:0:
247,152,115463,2,0,P|247:263|226:316,1,160,2|8,0:0|0:3,0:0:0:0:
160,216,115911,1,8,0:3:0:0:
78,330,116060,6,0,P|170:297|246:314,1,160,6|8,0:0|0:0,0:0:0:0:
334,352,116508,1,2,0:0:0:0:
396,234,116657,2,0,P|384:196|354:150,1,80,0|2,0:0|0:0,0:0:0:0:
269,98,116956,1,8,0:0:0:0:
240,222,117105,1,0,0:0:0:0:
135,147,117254,6,0,P|116:185|105:226,1,80,2|0,0:0|0:0,0:0:0:0:
259,299,117553,2,0,P|251:256|230:202,1,80,8|2,0:0|0:0,0:0:0:0:
21,248,117851,2,0,P|99:266|181:283,1,160,0|8,0:0|0:0,0:0:0:0:
254,190,118299,1,0,0:0:0:0:
349,274,118448,6,0,L|332:364,1,80,10|0,0:0|0:0,0:0:0:0:
177,282,118747,2,0,L|164:182,1,80,10|0,0:0|0:0,0:0:0:0:
266,111,119045,2,0,L|249:215,1,80,10|0,0:0|0:0,0:0:0:0:
21,248,119344,2,0,L|5:150,1,80,10|0,0:0|0:0,0:0:0:0:
128,64,119642,6,0,B|141:120|141:120|126:169|126:169|136:224,1,160,10|10,0:0|0:0,0:0:0:0:
253,189,120090,1,10,0:0:0:0:
353,267,120239,2,0,L|403:261,3,40,2|2|2|2,0:3|0:3|0:3|0:3,0:0:0:0:
269,305,120538,2,0,L|213:297,3,40,8|8|8|8,0:0|0:0|0:0|0:0,0:0:0:0:
341,351,120836,6,0,P|227:361|169:366,1,160,6|8,0:0|0:0,0:0:0:0:
242,206,121284,2,0,P|322:235|406:267,1,160,0|0,3:0|3:0,0:0:0:0:
480,311,121732,1,8,0:0:0:0:
429,193,121881,1,0,3:0:0:0:
327,271,122031,6,0,P|285:277|240:282,1,80,6|0,0:0|3:0,0:0:0:0:
150,198,122329,2,0,P|161:158|174:121,1,80,8|0,0:0|3:0,0:0:0:0:
277,45,122628,2,0,B|355:26|328:86|442:65,1,160,0|8,0:0|0:0,0:0:0:0:
430,66,123075,1,0,3:0:0:0:
324,155,123225,6,0,P|215:147|164:112,1,160,2|8,0:0|0:0,0:0:0:0:
70,45,123672,2,0,B|100:144|100:144|77:206,1,160,0|0,3:0|3:0,0:0:0:0:
32,272,124120,1,8,0:0:0:0:
160,201,124269,6,0,B|189:293|140:281|168:363,1,160,6|0,0:0|0:0,0:0:0:0:
314,343,124717,2,0,P|266:328|208:315,1,80,8|2,0:0|0:0,0:0:0:0:
11,260,125016,2,0,P|63:257|120:249,1,80,0|0,0:0|0:0,0:0:0:0:
273,188,125314,1,8,0:3:0:0:
293,170,125389,1,8,0:3:0:0:
295,138,125463,1,8,0:3:0:0:
272,114,125538,1,8,0:3:0:0:
242,133,125613,6,0,B|206:219|276:232|232:332,1,192,6|2,0:0|0:0,0:0:0:0:
371,244,126210,1,8,0:0:0:0:
371,244,126807,6,0,B|302:222|302:222|249:238|249:238|182:217,1,192,2|2,0:0|0:0,0:0:0:0:
41,168,127404,1,8,0:0:0:0:
41,168,128001,6,0,B|173:209|123:84|282:176|258:282|163:330|64:275|115:178,1,384,2|0,0:0|0:0,0:0:0:0:
171,89,129045,5,8,0:0:0:0:
131,353,129493,1,8,0:0:0:0:
131,353,129941,6,0,B|254:303|211:394|340:344,1,207.999990478516,8|0,0:0|0:0,0:0:0:0:
446,290,130389,6,0,P|338:267|280:250,1,160,4|8,0:0|0:0,0:0:0:0:
182,184,130836,2,0,P|291:166|355:164,1,160,2|2,0:0|0:0,0:0:0:0:
462,202,131284,1,8,0:0:0:0:
462,202,131583,6,0,P|449:165|424:104,1,80,2|0,0:0|0:0,0:0:0:0:
371,43,131881,1,8,0:0:0:0:
253,95,132031,2,0,P|214:192|209:259,1,160,2|2,0:0|0:0,0:0:0:0:
298,212,132478,1,8,0:0:0:0:
147,145,132628,1,4,0:0:0:0:
99,267,132777,6,0,P|137:259|203:249,1,80,2|0,0:0|0:0,0:0:0:0:
293,305,133075,1,8,0:0:0:0:
163,335,133225,1,2,0:0:0:0:
163,335,133299,1,0,0:0:0:0:
163,335,133374,2,0,L|-5:302,1,160,0|8,0:0|0:0,0:0:0:0:
177,252,133822,1,0,0:0:0:0:
91,155,133971,6,0,P|75:190|56:246,1,80,2|0,0:0|0:0,0:0:0:0:
163,335,134269,2,0,P|202:325|254:300,1,80,8|0,0:0|0:0,0:0:0:0:
344,236,134568,5,0,0:0:0:0:
335,283,134717,1,8,0:0:0:0:
325,329,134866,1,8,0:0:0:0:
315,376,135016,1,8,0:0:0:0:
417,267,135165,6,0,P|377:249|312:225,1,80,4|0,0:0|0:0,0:0:0:0:
274,128,135463,2,0,P|243:158|218:196,1,80,8|2,0:0|0:0,0:0:0:0:
180,312,135762,2,0,P|262:308|337:281,1,160,2|8,0:0|0:0,0:0:0:0:
288,162,136210,1,0,0:0:0:0:
167,233,136359,6,0,L|181:320,1,80,2|0,0:0|0:0,0:0:0:0:
305,356,136657,2,0,L|342:262,1,80,8|2,0:0|0:0,0:0:0:0:
298,85,136956,1,0,0:0:0:0:
298,85,137105,2,0,B|283:123|283:123|289:181,1,80,2|8,0:0|0:0,0:0:0:0:
379,140,137404,1,0,0:0:0:0:
217,60,137553,6,0,L|127:28,1,80,2|0,0:0|0:0,0:0:0:0:
126,178,137851,2,0,L|220:161,1,80,8|2,0:0|0:0,0:0:0:0:
62,100,138150,2,0,P|32:204|51:263,1,160,2|8,0:0|0:0,0:0:0:0:
126,178,138598,1,0,0:0:0:0:
229,253,138747,6,0,B|267:268|267:268|319:274,1,80,2|8,0:0|0:0,0:0:0:0:
203,164,139045,2,0,B|163:165|163:165|112:182,1,80,8|2,0:0|0:0,0:0:0:0:
155,302,139344,1,2,0:0:0:0:
284,195,139493,1,2,0:0:0:0:
184,88,139642,1,8,0:0:0:0:
120,218,139792,1,2,0:0:0:0:
120,218,139866,1,0,0:0:0:0:
120,218,139941,5,4,0:0:0:0:
139,161,148299,6,0,P|120:162|97:168,3,40,0|0|0|8,0:0|0:0|0:0|0:3,0:0:0:0:
211,201,148598,2,0,P|219:180|226:147,3,40,8|8|0|8,0:3|0:3|0:0|0:3,0:0:0:0:
138,237,148896,2,0,P|141:259|151:294,3,40,2|2|2|2,0:3|0:3|0:3|0:3,0:0:0:0:
224,284,149195,2,0,P|220:307|215:323,3,40,8|8|8|8,0:0|0:0|0:0|0:0,0:0:0:0:
287,225,149493,6,0,L|198:196,1,80,6|2,0:0|0:0,0:0:0:0:
90,155,149792,1,8,0:0:0:0:
162,49,149941,2,0,P|176:87|176:136,1,80,2|0,0:1|0:0,0:0:0:0:
72,232,150239,2,0,P|76:193|96:144,1,80,2|8,0:1|0:0,0:0:0:0:
184,215,150538,1,2,0:1:0:0:
121,326,150687,6,0,L|24:341,1,80,2|0,0:0|0:0,0:0:0:0:
185,253,150986,2,0,P|272:269|360:295,1,160,8|0,0:0|0:0,0:0:0:0:
461,331,151433,1,2,0:0:0:0:
480,213,151583,2,0,P|387:253|327:300,1,160,8|2,0:0|0:0,0:0:0:0:
232,358,152031,6,0,P|221:315|203:266,1,80,0|8,0:0|0:0,0:0:0:0:
76,184,152329,2,0,P|109:205|159:228,1,80,2|0,0:1|0:0,0:0:0:0:
312,184,152628,2,0,P|273:187|222:200,1,80,2|8,0:1|0:0,0:0:0:0:
144,120,152926,1,2,0:1:0:0:
51,260,153075,6,0,L|80:170,1,80,2|0,0:0|0:0,0:0:0:0:
211,37,153374,2,0,P|222:106|233:199,1,160,8|2,0:0|0:0,0:0:0:0:
243,291,153822,2,0,L|180:274,1,60.0000022888184,2|2,0:0|0:0,0:0:0:0:
185,275,154269,5,6,0:0:0:0:
314,224,154419,2,0,L|334:307,1,80,0|8,0:0|0:0,0:0:0:0:
424,168,154717,2,0,L|407:258,1,80,2|0,0:1|0:0,0:0:0:0:
288,112,155016,2,0,L|312:216,1,80,2|8,0:1|0:0,0:0:0:0:
428,142,155314,1,2,0:1:0:0:
343,46,155463,6,0,P|305:32|261:21,1,80,2|0,0:0|0:0,0:0:0:0:
132,78,155762,2,0,P|202:88|289:112,1,160,8|0,0:0|0:0,0:0:0:0:
406,161,156210,1,2,0:0:0:0:
334,263,156359,2,0,P|302:185|287:104,1,160,8|2,0:0|0:0,0:0:0:0:
287,110,156956,6,0,P|369:132|448:157,1,160,8|0,0:0|0:0,0:0:0:0:
372,260,157404,1,2,0:0:0:0:
268,186,157553,2,0,P|271:147|292:101,1,80,8|0,0:0|0:0,0:0:0:0:
372,260,157851,6,0,P|270:289|206:278,1,160,8|8,0:3|0:3,0:0:0:0:
94,246,158299,1,8,0:3:0:0:
157,103,158448,2,0,L|174:190,1,80,2|2,0:3|0:3,0:0:0:0:
76,324,158747,2,0,L|95:237,1,80,8|8,0:0|0:0,0:0:0:0:
157,103,159045,5,4,0:0:0:0:
256,184,159195,2,0,P|218:193|163:206,1,80,2|8,0:0|0:0,0:0:0:0:
100,46,159493,2,0,P|130:73|165:114,1,80,2|0,0:1|0:0,0:0:0:0:
62,235,159792,2,0,P|67:195|78:145,1,80,2|8,0:1|0:0,0:0:0:0:
100,46,160090,1,2,0:1:0:0:
233,107,160239,6,0,P|245:147|259:197,1,80,2|0,0:0|0:0,0:0:0:0:
153,325,160538,2,0,L|170:151,1,160,8|0,0:0|0:0,0:0:0:0:
255,76,160986,1,2,0:0:0:0:
412,159,161135,2,0,L|251:184,1,160,8|4,0:0|0:0,0:0:0:0:
83,212,161583,6,0,P|122:220|179:232,1,80,2|8,0:0|0:0,0:0:0:0:
275,285,161881,2,0,P|267:246|254:198,1,80,2|0,0:1|0:0,0:0:0:0:
106,135,162180,2,0,P|94:174|80:219,1,80,2|8,0:1|0:0,0:0:0:0:
132,325,162478,1,2,0:1:0:0:
176,207,162628,6,0,L|187:102,1,80,2|0,0:0|0:0,0:0:0:0:
77,54,162926,2,0,B|65:155|65:155|82:210,1,160,8|0,0:0|0:0,0:0:0:0:
155,301,163374,1,2,0:0:0:0:
325,254,163523,2,0,P|246:230|171:206,1,160,8|2,0:0|0:0,0:0:0:0:
65,155,163971,5,2,0:0:0:0:
179,90,164120,2,0,L|191:136,5,40,8|0|0|2|2|2,0:0|0:0|0:0|0:0|0:0|0:0,0:0:0:0:
267,59,164568,2,0,L|257:102,5,40,2|0|8|0|8|0,0:0|0:0|0:0|0:0|0:0|0:0,0:0:0:0:
340,99,165016,6,0,L|387:90,3,40,8|0|2|8,0:0|0:0|0:0|0:3,0:0:0:0:
380,167,165314,2,0,L|434:176,3,40,4|0|2|0,0:3|0:0|0:0|0:0,0:0:0:0:
375,245,165613,6,0,L|312:252,1,47.9999985351563,2|0,0:3|0:0,0:0:0:0:
265,196,165762,2,0,L|239:248,1,47.9999985351563,2|0,0:3|0:3,0:0:0:0:
228,322,165911,6,0,L|162:290,1,47.9999985351563,2|0,0:3|0:0,0:0:0:0:
121,248,166060,2,0,L|98:306,1,47.9999985351563,2|0,0:3|3:0,0:0:0:0:
140,366,166210,5,12,0:0:0:0:
110,171,166359,1,8,0:0:0:0:
419,273,166657,1,8,0:0:0:0:
419,273,166807,2,0,L|306:285,1,95.9999970703126,8|8,0:0|0:0,0:0:0:0:
107,38,167254,6,0,P|149:88|235:201,1,191.999994140625,12|8,0:0|0:0,0:0:0:0:
313,315,167702,1,12,0:0:0:0:
313,315,168598,6,0,B|251:287|197:310|197:310|138:334|75:314,1,240.000009155274,2|0,0:0|0:0,0:0:0:0:
79,315,169792,1,4,0:0:0:0:
161,60,179344,6,0,P|178:149|190:210,1,143.999995605469,2|2,0:0|0:0,0:0:0:0:
247,274,179792,2,0,P|173:245|85:221,2,143.999995605469,2|2|2,0:0|0:0|0:0,0:0:0:0:
316,336,180538,6,0,P|295:266|272:191,1,143.999995605469
385,47,181135,2,0,P|375:81|361:140,1,71.9999978027344,2|0,0:0|0:0,0:0:0:0:
374,238,181433,2,0,P|319:216|257:191,1,107.999996704102,2|0,0:0|0:0,0:0:0:0:
247,178,181732,6,0,P|238:264|228:343,1,143.999995605469,2|2,0:0|0:0,0:0:0:0:
128,368,182180,2,0,P|121:292|118:202,2,143.999995605469,2|2|2,0:0|0:0|0:0,0:0:0:0:
231,321,182926,1,0,0:0:0:0:
231,321,183523,6,0,P|266:317|323:312,1,71.9999978027344
316,196,183822,2,0,P|281:186|221:173,1,71.9999978027344,0|0,0:0|0:0,0:0:0:0:
146,284,184120,6,0,P|227:308|311:313,1,160,8|8,0:3|0:3,0:0:0:0:
403,287,184568,1,0,0:0:0:0:
430,186,184717,2,0,L|416:93,1,80,2|2,0:3|0:3,0:0:0:0:
246,177,185016,2,0,L|312:233,1,80,2|2,0:3|0:3,0:0:0:0:
320,125,185314,6,0,P|234:129|155:154,1,160,8|8,0:3|0:3,0:0:0:0:
84,218,185762,1,8,0:3:0:0:
149,298,185911,2,0,P|186:313|248:337,1,80,2|2,0:3|0:3,0:0:0:0:
84,218,186210,2,0,P|44:223|-21:233,1,80,2|2,0:3|0:3,0:0:0:0:
163,150,186508,6,0,P|180:59|131:16,1,160,6|2,0:0|0:0,0:0:0:0:
66,95,186956,1,2,0:0:0:0:
163,150,187105,1,10,0:0:0:0:
263,123,187254,1,10,0:0:0:0:
366,168,187404,1,10,0:0:0:0:
408,56,187553,1,10,0:0:0:0:
301,343,188001,6,0,P|203:309|136:307,1,160,2|0,0:0|0:0,0:0:0:0:
224,236,188448,2,0,P|216:156|187:82,1,160,2|0,0:0|0:0,0:0:0:0:
119,182,188896,6,0,B|195:222|217:138|305:182,1,184.000003509522,6|8,0:0|0:0,0:0:0:0:
424,240,189344,1,0,0:0:0:0:
334,318,189493,2,0,P|288:324|243:328,1,92.0000017547608,2|2,0:0|0:0,0:0:0:0:
119,182,189792,2,0,P|160:192|217:212,1,92.0000017547608,8|0,0:0|0:0,0:0:0:0:
342,137,190090,6,0,B|309:218|364:232|333:319,1,184.000003509522,6|8,0:0|0:0,0:0:0:0:
234,230,190538,1,0,0:0:0:0:
415,187,190687,2,0,P|428:232|431:279,1,92.0000017547608,2|2,0:0|0:0,0:0:0:0:
218,319,190986,2,0,P|221:273|234:229,1,92.0000017547608,8|0,0:0|0:0,0:0:0:0:
330,114,191284,6,0,B|318:302,1,184.000003509522,2|8,0:0|0:0,0:0:0:0:
144,207,191732,2,0,P|188:216|235:229,1,92.0000017547608,0|2,0:0|0:0,0:0:0:0:
410,290,192031,2,0,P|361:292|316:298,1,92.0000017547608,2|8,0:0|0:0,0:0:0:0:
200,352,192329,1,0,0:0:0:0:
52,252,192478,6,0,P|135:238|250:229,1,184.000003509522,2|8,0:0|0:0,0:0:0:0:
365,185,192926,1,0,0:0:0:0:
291,57,193075,2,0,P|271:100|258:152,1,92.0000017547608,2|2,0:0|0:0,0:0:0:0:
396,270,193374,2,0,P|383:225|364:184,1,92.0000017547608,8|8,3:0|0:3,0:0:0:0:
135,198,193672,6,0,P|223:226|316:254,1,184.000003509522,6|8,0:0|0:0,0:0:0:0:
364,184,194120,1,0,0:0:0:0:
259,316,194269,2,0,P|214:319|149:322,1,92.0000017547608,2|2,0:0|0:0,0:0:0:0:
396,270,194568,2,0,P|440:279|495:308,1,92.0000017547608,8|0,0:0|0:0,0:0:0:0:
280,200,194866,6,0,P|264:80|312:32,1,184.000003509522,2|8,0:0|0:0,0:0:0:0:
346,113,195314,1,0,0:0:0:0:
211,171,195463,2,0,B|98:199|126:126|21:158,1,184.000003509522,2|8,0:0|0:0,0:0:0:0:
68,246,195911,1,0,0:0:0:0:
162,88,196060,6,0,P|209:171|229:268,1,184.000003509522,4|8,0:0|0:0,0:0:0:0:
135,372,196508,1,2,0:0:0:0:
214,286,196657,1,8,0:0:0:0:
320,355,196807,1,2,0:0:0:0:
457,303,196956,2,0,P|411:286|358:266,1,92.0000017547608,8|2,0:0|0:0,0:0:0:0:
218,196,197254,6,0,P|305:196|418:172,1,184.000003509522,8|8,0:0|0:0,0:0:0:0:
297,113,197702,1,8,0:0:0:0:
199,222,197851,2,0,P|183:265|164:350,1,92.0000017547608,2|2,3:0|3:0,0:0:0:0:
275,274,198150,1,8,0:0:0:0:
113,210,198299,1,8,0:0:0:0:
55,361,198448,6,0,P|139:350|248:342,1,184.000003509522,6|8,0:0|0:0,0:0:0:0:
453,323,198896,2,0,P|351:299|265:270,1,184.000003509522,0|0,3:0|3:0,0:0:0:0:
155,228,199344,1,8,0:0:0:0:
288,166,199493,1,0,3:0:0:0:
173,55,199642,6,0,B|132:179|132:179|159:236,1,184.000003509522,6|8,0:0|0:0,0:0:0:0:
275,274,200090,1,0,3:0:0:0:
211,173,200239,1,0,0:0:0:0:
75,232,200389,1,0,3:0:0:0:
131,344,200538,2,0,P|146:300|166:238,1,92.0000017547608,8|0,0:0|3:0,0:0:0:0:
260,89,200836,6,0,P|265:181|277:296,1,184.000003509522,6|8,0:0|0:0,0:0:0:0:
421,210,201284,2,0,P|346:187|280:173,1,138.000002632141,4|0,0:0|0:0,0:0:0:0:
184,200,201583,2,0,P|107:215|35:223,1,138.000002632141,12|0,0:0|0:0,0:0:0:0:
9,142,201881,6,0,P|87:163|201:208,1,184.000003509522,12|0,0:0|0:0,0:0:0:0:
241,335,202329,2,0,P|250:293|261:237,1,92.0000017547608,8|0,0:0|0:0,0:0:0:0:
223,102,202628,1,2,0:0:0:0:
160,230,202777,1,2,0:0:0:0:
328,192,202926,1,8,0:3:0:0:
354,185,203001,1,8,0:3:0:0:
380,178,203075,1,8,0:3:0:0:
406,170,203150,1,8,0:3:0:0:
433,161,203225,6,0,B|325:192|325:192|252:143,1,192,6|2,0:0|0:0,0:0:0:0:
131,59,203822,1,8,0:0:0:0:
131,59,204419,6,0,P|155:117|59:92,1,192,6|2,0:0|0:0,0:0:0:0:
212,26,205016,1,8,0:0:0:0:
232,38,205613,6,0,B|281:167|224:298|224:298|186:228|217:182,1,384,6|0,0:0|0:0,0:0:0:0:
344,112,206657,5,8,0:0:0:0:
64,162,207105,1,8,0:0:0:0:
420,333,207553,6,0,B|349:304|349:304|285:320|285:320|217:294,1,207.999990478516,8|2,0:0|0:0,0:0:0:0:
97,232,208001,6,0,P|182:224|292:212,1,176.000005371094,4|8,0:0|0:0,0:0:0:0:
395,137,208448,2,0,P|366:220|343:316,1,176.000005371094,2|2,0:0|0:0,0:0:0:0:
275,182,208896,1,8,0:0:0:0:
198,261,209045,1,0,0:0:0:0:
74,192,209195,6,0,P|120:186|173:180,1,88.000002685547,2|0,0:0|0:0,0:0:0:0:
297,148,209493,1,8,0:0:0:0:
220,15,209642,2,0,P|188:98|158:192,1,176.000005371094,2|2,0:0|0:0,0:0:0:0:
324,260,210090,2,0,P|315:216|301:159,1,88.000002685547,8|0,0:0|0:0,0:0:0:0:
211,280,210389,6,0,L|396:326,1,176.000005371094,2|8,0:0|0:0,0:0:0:0:
478,204,210836,1,2,0:0:0:0:
478,204,210911,1,0,0:0:0:0:
478,204,210986,2,0,B|412:245|412:245|302:219,1,176.000005371094,0|8,0:0|0:0,0:0:0:0:
217,132,211433,1,0,0:0:0:0:
85,182,211583,6,0,B|74:225|74:225|84:276,1,88.000002685547,2|0,0:0|0:0,0:0:0:0:
220,218,211881,2,0,B|228:175|228:175|217:132,1,88.000002685547,8|2,0:0|0:0,0:0:0:0:
140,13,212180,5,8,0:0:0:0:
97,147,212329,1,8,0:0:0:0:
240,102,212478,1,8,0:0:0:0:
136,39,212628,1,8,0:0:0:0:
20,118,212777,6,0,P|10:160|2:229,1,88.000002685547,4|0,0:0|0:0,0:0:0:0:
236,303,213075,2,0,P|229:259|219:216,1,88.000002685547,8|2,0:0|0:0,0:0:0:0:
65,289,213374,2,0,B|142:330|171:266|239:304,1,176.000005371094,0|8,0:0|0:0,0:0:0:0:
341,351,213822,1,0,0:0:0:0:
436,248,213971,6,0,P|389:254|345:261,1,88.000002685547,2|0,0:0|0:0,0:0:0:0:
219,216,214269,1,8,0:0:0:0:
355,178,214419,1,2,0:0:0:0:
235,302,214568,1,0,0:0:0:0:
115,226,214717,2,0,P|104:184|99:124,1,88.000002685547,2|8,0:0|0:0,0:0:0:0:
206,176,215016,1,0,0:0:0:0:
190,315,215165,6,0,P|149:334|99:342,1,88.000002685547,2|0,0:0|0:0,0:0:0:0:
264,235,215463,2,0,P|305:243|348:259,1,88.000002685547,8|2,0:0|0:0,0:0:0:0:
479,321,215762,2,0,B|454:307|419:314|419:314|375:338|340:342|305:324,1,176.000005371094,0|8,0:0|0:0,0:0:0:0:
234,229,216210,1,0,0:0:0:0:
329,125,216359,6,0,P|337:169|347:230,1,88.000002685547,2|2,0:0|0:0,0:0:0:0:
213,314,216657,2,0,P|223:271|240:207,1,88.000002685547,0|8,0:0|0:0,0:0:0:0:
183,96,216956,1,2,0:0:0:0:
113,190,217105,1,4,0:3:0:0:
113,190,217180,1,0,0:0:0:0:
113,190,217254,1,8,3:2:0:0:
249,153,217404,1,8,3:2:0:0:
207,11,217553,6,0,P|194:52|179:106,1,88.000002685547,6|0,0:0|0:0,0:0:0:0:
135,274,217851,2,0,P|124:231|104:165,1,88.000002685547,8|0,0:0|0:0,0:0:0:0:
236,258,218150,2,0,B|309:300|336:226|414:277,1,176.000005371094,2|8,0:0|0:0,0:0:0:0:
360,344,218598,1,2,0:0:0:0:
283,195,218747,6,0,P|281:149|292:87,1,88.000002685547,0|2,0:0|0:0,0:0:0:0:
471,214,219045,2,0,P|439:247|388:284,1,88.000002685547,8|2,0:0|0:0,0:0:0:0:
283,195,219344,1,0,0:0:0:0:
391,133,219493,1,2,0:0:0:0:
407,274,219642,1,8,0:0:0:0:
285,222,219792,1,0,0:0:0:0:
152,268,219941,6,0,P|106:278|40:275,1,88.000002685547,2|0,0:0|0:0,0:0:0:0:
202,193,220239,2,0,P|243:203|292:226,1,88.000002685547,8|0,0:0|0:0,0:0:0:0:
324,357,220538,2,0,P|295:276|279:170,1,176.000005371094,2|8,0:0|0:0,0:0:0:0:
303,73,220986,1,0,0:0:0:0:
440,128,221135,6,0,P|391:135|347:141,1,88.000002685547,6|2,0:0|0:0,0:0:0:0:
193,172,221433,2,0,P|240:180|302:192,1,88.000002685547,8|2,0:0|0:0,0:0:0:0:
390,231,221732,1,8,0:0:0:0:
296,286,221881,1,2,0:0:0:0:
296,286,221956,1,0,0:0:0:0:
296,286,222031,1,8,0:0:0:0:
256,150,222180,1,2,0:0:0:0:
120,208,222329,6,0,P|98:246|80:294,1,88.000002685547,4|0,0:0|0:0,0:0:0:0:
256,150,222628,2,0,P|217:128|176:112,1,88.000002685547,8|0,0:0|0:0,0:0:0:0:
180,288,222926,2,0,P|242:286|326:269,1,132.00000402832,2|0,0:0|0:0,0:0:0:0:
343,261,223225,1,8,0:0:0:0:
453,348,223374,1,2,0:0:0:0:
430,249,223523,6,0,L|320:264,1,88.000002685547,0|2,0:0|0:0,0:0:0:0:
209,212,223822,1,8,0:0:0:0:
209,212,223971,1,2,0:0:0:0:
274,87,224120,2,0,L|297:189,1,88.000002685547,0|2,0:0|0:0,0:0:0:0:
318,345,224419,2,0,L|348:239,1,88.000002685547,8|0,0:0|0:0,0:0:0:0:
424,136,224717,5,2,0:0:0:0:
294,173,224866,1,0,0:0:0:0:
359,298,225016,1,8,0:0:0:0:
424,168,225165,1,0,0:0:0:0:
279,204,225314,6,0,P|158:200|98:163,1,176.000005371094,2|8,0:0|0:0,0:0:0:0:
184,112,225762,1,0,0:0:0:0:
208,264,225911,6,0,L|217:329,3,44.0000013427735,6|2|2|0,0:0|0:0|0:0|0:0,0:0:0:0:
295,287,226210,2,0,L|290:353,3,44.0000013427735,8|0|2|0,0:0|0:0|0:0|0:0,0:0:0:0:
370,246,226508,2,0,L|383:309,3,44.0000013427735,8|0|2|0,0:0|0:0|0:0|0:0,0:0:0:0:
463,280,226807,2,0,L|454:341,3,44.0000013427735,8|0|2|0,0:0|0:0|0:0|0:0,0:0:0:0:
437,199,227105,5,14,0:0:0:0:
295,287,227254,1,10,0:0:0:0:
295,4,227553,1,2,0:0:0:0:
295,4,227702,2,0,L|308:107,1,88.000002685547,10|10,0:0|0:0,0:0:0:0:
310,123,228150,6,0,P|200:92|110:86,1,176.000005371094,2|8,0:0|0:0,0:0:0:0:
24,224,228598,2,0,P|111:213|195:187,1,176.000005371094,12|0,0:0|0:0,0:0:0:0:
