osu file format v14

[General]
AudioFilename: audio.mp3
AudioLeadIn: 0
PreviewTime: 168598
Countdown: 0
SampleSet: Soft
StackLeniency: 0.7
Mode: 0
LetterboxInBreaks: 0
WidescreenStoryboard: 0

[Editor]
Bookmarks: 8598,89791,139941,169791,179343
DistanceSpacing: 0.5
BeatDivisor: 4
GridSize: 4
TimelineZoom: 2.700005

[Metadata]
Title:Paradisus-Paradoxum
TitleUnicode:Paradisus-Paradoxum
Artist:MYTH & ROID
ArtistUnicode:MYTH & ROID
Creator:Cellina
Version:Dailycare's Hard
Source:Re:ゼロから始める異世界生活
Tags:akitoshi kalibe nasya n_a_s_y_a shirakai toybot curi [c_u_r_i] reana dailycare habiholic re : zero kara hajimeru isekai seikatsu life in a different world from zero re:zero
BeatmapID:1106575
BeatmapSetID:510183

[Difficulty]
HPDrainRate:5
CircleSize:3.8
OverallDifficulty:6.8
ApproachRate:8
SliderMultiplier:1.41
SliderTickRate:1

[Events]
//Background and Video events
0,0,"710129.png",0,0
//Break Periods
2,30290,38892
2,90986,99344
2,140141,147549
2,169792,178594
//Storyboard Layer 0 (Background)
//Storyboard Layer 1 (Fail)
//Storyboard Layer 2 (Pass)
//Storyboard Layer 3 (Foreground)
//Storyboard Sound Samples

[TimingPoints]
1434,298.507462686567,4,2,1,20,1,0
8598,-100,4,2,1,60,0,0
10389,-100,4,2,0,60,0,0
10986,-100,4,2,1,70,0,0
15762,-181.818181818182,4,2,1,70,0,0
19642,-125,4,2,1,70,0,0
20538,-100,4,2,1,70,0,0
30090,-100,4,2,2,40,0,0
39642,-111.111111111111,4,2,1,60,0,0
48598,-100,4,2,0,20,0,0
48896,-100,4,2,0,40,0,0
49195,-100,4,2,1,60,0,0
60538,-100,4,2,0,60,0,0
61135,-100,4,2,1,75,0,1
75463,-181.818181818182,4,2,1,75,0,0
79344,-125,4,2,1,75,0,0
80239,-100,4,2,1,75,0,1
89792,-100,4,2,1,75,0,0
99344,-100,4,2,1,50,0,0
100538,-111.111111111111,4,2,3,60,0,0
107702,-111.111111111111,4,2,1,65,0,0
108896,-100,4,2,1,65,0,0
110687,-100,4,2,0,60,0,0
111284,-100,4,2,1,75,0,1
125613,-181.818181818182,4,2,1,75,0,0
129493,-125,4,2,1,75,0,0
130389,-100,4,2,1,75,0,1
139941,-100,4,2,1,75,0,0
148299,-100,4,2,1,60,0,0
153672,-125,4,2,0,50,0,0
154269,-100,4,2,1,60,0,0
179343,-181.818181818182,4,2,2,40,0,0
184119,-166.666666666667,4,2,1,65,0,0
184419,-153.846153846154,4,2,1,65,0,0
184717,-142.857142857143,4,2,1,65,0,0
185016,-133.333333333333,4,2,1,65,0,0
185314,-125,4,2,1,65,0,0
185613,-117.647058823529,4,2,1,65,0,0
185911,-111.111111111111,4,2,1,65,0,0
186210,-105.263157894737,4,2,1,65,0,0
186508,-100,4,2,1,65,0,0
187105,-83.3333333333333,4,2,1,65,0,0
187404,-71.4285714285714,4,2,1,65,0,0
188896,-95.2380952380952,4,2,1,80,0,1
193075,-100,4,2,1,80,0,1
203225,-181.818181818182,4,2,1,80,0,0
207105,-125,4,2,1,80,0,0
208001,-100,4,2,1,80,0,1
217478,-100,4,2,1,80,0,0
217553,-100,4,2,1,80,0,1
222254,-100,4,2,1,80,0,0
222329,-100,4,2,1,80,0,1
227105,-100,4,2,1,60,0,0

[Colours]
Combo1 : 255,128,255
Combo2 : 128,255,255
Combo3 : 192,192,192
Combo4 : 255,128,64

[HitObjects]
462,137,8598,6,0,L|359:144,1,70.5,10|10,0:0|0:0,0:0:0:0:
391,141,9045,5,2,0:0:0:0:
310,141,9195,2,0,L|217:138,1,70.5,10|10,0:0|0:0,0:0:0:0:
240,139,9642,6,0,L|81:147,1,141,2|10,0:0|0:0,0:0:0:0:
99,146,10090,1,10,0:0:0:0:
99,146,10986,6,0,P|63:193|84:280,1,141,6|8,0:1|0:0,0:0:0:0:
145,323,11433,2,0,L|286:318,1,141,2|2,0:0|0:0,0:0:0:0:
361,363,11881,2,0,P|372:325|369:284,1,70.5,8|0,0:0|0:0,0:0:0:0:
440,242,12180,6,0,B|423:170|423:170|453:103,1,141,2|8,0:0|0:0,0:0:0:0:
491,30,12628,1,2,0:0:0:0:
406,6,12777,2,0,P|366:9|335:16,1,70.5,0|2,0:0|0:0,0:0:0:0:
248,8,13075,2,0,L|262:93,1,70.5,8|0,0:0|0:0,0:0:0:0:
299,154,13374,6,0,P|257:123|160:144,1,141,2|8,0:0|0:0,0:0:0:0:
106,193,13822,2,0,B|37:200|37:200|-15:149,1,141,2|2,0:0|0:0,0:0:0:0:
29,227,14269,2,0,P|36:260|45:305,1,70.5,8|0,0:0|0:0,0:0:0:0:
142,371,14568,6,0,P|106:375|72:380,1,70.5,0|0,3:0|3:0,0:0:0:0:
156,284,14866,2,0,P|191:280|226:275,1,70.5,0|0,3:0|3:0,0:0:0:0:
286,348,15165,2,0,L|343:339,3,35.25,2|2|2|2,3:3|3:3|3:3|3:3,0:0:0:0:
347,325,15463,2,0,L|404:334,3,35.25,2|2|2|2,3:3|3:3|3:3|3:3,0:0:0:0:
408,351,15762,6,0,B|396:292|441:250|441:250|422:268|391:270,1,155.100004733277,6|8,0:0|0:0,0:0:0:0:
388,270,16956,6,0,B|367:152|367:152|396:190,1,155.100004733277,2|8,0:0|0:0,0:0:0:0:
397,190,18150,6,0,B|341:150|270:178|270:178|194:206|130:158,1,271.425008283234,2|8,0:0|0:0,0:0:0:0:
129,158,19642,6,0,P|164:109|151:40,1,112.8,8|0,0:0|0:0,0:0:0:0:
93,9,20090,2,0,L|50:15,5,28.2,8|0|0|0|0|0,0:0|0:0|0:0|0:0|0:0|0:0,0:0:0:0:
37,5,20538,6,0,P|2:35|12:124,1,141,6|8,0:0|0:0,0:0:0:0:
27,208,20986,2,0,P|63:201|110:197,1,70.5,2|0,0:0|0:0,0:0:0:0:
172,151,21284,2,0,L|167:322,1,141,2|0,0:0|0:0,0:0:0:0:
213,371,21732,5,2,0:0:0:0:
213,371,21881,2,0,P|256:381|294:383,1,70.5,0|8,0:0|0:0,0:0:0:0:
369,374,22180,2,0,B|360:215,1,141,2|2,0:0|0:0,0:0:0:0:
338,148,22628,2,0,L|438:159,1,70.5,8|0,0:0|0:0,0:0:0:0:
361,233,22926,6,0,P|262:219|211:214,1,141,2|8,0:0|0:0,0:0:0:0:
149,262,23374,2,0,P|137:219|136:186,1,70.5,2|0,0:0|0:0,0:0:0:0:
69,137,23672,2,0,P|125:150|194:81,1,141,2|0,0:0|0:0,0:0:0:0:
210,18,24120,5,2,0:0:0:0:
210,18,24269,2,0,P|275:11|287:12,1,70.5,0|8,0:0|0:0,0:0:0:0:
367,24,24568,2,0,P|328:43|307:140,1,141,2|2,0:0|0:0,0:0:0:0:
357,203,25016,1,8,0:0:0:0:
443,185,25165,1,8,0:0:0:0:
505,246,25314,6,0,P|529:311|482:390,1,141,6|8,0:0|0:0,0:0:0:0:
426,340,25762,1,2,0:0:0:0:
426,340,25836,1,0,0:0:0:0:
426,340,25911,2,0,P|368:328|272:317,1,141,0|8,0:0|0:0,0:0:0:0:
202,341,26359,1,0,0:0:0:0:
123,306,26508,6,0,P|131:252|141:164,1,141,2|8,0:0|0:0,0:0:0:0:
192,94,26956,2,0,P|142:131|54:111,1,141,2|2,0:0|0:0,0:0:0:0:
0,179,27404,2,0,P|7:214|19:259,1,70.5,8|0,0:0|0:0,0:0:0:0:
5,334,27702,6,0,B|108:318|108:318|167:351,1,141,2|8,0:0|0:0,0:0:0:0:
216,380,28150,1,2,0:0:0:0:
285,326,28299,2,0,P|280:242|273:172,1,141,0|8,0:0|0:0,0:0:0:0:
274,185,28896,6,0,P|233:189|171:198,1,70.5,2|2,0:0|0:0,0:0:0:0:
137,250,29195,1,2,0:3:0:0:
127,248,29270,1,2,0:3:0:0:
117,246,29344,2,0,P|99:210|159:106,1,141,2|2,0:3|0:0,0:0:0:0:
225,48,29792,2,0,L|221:83|217:118,1,70.5,10|10,0:0|0:0,0:0:0:0:
274,185,30090,5,4,0:0:0:0:
274,185,39642,6,0,P|337:175|394:220,1,126.899996127319,6|8,0:0|0:0,0:0:0:0:
410,288,40090,2,0,P|433:181|438:150,1,126.899996127319,2|2,0:0|0:0,0:0:0:0:
460,81,40538,2,0,P|428:81|396:83,1,63.4499980636597,8|0,0:0|0:0,0:0:0:0:
345,16,40836,6,0,P|357:58|307:131,1,126.899996127319,2|8,0:0|0:0,0:0:0:0:
247,175,41284,2,0,L|176:169,1,63.4499980636597,2|0,0:0|0:0,0:0:0:0:
110,214,41583,2,0,P|116:248|128:289,1,63.4499980636597,2|8,0:0|0:0,0:0:0:0:
172,349,41881,1,0,0:0:0:0:
172,349,42031,6,0,P|205:309|191:226,1,126.899996127319,2|8,0:0|0:0,0:0:0:0:
131,189,42478,2,0,L|-3:198,1,126.899996127319,2|2,0:0|0:0,0:0:0:0:
16,112,42926,2,0,L|93:107,1,63.4499980636597,8|0,0:0|0:0,0:0:0:0:
140,46,43225,6,0,P|181:80|271:67,1,126.899996127319,2|8,0:0|0:0,0:0:0:0:
310,15,43672,2,0,L|306:169,1,126.899996127319,2|8,0:0|3:0,0:0:0:0:
361,209,44120,2,0,L|361:266,3,31.7249990318299,2|2|2|2,3:0|3:0|3:0|3:0,0:0:0:0:
353,266,44419,6,0,P|458:244|495:238,1,126.899996127319,6|8,0:0|0:0,0:0:0:0:
434,166,44866,2,0,P|329:188|292:194,1,126.899996127319,2|2,0:0|0:0,0:0:0:0:
225,197,45314,2,0,P|211:236|205:261,1,63.4499980636597,8|0,0:0|0:0,0:0:0:0:
211,344,45613,6,0,P|174:370|88:359,1,126.899996127319,2|8,0:0|0:0,0:0:0:0:
11,352,46060,2,0,P|18:313|28:263,1,63.4499980636597,2|0,0:0|0:0,0:0:0:0:
104,267,46359,2,0,P|97:228|87:178,1,63.4499980636597,2|8,0:0|0:0,0:0:0:0:
37,139,46657,1,0,0:0:0:0:
175,193,46807,6,0,P|258:184|330:177,1,126.899996127319,8|8,0:0|0:0,0:0:0:0:
368,235,47254,1,0,0:0:0:0:
378,237,47329,1,0,0:0:0:0:
388,239,47404,2,0,P|423:201|421:144,1,95.1749970954896,8|0,0:0|0:0,0:0:0:0:
421,149,47702,2,0,P|408:112|411:83,1,63.4499980636597,8|0,0:0|0:0,0:0:0:0:
487,18,48001,6,0,L|496:123,2,84.599997418213,8|0|0,0:0|0:0|0:0,0:0:0:0:
487,18,49195,6,0,B|418:3|418:3|359:68,1,141,6|8,0:0|0:0,0:0:0:0:
302,109,49642,1,0,0:0:0:0:
217,80,49792,2,0,P|214:116|224:151,1,70.5,2|0,0:0|0:0,0:0:0:0:
288,265,50090,2,0,P|297:231|293:196,1,70.5,8|0,0:0|0:0,0:0:0:0:
223,148,50389,6,0,P|167:142|57:136,1,141,2|8,0:0|0:0,0:0:0:0:
2,175,50836,1,0,0:0:0:0:
40,256,50986,2,0,L|115:247,1,70.5,2|0,0:0|0:0,0:0:0:0:
173,308,51284,2,0,P|170:342|154:374,1,70.5,8|0,0:0|0:0,0:0:0:0:
109,247,51583,6,0,P|101:176|96:76,1,141,2|8,0:0|0:0,0:0:0:0:
130,25,52031,1,0,0:0:0:0:
195,83,52180,2,0,P|233:91|280:97,1,70.5,2|0,0:0|0:0,0:0:0:0:
409,40,52478,2,0,P|374:45|339:52,1,70.5,8|0,0:0|0:0,0:0:0:0:
264,95,52777,6,0,P|295:154|261:239,1,141,2|8,0:0|0:0,0:0:0:0:
314,301,53225,1,0,0:0:0:0:
387,254,53374,2,0,L|381:212,2,35.25,2|2|2,0:3|0:3|0:3,0:0:0:0:
457,305,53672,2,0,L|450:388,1,70.5,8|8,0:3|0:3,0:0:0:0:
508,238,53971,6,0,P|491:201|472:90,1,141,6|8,0:0|0:0,0:0:0:0:
409,40,54419,1,0,0:0:0:0:
330,73,54568,2,0,P|327:103|326:157,1,70.5,2|0,0:0|0:0,0:0:0:0:
271,278,54866,2,0,P|269:242|267:207,1,70.5,8|0,0:0|0:0,0:0:0:0:
190,168,55165,6,0,L|42:181,1,141,2|8,0:0|0:0,0:0:0:0:
7,106,55613,1,0,0:0:0:0:
15,19,55762,2,0,P|69:27|97:32,1,70.5,2|0,0:0|0:0,0:0:0:0:
157,81,56060,1,8,0:0:0:0:
157,81,56359,6,0,P|206:94|268:52,1,105.75,8|0,0:0|0:0,0:0:0:0:
263,63,56657,2,0,L|261:149,1,70.5,8|0,0:0|0:0,0:0:0:0:
349,261,56956,6,0,B|371:271|382:267|382:267|379:258|347:235,1,70.5,8|0,0:0|0:0,0:0:0:0:
191,204,57254,2,0,B|166:208|160:218|160:218|167:223|207:223,1,70.5,8|0,0:0|0:0,0:0:0:0:
352,165,57553,2,0,B|368:146|367:135|367:135|359:135|326:158,1,70.5,8|0,0:0|0:0,0:0:0:0:
252,284,57851,2,0,B|249:308|256:317|256:317|263:312|276:274,1,70.5,8|0,0:0|0:0,0:0:0:0:
261,133,58150,2,0,B|248:111|237:108|237:108|234:117|247:155,1,70.5,8|0,0:0|0:0,0:0:0:0:
386,243,58448,1,8,0:0:0:0:
386,243,58747,6,0,L|282:237,1,70.5,10|10,0:0|0:0,0:0:0:0:
316,239,59194,5,2,0:0:0:0:
234,234,59344,2,0,L|134:241,1,70.5,10|10,0:0|0:0,0:0:0:0:
164,239,59791,6,0,L|4:225,1,141,2|10,0:0|0:0,0:0:0:0:
24,227,60239,1,10,0:0:0:0:
24,227,61135,6,0,P|76:217|156:296,1,141,6|8,0:0|0:0,0:0:0:0:
227,234,61583,2,0,L|243:87,1,141,2|2,0:0|0:0,0:0:0:0:
218,11,62031,2,0,P|261:6|293:6,1,70.5,8|0,0:0|0:0,0:0:0:0:
373,34,62329,5,2,0:0:0:0:
373,34,62478,2,0,P|369:75|362:115,1,70.5,0|8,0:0|0:0,0:0:0:0:
316,179,62777,2,0,P|357:152|467:177,1,141,2|2,0:0|0:0,0:0:0:0:
499,231,63225,2,0,P|502:272|510:312,1,70.5,8|0,0:0|0:0,0:0:0:0:
455,371,63523,6,0,P|404:367|295:362,1,141,2|8,0:0|0:0,0:0:0:0:
255,296,63971,2,0,P|204:300|95:305,1,141,2|2,0:0|0:0,0:0:0:0:
28,291,64419,2,0,P|33:329|39:380,1,70.5,8|0,0:0|0:0,0:0:0:0:
114,304,64717,6,0,P|120:213|127:131,1,141,2|8,0:0|0:0,0:0:0:0:
124,163,65314,2,0,L|120:110,3,35.25,2|2|2|2,0:3|0:3|0:3|0:3,0:0:0:0:
106,102,65613,2,0,L|110:49,3,35.25,8|8|8|8,0:3|0:3|0:3|0:3,0:0:0:0:
127,40,65911,6,0,P|71:32|32:29,1,70.5,6|0,0:0|0:0,0:0:0:0:
199,88,66210,2,0,P|234:84|268:78,1,70.5,8|2,0:0|0:0,0:0:0:0:
346,115,66508,2,0,P|339:157|331:198,1,70.5,0|2,0:0|0:0,0:0:0:0:
268,78,66807,2,0,P|261:43|255:8,1,70.5,8|0,0:0|0:0,0:0:0:0:
344,6,67105,6,0,P|379:38|491:24,1,141,2|8,0:0|0:0,0:0:0:0:
508,117,67553,1,2,0:0:0:0:
434,162,67702,2,0,P|439:226|453:325,1,141,0|8,0:0|0:0,0:0:0:0:
286,240,68299,5,10,0:0:0:0:
137,327,68598,2,0,P|102:328|69:299,1,70.5,10|0,0:0|0:0,0:0:0:0:
52,226,68896,2,0,P|68:195|110:181,1,70.5,10|0,0:0|0:0,0:0:0:0:
181,202,69195,2,0,P|199:231|190:274,1,70.5,10|0,0:0|0:0,0:0:0:0:
137,327,69493,6,0,P|94:294|-8:305,1,141,2|2,0:3|0:3,0:0:0:0:
38,212,69941,1,2,0:3:0:0:
1,137,70090,2,0,P|-5:85|-4:50,1,70.5,8|8,0:3|0:3,0:0:0:0:
58,8,70389,1,8,0:0:0:0:
110,76,70538,1,8,0:0:0:0:
188,40,70687,6,0,P|251:37|323:95,1,141,6|8,0:0|0:0,0:0:0:0:
335,166,71135,2,0,L|481:158,1,141,2|2,0:0|0:0,0:0:0:0:
511,78,71583,2,0,P|515:32|516:-7,1,70.5,8|0,0:0|0:0,0:0:0:0:
425,3,71881,6,0,B|389:59|389:59|418:150,1,141,2|8,0:0|0:0,0:0:0:0:
440,214,72329,1,2,0:0:0:0:
510,273,72478,2,0,P|520:308|519:348,1,70.5,0|2,0:0|0:0,0:0:0:0:
434,371,72777,2,0,P|424:336|425:296,1,70.5,8|0,0:0|0:0,0:0:0:0:
440,214,73075,6,0,P|352:221|281:228,1,141,2|8,0:0|0:0,0:0:0:0:
230,284,73523,2,0,P|264:226|236:131,1,141,2|2,0:0|0:0,0:0:0:0:
176,109,73971,2,0,P|184:57|194:10,1,70.5,8|0,0:0|0:0,0:0:0:0:
270,14,74269,6,0,P|318:22|416:44,1,141,2|8,0:0|0:0,0:0:0:0:
187,39,74866,2,0,P|139:31|41:9,1,141,0|8,0:0|0:0,0:0:0:0:
246,105,75463,6,0,B|234:152|260:193|260:193|238:166|201:158,1,155.100004733277,6|8,0:0|0:0,0:0:0:0:
195,159,76657,6,0,P|233:194|217:295,1,155.100004733277,2|8,0:0|0:0,0:0:0:0:
211,299,77851,6,0,B|267:259|338:287|338:287|414:315|478:267,1,271.425008283234,2|8,0:0|0:0,0:0:0:0:
480,266,79344,6,0,P|485:233|496:141,1,112.8,8|0,0:0|0:0,0:0:0:0:
413,123,79792,2,0,L|416:151,5,28.2,8|0|0|0|0|0,0:0|0:0|0:0|0:0|0:0|0:0,0:0:0:0:
409,179,80239,6,0,P|368:170|262:158,1,141,6|8,0:0|0:0,0:0:0:0:
186,128,80687,2,0,P|179:162|174:212,1,70.5,2|0,0:0|0:0,0:0:0:0:
179,284,80986,2,0,P|155:242|50:237,1,141,2|0,0:0|0:0,0:0:0:0:
1,281,81433,5,2,0:0:0:0:
1,281,81583,2,0,P|7:315|13:365,1,70.5,0|8,0:0|0:0,0:0:0:0:
95,378,81881,2,0,P|130:333|112:228,1,141,2|2,0:0|0:0,0:0:0:0:
54,203,82329,2,0,P|48:163|46:110,1,70.5,8|0,0:0|0:0,0:0:0:0:
87,56,82628,6,0,L|230:72,1,141,2|8,0:0|0:0,0:0:0:0:
314,44,83075,1,2,0:0:0:0:
326,41,83150,1,0,0:0:0:0:
339,38,83225,2,0,P|359:86|302:168,1,141,0|8,0:0|0:0,0:0:0:0:
381,225,83672,1,0,0:0:0:0:
313,280,83822,6,0,P|317:317|324:352,1,70.5,2|0,0:0|0:0,0:0:0:0:
248,224,84120,2,0,P|254:189|258:154,1,70.5,8|2,0:0|0:0,0:0:0:0:
166,240,84419,2,0,L|125:243,7,35.25,8|8|8|8|2|0|2|2,0:3|0:3|0:3|0:3|0:3|0:0|0:3|0:3,0:0:0:0:
104,254,85016,6,0,P|97:205|85:152,1,70.5,6|0,0:0|0:0,0:0:0:0:
182,82,85314,2,0,P|175:116|170:151,1,70.5,8|2,0:0|0:0,0:0:0:0:
240,208,85613,2,0,P|320:201|399:198,1,141,0|8,0:0|0:0,0:0:0:0:
463,169,86060,6,0,P|489:205|478:296,1,141,0|0,0:0|0:0,0:0:0:0:
383,368,86508,2,0,P|426:372|475:381,1,70.5,8|2,0:0|0:0,0:0:0:0:
399,270,86807,2,0,P|364:275|329:278,1,70.5,0|2,0:0|0:0,0:0:0:0:
244,301,87105,1,8,0:0:0:0:
244,301,87254,6,0,L|260:141,1,141,0|0,0:0|0:0,0:0:0:0:
231,77,87702,2,0,P|277:71|332:69,1,70.5,8|2,0:0|0:0,0:0:0:0:
386,51,88001,2,0,P|343:50|260:-10,1,141,0|10,0:0|0:0,0:0:0:0:
183,27,88448,6,0,P|173:134|169:184,1,141,0|10,0:0|0:0,0:0:0:0:
100,226,88896,2,0,L|110:306,1,70.5,10|10,0:0|0:0,0:0:0:0:
242,271,89195,2,0,L|250:201,1,70.5,2|8,0:0|0:0,0:0:0:0:
170,167,89493,1,8,0:0:0:0:
170,167,89642,1,8,0:0:0:0:
109,127,100538,6,0,B|150:175|150:175|230:162,1,126.899996127319,12|8,0:0|0:0,0:0:0:0:
316,202,100986,2,0,B|275:154|275:154|195:167,1,126.899996127319,0|8,0:0|0:0,0:0:0:0:
86,185,101433,6,0,L|211:164,1,126.899996127319,0|8,0:0|0:0,0:0:0:0:
337,144,101881,2,0,L|212:164,1,126.899996127319,0|8,0:0|0:0,0:0:0:0:
189,28,102329,6,0,L|180:91,1,63.4499980636597,0|0,0:0|0:0,0:0:0:0:
211,164,102628,2,0,L|201:226,1,63.4499980636597,2|0,0:0|0:0,0:0:0:0:
233,300,102926,6,0,P|271:273|368:292,1,126.899996127319,8|0,0:0|0:0,0:0:0:0:
463,255,103374,2,0,P|425:282|328:263,1,126.899996127319,8|0,0:0|0:0,0:0:0:0:
330,378,103822,6,0,B|302:322|302:322|347:277,1,126.899996127319,8|8,0:0|0:0,0:0:0:0:
365,176,104269,2,0,B|393:232|393:232|347:277,1,126.899996127319,0|8,0:0|0:0,0:0:0:0:
266,311,104717,6,0,L|177:298,1,63.4499980636597,0|0,0:0|0:0,0:0:0:0:
154,233,105016,2,0,L|65:246,1,63.4499980636597,2|0,0:0|0:0,0:0:0:0:
15,291,105314,6,0,P|1:242|3:203,1,63.4499980636597,8|0,0:0|0:0,0:0:0:0:
57,163,105613,2,0,P|53:131|42:101,1,63.4499980636597,8|0,0:0|0:0,0:0:0:0:
71,24,105911,6,0,L|141:32,1,63.4499980636597,8|0,0:0|0:0,0:0:0:0:
196,108,106210,2,0,L|132:115,1,63.4499980636597,8|0,0:0|0:0,0:0:0:0:
224,28,106508,6,0,P|257:23|293:29,1,63.4499980636597,8|0,0:0|0:0,0:0:0:0:
316,108,106807,2,0,L|379:115,1,63.4499980636597,8|0,0:0|0:0,0:0:0:0:
441,24,107105,6,0,L|371:32,1,63.4499980636597,8|0,0:0|0:0,0:0:0:0:
469,101,107404,2,0,P|458:131|455:163,1,63.4499980636597,10|0,0:0|0:0,0:0:0:0:
511,229,107702,6,0,P|445:216|384:208,1,126.899996127319,8|8,0:3|0:3,0:0:0:0:
308,246,108150,1,8,0:3:0:0:
308,246,108225,1,8,0:3:0:0:
308,246,108299,2,0,B|276:198|294:152|294:152|310:105|274:61,1,190.349994190979,2|8,0:3|0:0,0:0:0:0:
227,0,108896,6,0,P|202:35|204:82,1,70.5,10|10,0:0|0:0,0:0:0:0:
199,60,109344,5,2,0:0:0:0:
256,141,109493,2,0,P|267:166|260:223,1,70.5,10|10,0:0|0:0,0:0:0:0:
266,209,109941,6,0,P|213:256|214:340,1,141,2|10,0:0|0:0,0:0:0:0:
208,323,110389,1,10,0:0:0:0:
208,323,111284,6,0,P|253:366|348:346,1,141,6|8,0:0|0:0,0:0:0:0:
414,374,111732,2,0,P|404:311|393:218,1,141,2|2,0:0|0:0,0:0:0:0:
407,151,112180,2,0,P|443:156|503:170,1,70.5,8|0,0:0|0:0,0:0:0:0:
504,82,112478,5,2,0:0:0:0:
504,82,112628,2,0,P|468:77|408:63,1,70.5,0|0,0:0|0:0,0:0:0:0:
364,20,112926,2,0,P|307:68|315:158,1,141,2|2,0:0|0:0,0:0:0:0:
346,205,113374,2,0,P|358:246|366:279,1,70.5,8|0,0:0|0:0,0:0:0:0:
308,337,113672,6,0,P|270:326|166:309,1,141,2|8,0:0|0:0,0:0:0:0:
146,225,114120,2,0,P|108:236|4:253,1,141,2|2,0:0|0:0,0:0:0:0:
20,339,114568,2,0,P|52:354|101:379,1,70.5,8|0,0:0|0:0,0:0:0:0:
8,252,114866,6,0,P|5:194|-1:85,1,141,2|8,0:0|0:0,0:0:0:0:
0,111,115463,2,0,L|60:117,3,35.25,2|2|2|2,0:3|0:3|0:3|0:3,0:0:0:0:
62,101,115762,2,0,L|97:97,3,35.25,8|8|8|8,0:3|0:3|0:3|0:3,0:0:0:0:
124,113,116060,6,0,P|143:73|146:20,1,70.5,6|0,0:0|0:0,0:0:0:0:
207,138,116359,2,0,L|214:212,1,70.5,8|2,0:0|0:0,0:0:0:0:
192,294,116657,2,0,P|151:292|110:286,1,70.5,0|2,0:0|0:0,0:0:0:0:
213,208,116956,2,0,P|247:203|283:202,1,70.5,8|0,0:0|0:0,0:0:0:0:
366,168,117254,6,0,P|399:215|393:308,1,141,2|8,0:0|0:0,0:0:0:0:
431,379,117702,1,2,0:0:0:0:
510,338,117851,2,0,P|518:280|531:180,1,141,0|8,0:0|0:0,0:0:0:0:
424,58,118448,5,10,0:0:0:0:
273,138,118747,2,0,P|252:166|256:209,1,70.5,10|0,0:0|0:0,0:0:0:0:
306,265,119045,2,0,P|340:269|376:243,1,70.5,10|0,0:0|0:0,0:0:0:0:
400,173,119344,2,0,P|386:141|346:124,1,70.5,10|0,0:0|0:0,0:0:0:0:
273,138,119642,6,0,P|251:197|224:287,1,141,10|10,0:0|0:0,0:0:0:0:
230,360,120090,1,10,0:0:0:0:
144,345,120239,2,0,P|133:307|127:271,1,70.5,2|2,0:3|0:3,0:0:0:0:
164,196,120538,1,8,0:3:0:0:
96,139,120687,1,8,0:3:0:0:
138,62,120836,6,0,P|217:68|306:84,1,141,6|8,0:0|0:0,0:0:0:0:
359,40,121284,2,0,P|379:153|389:200,1,141,2|2,0:0|0:0,0:0:0:0:
331,249,121732,2,0,P|365:268|401:284,1,70.5,8|0,0:0|0:0,0:0:0:0:
463,341,122031,5,2,0:0:0:0:
463,341,122180,2,0,P|474:300|487:257,1,70.5,0|8,0:0|0:0,0:0:0:0:
500,186,122478,2,0,P|475:158|365:160,1,141,2|2,0:0|0:0,0:0:0:0:
322,221,122926,2,0,P|282:228|242:234,1,70.5,8|0,0:0|0:0,0:0:0:0:
214,312,123225,6,0,P|189:340|79:338,1,141,2|8,0:0|0:0,0:0:0:0:
4,338,123672,2,0,P|18:275|33:178,1,141,2|2,0:0|0:0,0:0:0:0:
22,111,124120,2,0,P|56:116|91:122,1,70.5,8|0,0:0|0:0,0:0:0:0:
174,152,124419,6,0,P|190:110|219:3,1,141,2|8,0:0|0:0,0:0:0:0:
91,122,125016,2,0,P|75:164|46:271,1,141,0|8,0:0|0:3,0:0:0:0:
33,31,125613,6,0,B|78:38|118:0|118:0|117:35|133:62,1,155.100004733277,6|0,0:0|0:0,0:0:0:0:
140,71,126807,6,0,B|169:111|218:98|218:98|252:66|235:21,1,155.100004733277,2|0,0:0|0:0,0:0:0:0:
231,30,128001,6,0,B|191:86|219:157|219:157|247:233|199:297,1,271.425008283234,2|8,0:0|0:0,0:0:0:0:
195,305,129493,6,0,P|257:300|329:296,1,112.8,8|0,0:0|0:0,0:0:0:0:
381,344,129941,2,0,L|388:299,5,28.2,8|0|0|0|0|0,0:0|0:0|0:0|0:0|0:0|0:0,0:0:0:0:
408,296,130389,6,0,P|388:259|288:244,1,141,6|8,0:0|0:0,0:0:0:0:
227,295,130836,2,0,P|216:259|208:219,1,70.5,2|0,0:0|0:0,0:0:0:0:
130,187,131135,2,0,P|200:179|269:168,1,141,2|0,0:0|0:0,0:0:0:0:
356,142,131583,5,2,0:0:0:0:
356,142,131732,2,0,L|348:217,1,70.5,0|8,0:0|0:0,0:0:0:0:
404,282,132031,2,0,P|444:260|462:163,1,141,2|2,0:0|0:0,0:0:0:0:
507,97,132478,2,0,P|501:59|496:13,1,70.5,8|0,0:0|0:0,0:0:0:0:
412,45,132777,6,0,P|376:30|259:21,1,141,2|8,0:0|0:0,0:0:0:0:
192,42,133225,1,2,0:0:0:0:
192,42,133299,1,0,0:0:0:0:
192,42,133374,2,0,P|198:94|215:190,1,141,0|8,0:0|0:0,0:0:0:0:
162,256,133822,1,0,0:0:0:0:
70,245,133971,6,0,P|78:202|87:164,1,70.5,2|0,0:0|0:0,0:0:0:0:
162,256,134269,2,0,P|169:290|175:325,1,70.5,8|2,0:0|0:0,0:0:0:0:
253,372,134568,2,0,P|257:351|260:332,7,35.25,8|8|8|8|2|2|2|2,0:3|0:3|0:3|0:3|0:3|0:3|0:3|0:3,0:0:0:0:
280,317,135165,6,0,P|277:279|272:230,1,70.5,6|0,0:0|0:0,0:0:0:0:
363,149,135463,2,0,P|359:184|356:219,1,70.5,8|2,0:0|0:0,0:0:0:0:
407,291,135762,2,0,P|481:301|526:248,1,141,0|8,0:0|0:0,0:0:0:0:
473,183,136210,6,0,P|463:145|440:43,1,141,0|0,0:0|0:0,0:0:0:0:
363,149,136657,2,0,P|360:191|357:234,1,70.5,8|2,0:0|0:0,0:0:0:0:
279,62,136956,2,0,P|316:59|369:58,1,70.5,0|2,0:0|0:0,0:0:0:0:
230,138,137254,1,8,0:0:0:0:
150,97,137404,6,0,P|143:46|140:13,2,70.5,0|0|0,0:0|0:0|0:0,0:0:0:0:
122,182,137851,2,0,P|118:217|113:251,1,70.5,8|2,0:0|0:0,0:0:0:0:
143,336,138150,2,0,P|116:302|8:293,1,141,0|8,0:0|0:0,0:0:0:0:
0,201,138598,6,0,P|-5:136|-9:50,1,141,0|10,0:0|0:0,0:0:0:0:
168,107,139045,2,0,P|165:154|161:193,1,70.5,2|2,0:3|0:3,0:0:0:0:
82,102,139344,2,0,P|78:66|76:31,1,70.5,2|2,0:3|0:0,0:0:0:0:
256,11,139642,2,0,L|253:46|250:81,1,70.5,2|10,0:0|0:0,0:0:0:0:
221,177,139941,5,4,0:0:0:0:
221,177,148299,6,0,B|196:202|196:202|211:246,1,70.5,8|8,0:3|0:3,0:0:0:0:
363,285,148598,2,0,B|388:260|388:260|373:216,1,70.5,8|0,0:3|0:0,0:0:0:0:
303,157,148896,6,0,L|296:240,1,70.5,2|2,0:3|0:3,0:0:0:0:
287,313,149195,2,0,L|280:396,1,70.5,8|0,0:0|0:0,0:0:0:0:
208,253,149493,5,6,0:0:0:0:
208,253,149642,2,0,L|201:336,1,70.5,0|8,0:0|0:0,0:0:0:0:
117,350,149941,2,0,L|130:199,2,141,2|2|0,0:0|0:0|0:0,0:0:0:0:
202,323,150687,6,0,L|208:253,2,70.5,2|0|8,0:0|0:0|0:0,0:0:0:0:
42,266,151284,2,0,L|47:195,2,70.5,0|2|8,0:0|0:0|0:0,0:0:0:0:
213,182,151881,5,2,0:0:0:0:
213,182,152030,2,0,L|206:265,1,70.5,0|8,0:0|0:0,0:0:0:0:
287,293,152329,2,0,L|300:142,2,141,2|2|0,0:0|0:0|0:0,0:0:0:0:
207,252,153075,6,0,L|212:181,2,70.5,2|0|8,0:0|0:0|0:0,0:0:0:0:
376,217,153672,6,0,L|383:137,2,56.4,2|2|0,0:0|0:0|0:0,0:0:0:0:
387,91,154269,5,6,0:0:0:0:
387,91,154418,2,0,L|380:174,1,70.5,0|8,0:0|0:0,0:0:0:0:
294,182,154717,2,0,L|307:31,2,141,2|2|0,0:0|0:0|0:0,0:0:0:0:
381,161,155463,6,0,L|386:90,2,70.5,2|0|8,0:0|0:0|0:0,0:0:0:0:
215,173,156060,2,0,L|220:102,2,70.5,0|2|8,0:0|0:0|0:0,0:0:0:0:
58,26,156657,6,0,L|44:166,1,141,2|8,0:0|0:0,0:0:0:0:
0,240,157105,2,0,P|56:281|130:270,1,141,2|2,0:0|0:0,0:0:0:0:
209,181,157553,2,0,P|183:181|138:186,1,70.5,8|0,0:0|0:0,0:0:0:0:
206,294,157851,6,0,P|240:298|276:299,1,70.5,8|8,0:3|0:3,0:0:0:0:
339,363,158150,2,0,P|373:358|409:357,1,70.5,8|8,0:3|0:3,0:0:0:0:
500,300,158448,2,0,L|492:378,1,70.5,2|2,0:3|0:3,0:0:0:0:
392,271,158747,2,0,L|384:200,1,70.5,8|8,0:0|0:0,0:0:0:0:
432,126,159045,5,6,0:0:0:0:
432,126,159195,2,0,P|394:116|336:116,1,70.5,0|0,0:0|0:0,0:0:0:0:
282,79,159493,2,0,P|273:149|270:237,1,141,2|2,0:0|0:0,0:0:0:0:
296,303,159941,2,0,P|254:316|219:319,1,70.5,8|0,0:0|0:0,0:0:0:0:
151,367,160239,5,2,0:0:0:0:
151,367,160389,1,0,0:0:0:0:
151,367,160538,2,0,L|145:272,1,70.5,8|2,0:0|0:0,0:0:0:0:
72,193,160836,5,0,0:0:0:0:
72,193,160986,1,2,0:0:0:0:
72,193,161135,2,0,L|66:288,1,70.5,8|0,0:0|0:0,0:0:0:0:
189,218,161433,5,2,0:0:0:0:
189,218,161583,2,0,P|197:176|195:131,1,70.5,0|0,0:0|0:0,0:0:0:0:
148,73,161881,2,0,P|184:113|290:111,1,141,2|2,0:0|0:0,0:0:0:0:
339,176,162329,2,0,P|355:133|364:91,1,70.5,8|0,0:0|0:0,0:0:0:0:
400,19,162628,5,2,0:0:0:0:
400,19,162777,1,0,0:0:0:0:
400,19,162926,2,0,L|299:25,1,70.5,8|2,0:0|0:0,0:0:0:0:
441,108,163225,5,0,0:0:0:0:
441,108,163374,1,2,0:0:0:0:
441,108,163523,2,0,L|542:114,1,70.5,8|0,0:0|0:0,0:0:0:0:
371,166,163822,6,0,B|332:221|332:221|357:320,1,141,2|2,0:3|0:3,0:0:0:0:
403,364,164269,2,0,P|346:335|248:307,1,141,8|8,0:3|0:3,0:0:0:0:
183,296,164717,2,0,P|188:341|194:374,1,70.5,0|0,0:0|0:0,0:0:0:0:
272,311,165016,6,0,P|294:266|279:188,1,105.75,10|0,0:0|0:0,0:0:0:0:
286,201,165314,2,0,P|248:195|204:193,1,70.5,10|10,0:0|0:0,0:0:0:0:
133,221,165613,1,10,0:0:0:0:
77,153,165762,1,2,0:0:0:0:
0,197,165911,2,0,P|2:235|7:270,1,70.5,2|2,0:0|0:0,0:0:0:0:
87,380,166210,6,0,P|102:348|98:309,1,70.5,8|0,0:0|0:0,0:0:0:0:
99,313,166657,5,10,0:0:0:0:
72,234,166807,2,0,P|58:203|65:163,1,70.5,10|0,0:0|0:0,0:0:0:0:
62,167,167254,6,0,P|92:114|72:23,1,141,10|2,0:0|0:0,0:0:0:0:
81,37,167702,1,10,0:0:0:0:
92,60,179344,6,0,B|47:87|36:153|75:197|75:197|119:197|154:172|159:120,1,271.425008283234,2|2,0:0|0:0,0:0:0:0:
157,132,181135,2,0,L|165:217,1,77.5500023666383,2|2,0:0|0:0,0:0:0:0:
149,298,181732,6,0,B|221:281|221:281|300:364|300:364|388:343,1,271.425008283234,2|2,0:0|0:0,0:0:0:0:
380,344,183523,2,0,L|394:216,1,116.325003549957,0|0,0:0|0:0,0:0:0:0:
392,116,184120,6,0,P|372:136|361:158,1,42.2999987091065
303,249,184419,2,0,L|296:195,1,45.8249979022981
254,74,184717,2,0,L|260:122,1,49.3499984939576
209,210,185016,2,0,P|194:231|174:248,1,52.8750020170213
73,159,185314,6,0,P|103:161|142:172,1,56.4
144,46,185613,2,0,P|167:64|194:101,1,59.9250011429787
274,0,185911,2,0,P|284:35|285:77,1,63.4499980636597
329,207,186210,2,0,P|331:175|343:142,1,66.9749982115746
434,122,186508,6,0,L|445:187,3,35.25,2|2|2|2,0:0|0:0|0:0|0:0,0:0:0:0:
460,176,186807,2,0,L|454:249,1,70.5,2|0,0:0|0:0,0:0:0:0:
283,219,187105,6,0,L|367:209,1,84.599997418213,10|10,0:0|0:0,0:0:0:0:
494,337,187404,2,0,L|397:325,1,98.6999969879151,10|0,0:0|0:0,0:0:0:0:
397,325,188896,6,0,P|390:288|384:239,1,74.0249977409364,6|0,0:0|0:0,0:0:0:0:
318,145,189195,2,0,P|313:181|306:218,1,74.0249977409364,8|0,0:0|0:0,0:0:0:0:
223,310,189493,2,0,L|307:305,1,74.0249977409364,2|0,0:0|0:0,0:0:0:0:
222,197,189792,2,0,L|138:192,1,74.0249977409364,8|0,0:0|0:0,0:0:0:0:
0,251,190090,6,0,P|1:298|11:332,1,74.0249977409364,2|0,0:0|0:0,0:0:0:0:
79,223,190389,2,0,P|87:187|86:150,1,74.0249977409364,8|0,0:0|0:0,0:0:0:0:
90,7,190687,2,0,L|2:15,1,74.0249977409364,2|0,0:0|0:0,0:0:0:0:
137,81,190986,2,0,P|184:64|262:71,1,111.037496611405,8|0,0:0|0:0,0:0:0:0:
253,71,191284,6,0,P|302:82|394:28,1,148.049995481873,2|8,0:0|0:0,0:0:0:0:
462,105,191732,1,0,0:0:0:0:
462,105,191807,1,0,0:0:0:0:
462,105,191881,2,0,L|453:191,1,74.0249977409364,2|0,0:0|0:0,0:0:0:0:
396,243,192180,1,8,0:0:0:0:
435,384,192329,6,0,P|484:353|467:256,1,148.049995481873,0|8,0:0|0:0,0:0:0:0:
310,272,192777,2,0,P|271:277|224:286,1,74.0249977409364,8|0,0:0|0:0,0:0:0:0:
161,332,193075,2,0,L|99:324,3,35.25,8|8|8|8,0:3|0:3|0:3|0:3,0:0:0:0:
108,303,193374,2,0,L|46:311,3,35.25,2|2|0|2,0:3|0:3|0:0|0:3,0:0:0:0:
48,322,193672,6,0,P|32:285|36:237,1,70.5,6|0,0:0|0:0,0:0:0:0:
113,128,193971,2,0,P|111:162|96:194,1,70.5,8|0,0:0|0:0,0:0:0:0:
171,241,194269,2,0,L|243:238,1,70.5,2|0,0:0|0:0,0:0:0:0:
341,159,194568,2,0,L|269:156,1,70.5,8|0,0:0|0:0,0:0:0:0:
202,97,194866,6,0,P|239:46|338:57,1,141,2|8,0:0|0:0,0:0:0:0:
396,14,195314,1,0,0:0:0:0:
464,70,195463,2,0,L|455:218,1,141,2|8,0:0|0:0,0:0:0:0:
353,354,196060,5,10,0:0:0:0:
234,231,196359,2,0,P|230:189|254:154,1,70.5,10|0,0:0|0:0,0:0:0:0:
322,129,196657,2,0,P|360:146|378:184,1,70.5,10|2,0:0|0:0,0:0:0:0:
366,256,196956,2,0,P|331:280|289:277,1,70.5,10|2,0:0|0:0,0:0:0:0:
234,231,197254,6,0,P|167:235|87:244,1,141,8|8,0:0|0:0,0:0:0:0:
11,274,197702,1,8,0:0:0:0:
30,359,197851,2,0,P|48:361|121:368,1,70.5,8|8,0:3|0:3,0:0:0:0:
172,317,198150,1,10,0:3:0:0:
254,348,198299,1,10,0:3:0:0:
310,282,198448,6,0,P|324:236|268:146,1,141,6|8,0:0|0:0,0:0:0:0:
221,95,198896,2,0,P|265:103|391:113,1,141,2|2,0:0|0:0,0:0:0:0:
425,172,199344,2,0,P|442:132|450:100,1,70.5,8|0,0:0|0:0,0:0:0:0:
495,31,199642,5,2,0:0:0:0:
495,31,199792,2,0,L|410:19,1,70.5,0|0,0:0|0:0,0:0:0:0:
338,0,200090,2,0,P|309:37|327:135,1,141,2|2,0:0|0:0,0:0:0:0:
265,196,200538,2,0,P|276:238|283:276,1,70.5,8|0,0:0|0:0,0:0:0:0:
312,346,200836,6,0,P|273:302|183:293,1,141,2|8,0:0|0:0,0:0:0:0:
119,335,201284,2,0,P|116:297|105:244,1,70.5,4|0,0:0|0:0,0:0:0:0:
60,192,201583,2,0,P|105:188|160:177,1,70.5,4|0,0:0|0:0,0:0:0:0:
181,121,201881,1,8,0:0:0:0:
181,121,202031,6,0,B|198:83|196:53|196:53|156:74|145:122,1,141,2|2,0:0|0:0,0:0:0:0:
196,245,202628,2,0,B|220:278|247:291|247:291|249:246|213:213,1,141,2|2,0:0|0:0,0:0:0:0:
69,225,203225,6,0,B|27:229|-3:248|-3:248|35:271|84:264,1,155.100004733277,6|0,0:0|0:0,0:0:0:0:
84,263,204419,6,0,P|141:184|125:118,1,155.100004733277,2|0,0:0|0:0,0:0:0:0:
126,121,205613,6,0,B|119:173|159:211|159:211|219:219|267:176|263:98,1,271.425008283234,2|8,0:0|0:0,0:0:0:0:
262,95,207105,6,0,L|269:222,1,112.8,8|0,0:0|0:0,0:0:0:0:
349,307,207553,2,0,L|353:270,5,28.2,8|0|0|0|2|0,0:0|0:0|0:0|0:0|0:0|0:0,0:0:0:0:
340,251,208001,6,0,P|377:236|477:271,1,141,6|8,0:0|0:0,0:0:0:0:
505,183,208448,2,0,P|499:150|495:111,1,70.5,2|0,0:0|0:0,0:0:0:0:
437,46,208747,2,0,P|378:69|280:85,1,141,2|0,0:0|0:0,0:0:0:0:
216,102,209195,5,2,0:0:0:0:
216,102,209344,2,0,P|222:69|226:30,1,70.5,0|8,0:0|0:0,0:0:0:0:
143,0,209642,2,0,P|98:23|92:109,1,141,2|2,0:0|0:0,0:0:0:0:
59,188,210090,2,0,P|110:194|140:198,1,70.5,8|0,0:0|0:0,0:0:0:0:
217,187,210389,6,0,P|262:210|268:296,1,141,2|8,0:0|0:0,0:0:0:0:
189,335,210836,1,2,0:0:0:0:
177,337,210911,1,0,0:0:0:0:
165,339,210986,2,0,L|0:319,1,141,0|8,0:0|0:0,0:0:0:0:
0,236,211433,1,0,0:0:0:0:
77,179,211583,6,0,P|84:228|89:271,1,70.5,2|0,0:0|0:0,0:0:0:0:
0,130,211881,2,0,P|4:95|9:60,1,70.5,8|2,0:0|0:0,0:0:0:0:
80,5,212180,2,0,L|125:14,7,35.25,2|2|2|2|8|8|8|8,0:3|0:3|0:3|0:3|0:3|0:3|0:3|0:3,0:0:0:0:
143,7,212777,6,0,P|148:41|152:76,1,70.5,6|0,0:0|0:0,0:0:0:0:
223,177,213075,2,0,P|227:142|232:107,1,70.5,8|2,0:0|0:0,0:0:0:0:
277,29,213374,2,0,P|314:60|431:64,1,141,0|8,0:0|0:0,0:0:0:0:
484,39,213822,6,0,P|495:75|510:192,1,141,0|0,0:0|0:0,0:0:0:0:
456,251,214269,2,0,P|494:261|532:269,1,70.5,8|2,0:0|0:0,0:0:0:0:
422,159,214568,2,0,P|387:166|353:175,1,70.5,0|0,0:0|0:0,0:0:0:0:
284,233,214866,1,8,0:0:0:0:
129,216,215016,6,0,P|142:174|243:181,1,141,0|0,0:0|0:0,0:0:0:0:
284,233,215463,2,0,P|276:278|268:309,1,70.5,8|2,0:0|0:0,0:0:0:0:
320,376,215762,2,0,P|280:351|180:343,1,141,0|8,0:0|0:0,0:0:0:0:
106,374,216210,6,0,P|101:308|95:210,1,141,0|0,0:0|0:0,0:0:0:0:
23,160,216657,2,0,P|10:208|10:236,1,70.5,8|8,0:3|0:3,0:0:0:0:
175,192,216956,2,0,P|188:144|188:116,1,70.5,2|0,0:3|0:0,0:0:0:0:
119,64,217254,2,0,L|29:74,1,70.5,10|10,0:0|0:0,0:0:0:0:
278,123,217553,6,0,L|348:115,1,70.5,6|0,0:0|0:0,0:0:0:0:
491,170,217851,2,0,P|509:131|511:90,1,70.5,8|2,0:0|0:0,0:0:0:0:
408,181,218150,2,0,P|380:239|390:329,1,141,0|8,0:0|0:0,0:0:0:0:
452,372,218598,6,0,B|498:321|498:321|481:235,1,141,0|0,0:0|0:0,0:0:0:0:
511,167,219045,2,0,P|476:157|430:148,1,70.5,8|2,0:0|0:0,0:0:0:0:
283,214,219344,2,0,P|317:206|351:197,1,70.5,0|2,0:0|0:0,0:0:0:0:
364,110,219642,1,8,0:0:0:0:
278,126,219792,6,0,P|240:122|198:115,2,70.5,0|0|0,0:0|0:0|0:0,0:0:0:0:
364,110,220239,2,0,P|374:56|378:15,1,70.5,8|2,0:0|0:0,0:0:0:0:
453,1,220538,2,0,P|454:48|536:101,1,141,0|8,0:0|0:0,0:0:0:0:
512,188,220986,6,0,P|473:206|373:258,1,141,0|2,0:0|0:0,0:0:0:0:
231,303,221433,2,0,P|234:341|245:388,1,70.5,10|10,0:0|0:0,0:0:0:0:
301,247,221732,2,0,P|297:208|287:162,1,70.5,10|2,0:0|0:0,0:0:0:0:
241,92,222031,2,0,L|318:98,1,70.5,2|0,0:0|0:0,0:0:0:0:
208,212,222329,6,0,L|137:206,1,70.5,6|0,0:0|0:0,0:0:0:0:
39,137,222628,2,0,P|80:123|114:125,1,70.5,8|2,0:0|0:0,0:0:0:0:
62,257,222926,2,0,P|51:324|116:374,1,141,0|8,0:0|0:0,0:0:0:0:
189,381,223374,6,0,P|202:327|212:225,1,141,0|0,0:0|0:0,0:0:0:0:
286,135,223822,2,0,P|287:171|291:220,1,70.5,8|0,0:0|0:0,0:0:0:0:
185,159,224120,2,0,P|187:123|188:88,1,70.5,0|2,0:0|0:0,0:0:0:0:
267,47,224419,1,8,0:0:0:0:
286,135,224568,6,0,P|328:129|364:116,2,70.5,0|0|0,0:0|0:0|0:0,0:0:0:0:
231,207,225016,2,0,L|158:200,1,70.5,8|0,0:0|0:0,0:0:0:0:
81,243,225314,2,0,P|40:203|59:108,1,141,0|8,0:0|0:0,0:0:0:0:
1,49,225762,6,0,P|51:66|164:95,1,141,0|8,0:0|0:0,0:0:0:0:
281,40,226210,2,0,P|245:41|198:50,1,70.5,2|0,0:0|0:0,0:0:0:0:
146,176,226508,2,0,P|180:181|216:183,1,70.5,2|2,0:0|0:0,0:0:0:0:
347,221,226807,2,0,L|341:297,1,70.5,2|0,0:0|0:0,0:0:0:0:
295,145,227105,6,0,L|289:74,1,70.5,14|10,0:0|0:0,0:0:0:0:
399,157,227553,5,2,0:0:0:0:
399,157,227702,2,0,L|393:86,1,70.5,10|0,0:0|0:0,0:0:0:0:
502,172,228150,6,0,L|489:13,1,141,10|2,0:0|0:0,0:0:0:0:
490,31,228598,1,10,0:0:0:0:
