osu file format v14

[General]
AudioFilename: audio.mp3
AudioLeadIn: 0
PreviewTime: 168598
Countdown: 0
SampleSet: Soft
StackLeniency: 0.7
Mode: 0
LetterboxInBreaks: 0
WidescreenStoryboard: 1

[Editor]
Bookmarks: 8598,89791,139941,169791,179343
DistanceSpacing: 1
BeatDivisor: 3
GridSize: 4
TimelineZoom: 1.700005

[Metadata]
Title:Paradisus-Paradoxum
TitleUnicode:Paradisus-Paradoxum
Artist:MYTH & ROID
ArtistUnicode:MYTH & ROID
Creator:Cellina
Version:Curi's Extreme
Source:Re:ゼロから始める異世界生活
Tags:akitoshi kalibe nasya n_a_s_y_a shirakai toybot curi [c_u_r_i] reana dailycare habiholic re : zero kara hajimeru isekai seikatsu life in a different world from zero re:zero
BeatmapID:1113057
BeatmapSetID:510183

[Difficulty]
HPDrainRate:6
CircleSize:4
OverallDifficulty:8.6
ApproachRate:9.4
SliderMultiplier:1.68
SliderTickRate:1

[Events]
//Background and Video events
0,0,"710129.png",0,0
//Break Periods
2,30290,39102
2,90986,97610
2,140141,147759
2,169792,178804
//Storyboard Layer 0 (Background)
//Storyboard Layer 1 (Fail)
//Storyboard Layer 2 (Pass)
//Storyboard Layer 3 (Foreground)
//Storyboard Sound Samples

[TimingPoints]
1434,298.507462686567,4,2,1,20,1,0
8598,-71.4285714285714,4,2,1,60,0,0
10389,-125,4,2,0,60,0,0
10986,-100,4,2,1,70,0,0
15762,-166.666666666667,4,2,1,70,0,0
16210,-100,4,2,1,70,0,0
16956,-166.666666666667,4,2,1,70,0,0
17404,-100,4,2,1,70,0,0
18150,-200,4,2,1,70,0,0
19195,-100,4,2,1,70,0,0
20538,-100,4,2,1,70,0,0
30090,-100,4,2,2,40,0,0
39642,-100,4,2,1,60,0,0
48598,-100,4,2,0,20,0,0
48896,-100,4,2,0,40,0,0
49195,-100,4,2,1,60,0,0
60538,-125,4,2,0,60,0,0
61135,-83.3333333333333,4,2,1,75,0,1
68001,-100,4,2,1,75,0,1
68299,-83.3333333333333,4,2,1,75,0,1
75463,-166.666666666667,4,2,1,75,0,0
75911,-100,4,2,1,75,0,0
76657,-166.666666666667,4,2,1,75,0,0
77105,-100,4,2,1,75,0,0
77851,-200,4,2,1,75,0,0
78896,-100,4,2,1,75,0,0
80239,-100,4,2,1,75,0,1
89792,-100,4,2,1,75,0,0
99344,-100,4,2,1,50,0,0
100538,-125,4,2,3,60,0,0
107702,-100,4,2,1,65,0,0
110687,-125,4,2,0,60,0,0
111284,-83.3333333333333,4,2,1,75,0,1
125613,-166.666666666667,4,2,1,75,0,0
126060,-100,4,2,1,75,0,0
126806,-166.666666666667,4,2,1,75,0,0
127254,-100,4,2,1,75,0,0
128000,-200,4,2,1,75,0,0
129045,-100,4,2,1,75,0,0
129493,-100,4,2,1,75,0,0
129941,-100,4,2,1,75,0,0
130389,-100,4,2,1,75,0,1
139941,-100,4,2,1,75,0,0
148299,-100,4,2,1,60,0,0
153672,-125,4,2,0,50,0,0
154269,-100,4,2,1,60,0,0
165612,-100,4,2,1,60,0,0
179343,-100,4,2,2,40,0,0
184119,-100,4,2,1,65,0,0
188001,-100,4,2,4,65,0,0
188896,-83.3333333333333,4,2,1,80,0,1
203225,-166.666666666667,4,2,1,80,0,0
203672,-100,4,2,1,80,0,0
204418,-166.666666666667,4,2,1,80,0,0
204866,-100,4,2,1,80,0,0
205612,-200,4,2,1,80,0,0
206657,-100,4,2,1,80,0,0
207104,-100,4,2,1,80,0,0
207552,-100,4,2,1,80,0,0
208000,-100,4,2,1,80,0,0
227105,-100,4,2,1,60,0,0

[Colours]
Combo1 : 255,128,255
Combo2 : 128,255,255
Combo3 : 192,192,192
Combo4 : 255,128,64

[HitObjects]
208,75,8598,6,0,L|203:141,1,58.7999982055665,10|0,0:0|0:0,0:0:0:0:
204,288,8747,1,10,0:0:0:0:
204,288,9045,2,0,L|263:259,1,58.7999982055665,2|0,0:0|0:0,0:0:0:0:
380,182,9195,2,0,L|325:144,1,58.7999982055665,10|0,0:0|0:0,0:0:0:0:
208,75,9344,1,10,0:0:0:0:
208,75,9642,6,0,B|180:116|212:168|212:168|188:188|188:188|230:245|189:331,1,235.199992822266,2|10,0:0|0:0,0:0:0:0:
7,216,10090,2,0,P|68:189|134:284,1,176.399994616699,10|0,0:0|0:0,0:0:0:0:
139,323,10389,6,0,P|131:291|136:258,1,67.2,2|0,0:0|0:0,0:0:0:0:
282,210,10687,2,0,P|292:161|275:115,1,100.8,2|0,0:0|0:0,0:0:0:0:
208,75,10986,6,0,L|395:63,1,168,6|8,0:1|0:0,0:0:0:0:
495,205,11433,2,0,L|373:197,1,84,2|0,0:0|0:0,0:0:0:0:
178,77,11732,1,2,0:0:0:0:
403,63,11881,1,8,0:0:0:0:
213,167,12031,1,0,0:0:0:0:
333,10,12180,6,0,L|320:190,1,168,2|8,0:0|0:0,0:0:0:0:
239,328,12628,1,2,0:0:0:0:
132,167,12777,2,0,P|199:161|240:190,1,84,0|2,0:0|0:0,0:0:0:0:
422,282,13075,2,0,P|381:292|341:281,1,84,8|0,0:0|0:0,0:0:0:0:
373,45,13374,6,0,L|386:236,1,168,2|8,0:0|0:0,0:0:0:0:
168,325,13822,2,0,L|176:210,1,84,2|0,0:0|0:0,0:0:0:0:
343,88,14120,2,0,L|349:171,1,84,2|8,0:0|0:0,0:0:0:0:
280,349,14419,1,0,0:0:0:0:
128,172,14568,5,0,3:0:0:0:
146,161,14642,1,0,3:0:0:0:
166,156,14717,1,0,3:0:0:0:
187,156,14791,1,0,3:0:0:0:
207,162,14866,1,0,3:0:0:0:
225,172,14941,1,0,3:0:0:0:
240,187,15015,1,0,3:0:0:0:
251,205,15090,1,0,3:0:0:0:
254,223,15165,5,2,3:3:0:0:
272,248,15239,1,2,3:3:0:0:
296,268,15314,1,2,3:3:0:0:
325,280,15388,1,2,3:3:0:0:
356,284,15463,1,2,3:3:0:0:
397,277,15537,1,2,3:3:0:0:
431,253,15612,1,2,3:3:0:0:
453,217,15686,1,2,3:3:0:0:
457,176,15762,6,0,L|323:172,1,125.999996154785,6|0,0:0|0:0,0:0:0:0:
260,170,16210,2,0,P|257:146|266:109,1,42,2|0,0:0|0:0,0:0:0:0:
311,65,16359,1,8,0:0:0:0:
293,238,16956,6,0,L|158:242,1,125.999996154785,2|0,0:0|0:0,0:0:0:0:
95,244,17404,2,0,P|92:268|101:305,1,42,2|0,0:0|0:0,0:0:0:0:
146,349,17553,1,8,0:0:0:0:
37,175,18150,6,0,B|95:143|157:173|157:173|222:208|284:154,1,252,2|0,0:0|0:0,0:0:0:0:
296,176,19195,6,0,P|256:103|311:24,1,168,8|0,0:0|0:0,0:0:0:0:
505,90,19642,2,0,L|332:105,1,168,8|0,0:0|0:0,0:0:0:0:
118,183,20090,1,8,0:0:0:0:
131,183,20164,1,0,0:0:0:0:
145,184,20239,1,0,0:0:0:0:
159,184,20313,1,0,0:0:0:0:
173,185,20388,1,0,0:0:0:0:
187,185,20463,1,0,0:0:0:0:
202,187,20538,6,0,P|257:264|210:342,1,168,6|8,0:0|0:0,0:0:0:0:
223,103,20986,1,2,0:0:0:0:
170,266,21135,2,0,B|88:290|88:290|0:274,1,168,0|8,0:0|0:0,0:0:0:0:
82,124,21583,1,0,0:0:0:0:
253,246,21732,6,0,P|251:287|232:324,1,84,2|0,0:0|0:0,0:0:0:0:
193,153,22031,1,8,0:0:0:0:
346,290,22180,2,0,L|440:284,1,84,2|0,0:0|0:0,0:0:0:0:
253,246,22478,1,2,0:0:0:0:
440,176,22628,1,8,0:0:0:0:
400,380,22777,1,0,0:0:0:0:
294,148,22926,6,0,P|350:208|346:290,1,168,2|8,0:0|0:0,0:0:0:0:
171,251,23374,1,2,0:0:0:0:
171,251,23448,1,0,0:0:0:0:
171,251,23523,2,0,L|278:242,1,84,0|2,0:0|0:0,0:0:0:0:
94,310,23822,2,0,P|68:244|96:182,1,126,8|0,0:0|0:0,0:0:0:0:
101,175,24120,5,2,0:0:0:0:
254,244,24269,1,0,0:0:0:0:
333,100,24419,2,0,L|244:108,1,84,8|2,0:0|0:0,0:0:0:0:
171,251,24717,1,0,0:0:0:0:
195,40,24866,1,2,0:0:0:0:
258,271,25016,1,8,0:0:0:0:
280,25,25165,1,8,0:0:0:0:
463,163,25314,6,0,L|295:177,1,168,6|8,0:0|0:0,0:0:0:0:
88,86,25762,2,0,P|132:99|153:111,1,42,2|0,0:0|0:0,0:0:0:0:
197,172,25911,1,0,0:0:0:0:
230,355,26060,1,2,0:0:0:0:
78,182,26210,2,0,P|139:195|196:171,1,126,8|0,0:0|0:0,0:0:0:0:
213,152,26508,5,2,0:0:0:0:
56,274,26657,1,0,0:0:0:0:
286,216,26807,1,8,0:0:0:0:
78,182,26956,1,2,0:0:0:0:
265,319,27105,1,0,0:0:0:0:
205,68,27254,2,0,L|214:174,1,84,2|8,0:0|0:0,0:0:0:0:
377,292,27553,1,0,0:0:0:0:
377,292,27628,1,0,0:0:0:0:
377,292,27702,6,0,L|362:116,1,168,2|8,0:0|0:0,0:0:0:0:
218,243,28150,1,2,0:0:0:0:
402,200,28299,2,0,P|468:190|500:196,1,84,0|2,0:0|0:0,0:0:0:0:
256,318,28598,2,0,P|207:327|139:271,1,126,8|0,0:0|0:0,0:0:0:0:
137,263,28896,5,2,0:0:0:0:
340,285,29045,1,2,0:0:0:0:
213,159,29195,1,2,0:3:0:0:
214,179,29269,1,2,0:3:0:0:
215,200,29344,1,2,0:3:0:0:
216,221,29418,1,2,0:3:0:0:
217,242,29493,1,2,0:3:0:0:
344,372,29642,1,2,0:0:0:0:
301,164,29792,1,10,0:0:0:0:
96,245,29941,1,10,0:0:0:0:
320,136,30090,5,4,0:0:0:0:
334,144,39642,6,0,B|287:146|287:146|225:176|225:176|144:182,1,168,6|8,0:0|0:0,0:0:0:0:
53,28,40090,2,0,P|61:108|68:204,1,168,2|2,0:0|0:0,0:0:0:0:
61,345,40538,1,8,0:0:0:0:
216,246,40687,1,0,0:0:0:0:
64,117,40836,5,2,0:0:0:0:
146,323,40986,1,0,0:0:0:0:
153,91,41135,1,8,0:0:0:0:
148,346,41284,2,0,P|225:367|319:309,1,168,2|2,0:0|0:0,0:0:0:0:
270,88,41732,2,0,P|221:70|151:91,1,126,8|0,0:0|0:0,0:0:0:0:
137,111,42031,5,2,0:0:0:0:
336,163,42180,1,0,0:0:0:0:
115,205,42329,1,8,0:0:0:0:
270,88,42478,2,0,P|319:64|430:129,1,168,2|2,0:0|0:0,0:0:0:0:
345,315,42926,2,0,L|337:178,1,126,8|0,0:0|0:0,0:0:0:0:
336,163,43225,6,0,P|294:183|229:182,1,84,2|0,0:0|0:0,0:0:0:0:
151,89,43523,1,8,0:0:0:0:
132,286,43672,1,2,0:0:0:0:
335,163,43822,1,8,3:0:0:0:
317,152,43896,1,8,3:0:0:0:
297,145,43971,1,8,3:0:0:0:
276,142,44045,1,8,3:0:0:0:
255,144,44120,1,2,3:0:0:0:
235,150,44195,1,2,3:0:0:0:
217,160,44269,1,2,3:0:0:0:
201,173,44344,1,2,3:0:0:0:
188,190,44419,6,0,P|243:282|220:355,1,168,6|8,0:0|0:0,0:0:0:0:
51,305,44866,2,0,P|94:289|147:287,1,84,2|0,0:0|0:0,0:0:0:0:
231,336,45165,1,2,0:0:0:0:
97,194,45314,2,0,P|73:144|107:62,1,126,8|0,0:0|0:0,0:0:0:0:
106,59,45613,5,2,0:0:0:0:
326,68,45762,1,0,0:0:0:0:
154,135,45911,1,8,0:0:0:0:
352,56,46060,1,2,0:0:0:0:
326,267,46210,1,0,0:0:0:0:
236,37,46359,2,0,L|244:206,1,168,2|0,0:0|0:0,0:0:0:0:
408,319,46807,6,0,L|406:361,3,42,8|0|0|0,0:0|0:0|0:0|0:0,0:0:0:0:
326,267,47105,2,0,L|324:225,3,42,8|0|0|0,0:0|0:0|0:0|0:0,0:0:0:0:
408,319,47404,1,8,0:0:0:0:
443,325,47478,1,0,0:0:0:0:
478,313,47553,1,0,0:0:0:0:
501,285,47627,1,0,0:0:0:0:
508,250,47702,1,8,0:0:0:0:
497,215,47777,1,0,0:0:0:0:
470,191,47851,1,0,0:0:0:0:
435,183,47926,1,0,0:0:0:0:
400,193,48001,6,0,P|340:221|299:224,1,56,8|0,0:0|0:0,0:0:0:0:
235,256,48200,2,0,P|230:217|252:172,1,56,8|0,0:0|0:0,0:0:0:0:
278,87,48399,1,8,0:0:0:0:
308,311,48598,5,2,0:0:0:0:
308,311,48896,1,2,0:0:0:0:
7,318,49195,6,0,L|175:323,1,168,6|8,0:0|0:0,0:0:0:0:
324,225,49642,1,0,0:0:0:0:
324,225,49717,1,0,0:0:0:0:
324,225,49792,2,0,P|258:239|231:267,1,84,2|0,0:0|0:0,0:0:0:0:
94,362,50090,2,0,L|86:260,1,84,8|0,0:0|0:0,0:0:0:0:
233,95,50389,6,0,P|270:169|246:248,1,168,2|8,0:0|0:0,0:0:0:0:
92,324,50836,1,0,0:0:0:0:
188,169,50986,1,2,0:0:0:0:
286,323,51135,1,0,0:0:0:0:
436,223,51284,1,8,0:0:0:0:
225,252,51433,1,0,0:0:0:0:
374,68,51583,5,2,0:0:0:0:
373,92,51657,1,0,0:0:0:0:
372,116,51732,1,0,0:0:0:0:
371,141,51806,1,0,0:0:0:0:
370,165,51881,1,8,0:0:0:0:
286,323,52031,1,0,0:0:0:0:
179,188,52180,2,0,P|236:175|281:194,1,84,2|0,0:0|0:0,0:0:0:0:
480,290,52478,2,0,P|423:303|378:284,1,84,8|0,0:0|0:0,0:0:0:0:
303,111,52777,5,2,0:0:0:0:
325,341,52926,1,0,0:0:0:0:
370,165,53075,1,8,0:0:0:0:
195,206,53225,1,0,0:0:0:0:
436,223,53374,1,2,0:3:0:0:
448,205,53448,1,2,0:3:0:0:
456,186,53523,1,2,0:3:0:0:
458,165,53597,1,2,0:3:0:0:
457,145,53672,2,0,P|446:112|421:86,1,42,8|8,0:3|0:3,0:0:0:0:
452,30,53822,2,0,P|417:31|385:49,1,42,8|8,0:3|0:3,0:0:0:0:
328,118,53971,6,0,P|282:138|189:73,1,168,6|8,0:0|0:0,0:0:0:0:
323,21,54419,1,0,0:0:0:0:
365,199,54568,2,0,L|357:303,1,84,2|0,0:0|0:0,0:0:0:0:
184,163,54866,2,0,L|190:79,1,84,8|0,0:0|0:0,0:0:0:0:
213,292,55165,6,0,P|288:323|358:282,1,168,2|8,0:0|0:0,0:0:0:0:
408,79,55613,1,0,0:0:0:0:
283,243,55762,2,0,L|290:148,1,84,2|0,0:0|0:0,0:0:0:0:
173,37,56060,2,0,L|186:193,1,126,8|0,0:0|0:0,0:0:0:0:
190,192,56359,5,8,0:0:0:0:
190,192,56657,2,0,P|152:211|103:202,1,84,8|0,0:0|0:0,0:0:0:0:
257,108,56956,1,8,0:0:0:0:
239,276,57105,1,0,0:0:0:0:
259,86,57254,1,8,0:0:0:0:
317,307,57404,1,0,0:0:0:0:
111,206,57553,5,8,0:0:0:0:
388,160,57702,1,0,0:0:0:0:
96,209,57851,5,8,0:0:0:0:
366,237,58001,1,0,0:0:0:0:
81,213,58150,5,8,0:0:0:0:
405,156,58299,1,0,0:0:0:0:
66,216,58448,5,8,0:0:0:0:
384,242,58598,1,0,0:0:0:0:
48,221,58747,5,10,0:0:0:0:
405,321,58896,1,10,0:0:0:0:
59,215,59195,5,2,0:0:0:0:
59,215,59344,1,10,0:0:0:0:
425,154,59493,1,10,0:0:0:0:
76,48,59792,6,0,L|59:216,1,168,2|10,0:0|0:0,0:0:0:0:
149,349,60239,2,0,L|130:199,1,126,10|0,0:0|0:0,0:0:0:0:
129,199,60538,6,0,P|160:209|193:206,1,67.2,2|0,0:0|0:0,0:0:0:0:
374,120,60836,2,0,P|323:110|268:141,1,100.8,2|0,0:0|0:0,0:0:0:0:
313,384,61135,6,0,B|309:335|309:335|338:257|338:257|333:172,1,201.599993847656,6|8,0:0|0:0,0:0:0:0:
181,85,61583,2,0,L|191:186,1,100.799996923828,2|0,0:0|0:0,0:0:0:0:
425,321,61881,2,0,L|415:220,1,100.799996923828,2|8,0:0|0:0,0:0:0:0:
323,71,62180,1,0,0:0:0:0:
226,249,62329,6,0,P|134:234|133:142,1,201.599993847656,2|8,0:0|0:0,0:0:0:0:
282,83,62777,1,2,0:0:0:0:
415,220,62926,2,0,L|426:324,1,100.799996923828,0|2,0:0|0:0,0:0:0:0:
287,134,63225,2,0,L|276:30,1,100.799996923828,8|0,0:0|0:0,0:0:0:0:
1,218,63523,6,0,B|47:192|100:208|100:208|162:226|195:180,1,201.599993847656,2|8,0:0|0:0,0:0:0:0:
143,45,63971,2,0,P|125:91|132:141,1,100.799996923828,2|0,0:0|0:0,0:0:0:0:
382,72,64269,2,0,L|271:84,1,100.799996923828,2|8,0:0|0:0,0:0:0:0:
194,274,64568,1,0,0:0:0:0:
203,99,64717,5,2,0:0:0:0:
192,301,64866,1,8,0:0:0:0:
323,148,65016,1,8,0:0:0:0:
396,340,65165,1,8,0:0:0:0:
199,201,65314,1,2,0:3:0:0:
173,200,65388,1,2,0:3:0:0:
149,208,65463,1,2,0:3:0:0:
128,222,65537,1,2,0:3:0:0:
113,242,65613,5,8,0:3:0:0:
70,265,65687,1,8,0:3:0:0:
24,249,65762,1,8,0:3:0:0:
5,204,65836,1,8,0:3:0:0:
27,160,65911,6,0,L|56:368,1,201.599993847656,6|8,0:0|0:0,0:0:0:0:
273,284,66359,1,2,0:0:0:0:
134,108,66508,2,0,L|148:207,1,100.799996923828,0|2,0:0|0:0,0:0:0:0:
343,325,66807,2,0,P|351:266|328:225,1,100.799996923828,8|0,0:0|0:0,0:0:0:0:
174,303,67105,6,0,L|288:281,1,100.799996923828,2|0,0:0|0:0,0:0:0:0:
474,178,67404,2,0,L|375:158,1,100.799996923828,8|2,0:0|0:0,0:0:0:0:
203,221,67702,1,0,0:0:0:0:
320,75,67851,1,2,0:0:0:0:
474,178,68001,2,0,L|457:316,1,126,8|0,0:0|0:0,0:0:0:0:
455,333,68299,6,0,P|417:307|351:313,1,100.799996923828,10|0,0:0|0:0,0:0:0:0:
57,333,68598,2,0,P|95:307|161:313,1,100.799996923828,10|0,0:0|0:0,0:0:0:0:
256,356,68896,1,10,0:0:0:0:
326,148,69045,1,0,0:0:0:0:
256,331,69195,1,10,0:0:0:0:
191,128,69344,1,0,0:0:0:0:
374,232,69493,1,2,0:3:0:0:
386,230,69567,1,2,0:3:0:0:
399,229,69642,1,2,0:3:0:0:
411,227,69716,1,2,0:3:0:0:
424,226,69791,1,2,0:3:0:0:
436,225,69866,1,2,0:3:0:0:
449,223,69940,1,2,0:3:0:0:
461,222,70015,1,2,0:3:0:0:
474,221,70090,5,8,0:3:0:0:
442,200,70164,1,8,0:3:0:0:
405,196,70239,1,8,0:3:0:0:
369,207,70313,1,8,0:3:0:0:
337,227,70388,1,8,0:0:0:0:
302,241,70463,1,8,0:0:0:0:
264,241,70537,1,8,0:0:0:0:
229,227,70612,1,8,0:0:0:0:
198,205,70687,6,0,P|172:129|253:37,1,201.599993847656,6|8,0:0|0:0,0:0:0:0:
412,280,71135,2,0,L|402:412,1,100.799996923828,2|0,0:0|0:0,0:0:0:0:
266,136,71433,2,0,P|329:121|373:139,1,100.799996923828,2|8,0:0|0:0,0:0:0:0:
484,327,71732,1,0,0:0:0:0:
299,370,71881,6,0,P|260:296|362:193,1,201.599993847656,2|8,0:0|0:0,0:0:0:0:
404,380,72329,1,2,0:0:0:0:
177,318,72478,2,0,P|121:314|69:340,1,100.799996923828,0|2,0:0|0:0,0:0:0:0:
315,202,72777,2,0,P|361:219|411:214,1,100.799996923828,8|0,0:0|0:0,0:0:0:0:
200,37,73075,6,0,B|191:93|191:93|227:171|227:171|210:263,1,201.599993847656,2|8,0:0|0:0,0:0:0:0:
374,319,73523,2,0,L|361:217,1,100.799996923828,2|0,0:0|0:0,0:0:0:0:
184,140,73822,2,0,P|134:179|121:231,1,100.799996923828,2|8,0:0|0:0,0:0:0:0:
276,345,74120,1,0,0:0:0:0:
216,228,74269,5,2,0:0:0:0:
402,309,74419,1,0,0:0:0:0:
184,140,74568,1,8,0:0:0:0:
408,131,74717,1,2,0:0:0:0:
150,26,74866,1,0,0:0:0:0:
128,33,74940,1,0,0:0:0:0:
109,44,75015,1,2,0:0:0:0:
92,59,75089,1,0,0:0:0:0:
79,77,75164,1,8,0:0:0:0:
69,97,75239,1,8,0:3:0:0:
64,119,75313,1,8,0:3:0:0:
63,141,75388,1,8,0:3:0:0:
67,163,75463,6,0,P|89:217|100:298,1,125.999996154785,6|0,0:0|0:0,0:0:0:0:
88,360,75911,2,0,P|111:360|146:349,1,42,2|0,0:0|0:0,0:0:0:0:
194,305,76060,1,8,0:0:0:0:
194,305,76657,6,0,P|256:278|331:271,1,125.999996154785,2|0,0:0|0:0,0:0:0:0:
389,226,77105,2,0,P|386:205|387:184,1,42,2|0,0:0|0:0,0:0:0:0:
450,114,77254,1,8,0:0:0:0:
450,114,77851,6,0,P|314:108|184:70,1,273,2|0,0:0|0:0,0:0:0:0:
160,61,78896,6,0,P|115:142|164:220,1,168,8|0,0:0|0:0,0:0:0:0:
392,170,79344,2,0,L|205:166,1,168,8|0,0:0|0:0,0:0:0:0:
68,253,79792,1,8,0:0:0:0:
88,273,79866,1,0,0:0:0:0:
112,287,79941,1,0,0:0:0:0:
140,292,80015,1,0,0:0:0:0:
167,288,80090,1,0,0:0:0:0:
193,276,80165,1,0,0:0:0:0:
213,258,80239,6,0,P|290:321|358:283,1,168,6|8,0:0|0:0,0:0:0:0:
408,140,80687,1,2,0:0:0:0:
192,164,80836,1,0,0:0:0:0:
413,249,80986,1,2,0:0:0:0:
281,158,81135,2,0,L|289:259,1,84,8|0,0:0|0:0,0:0:0:0:
426,348,81433,6,0,L|432:264,1,84,2|0,0:0|0:0,0:0:0:0:
402,113,81732,1,8,0:0:0:0:
291,267,81881,1,2,0:0:0:0:
471,186,82031,1,0,0:0:0:0:
226,201,82180,5,2,0:0:0:0:
360,33,82329,1,8,0:0:0:0:
371,289,82478,1,0,0:0:0:0:
212,114,82628,6,0,B|80:124|80:124|132:149,1,168,2|8,0:0|0:0,0:0:0:0:
304,238,83075,1,2,0:0:0:0:
304,238,83150,1,0,0:0:0:0:
304,238,83225,2,0,P|309:183|295:152,1,84,0|2,0:0|0:0,0:0:0:0:
14,64,83523,2,0,P|-6:135|36:208,1,126,8|0,0:0|0:0,0:0:0:0:
29,199,83822,5,2,0:0:0:0:
192,80,83971,1,0,0:0:0:0:
304,238,84120,1,8,0:0:0:0:
197,51,84269,1,2,0:0:0:0:
87,266,84419,1,8,0:3:0:0:
97,284,84493,1,8,0:3:0:0:
111,299,84568,1,8,0:3:0:0:
129,310,84642,1,8,0:3:0:0:
149,317,84717,1,2,0:3:0:0:
170,318,84792,1,2,0:3:0:0:
191,315,84866,1,2,0:3:0:0:
210,306,84941,1,2,0:3:0:0:
226,293,85016,5,6,0:0:0:0:
120,129,85165,1,0,0:0:0:0:
302,233,85314,2,0,L|402:220,1,84,8|2,0:0|0:0,0:0:0:0:
175,68,85613,2,0,P|111:45|36:131,1,168,0|8,0:0|0:0,0:0:0:0:
243,158,86060,1,0,0:0:0:0:
326,22,86210,6,0,P|328:62|338:113,1,84,2|0,0:0|0:0,0:0:0:0:
512,165,86508,2,0,P|475:146|427:129,1,84,8|2,0:0|0:0,0:0:0:0:
243,158,86807,1,0,0:0:0:0:
439,228,86956,1,2,0:0:0:0:
418,55,87105,1,8,0:0:0:0:
307,231,87254,1,0,0:0:0:0:
182,84,87404,6,0,P|224:65|292:77,1,84,2|0,0:0|0:0,0:0:0:0:
477,233,87702,2,0,P|435:232|397:214,1,84,8|2,0:0|0:0,0:0:0:0:
340,32,88001,2,0,L|321:216,1,168,0|10,0:0|0:0,0:0:0:0:
210,42,88448,1,0,0:0:0:0:
133,279,88598,5,10,0:0:0:0:
153,276,88672,1,0,0:0:0:0:
174,274,88747,1,10,0:0:0:0:
195,271,88821,1,0,0:0:0:0:
216,269,88896,1,10,0:0:0:0:
237,266,88971,1,0,0:0:0:0:
258,264,89045,1,10,0:0:0:0:
278,261,89120,1,0,0:0:0:0:
300,259,89195,6,0,L|373:246,1,42,2|0,0:0|0:0,0:0:0:0:
462,189,89344,2,0,L|420:181,1,42,8|0,0:0|0:0,0:0:0:0:
216,183,89493,2,0,L|269:161,1,42,8|0,0:0|0:0,0:0:0:0:
458,78,89642,2,0,L|419:61,1,42,8|0,0:0|0:0,0:0:0:0:
140,110,98150,5,0,0:0:0:0:
138,130,98224,1,0,0:0:0:0:
137,151,98299,1,0,0:0:0:0:
136,172,98373,1,0,0:0:0:0:
135,193,98448,1,0,0:0:0:0:
134,214,98523,1,0,0:0:0:0:
133,235,98597,1,0,0:0:0:0:
132,256,98672,1,0,0:0:0:0:
131,277,98747,6,0,L|138:323,3,42
211,243,99045,2,0,L|215:198,3,42,0|0|0|0,0:0|0:0|0:0|0:0,0:0:0:0:
270,308,99344,5,8,0:3:0:0:
284,322,99418,1,8,0:3:0:0:
302,333,99493,1,8,0:3:0:0:
322,340,99567,1,8,0:3:0:0:
343,342,99642,1,8,0:3:0:0:
364,339,99717,1,8,0:3:0:0:
383,331,99791,1,8,0:3:0:0:
400,319,99866,1,8,0:3:0:0:
414,304,99941,5,8,0:3:0:0:
425,285,100015,1,8,0:3:0:0:
430,265,100090,1,8,0:3:0:0:
431,244,100164,1,8,0:3:0:0:
427,224,100239,1,2,0:3:0:0:
419,205,100314,1,2,0:3:0:0:
406,188,100388,1,2,0:3:0:0:
390,175,100463,1,2,0:3:0:0:
371,165,100538,5,12,0:0:0:0:
149,147,100986,1,8,0:0:0:0:
341,253,101433,1,8,0:0:0:0:
186,78,101732,5,8,0:0:0:0:
186,78,101881,2,0,P|129:71|100:207,1,201.6,0|8,0:0|0:0,0:0:0:0:
222,208,102628,1,2,0:0:0:0:
318,55,102926,6,0,B|317:120|317:120|343:200|343:200|340:252,1,201.6,8|8,0:0|0:0,0:0:0:0:
161,326,103822,1,8,0:0:0:0:
339,252,104120,6,0,L|345:166,1,67.2,8|0,0:0|0:0,0:0:0:0:
247,298,104568,2,0,L|253:212,1,67.2,8|0,0:0|0:0,0:0:0:0:
161,326,105016,1,2,0:0:0:0:
165,223,105165,1,0,0:0:0:0:
325,342,105314,6,0,P|404:329|483:321,1,134.4,8|8,0:0|0:0,0:0:0:0:
339,252,105762,1,0,0:0:0:0:
339,252,105911,2,0,P|334:215|326:172,1,67.2,8|0,0:0|0:0,0:0:0:0:
172,122,106210,2,0,P|166:155|165:230,1,100.8,8|0,0:0|0:0,0:0:0:0:
171,241,106508,6,0,P|224:229|254:227,1,67.2,8|0,0:0|0:0,0:0:0:0:
371,261,106807,2,0,P|368:193|352:128,1,134.4,8|8,0:0|0:0,0:0:0:0:
182,89,107254,2,0,P|166:154|164:221,1,134.4,8|0,0:0|0:0,0:0:0:0:
302,320,107702,5,8,0:3:0:0:
322,317,107776,1,8,0:3:0:0:
343,314,107851,1,8,0:3:0:0:
364,311,107925,1,8,0:3:0:0:
385,309,108000,1,8,0:3:0:0:
406,306,108075,1,8,0:3:0:0:
426,303,108149,1,8,0:3:0:0:
447,301,108224,1,8,0:3:0:0:
469,299,108299,5,2,0:3:0:0:
442,282,108373,1,2,0:3:0:0:
421,258,108448,1,2,0:3:0:0:
408,230,108522,1,2,0:3:0:0:
404,199,108597,1,8,0:0:0:0:
408,168,108672,1,8,0:0:0:0:
421,139,108746,1,8,0:0:0:0:
442,116,108821,1,8,0:0:0:0:
469,99,108896,6,0,L|408:109,1,42,10|0,0:0|0:0,0:0:0:0:
211,135,109045,1,10,0:0:0:0:
190,126,109344,5,2,0:0:0:0:
502,205,109493,1,10,0:0:0:0:
502,205,109642,1,10,0:0:0:0:
502,205,109941,6,0,L|313:226,1,168,2|10,0:0|0:0,0:0:0:0:
103,238,110389,2,0,P|171:244|232:261,1,126,10|0,0:0|0:0,0:0:0:0:
247,272,110687,6,0,P|253:319|240:353,1,67.2,2|0,0:0|0:0,0:0:0:0:
103,238,110986,2,0,P|97:205|103:172,1,67.2,2|0,0:0|0:0,0:0:0:0:
271,76,111284,6,0,P|373:67|479:37,1,201.599993847656,6|8,0:0|0:0,0:0:0:0:
249,172,111732,2,0,P|242:233|257:311,1,100.799996923828,2|0,0:0|0:0,0:0:0:0:
392,344,112031,2,0,P|395:293|389:244,1,100.799996923828,2|8,0:0|0:0,0:0:0:0:
291,92,112329,1,0,0:0:0:0:
476,212,112478,5,2,0:0:0:0:
334,172,112628,1,0,0:0:0:0:
246,271,112777,2,0,P|196:290|135:280,1,100.799996923828,8|2,0:0|0:0,0:0:0:0:
334,172,113075,2,0,L|319:47,1,100.799996923828,0|2,0:0|0:0,0:0:0:0:
97,36,113374,2,0,L|82:189,1,151.199995385742,8|0,0:0|0:0,0:0:0:0:
100,211,113672,6,0,P|188:207|219:332,1,201.599993847656,2|8,0:0|0:0,0:0:0:0:
55,316,114120,2,0,P|126:287|185:289,1,100.799996923828,2|0,0:0|0:0,0:0:0:0:
408,362,114419,2,0,P|358:353|313:331,1,100.799996923828,2|8,0:0|0:0,0:0:0:0:
267,149,114717,1,0,0:0:0:0:
442,261,114866,5,2,0:0:0:0:
232,298,115016,1,8,0:0:0:0:
426,179,115165,1,8,0:0:0:0:
183,155,115314,1,10,0:0:0:0:
468,264,115463,1,2,0:3:0:0:
494,243,115537,1,2,0:3:0:0:
512,215,115612,1,2,0:3:0:0:
512,182,115686,1,2,0:3:0:0:
512,149,115761,1,8,0:3:0:0:
498,119,115836,1,8,0:3:0:0:
474,97,115911,2,0,L|419:91,1,50.3999984619141,8|8,0:3|0:3,0:0:0:0:
240,115,116060,6,0,B|304:124|304:124|365:169|365:169|437:180,1,201.599993847656,6|8,0:0|0:0,0:0:0:0:
336,41,116508,1,2,0:0:0:0:
142,149,116657,2,0,P|133:217|145:279,1,100.799996923828,0|2,0:0|0:0,0:0:0:0:
339,345,116956,2,0,P|342:294|333:245,1,100.799996923828,8|0,0:0|0:0,0:0:0:0:
65,100,117254,6,0,P|45:184|61:301,1,201.599993847656,2|8,0:0|0:0,0:0:0:0:
237,204,117702,1,2,0:0:0:0:
216,6,117851,2,0,P|151:26|116:53,1,100.799996923828,0|2,0:0|0:0,0:0:0:0:
193,273,118150,2,0,P|270:278|321:215,1,151.199995385742,8|0,0:0|0:0,0:0:0:0:
321,197,118448,5,10,0:0:0:0:
152,189,118598,1,0,0:0:0:0:
342,219,118747,1,10,0:0:0:0:
105,265,118896,1,0,0:0:0:0:
376,291,119045,1,10,0:0:0:0:
253,98,119194,1,0,0:0:0:0:
176,318,119343,1,10,0:0:0:0:
248,68,119493,1,0,0:0:0:0:
317,345,119642,5,10,0:0:0:0:
336,360,119716,1,0,0:0:0:0:
360,369,119791,1,10,0:0:0:0:
385,369,119865,1,0,0:0:0:0:
409,362,119940,1,10,0:0:0:0:
429,348,120015,1,0,0:0:0:0:
445,328,120089,1,10,0:0:0:0:
453,304,120164,1,0,0:0:0:0:
453,279,120239,5,2,0:3:0:0:
418,292,120313,1,2,0:3:0:0:
381,287,120388,1,2,0:3:0:0:
352,263,120462,1,2,0:3:0:0:
340,228,120537,1,8,0:3:0:0:
347,191,120612,1,8,0:3:0:0:
373,164,120686,1,8,0:3:0:0:
408,153,120761,1,8,0:3:0:0:
445,162,120836,6,0,P|315:163|240:150,1,201.599993847656,6|8,0:0|0:0,0:0:0:0:
97,42,121284,2,0,P|127:100|140:155,1,100.799996923828,2|0,0:0|0:0,0:0:0:0:
120,316,121583,2,0,P|155:261|196:222,1,100.799996923828,2|8,0:0|0:0,0:0:0:0:
334,174,121881,1,0,0:0:0:0:
275,349,122031,6,0,P|264:249|244:150,1,201.599993847656,2|8,0:0|0:0,0:0:0:0:
97,42,122478,1,2,0:0:0:0:
293,56,122628,1,0,0:0:0:0:
179,235,122777,1,2,0:0:0:0:
70,44,122926,2,0,P|123:41|193:28,1,100.799996923828,8|0,0:0|0:0,0:0:0:0:
427,16,123225,6,0,P|485:120|448:220,1,201.599993847656,2|8,0:0|0:0,0:0:0:0:
244,150,123672,2,0,P|305:135|376:134,1,100.799996923828,2|0,0:0|0:0,0:0:0:0:
501,298,123971,2,0,P|450:293|402:280,1,100.799996923828,2|8,0:0|0:0,0:0:0:0:
283,80,124269,6,0,P|218:74|187:207,1,201.599993847656,0|0,0:0|0:0,0:0:0:0:
370,268,124717,2,0,L|350:159,1,100.799996923828,8|2,0:0|0:0,0:0:0:0:
173,83,125016,1,0,0:0:0:0:
172,108,125090,1,0,0:0:0:0:
171,133,125165,1,2,0:0:0:0:
171,158,125239,1,0,0:0:0:0:
170,183,125314,1,8,0:3:0:0:
169,208,125389,1,8,0:3:0:0:
169,234,125463,1,8,0:3:0:0:
168,259,125538,1,8,0:3:0:0:
168,284,125613,6,0,P|241:304|290:335,1,125.999996154785,6|0,0:0|0:0,0:0:0:0:
350,380,126060,2,0,P|407:372|419:366,1,42,2|0,0:0|0:0,0:0:0:0:
449,324,126210,1,8,0:0:0:0:
449,324,126807,6,0,L|438:184,1,125.999996154785,2|0,0:0|0:0,0:0:0:0:
373,150,127254,2,0,L|379:98,1,42,2|0,0:0|0:0,0:0:0:0:
428,47,127404,1,8,0:0:0:0:
428,47,128001,6,0,P|355:69|152:69,1,273,2|0,0:0|0:0,0:0:0:0:
136,60,129045,6,0,L|154:231,1,168,8|0,0:0|0:0,0:0:0:0:
305,340,129493,2,0,L|322:172,1,168,8|0,0:0|0:0,0:0:0:0:
48,66,129941,1,8,0:0:0:0:
51,93,130015,1,0,0:0:0:0:
54,121,130090,1,0,0:0:0:0:
57,149,130164,1,0,0:0:0:0:
60,177,130239,1,0,0:0:0:0:
63,205,130314,1,0,0:0:0:0:
66,232,130389,6,0,P|152:220|248:221,1,168,6|8,0:0|0:0,0:0:0:0:
388,284,130836,1,2,0:0:0:0:
249,379,130986,2,0,P|250:318|255:277,1,84,0|2,0:0|0:0,0:0:0:0:
372,159,131284,1,8,0:0:0:0:
392,312,131433,1,0,0:0:0:0:
233,219,131583,5,2,0:0:0:0:
456,240,131732,1,0,0:0:0:0:
212,217,131881,1,8,0:0:0:0:
412,89,132031,2,0,P|345:85|309:105,1,84,2|0,0:0|0:0,0:0:0:0:
171,294,132329,2,0,P|211:303|252:295,1,84,2|8,0:0|0:0,0:0:0:0:
199,49,132628,1,0,0:0:0:0:
199,49,132702,1,0,0:0:0:0:
199,49,132777,6,0,P|209:175|212:230,1,168,2|8,0:0|0:0,0:0:0:0:
92,350,133225,1,2,0:0:0:0:
52,181,133374,2,0,P|116:178|149:189,1,84,0|2,0:0|0:0,0:0:0:0:
368,297,133672,2,0,P|309:316|251:293,1,126,8|0,0:0|0:0,0:0:0:0:
236,273,133971,5,2,0:0:0:0:
334,142,134120,1,0,0:0:0:0:
464,237,134269,1,8,0:0:0:0:
328,117,134419,1,2,0:0:0:0:
220,292,134568,1,8,0:3:0:0:
202,303,134642,1,8,0:3:0:0:
182,310,134717,1,8,0:3:0:0:
162,313,134791,1,8,0:3:0:0:
141,312,134866,1,2,0:3:0:0:
121,305,134941,1,2,0:3:0:0:
102,295,135015,1,2,0:3:0:0:
87,281,135090,1,2,0:3:0:0:
74,264,135165,5,6,0:0:0:0:
93,78,135314,1,0,0:0:0:0:
258,184,135463,2,0,P|306:175|370:167,1,84,8|2,0:0|0:0,0:0:0:0:
181,122,135762,2,0,P|165:220|234:283,1,168,0|8,0:0|0:0,0:0:0:0:
409,238,136210,1,0,0:0:0:0:
350,70,136359,6,0,P|296:86|251:91,1,84,2|0,0:0|0:0,0:0:0:0:
46,180,136657,2,0,P|87:186|127:199,1,84,8|2,0:0|0:0,0:0:0:0:
280,304,136956,1,0,0:0:0:0:
195,143,137105,1,2,0:0:0:0:
68,265,137254,1,8,0:0:0:0:
252,296,137404,1,0,0:0:0:0:
117,113,137553,6,0,P|130:51|145:11,1,84,2|0,0:0|0:0,0:0:0:0:
281,146,137851,2,0,P|293:186|300:227,1,84,8|2,0:0|0:0,0:0:0:0:
46,239,138150,2,0,P|130:228|223:205,1,168,0|8,0:0|0:0,0:0:0:0:
350,86,138598,1,0,0:0:0:0:
153,150,138747,1,10,0:0:0:0:
140,166,138821,1,0,0:0:0:0:
132,186,138896,1,10,0:0:0:0:
130,207,138970,1,0,0:0:0:0:
133,227,139045,1,2,0:3:0:0:
141,247,139120,1,2,0:3:0:0:
153,264,139194,1,2,0:3:0:0:
169,277,139269,1,2,0:3:0:0:
189,286,139344,6,0,L|258:297,1,42,2|0,0:3|0:0,0:0:0:0:
417,227,139493,2,0,L|350:242,1,42,2|2,0:0|0:0,0:0:0:0:
210,208,139642,2,0,L|252:172,1,42,2|0,0:0|0:0,0:0:0:0:
390,93,139792,2,0,L|377:160,1,42,10|0,0:0|0:0,0:0:0:0:
360,321,139941,1,4,0:0:0:0:
141,141,148299,5,8,0:3:0:0:
154,153,148373,1,8,0:3:0:0:
170,162,148448,1,8,0:3:0:0:
188,168,148522,1,8,0:3:0:0:
207,168,148597,1,8,0:3:0:0:
225,165,148672,1,8,0:3:0:0:
242,157,148746,1,8,0:3:0:0:
257,146,148821,1,8,0:3:0:0:
269,131,148896,5,2,0:3:0:0:
254,158,148970,1,2,0:3:0:0:
250,189,149045,1,2,0:3:0:0:
256,220,149119,1,2,0:3:0:0:
273,246,149194,1,8,0:0:0:0:
298,265,149269,1,8,0:0:0:0:
328,274,149343,1,8,0:0:0:0:
359,272,149418,1,8,0:0:0:0:
388,260,149493,5,6,0:0:0:0:
344,96,149642,2,0,L|357:8,1,84,0|8,0:0|0:0,0:0:0:0:
463,211,149941,2,0,L|475:294,1,84,2|0,0:0|0:0,0:0:0:0:
326,232,150239,2,0,L|338:315,1,84,2|8,0:0|0:0,0:0:0:0:
199,242,150538,1,0,0:0:0:0:
407,140,150687,5,2,0:0:0:0:
199,242,150836,1,0,0:0:0:0:
407,140,150986,2,0,P|447:125|500:128,1,84,8|2,0:0|0:0,0:0:0:0:
183,153,151284,1,0,0:0:0:0:
297,343,151433,1,2,0:0:0:0:
183,153,151583,2,0,P|172:107|183:58,1,84,8|0,0:0|0:0,0:0:0:0:
352,51,151881,5,2,0:0:0:0:
282,229,152031,2,0,L|189:243,1,84,0|8,0:0|0:0,0:0:0:0:
398,140,152329,2,0,L|481:152,1,84,2|0,0:0|0:0,0:0:0:0:
384,232,152628,2,0,L|467:244,1,84,2|8,0:0|0:0,0:0:0:0:
370,323,152926,1,0,0:0:0:0:
175,230,153075,5,2,0:0:0:0:
370,323,153225,1,0,0:0:0:0:
175,230,153374,2,0,P|102:232|64:253,1,84,8|0,0:0|0:0,0:0:0:0:
259,355,153672,2,0,P|251:317|246:283,2,67.2,2|2|2,0:0|0:0|0:0,0:0:0:0:
259,355,154269,5,6,0:0:0:0:
175,201,154419,2,0,L|188:103,1,84,0|8,0:0|0:0,0:0:0:0:
30,301,154717,2,0,L|41:384,1,84,2|0,0:0|0:0,0:0:0:0:
125,291,155016,2,0,L|136:374,1,84,2|8,0:0|0:0,0:0:0:0:
220,280,155314,1,0,0:0:0:0:
46,180,155463,5,2,0:0:0:0:
220,280,155613,1,0,0:0:0:0:
46,180,155762,2,0,P|37:115|57:77,1,84,8|2,0:0|0:0,0:0:0:0:
276,63,156060,1,0,0:0:0:0:
114,136,156210,1,2,0:0:0:0:
276,63,156359,2,0,P|318:60|375:70,1,84,8|0,0:0|0:0,0:0:0:0:
473,224,156657,6,0,P|415:209|313:149,1,168,2|8,0:0|0:0,0:0:0:0:
195,30,157105,1,2,0:0:0:0:
248,196,157254,2,0,L|232:304,1,84,0|2,0:0|0:0,0:0:0:0:
276,63,157553,2,0,P|343:55|400:94,1,126,8|0,0:0|0:0,0:0:0:0:
403,105,157851,6,0,P|407:166|401:221,1,84,8|8,0:3|0:3,0:0:0:0:
245,279,158150,2,0,P|243:237|247:195,1,84,8|8,0:3|0:3,0:0:0:0:
457,251,158448,1,2,0:3:0:0:
430,267,158522,1,2,0:3:0:0:
399,270,158597,1,2,0:3:0:0:
368,262,158671,1,2,0:3:0:0:
343,243,158746,1,8,0:0:0:0:
315,227,158822,1,8,0:0:0:0:
284,223,158897,1,8,0:0:0:0:
254,231,158971,1,8,0:0:0:0:
229,250,159046,5,6,0:0:0:0:
301,384,159195,2,0,L|287:290,1,84,0|8,0:0|0:0,0:0:0:0:
156,119,159493,2,0,L|143:202,1,84,2|0,0:0|0:0,0:0:0:0:
250,72,159792,2,0,L|237:155,1,84,2|8,0:0|0:0,0:0:0:0:
341,40,160090,1,0,0:0:0:0:
448,203,160239,5,2,0:0:0:0:
341,40,160389,1,0,0:0:0:0:
448,203,160538,2,0,P|390:211|353:198,1,84,8|2,0:0|0:0,0:0:0:0:
341,40,160836,1,0,0:0:0:0:
284,223,160986,1,2,0:0:0:0:
341,40,161135,2,0,P|382:32|422:41,1,84,8|0,0:0|0:0,0:0:0:0:
263,123,161433,5,2,0:0:0:0:
133,51,161583,2,0,L|30:68,1,84,0|8,0:0|0:0,0:0:0:0:
201,209,161881,2,0,L|304:226,1,84,2|0,0:0|0:0,0:0:0:0:
183,292,162180,2,0,L|286:309,1,84,2|8,0:0|0:0,0:0:0:0:
161,380,162478,1,0,0:0:0:0:
88,208,162628,5,2,0:0:0:0:
161,380,162777,1,0,0:0:0:0:
88,208,162926,2,0,P|89:136|108:89,1,84,8|2,0:0|0:0,0:0:0:0:
294,271,163225,1,0,0:0:0:0:
85,301,163374,1,2,0:0:0:0:
294,271,163523,2,0,L|395:254,1,84,8|0,0:0|0:0,0:0:0:0:
232,203,163822,5,2,0:3:0:0:
215,225,163896,1,2,0:3:0:0:
206,251,163971,1,2,0:3:0:0:
205,279,164045,1,2,0:3:0:0:
212,306,164120,1,2,0:3:0:0:
227,330,164195,1,0,0:0:0:0:
248,348,164269,1,8,0:3:0:0:
274,359,164343,1,8,0:3:0:0:
301,362,164418,5,8,0:3:0:0:
329,355,164492,1,8,0:3:0:0:
352,341,164567,1,8,0:3:0:0:
370,320,164642,1,8,0:3:0:0:
381,294,164717,2,0,L|374:239,3,42,8|8|8|8,0:3|0:3|0:3|0:3,0:0:0:0:
317,194,165016,5,10,0:0:0:0:
319,162,165090,1,0,0:0:0:0:
322,131,165165,1,10,0:0:0:0:
325,99,165239,1,0,0:0:0:0:
328,68,165314,2,0,L|333:18,1,42,10|0,0:0|0:0,0:0:0:0:
419,114,165463,2,0,L|422:155,1,42,10|0,0:0|0:0,0:0:0:0:
375,252,165613,5,10,0:0:0:0:
338,271,165687,1,2,0:0:0:0:
297,272,165762,1,2,0:0:0:0:
260,252,165836,1,0,0:0:0:0:
237,217,165911,1,2,0:0:0:0:
200,197,165985,1,2,0:0:0:0:
159,196,166060,1,2,0:0:0:0:
122,216,166134,1,2,0:0:0:0:
99,251,166210,6,0,L|115:307,1,42,8|0,0:0|0:0,0:0:0:0:
177,116,166359,1,10,0:0:0:0:
172,89,166657,5,10,0:0:0:0:
174,352,166807,1,10,0:0:0:0:
174,352,166956,1,10,0:0:0:0:
483,174,167254,6,0,L|282:198,1,168,10|2,0:0|0:0,0:0:0:0:
90,219,167702,1,10,0:0:0:0:
162,105,179344,5,2,0:0:0:0:
406,152,180389,1,2,0:0:0:0:
180,254,181135,5,2,0:0:0:0:
224,174,181433,1,2,0:0:0:0:
397,302,181732,5,2,0:0:0:0:
187,357,182777,1,2,0:0:0:0:
374,218,183523,2,0,L|379:151,3,42,0|0|0|0,0:0|0:0|0:0|0:0,0:0:0:0:
375,155,183822,1,0,0:0:0:0:
355,147,183896,1,0,0:0:0:0:
334,144,183971,1,0,0:0:0:0:
313,145,184045,1,0,0:0:0:0:
294,152,184120,6,0,P|266:161|228:161,1,42,8|8,0:3|0:3,0:0:0:0:
131,93,184269,2,0,P|151:96|171:103,1,42,8|8,0:3|0:3,0:0:0:0:
269,243,184419,1,8,0:3:0:0:
270,281,184493,1,8,0:3:0:0:
257,317,184568,1,8,0:3:0:0:
231,345,184642,1,8,0:3:0:0:
197,363,184717,1,2,0:3:0:0:
159,366,184792,1,2,0:3:0:0:
122,356,184866,1,2,0:3:0:0:
92,332,184941,1,2,0:3:0:0:
72,299,185016,1,2,0:3:0:0:
66,262,185090,1,2,0:3:0:0:
75,224,185165,1,2,0:3:0:0:
96,192,185239,1,2,0:3:0:0:
128,171,185314,6,0,P|134:195|158:244,1,42,8|8,0:3|0:3,0:0:0:0:
269,243,185463,2,0,P|276:223|281:203,1,42,8|8,0:3|0:3,0:0:0:0:
137,47,185613,2,0,P|143:71|166:119,1,42,8|8,0:3|0:3,0:0:0:0:
277,118,185762,2,0,P|284:98|289:78,1,42,8|8,0:3|0:3,0:0:0:0:
71,124,185911,1,2,0:3:0:0:
94,154,185985,1,2,0:3:0:0:
128,171,186060,1,2,0:3:0:0:
165,172,186134,1,2,0:3:0:0:
199,156,186210,1,2,0:3:0:0:
221,126,186284,1,2,0:3:0:0:
255,109,186359,1,2,0:3:0:0:
292,108,186433,1,2,0:3:0:0:
326,124,186508,5,2,0:0:0:0:
287,139,186582,1,2,0:0:0:0:
245,142,186657,1,2,0:0:0:0:
205,132,186731,1,2,0:0:0:0:
169,109,186806,1,2,0:0:0:0:
143,77,186881,1,2,0:0:0:0:
103,66,186955,1,2,0:0:0:0:
62,74,187030,1,2,0:0:0:0:
30,100,187104,1,10,0:0:0:0:
13,138,187179,1,10,0:0:0:0:
15,180,187254,1,10,0:0:0:0:
36,216,187328,1,10,0:0:0:0:
71,238,187403,1,10,0:0:0:0:
113,242,187478,1,10,0:0:0:0:
152,226,187553,1,10,0:0:0:0:
134,59,188001,6,0,P|138:142|156:244,1,168,0|0,0:0|0:0,0:0:0:0:
350,346,188448,2,0,P|363:263|367:179,1,168,0|0,0:0|0:0,0:0:0:0:
64,275,188896,6,0,B|110:251|165:262|165:262|218:276|269:246,1,201.599993847656,6|8,0:0|0:0,0:0:0:0:
342,70,189344,1,0,0:0:0:0:
444,220,189493,2,0,P|439:294|430:337,1,100.799996923828,2|0,0:0|0:0,0:0:0:0:
257,170,189792,2,0,P|249:120|247:69,1,100.799996923828,8|0,0:0|0:0,0:0:0:0:
356,223,190090,5,2,0:0:0:0:
138,156,190239,1,0,0:0:0:0:
293,4,190389,1,8,0:0:0:0:
271,260,190538,1,0,0:0:0:0:
163,67,190687,2,0,P|104:73|59:107,1,100.799996923828,2|0,0:0|0:0,0:0:0:0:
339,141,190986,2,0,P|398:135|443:101,1,100.799996923828,8|0,0:0|0:0,0:0:0:0:
138,156,191284,6,0,P|154:251|166:360,1,201.599993847656,2|8,0:0|0:0,0:0:0:0:
242,160,191732,2,0,P|289:141|377:154,1,100.799996923828,0|2,0:0|0:0,0:0:0:0:
119,270,192031,2,0,P|68:269|22:250,1,100.799996923828,0|8,0:0|0:0,0:0:0:0:
110,70,192329,1,0,0:0:0:0:
306,223,192478,5,2,0:0:0:0:
155,142,192628,1,8,0:0:0:0:
67,286,192777,2,0,L|87:385,1,100.799996923828,8|0,0:0|0:0,0:0:0:0:
122,180,193075,1,8,0:3:0:0:
155,142,193149,1,8,0:3:0:0:
201,124,193224,1,8,0:3:0:0:
251,128,193298,1,8,0:3:0:0:
293,153,193373,1,2,0:3:0:0:
335,178,193448,1,2,0:3:0:0:
385,182,193522,1,2,0:3:0:0:
431,164,193597,1,2,0:3:0:0:
464,126,193672,6,0,P|443:191|435:338,1,201.599993847656,6|8,0:0|0:0,0:0:0:0:
335,178,194120,1,0,0:0:0:0:
307,27,194269,2,0,P|368:35|420:50,1,100.799996923828,2|0,0:0|0:0,0:0:0:0:
486,236,194568,2,0,P|437:248|387:254,1,100.799996923828,8|0,0:0|0:0,0:0:0:0:
135,156,194866,6,0,P|221:157|342:180,1,201.599993847656,2|8,0:0|0:0,0:0:0:0:
449,329,195314,1,0,0:0:0:0:
289,367,195463,2,0,L|304:261,1,100.799996923828,2|0,0:0|0:0,0:0:0:0:
407,45,195762,2,0,L|421:144,1,100.799996923828,8|0,0:0|0:0,0:0:0:0:
244,310,196060,5,10,0:0:0:0:
210,326,196134,1,0,0:0:0:0:
173,324,196209,1,0,0:0:0:0:
141,304,196283,1,0,0:0:0:0:
124,271,196358,1,10,0:0:0:0:
125,233,196433,1,0,0:0:0:0:
145,201,196507,1,2,0:0:0:0:
177,183,196582,1,0,0:0:0:0:
215,184,196657,5,10,0:0:0:0:
250,197,196731,1,0,0:0:0:0:
287,197,196806,1,2,0:0:0:0:
322,183,196880,1,0,0:0:0:0:
350,157,196956,1,10,0:0:0:0:
357,120,197030,1,0,0:0:0:0:
348,84,197105,1,2,0:0:0:0:
325,55,197179,1,0,0:0:0:0:
291,39,197254,6,0,L|235:47,3,50.3999984619141,8|0|8|0,0:0|0:0|0:0|0:0,0:0:0:0:
171,103,197553,2,0,L|114:95,3,50.3999984619141,8|0|8|0,0:0|0:0|0:0|0:0,0:0:0:0:
269,122,197851,1,8,0:3:0:0:
241,163,197925,1,8,0:3:0:0:
238,213,198000,1,8,0:3:0:0:
260,258,198074,1,8,0:3:0:0:
301,286,198149,1,10,0:3:0:0:
351,290,198224,1,10,0:3:0:0:
396,268,198298,1,10,0:3:0:0:
424,227,198373,1,10,0:3:0:0:
429,178,198448,6,0,P|325:201|228:149,1,201.599993847656,6|8,0:0|0:0,0:0:0:0:
141,21,198896,2,0,P|156:95|160:146,1,100.799996923828,2|0,0:0|0:0,0:0:0:0:
64,287,199195,2,0,P|70:237|81:187,1,100.799996923828,2|8,0:0|0:0,0:0:0:0:
236,82,199493,1,0,0:0:0:0:
155,260,199642,5,2,0:0:0:0:
52,77,199792,1,0,0:0:0:0:
241,190,199941,1,8,0:0:0:0:
66,315,200090,1,2,0:0:0:0:
57,100,200239,2,0,L|183:84,1,100.799996923828,0|2,0:0|0:0,0:0:0:0:
416,191,200538,2,0,L|257:172,1,151.199995385742,8|0,0:0|0:0,0:0:0:0:
241,190,200836,6,0,P|204:277|271:369,1,201.599993847656,2|8,0:0|0:0,0:0:0:0:
440,288,201284,2,0,P|357:305|313:329,1,100.799996923828,4|0,0:0|0:0,0:0:0:0:
149,366,201583,2,0,P|166:318|172:268,1,100.799996923828,4|0,0:0|0:0,0:0:0:0:
113,109,201881,1,8,0:0:0:0:
86,308,202031,5,2,0:0:0:0:
229,181,202180,1,2,0:0:0:0:
365,310,202329,1,8,0:0:0:0:
230,158,202478,1,8,0:0:0:0:
149,366,202628,1,2,0:0:0:0:
118,133,202777,1,2,0:0:0:0:
339,207,202926,1,2,0:0:0:0:
363,202,203000,1,2,0:0:0:0:
388,196,203075,1,2,0:0:0:0:
412,189,203149,1,2,0:0:0:0:
438,180,203225,6,0,P|377:175|307:152,1,125.999996154785,6|0,0:0|0:0,0:0:0:0:
256,103,203672,2,0,P|213:111|186:121,1,42,2|0,0:0|0:0,0:0:0:0:
155,165,203822,1,8,0:0:0:0:
155,165,204419,6,0,L|172:312,1,125.999996154785,2|0,0:0|0:0,0:0:0:0:
246,349,204866,2,0,L|256:301,1,42,2|0,0:0|0:0,0:0:0:0:
272,226,205016,1,8,0:0:0:0:
272,226,205613,6,0,P|209:255|265:163,1,273,2|0,0:0|0:0,0:0:0:0:
323,169,206657,6,0,P|381:166|434:52,1,168,8|0,0:0|0:0,0:0:0:0:
183,53,207105,2,0,P|267:59|344:91,1,168,8|0,0:0|0:0,0:0:0:0:
346,305,207553,1,8,0:0:0:0:
321,318,207627,1,0,0:0:0:0:
295,329,207702,1,0,0:0:0:0:
268,337,207776,1,0,0:0:0:0:
241,342,207851,1,2,0:0:0:0:
213,344,207926,1,2,0:0:0:0:
185,343,208001,6,0,P|180:255|172:165,1,168,4|8,0:0|0:0,0:0:0:0:
60,61,208448,1,2,0:0:0:0:
104,248,208598,1,0,0:0:0:0:
242,115,208747,1,2,0:0:0:0:
18,130,208896,2,0,P|24:186|38:238,1,84,8|0,0:0|0:0,0:0:0:0:
222,264,209195,5,2,0:0:0:0:
105,157,209344,1,0,0:0:0:0:
22,294,209493,1,8,0:0:0:0:
246,260,209642,2,0,L|337:228,1,84,2|0,0:0|0:0,0:0:0:0:
105,157,209941,2,0,P|103:106|125:60,1,84,2|8,0:0|0:0,0:0:0:0:
345,82,210239,1,0,0:0:0:0:
345,82,210314,1,0,0:0:0:0:
345,82,210389,6,0,P|267:112|184:126,1,168,2|8,0:0|0:0,0:0:0:0:
60,239,210836,1,2,0:0:0:0:
60,239,210911,1,0,0:0:0:0:
60,239,210986,1,0,0:0:0:0:
114,75,211135,1,2,0:0:0:0:
140,281,211284,2,0,P|231:290|282:254,1,126,8|0,0:0|0:0,0:0:0:0:
274,255,211583,5,2,0:0:0:0:
251,88,211732,1,0,0:0:0:0:
280,282,211881,1,8,0:0:0:0:
430,157,212031,1,2,0:0:0:0:
205,150,212180,1,2,0:3:0:0:
189,136,212254,1,2,0:3:0:0:
177,118,212329,1,2,0:3:0:0:
171,98,212403,1,2,0:3:0:0:
171,77,212478,1,8,0:3:0:0:
176,57,212553,1,8,0:3:0:0:
186,39,212627,1,8,0:3:0:0:
201,24,212702,1,8,0:3:0:0:
219,14,212777,5,6,0:0:0:0:
327,178,212926,1,0,0:0:0:0:
149,207,213075,2,0,P|108:201|63:199,1,84,8|2,0:0|0:0,0:0:0:0:
342,279,213374,2,0,P|412:236|429:156,1,168,0|8,0:0|0:0,0:0:0:0:
251,88,213822,1,0,0:0:0:0:
219,257,213971,6,0,L|232:351,1,84,2|0,0:0|0:0,0:0:0:0:
338,94,214269,2,0,L|325:188,1,84,8|2,0:0|0:0,0:0:0:0:
223,296,214568,1,0,0:0:0:0:
256,114,214717,1,2,0:0:0:0:
400,234,214866,1,8,0:0:0:0:
211,201,215016,1,0,0:0:0:0:
426,241,215165,6,0,P|431:285|405:348,1,84,2|0,0:0|0:0,0:0:0:0:
211,201,215463,2,0,P|200:160|205:119,1,84,8|2,0:0|0:0,0:0:0:0:
449,130,215762,2,0,L|273:157,1,168,0|8,0:0|0:0,0:0:0:0:
149,259,216210,1,0,0:0:0:0:
276,76,216359,5,8,0:3:0:0:
296,77,216433,1,8,0:3:0:0:
316,84,216508,1,8,0:3:0:0:
333,96,216582,1,8,0:3:0:0:
347,112,216657,1,8,0:3:0:0:
356,131,216732,1,8,0:3:0:0:
360,152,216806,1,8,0:3:0:0:
358,173,216881,1,8,0:3:0:0:
348,192,216956,6,0,L|306:169,1,42,2|2,0:3|0:3,0:0:0:0:
168,139,217105,2,0,L|204:118,1,42,2|2,0:3|0:3,0:0:0:0:
398,44,217254,1,10,0:0:0:0:
408,250,217404,1,10,0:0:0:0:
398,19,217553,5,6,0:0:0:0:
241,188,217702,1,0,0:0:0:0:
435,265,217851,1,8,0:0:0:0:
398,44,218001,1,2,0:0:0:0:
289,257,218150,2,0,P|232:272|159:190,1,168,0|8,0:0|0:0,0:0:0:0:
341,153,218598,1,0,0:0:0:0:
197,295,218747,6,0,P|197:342|204:384,1,84,2|0,0:0|0:0,0:0:0:0:
337,197,219045,2,0,P|343:155|342:113,1,84,8|2,0:0|0:0,0:0:0:0:
157,29,219344,1,0,0:0:0:0:
260,152,219493,1,2,0:0:0:0:
381,37,219642,1,8,0:0:0:0:
258,181,219792,1,0,0:0:0:0:
139,10,219941,5,2,0:0:0:0:
51,199,220090,1,0,0:0:0:0:
209,74,220239,1,8,0:0:0:0:
328,232,220389,1,2,0:0:0:0:
95,113,220538,2,0,P|89:195|92:302,1,168,0|8,0:0|0:0,0:0:0:0:
311,324,220986,1,0,0:0:0:0:
311,324,221060,1,0,0:0:0:0:
311,324,221135,5,2,0:0:0:0:
174,174,221284,1,2,0:0:0:0:
226,376,221433,1,10,0:0:0:0:
272,183,221583,1,10,0:0:0:0:
90,280,221732,1,10,0:0:0:0:
89,259,221806,1,0,0:0:0:0:
88,238,221881,1,2,0:0:0:0:
88,217,221955,1,2,0:0:0:0:
88,196,222030,1,2,0:0:0:0:
89,175,222105,1,0,0:0:0:0:
91,154,222179,1,10,0:0:0:0:
92,133,222254,1,0,0:0:0:0:
95,113,222329,5,6,0:0:0:0:
212,265,222478,1,0,0:0:0:0:
282,100,222628,2,0,P|339:88|387:89,1,84,8|2,0:0|0:0,0:0:0:0:
360,343,222926,2,0,L|332:154,1,168,0|8,0:0|0:0,0:0:0:0:
183,80,223374,1,0,0:0:0:0:
212,265,223523,5,2,0:0:0:0:
292,75,223672,1,0,0:0:0:0:
426,239,223822,2,0,L|441:335,1,84,8|0,0:0|0:0,0:0:0:0:
212,265,224120,2,0,L|224:182,1,84,0|2,0:0|0:0,0:0:0:0:
390,93,224419,1,8,0:0:0:0:
348,260,224568,1,0,0:0:0:0:
184,103,224717,6,0,L|123:111,3,42,2|0|0|0,0:0|0:0|0:0|0:0,0:0:0:0:
83,162,225016,2,0,L|22:154,3,42,8|0|0|0,0:0|0:0|0:0|0:0,0:0:0:0:
149,217,225314,1,0,0:0:0:0:
169,214,225388,1,0,0:0:0:0:
190,212,225463,1,2,0:0:0:0:
211,210,225537,1,0,0:0:0:0:
232,208,225612,1,8,0:0:0:0:
253,206,225687,1,0,0:0:0:0:
274,203,225761,1,0,0:0:0:0:
295,201,225836,1,0,0:0:0:0:
316,200,225911,5,8,0:0:0:0:
286,170,225985,1,0,0:0:0:0:
276,130,226060,1,8,0:0:0:0:
286,89,226135,1,0,0:0:0:0:
315,59,226209,1,2,0:0:0:0:
355,49,226284,1,2,0:0:0:0:
396,59,226358,1,2,0:0:0:0:
426,87,226433,1,2,0:0:0:0:
436,127,226508,6,0,L|425:183,1,42,2|0,0:0|0:0,0:0:0:0:
391,283,226657,2,0,L|382:241,1,42,2|2,0:0|0:0,0:0:0:0:
276,130,226807,1,2,0:0:0:0:
228,108,226881,1,0,0:0:0:0:
177,111,226956,1,8,0:0:0:0:
132,138,227030,1,0,0:0:0:0:
106,183,227105,5,14,0:0:0:0:
353,164,227254,1,10,0:0:0:0:
81,189,227553,5,2,0:0:0:0:
81,189,227702,1,10,0:0:0:0:
382,241,227851,1,10,0:0:0:0:
52,190,228150,5,10,0:0:0:0:
363,78,228448,1,2,0:0:0:0:
52,190,228598,1,10,0:0:0:0:
