osu file format v14

[General]
AudioFilename: audio.mp3
AudioLeadIn: 0
PreviewTime: 168598
Countdown: 0
SampleSet: Soft
StackLeniency: 0.7
Mode: 0
LetterboxInBreaks: 0
WidescreenStoryboard: 1

[Editor]
Bookmarks: 8598,30090,49195,61135,80239,89791,90986,91060,91135,91210,91284,91359,91433,91508,91583,91657,91732,91807,91881,91956,92031,92105,92180,92254,92329,92404,92478,92553,92628,92702,92777,92851,92926,93001,93075,93150,93225,93299,93374,93448,93523,93598,93672,93747,93822,93896,93971,94045,94120,94195,94269,94344,94419,94493,94568,94642,94717,94792,94866,94941,95016,95090,95165,95239,95314,95389,95463,95538,95613,95687,95762,95836,95911,95986,96060,96135,96210,96284,96359,96433,96508,96583,96657,96732,96807,96881,96956,97031,97105,97180,97254,97329,97404,97478,97553,97628,97702,97777,97851,97926,98001,98075,98150,111284,130389,139941,140016,140090,140165,140239,140314,140389,140463,140538,140613,140687,140762,140836,140911,140986,141060,141135,141210,141284,141359,141433,141508,141583,141657,141732,141807,141881,141956,142031,142105,142180,142254,142329,142404,142478,142553,142628,142702,142777,142851,142926,143001,143075,143150,143225,143299,143374,143448,143523,143598,143672,143747,143822,143896,143971,144045,144120,144195,144269,144344,144419,144493,144568,144642,144717,144792,144866,144941,145016,145090,145165,145239,145314,145389,145463,145538,145613,145687,145762,145836,145911,145986,146060,146135,146210,146284,146359,146433,146508,146583,146657,146732,146807,146881,146956,147031,147105,147180,147254,147329,147404,147478,147553,147628,147702,147777,147851,147926,148001,148075,148150,148225,148299,159045,169791,169792,169866,169941,170016,170090,170165,170239,170314,170389,170463,170538,170613,170687,170762,170836,170911,170986,171060,171135,171210,171284,171359,171433,171508,171583,171657,171732,171807,171881,171956,172031,172105,172180,172254,172329,172404,172478,172553,172628,172702,172777,172851,172926,173001,173075,173150,173225,173299,173374,173448,173523,173598,173672,173747,173822,173896,173971,174045,174120,174195,174269,174344,174419,174493,174568,174642,174717,174792,174866,174941,175016,175090,175165,175239,175314,175389,175463,175538,175613,175687,175762,175836,175911,175986,176060,176135,176210,176284,176359,176433,176508,176583,176657,176732,176807,176881,176956,177031,177105,177180,177254,177329,177404,177478,177553,177628,177702,177777,177851,177926,178001,178075,178150,178225,178299,178374,178448,178523,178598,178672,178747,178822,178896,178971,179045,179120,179195,179269,179343,208001,217553
DistanceSpacing: 0.1
BeatDivisor: 3
GridSize: 4
TimelineZoom: 3.100004

[Metadata]
Title:Paradisus-Paradoxum
TitleUnicode:Paradisus-Paradoxum
Artist:MYTH & ROID
ArtistUnicode:MYTH & ROID
Creator:Cellina
Version:Collab Extra
Source:Re:ゼロから始める異世界生活
Tags:akitoshi kalibe nasya n_a_s_y_a shirakai toybot curi [c_u_r_i] reana dailycare habiholic re : zero kara hajimeru isekai seikatsu life in a different world from zero re:zero
BeatmapID:1104323
BeatmapSetID:510183

[Difficulty]
HPDrainRate:6
CircleSize:3.8
OverallDifficulty:8
ApproachRate:9.3
SliderMultiplier:1.8
SliderTickRate:1

[Events]
//Background and Video events
0,0,"710129.png",0,0
//Break Periods
2,90986,97596
2,140141,147745
2,169792,178790
//Storyboard Layer 0 (Background)
//Storyboard Layer 1 (Fail)
//Storyboard Layer 2 (Pass)
//Storyboard Layer 3 (Foreground)
//Storyboard Sound Samples

[TimingPoints]
1434,298.507462686567,4,2,1,70,1,0
10389,-142.857142857143,4,2,1,50,0,0
10613,-142.857142857143,4,2,1,10,0,0
10687,-200,4,2,1,30,0,0
10911,-200,4,2,1,10,0,0
10986,-100,4,2,1,70,0,0
15165,-100,4,2,1,50,0,0
15762,-166.666666666667,4,2,1,70,0,0
18150,-200,4,2,1,70,0,0
19642,-142.857142857143,4,2,1,70,0,0
20090,-200,4,2,1,70,0,0
20538,-100,4,2,1,65,0,0
30090,-133.333333333333,4,2,1,50,0,0
32180,-100,4,2,1,50,0,0
32478,-133.333333333333,4,2,1,50,0,0
36956,-100,4,2,1,50,0,0
37254,-133.333333333333,4,2,1,30,0,0
39120,-133.333333333333,4,2,1,70,0,0
39642,-100,4,2,1,60,0,0
41732,-83.3333333333333,4,2,1,60,0,0
42031,-100,4,2,1,60,0,0
45911,-83.3333333333333,4,2,1,60,0,0
46210,-133.333333333333,4,2,1,60,0,0
46508,-83.3333333333333,4,2,1,60,0,0
47404,-76.9230769230769,4,2,1,60,0,0
47702,-71.4285714285714,4,2,1,60,0,0
48598,-100,4,2,1,30,0,0
48896,-100,4,2,1,40,0,0
49195,-100,4,2,1,60,0,0
56359,-100,4,2,1,70,0,0
60538,-166.666666666667,4,2,1,50,0,0
60762,-142.857142857143,4,2,1,10,0,0
60836,-199.999988,4,2,1,30,0,0
61060,-200,4,2,1,10,0,0
61135,-100,4,2,1,70,0,1
70613,-100,4,2,1,70,0,0
70687,-100,4,2,1,70,0,1
77851,-133.333333333333,4,2,1,70,0,1
79344,-200,4,2,1,70,0,1
79792,-133.333333333333,4,2,1,70,0,1
80239,-100,4,2,1,65,0,0
89792,-100,4,2,1,30,0,0
98150,-100,4,2,1,60,0,0
100538,-142.857142857143,4,2,1,50,0,0
102628,-83.3333333333333,4,2,1,50,0,0
102926,-142.857142857143,4,2,1,50,0,0
103374,-125,4,2,1,50,0,0
103822,-111.111111111111,4,2,1,50,0,0
104568,-111.111111111111,4,2,1,60,0,0
105016,-100,4,2,1,70,0,0
105314,-100,4,2,1,50,0,0
105911,-100,4,2,1,60,0,0
106508,-100,4,2,1,70,0,0
107105,-100,4,2,1,80,0,0
107702,-100,4,2,1,90,0,0
108598,-66.6666666666667,4,2,1,70,0,0
109493,-76.9230769230769,4,2,1,70,0,0
110687,-133.333333333333,4,2,0,40,0,0
111284,-100,4,2,1,80,0,1
120762,-100,4,2,1,80,0,0
120836,-100,4,2,1,80,0,1
125613,-166.666666666667,4,2,1,70,0,1
128001,-200,4,2,1,70,0,1
129493,-142.857142857143,4,2,1,70,0,1
129941,-200,4,2,1,70,0,1
130389,-100,4,2,1,65,0,0
148598,-100,4,2,1,45,0,0
148896,-100,4,2,1,50,0,0
149195,-100,4,2,1,55,0,0
149493,-100,4,2,1,60,0,0
149941,-66.6666666666667,4,2,1,60,0,0
150538,-100,4,2,1,60,0,0
150687,-100,4,2,1,60,0,0
152329,-66.6666666666667,4,2,1,60,0,0
152926,-100,4,2,1,60,0,0
153672,-125,4,2,1,30,0,0
154269,-100,4,2,1,60,0,0
154717,-66.6666666666667,4,2,1,60,0,0
155314,-100,4,2,1,60,0,0
159493,-83.3333333333333,4,2,1,60,0,0
159792,-66.6666666666667,4,2,1,60,0,0
160239,-100,4,2,1,60,0,0
161881,-83.3333333333333,4,2,1,60,0,0
162180,-66.6666666666667,4,2,1,60,0,0
162628,-100,4,2,1,60,0,0
164120,-76.9230769230769,4,2,1,70,0,0
164568,-83.3333333333333,4,2,1,70,0,0
165613,-66.6666666666667,4,2,1,70,0,0
165911,-83.3333333333333,4,2,1,70,0,0
167254,-66.6666666666667,4,2,1,70,0,0
179344,-166.666666666667,4,2,2,40,0,0
181135,-200,4,2,2,40,0,0
181359,-200,4,2,2,10,0,0
181433,-200,4,2,2,40,0,0
181657,-200,4,2,2,10,0,0
181732,-166.666666666667,4,2,2,40,0,0
183523,-142.857142857143,4,2,2,50,0,0
183822,-125,4,2,2,60,0,0
184120,-100,4,2,1,70,0,0
186508,-90.9090909090909,4,2,1,70,0,0
188896,-100,4,2,1,70,0,1
198374,-100,4,2,1,70,0,0
198448,-100,4,2,1,80,0,1
203225,-166.666666666667,4,2,1,70,0,1
205613,-200,4,2,1,70,0,1
207105,-142.857142857143,4,2,1,70,0,1
207553,-200,4,2,1,70,0,1
208001,-100,4,2,1,65,0,0
217553,-100,4,2,1,65,0,1
217628,-100,4,2,1,65,0,0
222329,-100,4,2,1,65,0,1
222404,-100,4,2,1,65,0,0
226657,-111.111111111111,4,2,1,65,0,0
226807,-125,4,2,1,65,0,0
226956,-142.857142857143,4,2,1,65,0,0
227105,-100,4,2,1,65,0,0

[Colours]
Combo1 : 255,128,255
Combo2 : 128,255,255
Combo3 : 192,192,192
Combo4 : 255,128,64

[HitObjects]
217,20,8598,5,10,0:0:0:0:
155,163,8747,1,10,0:0:0:0:
147,184,9045,5,2,0:0:0:0:
209,41,9195,1,10,0:0:0:0:
292,148,9344,1,10,0:0:0:0:
309,159,9642,6,0,B|232:145|232:145|214:122|214:122|170:119|140:85,1,180,2|10,0:0|0:0,0:0:0:0:
202,276,10090,1,10,0:0:0:0:
202,276,10389,6,0,P|249:258|302:251,1,94.499997116089,2|0,0:0|0:0,0:0:0:0:
321,214,10687,6,0,P|351:234|395:240,1,67.5,2|0,0:0|0:0,0:0:0:0:
432,312,10986,6,0,P|456:237|379:243,1,180,6|8,0:1|0:0,0:0:0:0:
254,347,11433,2,0,B|222:344|193:330|193:330|139:344|139:344|69:335,1,180,2|2,0:0|0:0,0:0:0:0:
21,198,11881,1,8,0:0:0:0:
137,263,12031,6,0,P|152:210|170:72,1,180,0|0,0:0|0:0,0:0:0:0:
63,37,12478,1,8,0:0:0:0:
21,198,12628,2,0,B|53:195|82:181|82:181|136:195|136:195|206:186,1,180,2|2,0:0|0:0,0:0:0:0:
418,69,13075,2,0,L|283:54,1,135,8|0,0:0|0:0,0:0:0:0:
263,29,13374,6,0,P|273:118|295:205,1,180,2|8,0:0|0:0,0:0:0:0:
469,163,13822,1,2,0:0:0:0:
479,158,14120,1,2,0:0:0:0:
311,200,14269,1,8,0:0:0:0:
507,272,14419,1,0,0:0:0:0:
384,373,14568,5,2,0:0:0:0:
365,354,14642,1,2,0:0:0:0:
354,329,14717,1,2,0:0:0:0:
346,302,14792,1,2,0:0:0:0:
352,275,14866,1,2,0:0:0:0:
367,252,14941,1,2,0:0:0:0:
391,240,15016,1,2,0:0:0:0:
417,243,15090,1,2,0:0:0:0:
438,259,15165,6,0,P|412:266|388:268,1,45,2|2,0:3|0:0,0:0:0:0:
312,321,15314,2,0,P|286:314|262:312,1,45,2|2,0:3|0:0,0:0:0:0:
209,241,15463,2,0,P|215:214|217:186,3,45,2|2|2|2,0:3|0:3|0:3|0:3,0:0:0:0:
185,266,15762,6,0,P|134:308|35:297,1,161.999995056153,6|2,0:0|0:0,0:0:0:0:
42,301,16359,1,8,0:0:0:0:
308,153,16956,6,0,L|476:175,1,161.999995056153,2|2,0:0|0:0,0:0:0:0:
468,174,17553,1,8,0:0:0:0:
134,24,18150,6,0,B|127:95|127:95|142:132|142:132|129:160|127:202|127:202|92:168|98:123,1,270,2|0,0:0|0:0,0:0:0:0:
220,187,19195,1,8,0:0:0:0:
220,187,19642,6,0,P|214:256|229:315,1,125.999996154785,8|0,0:0|0:0,0:0:0:0:
129,272,20090,2,0,P|87:274|55:329,1,90,8|0,0:0|0:0,0:0:0:0:
47,327,20463,1,0,0:0:0:0:
47,327,20538,6,0,L|232:310,1,180,6|8,0:0|0:0,0:0:0:0:
378,196,20986,1,2,0:0:0:0:
312,374,21135,2,0,L|319:278,1,90,0|2,0:0|0:0,0:0:0:0:
207,196,21433,2,0,L|200:100,1,90,8|0,0:0|0:0,0:0:0:0:
340,13,21732,5,2,0:0:0:0:
299,190,21881,1,0,0:0:0:0:
199,83,22031,1,8,0:0:0:0:
357,5,22180,2,0,P|392:38|301:84,1,180,2|2,0:0|0:0,0:0:0:0:
178,202,22628,2,0,P|137:185|93:178,1,90,8|0,0:0|0:0,0:0:0:0:
271,359,22926,6,0,B|290:290|290:290|276:169,1,180,2|8,0:0|0:0,0:0:0:0:
163,71,23374,2,0,P|119:69|107:189,1,180,2|2,0:0|0:0,0:0:0:0:
198,288,23822,1,8,0:0:0:0:
198,288,24120,5,2,0:0:0:0:
373,313,24269,1,0,0:0:0:0:
202,149,24419,1,8,0:0:0:0:
366,78,24568,1,2,0:0:0:0:
305,209,24717,1,0,0:0:0:0:
265,33,24866,1,2,0:0:0:0:
296,253,25016,1,8,0:0:0:0:
366,78,25165,1,8,0:0:0:0:
479,195,25314,6,0,B|421:202|421:202|374:189|374:189|334:207|281:211,1,180,6|8,0:0|0:0,0:0:0:0:
187,65,25762,1,2,0:0:0:0:
187,65,25836,1,0,0:0:0:0:
187,65,25911,1,0,0:0:0:0:
295,132,26060,1,2,0:0:0:0:
165,249,26210,2,0,P|116:225|66:215,1,90,8|0,0:0|0:0,0:0:0:0:
245,362,26508,5,2,0:0:0:0:
295,211,26657,1,0,0:0:0:0:
425,296,26807,1,8,0:0:0:0:
260,362,26956,2,0,B|224:354|189:346|189:346|159:353|159:353|125:341|69:341,1,180,2|2,0:0|0:0,0:0:0:0:
368,241,27404,2,0,P|417:217|467:207,1,90,8|0,0:0|0:0,0:0:0:0:
243,36,27702,6,0,P|223:106|225:234,1,180,2|8,0:0|0:0,0:0:0:0:
24,179,28150,2,0,P|46:266|46:356,1,180,2|2,0:0|0:0,0:0:0:0:
264,304,28598,1,8,0:0:0:0:
137,234,28747,1,0,0:0:0:0:
315,128,28896,5,2,0:0:0:0:
336,356,29045,1,2,0:0:0:0:
221,212,29195,1,2,0:0:0:0:
221,212,29269,1,2,0:0:0:0:
221,212,29344,1,2,0:0:0:0:
221,212,29419,1,2,0:0:0:0:
221,212,29493,5,2,0:0:0:0:
360,220,29642,1,2,0:0:0:0:
216,120,29792,1,10,0:0:0:0:
188,328,29941,1,10,0:0:0:0:
360,220,30090,5,4,0:0:0:0:
360,220,30389,2,0,P|276:268|220:256,1,135.000005149842,0|0,0:0|0:0,0:0:0:0:
174,193,30836,2,0,P|123:148|38:165,1,135.000005149842,0|0,0:0|0:0,0:0:0:0:
81,285,31284,6,0,L|105:197,1,67.5000025749208,0|0,0:0|0:0,0:0:0:0:
136,76,31583,1,0,0:0:0:0:
236,183,31732,2,0,P|288:175|336:91,1,135.000005149842,0|0,0:0|0:0,0:0:0:0:
136,76,32180,2,0,P|116:104|104:180,1,90,0|0,0:0|0:0,0:0:0:0:
134,267,32478,6,0,P|53:267|5:211,1,135.000005149842,4|0,0:3|0:0,0:0:0:0:
267,177,32926,2,0,P|275:233|247:337,1,135.000005149842,0|0,0:0|0:0,0:0:0:0:
134,267,33374,2,0,L|226:231,1,67.5000025749208,0|0,3:0|0:0,0:0:0:0:
359,260,33672,1,0,0:0:0:0:
359,260,33971,6,0,P|423:208|491:220,1,135.000005149842,0|0,0:0|0:0,0:0:0:0:
390,342,34419,2,0,P|311:338|271:286,1,135.000005149842,0|0,0:3|0:0,0:0:0:0:
331,127,34866,6,0,L|358:259,1,135.000005149842,4|0,0:3|0:0,0:0:0:0:
168,250,35314,1,0,0:0:0:0:
168,250,35463,2,0,P|160:298|152:334,1,67.5000025749208,0|0,0:0|0:0,0:0:0:0:
77,179,35762,6,0,P|120:139|221:135,1,135.000005149842,0|0,0:3|0:0,0:0:0:0:
292,109,36210,1,0,0:0:0:0:
286,291,36359,6,0,P|204:285|168:250,1,135.000005149842,0|0,0:3|3:0,0:0:0:0:
169,250,36807,1,0,3:0:0:0:
346,205,36956,6,0,L|455:177,1,90,0|0,3:0|3:0,0:0:0:0:
179,140,37254,1,8,0:3:0:0:
256,192,37329,12,0,39045,3:0:0:0:
104,168,39642,6,0,P|208:168|276:96,1,180,4|8,0:0|0:0,0:0:0:0:
352,218,40090,2,0,P|332:282|324:330,1,90,2|0,0:0|0:0,0:0:0:0:
262,121,40389,1,2,0:0:0:0:
219,247,40538,2,0,P|179:255|127:275,1,90,8|0,0:0|0:0,0:0:0:0:
172,102,40836,6,0,P|225:34|312:44,1,180,2|8,0:0|0:0,0:0:0:0:
378,149,41284,2,0,L|349:263,1,90,2|0,0:0|0:0,0:0:0:0:
291,343,41583,1,2,0:0:0:0:
146,211,41732,2,0,P|202:219|266:255,1,107.999996704102,8|0,0:0|0:0,0:0:0:0:
419,323,42031,6,0,P|403:243|376:144,1,180,2|8,0:0|0:0,0:0:0:0:
252,52,42478,2,0,P|240:112|228:168,1,90,2|0,0:0|0:0,0:0:0:0:
202,279,42777,1,2,0:0:0:0:
328,300,42926,2,0,P|320:236|312:192,1,90,8|0,0:0|0:0,0:0:0:0:
202,279,43225,5,2,0:0:0:0:
153,115,43374,1,2,0:0:0:0:
315,210,43523,2,0,P|360:192|432:176,1,90,8|2,0:0|0:0,0:0:0:0:
314,84,43822,1,2,0:0:0:0:
179,195,43971,1,8,0:0:0:0:
179,195,44045,1,8,0:0:0:0:
179,195,44120,2,0,P|143:211|111:223,1,45,8|8,0:0|0:0,0:0:0:0:
24,179,44269,2,0,P|56:163|92:151,1,45,8|8,0:0|0:0,0:0:0:0:
202,279,44419,6,0,P|315:279|362:195,1,180,4|8,0:0|0:0,0:0:0:0:
424,139,44866,2,0,P|407:87|392:39,1,90,2|0,0:0|0:0,0:0:0:0:
171,100,45165,1,2,0:0:0:0:
249,198,45314,1,8,0:0:0:0:
342,122,45463,1,0,0:0:0:0:
251,13,45613,6,0,L|263:113,1,90,2|0,0:0|0:0,0:0:0:0:
290,300,45911,2,0,P|226:296|166:268,1,107.999996704102,8|0,0:0|0:0,0:0:0:0:
76,240,46210,1,2,0:0:0:0:
137,359,46359,1,2,0:0:0:0:
246,225,46508,2,0,P|256:166|266:115,1,107.999996704102,8|0,0:0|0:0,0:0:0:0:
304,8,46807,5,8,0:3:0:0:
468,136,46956,1,2,0:0:0:0:
468,136,47031,1,2,0:0:0:0:
468,136,47105,2,0,P|416:168|340:164,1,107.999996704102,8|0,0:0|0:0,0:0:0:0:
104,100,47404,6,0,P|148:68|220:60,1,116.999994644165,8|2,0:0|0:0,0:0:0:0:
436,208,47702,6,0,P|369:191|308:180,1,125.999996154785,8|2,0:0|0:0,0:0:0:0:
100,376,48001,6,0,L|282:331,2,167.999994873047,2|2|2,0:0|0:0|0:0,0:0:0:0:
261,197,48598,5,2,0:0:0:0:
261,197,48896,1,2,0:0:0:0:
261,197,49195,6,0,B|308:175|365:179|365:179|349:196|330:208,1,135,6|0,0:0|0:0,0:0:0:0:
272,260,49493,2,0,P|234:235|190:224,1,90,8|0,0:0|0:0,0:0:0:0:
120,132,49792,2,0,P|111:94|104:43,1,90,2|0,0:0|0:0,0:0:0:0:
15,178,50090,2,0,P|8:222|0:266,1,90,8|0,0:0|0:0,0:0:0:0:
101,340,50389,6,0,P|175:360|239:322,1,135,6|0,0:0|0:0,0:0:0:0:
234,301,50687,2,0,P|271:325|315:336,1,90,8|0,0:0|0:0,0:0:0:0:
108,236,50986,1,6,0:0:0:0:
219,139,51135,1,0,0:0:0:0:
219,139,51210,1,0,0:0:0:0:
219,139,51284,2,0,P|264:121|304:87,1,90,8|0,0:0|0:0,0:0:0:0:
107,70,51583,6,0,L|126:219,1,135,6|0,0:0|0:0,0:0:0:0:
108,236,51881,2,0,P|156:233|214:221,1,90,8|0,0:0|0:0,0:0:0:0:
416,127,52180,2,0,P|371:119|326:116,1,90,2|0,0:0|0:0,0:0:0:0:
296,95,52404,1,0,0:0:0:0:
296,95,52478,2,0,L|284:204,1,90,8|0,0:0|0:0,0:0:0:0:
263,349,52777,5,6,0:0:0:0:
365,247,52926,1,2,0:1:0:0:
465,343,53075,1,8,0:0:0:0:
336,290,53225,1,2,0:1:0:0:
393,148,53374,1,2,0:0:0:0:
421,127,53448,1,2,0:0:0:0:
457,127,53523,1,2,0:0:0:0:
489,142,53598,1,2,0:0:0:0:
508,171,53672,1,8,0:3:0:0:
512,206,53747,1,8,0:3:0:0:
494,237,53822,1,8,0:3:0:0:
464,257,53896,1,8,0:3:0:0:
428,265,53971,6,0,B|397:278|397:278|381:267|381:267|337:279|285:266,1,135,6|0,0:0|0:0,0:0:0:0:
276,241,54269,2,0,P|259:302|243:338,1,90,8|0,0:0|0:0,0:0:0:0:
87,184,54568,1,2,0:0:0:0:
194,160,54717,1,0,0:0:0:0:
111,302,54866,2,0,P|94:260|83:216,1,90,8|0,0:0|0:0,0:0:0:0:
212,125,55165,6,0,B|234:78|230:21|230:21|213:37|201:56,1,135,2|0,0:0|0:0,0:0:0:0:
130,85,55463,2,0,P|87:95|28:93,1,90,8|0,0:0|0:0,0:0:0:0:
277,205,55762,2,0,L|437:216,1,135,2|0,0:0|0:0,0:0:0:0:
445,227,56060,2,0,P|474:190|488:129,1,90,8|0,0:0|0:0,0:0:0:0:
281,314,56359,6,0,P|230:288|183:276,1,90,8|2,0:0|0:0,0:0:0:0:
175,250,56583,1,2,0:0:0:0:
175,250,56657,2,0,P|123:265|78:271,1,90,8|0,0:0|0:0,0:0:0:0:
287,70,56956,2,0,L|278:182,1,90,8|0,0:0|0:0,0:0:0:0:
198,278,57254,2,0,L|205:368,1,90,8|0,0:0|0:0,0:0:0:0:
364,220,57553,5,8,0:0:0:0:
153,200,57702,1,0,0:0:0:0:
357,256,57851,5,8,0:0:0:0:
146,164,58001,1,0,0:0:0:0:
388,152,58150,5,8,0:0:0:0:
135,130,58299,1,0,0:0:0:0:
373,185,58448,5,8,0:0:0:0:
114,99,58598,1,0,0:0:0:0:
348,22,58747,5,10,0:0:0:0:
243,327,58896,1,10,0:0:0:0:
239,342,59195,5,2,0:0:0:0:
109,183,59344,1,10,0:0:0:0:
321,102,59493,1,10,0:0:0:0:
336,96,59792,6,0,B|312:98|278:91|278:91|245:105|245:105|208:87|159:76,1,180,2|10,0:0|0:0,0:0:0:0:
87,270,60239,1,10,0:0:0:0:
87,270,60538,6,0,B|75:173,1,80.9999975280763,2|0,0:0|0:0,0:0:0:0:
190,203,60836,6,0,L|190:135,1,67.5000051498417,2|0,0:0|0:0,0:0:0:0:
113,84,61135,6,0,P|213:109|307:137,1,180,4|8,0:0|0:0,0:0:0:0:
419,145,61583,2,0,L|409:188|397:248,1,90,2|0,0:0|0:0,0:0:0:0:
325,257,61881,1,2,0:0:0:0:
257,74,62031,1,8,0:0:0:0:
419,145,62180,1,0,0:0:0:0:
145,237,62329,6,0,P|205:229|261:205,1,90,2|0,0:0|0:0,0:0:0:0:
396,349,62628,2,0,P|324:325|276:321,1,90,8|2,0:0|0:0,0:0:0:0:
249,131,62926,1,0,0:0:0:0:
213,286,63075,1,2,0:0:0:0:
355,201,63225,2,0,P|403:187|471:170,1,90,8|0,0:0|0:0,0:0:0:0:
282,37,63523,6,0,P|198:33|158:126,1,180,2|8,0:0|0:0,0:0:0:0:
184,300,63971,2,0,P|196:256|204:204,1,90,2|0,0:0|0:0,0:0:0:0:
373,93,64269,1,2,0:0:0:0:
328,294,64419,1,8,0:0:0:0:
204,213,64568,1,0,0:0:0:0:
384,196,64717,6,0,P|428:188|488:160,1,90,2|0,0:0|0:0,0:0:0:0:
249,107,65016,2,0,P|232:180|225:237,1,90,8|2,0:0|0:0,0:0:0:0:
260,321,65314,1,2,0:0:0:0:
260,321,65389,1,2,0:0:0:0:
260,321,65463,1,2,0:0:0:0:
352,104,65613,2,0,L|363:161,1,45,8|8,0:0|0:0,0:0:0:0:
269,229,65762,2,0,L|276:176,1,45,8|8,0:0|0:0,0:0:0:0:
200,121,65911,6,0,P|92:135|53:226,1,180,4|8,0:0|0:0,0:0:0:0:
56,188,66359,1,2,0:0:0:0:
141,306,66508,2,0,P|181:290|241:274,1,90,0|2,0:0|0:0,0:0:0:0:
369,204,66807,2,0,P|322:195|241:176,1,90,8|0,0:0|0:0,0:0:0:0:
123,100,67105,6,0,P|192:77|299:48,1,180,2|8,0:0|0:0,0:0:0:0:
295,48,67553,1,2,0:0:0:0:
372,257,67702,2,0,P|356:201|348:146,1,90,0|2,0:0|0:0,0:0:0:0:
475,77,68001,2,0,P|464:133|455:177,1,90,8|0,0:0|0:0,0:0:0:0:
429,321,68299,6,0,P|342:334|281:247,1,180,4|8,0:0|0:0,0:0:0:0:
166,183,68747,1,0,0:0:0:0:
278,99,68896,1,2,0:0:0:0:
187,302,69045,1,0,0:0:0:0:
340,216,69195,1,8,0:0:0:0:
131,163,69344,1,0,0:0:0:0:
338,297,69493,6,0,L|390:309,2,45,8|8|8,0:3|0:3|0:3,0:0:0:0:
188,169,69792,1,2,0:0:0:0:
258,358,69941,1,2,0:0:0:0:
362,133,70090,5,8,0:3:0:0:
333,181,70165,1,8,0:3:0:0:
281,200,70239,1,8,0:3:0:0:
228,195,70314,1,2,0:0:0:0:
188,169,70389,2,0,L|166:110,1,45,2|2,0:0|0:0,0:0:0:0:
71,195,70538,2,0,L|66:268,1,45,2|2,0:0|0:0,0:0:0:0:
119,331,70687,6,0,P|217:295|300:274,1,180,4|8,0:0|0:0,0:0:0:0:
415,53,71135,2,0,P|403:104|395:166,1,90,2|0,3:2|0:0,0:0:0:0:
232,268,71433,1,2,3:2:0:0:
200,132,71583,1,8,0:0:0:0:
331,170,71732,1,0,3:0:0:0:
403,349,71881,6,0,L|383:253,1,90,2|0,0:0|3:0,0:0:0:0:
110,111,72180,2,0,L|134:223,1,90,8|2,0:0|3:2,0:0:0:0:
283,310,72478,1,0,0:0:0:0:
367,171,72628,1,2,3:2:0:0:
223,91,72777,1,8,0:0:0:0:
143,231,72926,1,0,3:0:0:0:
369,254,73075,6,0,L|479:218,1,90,2|0,0:0|3:0,0:0:0:0:
198,151,73374,1,8,0:0:0:0:
268,264,73523,2,0,P|276:308|284:360,1,90,2|0,3:2|0:0,0:0:0:0:
131,261,73822,2,0,P|144:203|156:166,1,90,2|8,3:2|0:0,0:0:0:0:
294,119,74120,6,0,P|243:53|127:84,1,180,4|0,0:0|0:0,0:0:0:0:
131,261,74568,2,0,P|176:246|237:219,1,90,10|0,3:3|0:0,0:0:0:0:
451,207,74866,2,0,P|442:161|435:108,1,90,8|0,0:0|0:0,0:0:0:0:
303,206,75165,2,0,L|249:227,1,45,8|8,0:3|0:3,0:0:0:0:
170,136,75314,2,0,L|229:148,1,45,8|8,0:3|0:3,0:0:0:0:
207,333,75463,6,0,P|323:297|418:278,1,180,4|0,0:0|0:0,0:0:0:0:
380,284,75911,1,2,0:0:0:0:
52,231,76060,1,8,0:0:0:0:
207,333,76657,6,0,L|170:156,1,180,4|0,0:0|0:0,0:0:0:0:
170,156,77105,1,2,0:0:0:0:
400,60,77254,1,8,0:0:0:0:
402,179,77851,6,0,B|271:196|347:102|195:113,1,202.500007724762,4|0,0:0|0:0,0:0:0:0:
197,245,78448,2,0,P|215:149|228:89,1,135,0|0,3:3|0:0,0:0:0:0:
44,155,78896,1,4,0:3:0:0:
44,155,79344,6,0,L|148:183,1,90,8|0,0:0|0:0,0:0:0:0:
317,293,79792,2,0,P|373:277|461:257,1,135.000005149842,8|0,3:2|0:3,0:0:0:0:
303,340,80239,6,0,P|257:267|171:275,1,180,6|8,0:0|0:0,0:0:0:0:
340,199,80687,2,0,P|388:127|357:46,1,180,2|2,0:0|0:0,0:0:0:0:
284,120,81135,1,8,0:0:0:0:
284,120,81433,5,2,0:0:0:0:
128,31,81583,1,0,0:0:0:0:
299,120,81732,1,8,0:0:0:0:
71,199,81881,1,2,0:0:0:0:
55,206,82180,1,2,0:0:0:0:
198,138,82329,2,0,L|110:118,1,90,8|0,0:0|0:0,0:0:0:0:
1,346,82628,6,0,P|71:294|156:313,1,180,2|8,0:0|0:0,0:0:0:0:
501,246,83075,2,0,P|416:265|346:213,1,180,2|2,0:0|0:0,0:0:0:0:
178,226,83523,2,0,L|198:138,1,90,8|0,0:0|0:0,0:0:0:0:
91,378,83822,5,2,0:0:0:0:
296,285,83971,1,0,0:0:0:0:
55,206,84120,1,8,0:0:0:0:
237,347,84269,1,2,0:0:0:0:
290,142,84419,5,8,0:3:0:0:
293,133,84493,1,8,0:3:0:0:
295,124,84568,1,8,0:3:0:0:
296,115,84642,1,8,0:3:0:0:
296,105,84717,1,2,0:0:0:0:
295,95,84792,1,2,0:0:0:0:
294,86,84866,1,2,0:0:0:0:
292,77,84941,1,2,0:0:0:0:
288,68,85016,6,0,P|276:110|287:154,1,90,6|0,0:0|0:0,0:0:0:0:
92,93,85314,2,0,L|181:105,1,90,8|2,0:0|0:0,0:0:0:0:
512,47,85613,2,0,P|430:28|387:100,1,180,0|8,0:0|0:0,0:0:0:0:
361,217,86060,5,0,0:0:0:0:
482,142,86210,1,2,0:0:0:0:
363,310,86359,1,0,0:0:0:0:
466,153,86508,1,8,0:0:0:0:
436,253,86657,2,0,P|404:222|361:217,1,90,2|0,0:0|0:0,0:0:0:0:
82,336,86956,2,0,L|170:322,1,90,2|8,0:0|0:0,0:0:0:0:
264,253,87254,5,0,0:0:0:0:
139,208,87404,1,2,0:0:0:0:
190,320,87553,1,0,0:0:0:0:
248,163,87702,1,8,0:0:0:0:
205,317,87851,1,2,0:0:0:0:
52,219,88001,2,0,P|85:139|170:128,1,180,0|10,0:0|0:0,0:0:0:0:
139,208,88448,1,0,0:0:0:0:
60,121,88598,5,10,0:0:0:0:
60,121,88672,1,0,0:0:0:0:
60,121,88747,2,0,P|47:102|40:81,1,45,10|0,0:0|0:0,0:0:0:0:
178,46,88896,1,10,0:0:0:0:
178,46,88971,1,0,0:0:0:0:
178,46,89045,2,0,P|184:24|198:6,1,45,10|0,0:0|0:0,0:0:0:0:
248,162,89195,6,0,P|266:150|288:147,1,45,2|0,0:0|0:0,0:0:0:0:
299,123,89344,2,0,P|317:135|339:138,1,45,8|0,0:0|0:0,0:0:0:0:
350,152,89493,2,0,P|368:139|390:136,1,45,8|0,0:0|0:0,0:0:0:0:
397,131,89642,2,0,P|415:143|437:146,1,45,8|0,0:0|0:0,0:0:0:0:
440,149,89792,5,2,0:1:0:0:
385,207,98150,6,0,P|309:189|228:176,1,135,8|8,0:0|0:0,0:0:0:0:
175,305,98598,1,0,0:0:0:0:
175,305,98672,1,0,0:0:0:0:
175,305,98747,2,0,P|239:293|287:277,1,90,8|0,0:0|0:0,0:0:0:0:
252,179,99045,2,0,L|240:131,3,45,8|4|2|2,0:3|0:3|0:0|0:0,0:0:0:0:
175,62,99344,6,0,P|261:42|341:126,1,180,2|0,0:0|0:0,0:0:0:0:
385,207,99792,1,8,0:0:0:0:
264,302,99941,5,8,0:3:0:0:
244,267,100016,1,8,0:3:0:0:
235,224,100090,1,8,0:3:0:0:
249,187,100165,1,8,0:3:0:0:
272,150,100239,1,2,0:0:0:0:
281,113,100314,1,2,0:0:0:0:
275,84,100389,1,2,0:0:0:0:
258,62,100463,1,2,0:0:0:0:
233,46,100538,6,0,L|105:91,1,125.999996154785,4|0,0:0|0:0,0:0:0:0:
20,192,100986,2,0,P|84:228|156:228,1,125.999996154785,8|0,0:0|0:0,0:0:0:0:
352,260,101433,2,0,P|352:184|312:136,1,125.999996154785,8|0,0:0|0:0,0:0:0:0:
144,284,101881,6,0,P|208:248|272:216,1,125.999996154785,8|0,0:0|0:0,0:0:0:0:
456,160,102329,1,8,0:0:0:0:
456,160,102628,2,0,P|444:216|436:288,1,107.999996704102,8|0,0:0|0:0,0:0:0:0:
288,8,102926,6,0,P|360:24|400:80,1,125.999996154785,8|0,0:0|0:0,0:0:0:0:
437,266,103374,2,0,P|389:222|311:218,1,144,8|0,0:0|0:3,0:0:0:0:
168,356,103822,1,8,0:0:0:0:
168,356,104120,6,0,P|200:340|260:324,1,80.9999975280763,8|8,0:0|0:0,0:0:0:0:
284,128,104419,1,0,0:0:0:0:
243,326,104568,1,8,0:0:0:0:
400,244,104717,2,0,P|308:224|288:212,1,80.9999975280763,8|0,0:0|0:0,0:0:0:0:
132,98,105016,2,0,P|184:80|216:64,1,90,8|0,0:0|0:0,0:0:0:0:
460,64,105314,5,4,0:0:0:0:
340,160,105463,1,0,0:0:0:0:
488,260,105613,2,0,L|468:152,1,90,8|0,0:0|0:0,0:0:0:0:
324,248,105911,5,2,0:0:0:0:
216,108,106060,1,0,0:0:0:0:
340,160,106210,2,0,L|320:272,1,90,8|0,0:0|0:0,0:0:0:0:
152,200,106508,5,2,0:0:0:0:
340,160,106657,1,0,0:0:0:0:
172,288,106807,2,0,L|152:196,1,90,8|0,0:0|0:0,0:0:0:0:
8,212,107105,5,2,0:0:0:0:
172,288,107254,1,0,0:0:0:0:
19,123,107404,2,0,L|7:223,1,90,8|0,0:0|0:0,0:0:0:0:
229,348,107702,5,2,0:1:0:0:
240,333,107777,1,0,0:0:0:0:
246,315,107851,1,2,0:1:0:0:
249,297,107926,1,0,0:0:0:0:
246,279,108001,1,2,0:1:0:0:
241,262,108075,1,0,0:0:0:0:
232,246,108150,1,2,0:1:0:0:
220,232,108225,1,0,0:0:0:0:
208,219,108299,6,0,L|266:202,1,45,2|2,0:1|0:0,0:0:0:0:
304,119,108448,2,0,L|244:104,1,45,2|2,0:0|0:0,0:0:0:0:
329,277,108598,2,0,P|401:269|449:213,1,135.000005149842,2|0,0:0|0:0,0:0:0:0:
437,102,108896,5,8,0:0:0:0:
216,192,109045,1,12,0:0:0:0:
216,192,109344,5,8,0:0:0:0:
323,13,109493,1,8,0:0:0:0:
404,240,109642,2,0,P|472:262|516:269,1,116.999994644165,8|0,0:0|0:0,0:0:0:0:
446,139,109941,6,0,P|361:129|302:197,1,175.499991966248,12|0,0:0|0:0,0:0:0:0:
304,191,110239,1,8,0:0:0:0:
170,37,110389,1,12,0:0:0:0:
404,240,110687,6,0,L|376:92,1,135.000005149842,2|2,0:0|0:2,0:0:0:0:
144,309,111284,6,0,P|233:314|309:369,1,180,6|8,0:0|0:0,0:0:0:0:
506,192,111732,2,0,P|457:204|356:203,1,135,2|0,0:0|0:0,0:0:0:0:
342,185,112031,2,0,P|339:230|330:276,1,90,2|8,0:0|0:0,0:0:0:0:
200,128,112329,1,0,0:0:0:0:
200,128,112404,1,0,0:0:0:0:
200,128,112478,6,0,P|243:113|278:87,1,90,2|0,0:0|0:0,0:0:0:0:
343,14,112777,1,8,0:0:0:0:
260,198,112926,1,2,0:0:0:0:
421,55,113075,2,0,P|385:28|343:14,1,90,0|2,0:0|0:0,0:0:0:0:
180,40,113374,2,0,L|199:127,1,90,8|0,0:0|0:0,0:0:0:0:
3,247,113672,6,0,P|3:161|108:139,1,180,2|8,0:0|0:0,0:0:0:0:
259,198,114120,2,0,P|258:242|255:287,1,90,2|0,0:0|0:0,0:0:0:0:
67,206,114419,1,2,0:0:0:0:
149,363,114568,2,0,P|146:290|141:239,1,90,8|0,0:0|0:0,0:0:0:0:
283,138,114866,6,0,P|296:215|302:289,1,135,2|0,0:0|0:0,0:0:0:0:
297,308,115165,2,0,P|344:294|398:287,1,90,8|2,0:0|0:0,0:0:0:0:
484,161,115463,2,0,P|458:154|428:145,3,45,2|2|2|2,0:0|0:0|0:0|0:0,0:0:0:0:
420,118,115762,1,8,0:3:0:0:
420,82,115836,1,8,0:3:0:0:
441,52,115911,1,8,0:3:0:0:
477,48,115986,1,8,0:3:0:0:
507,66,116060,6,0,P|510:133|496:254,1,180,6|8,0:0|0:0,0:0:0:0:
283,138,116508,1,2,0:0:0:0:
283,138,116583,1,0,0:0:0:0:
283,138,116657,2,0,P|338:120|365:97,1,90,0|2,0:0|0:0,0:0:0:0:
429,311,116956,2,0,P|378:275|339:266,1,90,8|0,0:0|0:0,0:0:0:0:
183,168,117254,6,0,P|228:132|246:101,1,90,2|0,0:0|0:0,0:0:0:0:
341,308,117553,2,0,P|280:291|241:296,1,90,8|2,0:0|0:0,0:0:0:0:
111,221,117851,6,0,P|141:171|147:136,1,90,0|2,0:0|0:0,0:0:0:0:
240,327,118150,2,0,P|159:333|112:357,1,135,8|0,0:0|0:0,0:0:0:0:
97,324,118448,6,0,P|41:304|-7:302,1,90,10|0,0:0|0:0,0:0:0:0:
276,214,118747,2,0,P|332:194|380:192,1,90,10|0,0:0|0:0,0:0:0:0:
137,63,119045,1,10,0:0:0:0:
185,253,119195,1,0,0:0:0:0:
317,114,119344,1,10,0:0:0:0:
242,364,119493,1,0,0:0:0:0:
211,144,119642,5,10,0:0:0:0:
208,130,119717,1,0,0:0:0:0:
208,116,119792,1,10,0:0:0:0:
209,102,119866,1,0,0:0:0:0:
213,89,119941,2,0,P|222:124|222:144,1,45,10|0,0:0|0:0,0:0:0:0:
276,214,120090,2,0,P|267:249|267:269,1,45,10|0,0:0|0:0,0:0:0:0:
242,364,120239,5,2,0:3:0:0:
254,369,120314,1,2,0:3:0:0:
266,363,120389,1,2,0:3:0:0:
274,352,120463,1,2,0:3:0:0:
276,338,120538,2,0,P|250:336|227:328,1,45,8|8,0:0|0:0,0:0:0:0:
120,228,120687,2,0,P|146:226|169:218,1,45,8|8,0:0|0:0,0:0:0:0:
317,114,120836,6,0,P|324:29|244:5,1,180,6|8,0:0|0:0,0:0:0:0:
404,190,121284,2,0,P|455:184|509:170,1,90,0|0,3:0|0:0,0:0:0:0:
303,359,121583,2,0,P|312:315|317:270,1,90,0|8,3:0|0:0,0:0:0:0:
294,140,121881,1,0,3:0:0:0:
190,306,122031,6,0,P|178:262|163:219,1,90,6|0,0:0|3:0,0:0:0:0:
334,102,122329,1,8,0:0:0:0:
316,270,122478,1,0,3:0:0:0:
154,213,122628,2,0,L|49:199,1,90,0|0,0:0|3:0,0:0:0:0:
346,100,122926,2,0,L|451:86,1,90,8|0,0:0|3:0,0:0:0:0:
199,3,123225,6,0,P|193:55|273:172,1,180,2|8,0:0|0:0,0:0:0:0:
422,293,123672,1,0,3:0:0:0:
206,237,123822,1,0,0:0:0:0:
422,293,123971,1,0,3:0:0:0:
206,237,124120,1,8,0:0:0:0:
346,100,124269,6,0,P|352:152|272:269,1,180,6|0,0:0|0:0,0:0:0:0:
167,367,124717,2,0,P|119:346|74:333,1,90,8|2,0:0|0:0,0:0:0:0:
422,293,125016,2,0,P|446:285|477:278,3,45,2|2|2|2,0:0|0:0|0:0|0:0,0:0:0:0:
498,249,125314,2,0,L|491:309,1,45,8|8,0:3|0:3,0:0:0:0:
353,368,125463,2,0,L|347:323,1,45,8|8,0:3|0:3,0:0:0:0:
290,258,125613,6,0,B|314:201|314:201|308:177|308:177|320:91,1,161.999995056153,6|2,0:0|0:0,0:0:0:0:
318,102,126210,1,8,0:0:0:0:
56,253,126807,6,0,B|93:302|93:302|117:309|117:309|185:362,1,161.999995056153,2|2,0:0|0:0,0:0:0:0:
177,355,127404,1,8,0:0:0:0:
186,50,128001,6,0,B|84:62|84:62|55:91|55:91|-6:115|-6:115|65:119,1,270,2|0,0:0|0:0,0:0:0:0:
180,193,129045,1,8,0:0:0:0:
180,193,129493,6,0,P|240:181|308:175,1,125.999996154785,8|0,0:0|0:0,0:0:0:0:
373,93,129941,2,0,P|421:102|475:107,1,90,8|0,0:0|0:0,0:0:0:0:
512,251,130389,6,0,P|468:303|360:311,1,180,4|8,0:0|0:0,0:0:0:0:
127,238,130836,1,2,0:0:0:0:
127,238,130911,1,0,0:0:0:0:
127,238,130986,2,0,P|221:231|323:218,1,180,0|8,0:0|0:0,0:0:0:0:
306,220,131583,6,0,P|318:164|332:108,1,90,2|0,0:0|0:0,0:0:0:0:
253,29,131881,1,8,0:0:0:0:
112,168,132031,2,0,P|159:146|222:125,1,90,2|0,0:0|0:0,0:0:0:0:
388,203,132329,1,2,0:0:0:0:
237,193,132478,1,8,0:0:0:0:
176,336,132628,6,0,P|280:328|324:260,1,180,4|0,0:0|0:0,0:0:0:0:
340,112,133075,1,8,0:0:0:0:
472,151,133225,1,2,0:0:0:0:
472,151,133299,1,0,0:0:0:0:
472,151,133374,2,0,P|407:227|432:308,1,180,0|8,0:0|0:0,0:0:0:0:
424,298,133971,6,0,L|544:266,1,90,2|0,0:0|0:0,0:0:0:0:
412,68,134269,2,0,P|348:40|292:36,1,90,8|2,0:0|0:0,0:0:0:0:
207,118,134568,1,2,0:0:0:0:
207,118,134642,1,8,0:0:0:0:
207,118,134717,1,8,0:0:0:0:
365,206,134866,1,8,0:0:0:0:
320,21,135016,1,8,0:0:0:0:
219,262,135165,5,4,0:0:0:0:
314,122,135314,1,0,0:0:0:0:
119,186,135463,1,8,0:0:0:0:
333,263,135613,1,2,0:0:0:0:
333,263,135687,1,0,0:0:0:0:
333,263,135762,2,0,P|416:243|516:202,1,180,2|8,0:0|0:0,0:0:0:0:
360,58,136210,6,0,P|320:70|256:94,1,90,0|2,0:0|0:0,0:0:0:0:
103,73,136508,1,0,0:0:0:0:
181,279,136657,2,0,P|213:200|227:156,1,90,8|2,0:0|0:0,0:0:0:0:
244,52,136956,1,0,0:0:0:0:
331,166,137105,1,2,0:0:0:0:
280,305,137254,1,8,0:0:0:0:
435,236,137404,6,0,P|423:172|411:112,1,90,0|2,0:0|0:0,0:0:0:0:
346,60,137702,1,0,0:0:0:0:
255,221,137851,1,8,0:0:0:0:
483,266,138001,1,2,0:0:0:0:
483,266,138075,1,0,0:0:0:0:
483,266,138150,2,0,P|394:295|311:330,1,180,2|8,0:0|0:0,0:0:0:0:
150,332,138598,5,0,0:0:0:0:
283,221,138747,1,2,0:0:0:0:
283,221,138822,1,2,0:0:0:0:
283,221,138896,1,8,0:0:0:0:
181,105,139045,1,8,0:0:0:0:
290,306,139195,2,0,L|323:365,2,45,2|8|2,0:0|0:3|0:0,0:0:0:0:
160,232,139493,5,2,0:0:0:0:
352,152,139642,1,8,0:0:0:0:
136,216,139792,1,2,0:0:0:0:
376,168,139941,1,4,0:0:0:0:
376,373,148299,6,0,P|383:346|392:275,1,90,0|0,0:0|0:0,0:0:0:0:
410,253,148523,1,8,0:3:0:0:
410,253,148598,2,0,L|406:206,3,45,8|8|0|8,0:3|0:3|0:0|0:3,0:0:0:0:
312,152,148896,2,0,L|308:199,3,45,2|2|2|2,0:3|0:3|0:3|0:3,0:0:0:0:
228,246,149195,2,0,P|202:237|171:232,1,45,8|8,0:0|0:0,0:0:0:0:
128,139,149344,2,0,P|149:132|171:129,1,45,8|8,0:0|0:0,0:0:0:0:
270,62,149493,5,6,0:0:0:0:
171,322,149642,2,0,L|176:229,1,90,2|8,0:0|0:0,0:0:0:0:
50,176,149941,2,0,B|36:135|36:135|43:104|43:104|40:72|40:72|64:111,1,135,2|0,0:1|0:0,0:0:0:0:
78,283,150239,2,0,B|92:242|92:242|85:211|85:211|88:179|88:179|73:202,1,135,2|8,0:1|0:0,0:0:0:0:
53,316,150538,1,2,0:1:0:0:
286,280,150687,5,2,0:0:0:0:
248,372,150836,1,0,0:0:0:0:
327,285,150986,2,0,P|321:241|311:197,1,90,8|2,0:0|0:0,0:0:0:0:
182,291,151284,5,0,0:0:0:0:
348,383,151433,1,2,0:0:0:0:
161,319,151583,2,0,P|165:284|177:227,1,90,8|0,0:0|0:0,0:0:0:0:
241,71,151881,5,2,0:0:0:0:
462,154,152031,2,0,L|358:137,1,90,0|8,0:0|0:0,0:0:0:0:
241,71,152329,2,0,B|278:53|325:45|325:45|306:62|290:76,1,135.000005149842,2|0,0:1|0:0,0:0:0:0:
181,142,152628,2,0,B|144:124|97:116|97:116|116:133|131:147,1,135.000005149842,2|0,0:1|0:0,0:0:0:0:
265,213,152926,1,2,0:1:0:0:
435,57,153075,5,2,0:0:0:0:
462,154,153225,1,0,0:0:0:0:
489,50,153374,2,0,B|484:91|484:91|464:153,1,90,8|0,0:0|0:0,0:0:0:0:
358,272,153672,5,2,0:0:0:0:
380,195,153822,1,2,0:0:0:0:
402,278,153971,2,0,B|398:246|398:246|386:209,1,72,2|0,0:0|0:0,0:0:0:0:
494,274,154269,5,6,0:0:0:0:
312,341,154419,2,0,L|210:320,1,90,0|8,0:0|0:0,0:0:0:0:
70,359,154717,2,0,B|67:319|79:274|79:274|74:260|74:260|93:278|101:304,1,135,2|0,0:1|0:0,0:0:0:0:
206,305,155016,2,0,B|209:265|196:220|196:220|202:206|202:206|183:224|175:250,1,135,2|8,0:1|0:0,0:0:0:0:
155,380,155314,1,2,0:1:0:0:
309,241,155463,5,2,0:0:0:0:
309,241,155613,1,0,0:0:0:0:
167,144,155762,2,0,L|187:265,1,90,8|2,0:0|0:0,0:0:0:0:
46,141,156060,5,0,0:0:0:0:
46,141,156210,1,2,0:0:0:0:
206,32,156359,2,0,L|186:153,1,90,8|0,0:0|0:0,0:0:0:0:
31,251,156657,6,0,B|24:187|24:187|27:155|27:155|18:121|18:121|8:60,1,180,2|8,0:0|0:0,0:0:0:0:
170,298,157105,2,0,B|177:234|177:234|174:202|174:202|183:168|183:168|193:107,1,180,2|2,0:0|0:0,0:0:0:0:
312,341,157553,2,0,B|324:306|324:306|325:296|325:296|329:287|329:287|341:253,1,90,8|0,0:0|0:0,0:0:0:0:
411,70,157851,5,8,0:3:0:0:
442,185,158001,1,8,0:3:0:0:
394,29,158150,1,8,0:3:0:0:
487,191,158299,1,8,0:3:0:0:
334,148,158448,5,2,0:3:0:0:
322,167,158523,1,2,0:3:0:0:
307,184,158598,2,0,P|325:163|343:130,1,45,2|2,0:3|0:3,0:0:0:0:
394,29,158747,2,0,P|403:55|422:87,1,45,8|8,0:0|0:0,0:0:0:0:
487,191,158896,2,0,P|459:185|422:186,1,45,8|8,0:0|0:0,0:0:0:0:
236,288,159045,6,0,P|224:236|208:164,1,90,4|2,0:0|0:0,0:0:0:0:
178,58,159344,1,8,0:0:0:0:
37,214,159493,2,0,P|120:207|165:162,1,107.999996704102,2|0,0:1|0:0,0:0:0:0:
262,115,159792,2,0,P|340:111|383:175,1,135.000005149842,2|8,0:1|0:0,0:0:0:0:
394,292,160090,1,2,0:1:0:0:
152,264,160239,5,2,0:0:0:0:
176,131,160389,1,0,0:0:0:0:
152,264,160538,2,0,L|136:368,1,90,8|2,0:0|0:0,0:0:0:0:
356,120,160836,5,0,0:0:0:0:
388,272,160986,1,2,0:0:0:0:
356,120,161135,2,0,L|334:21,1,90,8|0,0:0|0:0,0:0:0:0:
212,112,161433,6,0,P|207:156|202:201,1,90,4|2,0:0|0:0,0:0:0:0:
188,320,161732,1,8,0:0:0:0:
408,279,161881,2,0,P|367:309|307:315,1,107.999996704102,2|0,0:1|0:0,0:0:0:0:
72,180,162180,2,0,P|141:177|244:244,1,135.000005149842,2|8,0:1|0:0,0:0:0:0:
299,64,162478,1,2,0:1:0:0:
344,208,162628,5,2,0:0:0:0:
213,145,162777,1,0,0:0:0:0:
344,208,162926,2,0,L|343:321,1,90,8|2,0:0|0:0,0:0:0:0:
452,205,163225,5,0,0:0:0:0:
254,285,163374,1,2,0:0:0:0:
452,205,163523,2,0,P|442:161|433:116,1,90,8|0,0:0|0:0,0:0:0:0:
272,76,163822,1,2,0:0:0:0:
236,100,163896,1,2,0:0:0:0:
196,100,163971,2,0,P|160:112|120:132,1,45,2|2,0:0|0:0,0:0:0:0:
21,257,164120,6,0,P|97:269|154:210,1,116.999994644165,8|2,0:0|0:0,0:0:0:0:
253,202,164419,1,2,0:0:0:0:
253,202,164493,1,2,0:0:0:0:
253,202,164568,1,2,0:0:0:0:
330,287,164717,2,0,L|341:354,1,53.9999983520508,8|8,0:0|0:0,0:0:0:0:
438,289,164866,2,0,L|461:216,1,53.9999983520508,8|8,0:0|0:0,0:0:0:0:
388,170,165016,5,8,0:0:0:0:
119,226,165165,1,2,0:0:0:0:
119,226,165239,1,8,0:3:0:0:
119,226,165314,1,4,0:3:0:0:
261,283,165463,1,2,0:0:0:0:
316,112,165613,2,0,P|387:95|493:182,1,202.500007724762,2|0,0:3|0:3,0:0:0:0:
461,271,165911,2,0,P|471:217|488:160,1,107.999996704102,2|0,0:3|0:0,0:0:0:0:
456,12,166210,5,12,0:0:0:0:
468,280,166359,1,8,0:0:0:0:
468,280,166657,5,8,0:0:0:0:
312,84,166807,1,8,0:0:0:0:
272,368,166956,2,0,L|224:244,1,107.999996704102,8|0,0:0|0:0,0:0:0:0:
32,172,167254,6,0,L|-4:324,1,135.000005149842,12|0,0:0|0:0,0:0:0:0:
92,368,167553,1,8,0:0:0:0:
0,32,167702,1,12,0:0:0:0:
109,365,179344,6,0,P|119:318|123:257,1,107.999996704102,2|2,0:0|0:0,0:0:0:0:
81,147,179792,1,2,0:0:0:0:
71,127,180090,1,2,0:0:0:0:
58,109,180389,2,0,P|48:156|43:216,1,107.999996704102,2|0,0:0|0:0,0:0:0:0:
123,258,180836,2,0,P|149:246|177:230,1,53.9999983520508,0|0,0:0|0:0,0:0:0:0:
251,288,181135,6,0,P|263:257|268:219,1,67.5,2|0,0:0|0:0,0:0:0:0:
308,248,181433,2,0,P|296:217|291:179,1,67.5,2|0,0:0|0:0,0:0:0:0:
252,200,181732,6,0,P|259:148|261:81,1,107.999996704102,2|2,0:0|0:0,0:0:0:0:
145,23,182180,1,2,0:0:0:0:
147,44,182478,1,2,0:0:0:0:
148,65,182777,2,0,P|199:66|276:46,1,107.999996704102,2|0,0:0|0:0,0:0:0:0:
320,147,183225,2,0,P|345:146|384:156,1,53.9999983520508,0|0,0:0|0:0,0:0:0:0:
435,78,183523,5,0,0:0:0:0:
441,76,183598,1,0,0:0:0:0:
447,74,183672,1,0,0:0:0:0:
452,70,183747,1,0,0:0:0:0:
471,54,183822,5,0,0:0:0:0:
466,93,183896,1,0,0:0:0:0:
470,132,183971,1,0,0:0:0:0:
480,169,184045,1,0,0:0:0:0:
503,200,184120,6,0,P|495:222|491:244,3,45,8|8|8|8,0:3|0:3|0:3|0:3,0:0:0:0:
378,261,184419,2,0,P|385:282|389:304,3,45,8|8|8|8,0:3|0:3|0:3|0:3,0:0:0:0:
489,347,184717,5,2,0:3:0:0:
459,336,184792,1,2,0:3:0:0:
428,332,184866,1,2,0:3:0:0:
396,333,184941,1,2,0:3:0:0:
366,342,185016,1,2,0:3:0:0:
336,352,185090,1,2,0:3:0:0:
305,355,185165,1,2,0:3:0:0:
274,351,185239,1,2,0:3:0:0:
243,341,185314,6,0,P|246:318|254:297,3,45,8|8|8|8,0:3|0:3|0:3|0:3,0:0:0:0:
80,299,185613,2,0,P|76:276|68:255,3,45,8|8|8|8,0:3|0:3|0:3|0:3,0:0:0:0:
149,367,185911,5,2,0:3:0:0:
160,337,185986,1,2,0:3:0:0:
164,306,186060,1,2,0:3:0:0:
163,274,186135,1,2,0:3:0:0:
154,244,186210,1,2,0:3:0:0:
144,214,186284,1,2,0:3:0:0:
141,183,186359,1,2,0:3:0:0:
145,152,186433,1,2,0:3:0:0:
155,121,186508,6,0,P|163:144|167:168,1,49.5000015106202,2|2,0:0|0:0,0:0:0:0:
275,169,186657,2,0,P|264:191|249:211,1,49.5000015106202,2|2,0:0|0:0,0:0:0:0:
160,87,186807,6,0,P|178:102|193:121,1,49.5000015106202,2|2,0:0|0:0,0:0:0:0:
310,120,186956,2,0,P|311:144|308:169,1,49.5000015106202,2|2,0:0|0:0,0:0:0:0:
150,61,187105,6,0,P|173:65|196:74,1,49.5000015106202,10|10,0:0|0:0,0:0:0:0:
313,60,187254,2,0,P|326:80|336:103,1,49.5000015106202,10|10,0:0|0:0,0:0:0:0:
127,39,187404,6,0,P|149:31|173:27,1,49.5000015106202,10|10,0:0|0:0,0:0:0:0:
250,6,187553,1,10,0:0:0:0:
296,194,188896,6,0,P|282:283|266:371,1,180,6|8,0:0|0:0,0:0:0:0:
406,313,189344,1,0,0:0:0:0:
252,373,189493,1,2,0:0:0:0:
399,216,189642,1,2,0:0:0:0:
217,107,189792,1,8,0:0:0:0:
296,194,189941,1,0,0:0:0:0:
296,194,190016,1,0,0:0:0:0:
296,194,190090,6,0,L|387:201,1,90,6|0,0:0|0:0,0:0:0:0:
97,72,190389,2,0,P|112:114|120:158,1,90,8|0,0:0|0:0,0:0:0:0:
49,275,190687,1,2,0:0:0:0:
205,202,190836,1,2,0:0:0:0:
82,50,190986,2,0,L|216:39,1,135,8|0,0:0|0:0,0:0:0:0:
242,21,191284,6,0,P|226:63|218:107,1,90,2|0,0:0|0:0,0:0:0:0:
465,211,191583,1,8,0:0:0:0:
330,100,191732,1,0,0:0:0:0:
480,14,191881,1,2,0:0:0:0:
312,88,192031,1,2,0:0:0:0:
487,222,192180,1,8,0:0:0:0:
424,121,192329,6,0,P|438:210|454:298,1,180,2|2,0:0|0:0,0:0:0:0:
293,216,192777,2,0,P|286:260|278:304,1,90,8|0,0:0|0:0,0:0:0:0:
128,239,193075,2,0,P|135:261|139:287,3,45,2|2|2|2,0:0|0:0|0:0|0:0,0:0:0:0:
76,171,193374,1,8,3:0:0:0:
35,188,193448,1,8,3:0:0:0:
25,232,193523,1,8,0:3:0:0:
51,268,193598,1,8,0:3:0:0:
95,274,193672,6,0,B|104:221|104:221|95:197|95:197|102:142,1,135,6|0,0:0|0:0,0:0:0:0:
126,121,193971,2,0,P|84:106|50:78,1,90,8|0,0:0|0:0,0:0:0:0:
296,194,194269,1,2,0:0:0:0:
136,32,194419,1,2,0:0:0:0:
292,98,194568,2,0,P|250:112|216:141,1,90,8|0,0:0|0:0,0:0:0:0:
389,8,194866,6,0,P|403:70|465:87,1,135,2|0,0:0|0:0,0:0:0:0:
494,73,195165,2,0,P|493:117|501:162,1,90,8|0,0:0|0:0,0:0:0:0:
351,329,195463,1,2,0:0:0:0:
512,252,195613,1,2,0:0:0:0:
385,157,195762,2,0,P|385:201|377:246,1,90,8|0,0:0|0:0,0:0:0:0:
178,355,196060,6,0,P|202:296|266:296,1,135,4|0,0:0|0:0,0:0:0:0:
263,314,196359,5,8,0:0:0:0:
92,248,196508,1,2,0:0:0:0:
276,128,196657,5,8,0:0:0:0:
110,242,196807,1,2,0:0:0:0:
29,26,196956,5,8,0:0:0:0:
132,235,197105,1,2,0:0:0:0:
261,49,197254,5,8,0:0:0:0:
229,54,197329,1,0,0:0:0:0:
206,75,197404,1,8,0:0:0:0:
195,104,197478,1,0,0:0:0:0:
196,149,197553,5,8,0:0:0:0:
170,111,197628,1,0,0:0:0:0:
126,99,197702,1,8,0:0:0:0:
80,103,197777,1,0,0:0:0:0:
46,132,197851,6,0,P|64:164|69:186,1,45,2|2,3:0|3:0,0:0:0:0:
99,365,198001,2,0,P|106:344|119:325,1,45,2|2,3:0|3:0,0:0:0:0:
264,250,198150,1,8,0:0:0:0:
255,250,198225,1,8,0:0:0:0:
246,251,198299,1,8,0:0:0:0:
237,253,198374,1,8,0:0:0:0:
228,254,198448,6,0,B|303:269|303:269|330:258|330:258|404:271,1,180,6|8,0:0|0:0,0:0:0:0:
298,83,198896,2,0,P|296:128|290:173,1,90,0|0,3:0|0:0,0:0:0:0:
498,314,199195,2,0,P|496:269|490:224,1,90,0|8,3:0|0:0,0:0:0:0:
420,124,199493,1,0,3:0:0:0:
149,206,199642,6,0,L|62:187,1,90,6|0,0:0|3:0,0:0:0:0:
298,84,199941,2,0,P|295:142|287:189,1,90,8|0,0:0|3:0,0:0:0:0:
406,324,200239,1,0,0:0:0:0:
232,261,200389,1,0,3:0:0:0:
108,370,200538,1,8,0:0:0:0:
306,334,200687,1,0,3:0:0:0:
155,166,200836,6,0,P|109:174|90:303,1,180,6|8,0:0|0:0,0:0:0:0:
290,173,201284,2,0,B|310:121|300:78|300:78|284:112,1,135,4|0,0:0|0:0,0:0:0:0:
232,261,201583,2,0,P|243:322|310:333,1,135,12|0,0:0|0:0,0:0:0:0:
408,323,201881,6,0,P|437:255|450:142,1,180,12|0,0:0|0:0,0:0:0:0:
387,42,202329,1,8,0:0:0:0:
387,42,202628,2,0,P|389:74|395:105,3,45,2|2|2|2,0:0|0:0|0:0|0:0,0:0:0:0:
332,184,202926,2,0,P|303:174|283:171,1,45,8|8,0:3|0:3,0:0:0:0:
214,71,203075,2,0,P|185:81|165:84,1,45,8|8,0:3|0:3,0:0:0:0:
72,156,203225,6,0,B|53:131|25:119|25:119|47:101|47:101|48:70|65:29,1,161.999995056153,6|2,0:0|0:0,0:0:0:0:
64,30,203822,1,8,0:0:0:0:
440,156,204419,6,0,B|458:131|486:119|486:119|464:101|464:101|463:70|446:29,1,161.999995056153,6|2,0:0|0:0,0:0:0:0:
446,30,205016,1,8,0:0:0:0:
244,297,205613,6,0,B|216:317|221:358|251:361|251:361|280:358|282:328|254:308|239:255|254:179,1,270,2|0,0:0|0:0,0:0:0:0:
354,237,206657,1,8,0:0:0:0:
354,237,207105,6,0,B|342:197|348:162|348:162|361:124|342:56,1,157.499995193482,8|0,0:0|0:0,0:0:0:0:
442,188,207553,2,0,P|457:165|473:94,1,90,8|2,0:0|0:0,0:0:0:0:
404,12,208001,6,0,P|312:12|250:70,1,180,4|8,0:0|0:0,0:0:0:0:
120,260,208448,1,2,0:0:0:0:
120,260,208523,1,0,0:0:0:0:
120,260,208598,2,0,P|134:207|148:75,1,180,0|8,0:0|0:0,0:0:0:0:
341,98,209195,6,0,P|338:176|345:224,1,90,2|0,0:0|0:0,0:0:0:0:
195,307,209493,2,0,P|271:286|319:275,1,90,8|2,0:0|0:0,0:0:0:0:
493,343,209792,1,0,0:0:0:0:
385,325,209941,2,0,P|363:236|354:209,1,90,2|8,0:0|0:0,0:0:0:0:
296,165,210239,1,0,0:0:0:0:
216,242,210389,6,0,P|115:244|61:176,1,180,2|8,0:0|0:0,0:0:0:0:
22,55,210836,1,2,0:0:0:0:
22,55,210911,1,0,0:0:0:0:
22,55,210986,2,0,P|79:45|174:136,1,180,0|8,0:0|0:0,0:0:0:0:
419,222,211583,6,0,P|449:210|506:189,1,90,2|0,0:0|0:0,0:0:0:0:
305,111,211881,2,0,P|289:143|271:213,1,90,8|2,0:0|0:0,0:0:0:0:
308,297,212180,1,8,0:0:0:0:
308,297,212254,1,8,0:0:0:0:
308,297,212329,1,8,0:0:0:0:
190,188,212478,1,8,0:0:0:0:
308,74,212628,1,8,0:0:0:0:
419,222,212777,6,0,L|438:340,1,90,4|0,0:0|0:0,0:0:0:0:
260,369,213075,1,8,0:0:0:0:
309,199,213225,1,2,0:0:0:0:
309,199,213299,1,0,0:0:0:0:
309,199,213374,2,0,P|231:223|112:269,1,180,0|8,0:0|0:0,0:0:0:0:
218,126,213822,6,0,P|202:42|198:6,1,90,0|2,0:0|0:0,0:0:0:0:
201,37,214120,1,0,0:0:0:0:
88,136,214269,2,0,P|76:212|68:252,1,90,8|2,0:0|0:0,0:0:0:0:
304,300,214568,1,0,0:0:0:0:
184,216,214717,1,2,0:0:0:0:
312,144,214866,1,8,0:0:0:0:
463,253,215016,6,0,P|397:239|373:229,1,90,0|2,0:0|0:0,0:0:0:0:
110,148,215314,1,0,0:0:0:0:
140,304,215463,1,8,0:0:0:0:
263,202,215613,1,2,0:0:0:0:
263,202,215687,1,0,0:0:0:0:
263,202,215762,2,0,L|307:18,1,180,0|8,0:0|0:0,0:0:0:0:
196,3,216210,5,0,0:0:0:0:
388,150,216359,1,2,0:0:0:0:
388,150,216433,1,8,0:0:0:0:
388,150,216508,1,2,0:0:0:0:
381,25,216657,5,0,0:0:0:0:
312,248,216807,1,8,0:0:0:0:
501,165,216956,1,2,0:0:0:0:
448,302,217105,5,4,0:3:0:0:
226,148,217254,1,8,3:2:0:0:
259,372,217404,1,8,3:2:0:0:
399,235,217553,5,6,0:0:0:0:
206,262,217702,1,0,0:0:0:0:
356,156,217851,1,8,0:0:0:0:
248,58,218001,1,0,0:0:0:0:
248,58,218075,1,0,0:0:0:0:
248,58,218150,2,0,B|308:74|308:74|343:62|343:62|386:71|441:69,1,180,2|8,0:0|0:0,0:0:0:0:
206,261,218598,6,0,B|132:313|132:313|46:285,1,180,2|2,0:0|0:0,0:0:0:0:
226,148,219045,1,8,0:0:0:0:
34,67,219195,1,2,0:0:0:0:
120,217,219344,1,0,0:0:0:0:
118,44,219493,2,0,B|121:89|121:89|141:129,1,90,2|8,0:0|0:0,0:0:0:0:
287,230,219792,5,0,0:0:0:0:
356,156,219941,1,2,0:0:0:0:
399,321,220090,1,0,0:0:0:0:
512,244,220239,2,0,P|467:241|423:231,1,90,8|0,0:0|0:0,0:0:0:0:
293,84,220538,2,0,B|348:64|348:64|397:75|397:75|429:58|465:56,1,180,2|8,0:0|0:0,0:0:0:0:
287,230,220986,5,0,0:0:0:0:
356,156,221135,1,6,0:0:0:0:
356,156,221210,1,2,0:0:0:0:
356,156,221284,1,2,0:0:0:0:
261,340,221433,5,8,0:0:0:0:
423,231,221583,1,2,0:0:0:0:
293,84,221732,5,8,0:0:0:0:
399,321,221881,1,2,0:0:0:0:
145,174,222031,1,8,0:0:0:0:
317,247,222180,1,2,0:0:0:0:
189,83,222329,5,4,0:0:0:0:
206,261,222478,1,0,0:0:0:0:
145,174,222628,1,8,0:0:0:0:
172,348,222777,1,0,0:0:0:0:
172,348,222851,1,0,0:0:0:0:
172,348,222926,2,0,B|111:318|48:318|48:318|72:333|87:351,1,180,2|8,0:0|0:0,0:0:0:0:
317,247,223374,6,0,B|250:184|250:184|206:260,1,180,2|2,0:0|0:0,0:0:0:0:
298,112,223822,2,0,P|308:68|310:23,1,90,8|2,0:0|0:0,0:0:0:0:
310,23,224120,1,0,0:0:0:0:
393,210,224269,2,0,P|403:254|405:299,1,90,2|8,0:0|0:0,0:0:0:0:
475,167,224568,5,0,0:0:0:0:
317,247,224717,1,2,0:0:0:0:
474,348,224866,1,0,0:0:0:0:
465,174,225016,1,8,0:0:0:0:
307,253,225165,1,0,0:0:0:0:
387,59,225314,2,0,P|469:77|484:167,1,180,2|8,0:0|0:0,0:0:0:0:
389,306,225762,1,0,0:0:0:0:
230,192,225911,5,6,0:0:0:0:
230,192,225986,1,2,0:0:0:0:
230,192,226060,1,2,0:0:0:0:
405,140,226210,1,8,0:0:0:0:
230,23,226359,5,2,0:0:0:0:
230,23,226433,1,0,0:0:0:0:
230,23,226508,2,0,L|224:80,1,45,8|0,0:0|0:0,0:0:0:0:
128,117,226657,2,0,L|140:170,1,40.4999987640381,2|0,0:0|0:0,0:0:0:0:
230,192,226807,2,0,L|220:246,1,36,8|0,0:0|0:0,0:0:0:0:
150,286,226956,2,0,L|155:340,1,31.4999990386963,2|0,0:0|0:0,0:0:0:0:
185,359,227105,5,14,0:0:0:0:
444,232,227254,1,10,0:0:0:0:
455,226,227553,5,2,0:0:0:0:
187,372,227702,1,10,0:0:0:0:
287,127,227851,1,10,0:0:0:0:
298,113,228150,6,0,L|308:302,1,180,2|8,0:0|0:0,0:0:0:0:
492,211,228598,1,12,0:0:0:0:
