osu file format v14

[General]
AudioFilename: audio.mp3
AudioLeadIn: 0
PreviewTime: 59178
Countdown: 0
SampleSet: Normal
StackLeniency: 0.7
Mode: 2
LetterboxInBreaks: 0
WidescreenStoryboard: 1

[Editor]
DistanceSpacing: 1.1
BeatDivisor: 4
GridSize: 8
TimelineZoom: 1.5

[Metadata]
Title:Paradisus-Paradoxum
TitleUnicode:Paradisus-Paradoxum
Artist:MYTH & ROID
ArtistUnicode:MYTH & ROID
Creator:Ascendance
Version:Sc4's Rain
Source:Re:ゼロから始める異世界生活
Tags:re: zero kara hajimeru isekai seikatsu life in a different world from zero re:zero tv size op opening Spectator [sc4v4ng3r] sc4v4nger scavanger chara osu_gangster ster sorcerer tomthewizard hareimu
BeatmapID:1413542
BeatmapSetID:667918

[Difficulty]
HPDrainRate:6
CircleSize:4
OverallDifficulty:9.2
ApproachRate:9.2
SliderMultiplier:1.7
SliderTickRate:2

[Events]
//Background and Video events
0,0,"cropped-1920-1080-743957.png",0,0
//Break Periods
//Storyboard Layer 0 (Background)
//Storyboard Layer 1 (Fail)
//Storyboard Layer 2 (Pass)
//Storyboard Layer 3 (Foreground)
//Storyboard Sound Samples

[TimingPoints]
6119,298.507462686567,4,1,1,65,1,0
7313,-100,4,1,1,65,0,0
9104,-100,4,2,1,50,0,0
9701,-100,4,1,1,60,0,0
13283,-100,4,1,1,60,0,0
14477,-100,4,2,1,50,0,0
16865,-142.857142857143,4,1,1,40,0,0
18357,-133.333333333333,4,1,1,55,0,0
19253,-100,4,1,1,60,0,0
28805,-100,4,1,1,70,0,0
29104,-125,4,2,1,50,0,0
35969,-153.846153846154,4,2,1,65,0,0
37163,-83.3333333333333,4,2,1,35,0,0
37462,-83.3333333333333,4,2,1,50,0,0
37760,-83.3333333333333,4,2,1,65,0,0
38059,-83.3333333333333,4,2,1,40,0,0
38357,-100,4,1,1,60,0,0
45521,-100,4,1,1,40,0,0
45820,-100,4,1,1,50,0,0
46118,-100,4,1,1,65,0,0
47313,-100,4,2,1,45,0,0
47910,-100,4,1,1,50,0,0
55074,-100,4,1,1,60,0,0
56268,-100,4,1,1,70,0,0
59253,-100,4,2,1,50,0,0
59850,-100,4,1,1,65,0,1
74178,-100,4,2,1,50,0,0
76566,-142.857142857143,4,1,1,40,0,0
78059,-133.333333333333,4,1,1,55,0,0
78954,-100,4,1,1,60,0,0

[Colours]
Combo1 : 255,149,248
Combo2 : 66,199,255
Combo3 : 255,98,98
Combo4 : 255,252,119

[HitObjects]
256,192,4924,12,0,7014,0:0:0:0:
384,72,7313,5,0,0:0:0:0:
144,88,7462,1,0,0:0:0:0:
344,112,7760,1,0,0:0:0:0:
104,136,7910,2,0,L|112:232,1,85
472,192,8357,6,0,P|408:224|304:200,1,170
80,224,8805,2,0,L|176:232,1,85
336,304,9104,2,0,P|392:224|384:136,1,170
16,134,9701,6,0,P|56:94|168:142,1,170
304,184,10148,2,0,L|296:360,1,170
136,368,10596,2,0,L|232:368,1,85
456,344,10895,6,0,P|504:320|424:256,1,170
352,272,11342,1,0,0:0:0:0:
112,240,11492,2,0,L|200:232,1,85
352,192,11790,2,0,L|256:184,1,85
16,176,12089,6,0,P|64:128|176:144,1,170
408,152,12536,2,0,L|424:248,1,85
176,256,12835,2,0,L|168:352,1,85
456,297,13133,5,0,0:0:0:0:
360,280,13283,2,0,L|304:272,1,42.5
264,264,13432,2,0,L|320:256,1,42.5
344,248,13581,1,0,0:0:0:0:
384,240,13656,1,0,0:0:0:0:
384,240,13730,1,0,0:0:0:0:
344,248,13805,1,0,0:0:0:0:
96,232,13880,5,0,0:0:0:0:
88,184,13954,1,0,0:0:0:0:
112,144,14029,1,0,0:0:0:0:
160,144,14104,1,0,0:0:0:0:
336,144,14178,2,0,L|392:136,1,42.5
320,120,14327,2,0,L|256:112,1,42.5
40,112,14477,6,0,L|24:296,1,170
104,320,14924,1,0,0:0:0:0:
256,280,15074,2,0,L|80:264,1,170
368,240,15671,6,0,P|448:232|488:136,1,170
424,112,16118,1,0,0:0:0:0:
272,80,16268,1,0,0:0:0:0:
432,136,16566,1,0,0:0:0:0:
64,32,16865,6,0,P|176:128|48:320,1,416.499987289429
416,336,18357,1,0,0:0:0:0:
40,360,18805,2,0,P|40:296|112:280,1,127.500004863739
320,304,19253,6,0,P|376:304|504:272,1,170
335,220,19701,2,0,P|263:220|151:180,1,170
24,136,20148,2,0,L|112:128,1,85
360,144,20447,6,0,L|456:152,2,85
208,128,20895,2,0,L|200:240,1,85
440,232,21193,1,0,0:0:0:0:
344,248,21342,2,0,L|336:344,1,85
64,296,21641,6,0,P|48:232|144:208,1,170
232,224,22089,1,0,0:0:0:0:
272,232,22163,1,0,0:0:0:0:
440,160,22238,2,0,P|488:160|432:112,1,170
344,128,22686,1,0,0:0:0:0:
72,168,22835,6,0,L|156:175,1,85
400,168,23133,2,0,L|316:183,1,85
424,248,23432,1,0,0:0:0:0:
168,272,23581,2,0,L|67:276,2,85
448,208,24029,6,0,L|472:384,1,170
368,368,24477,1,0,0:0:0:0:
328,360,24551,1,0,0:0:0:0:
160,320,24626,2,0,L|336:312,1,170
432,312,25074,1,0,0:0:0:0:
192,264,25223,6,0,L|8:256,1,170
200,192,25671,2,0,P|152:160|32:168,1,170
136,200,26118,1,0,0:0:0:0:
32,200,26268,1,0,0:0:0:0:
288,280,26417,6,0,P|360:264|288:224,1,170
216,192,26865,1,0,0:0:0:0:
256,192,26939,1,0,0:0:0:0:
416,192,27014,2,0,L|500:184,1,85
344,176,27313,2,0,L|448:168,1,85
128,216,27611,6,0,L|112:328,1,85
328,224,27910,1,0,0:0:0:0:
368,208,27984,1,0,0:0:0:0:
392,168,28059,1,0,0:0:0:0:
360,128,28133,1,0,0:0:0:0:
320,128,28208,1,0,0:0:0:0:
160,176,28357,5,0,0:0:0:0:
328,224,28507,2,0,L|400:240,1,42.5
320,240,28656,2,0,L|272:248,1,42.5
96,256,28805,5,0,0:0:0:0:
280,312,29104,2,0,P|394:306|474:242,1,204
96,128,29999,2,0,L|112:336,1,204
312,352,30895,1,0,0:0:0:0:
40,320,31193,6,0,P|32:256|208:312,1,340
136,344,32089,1,0,0:0:0:0:
416,336,32686,2,0,P|456:312|408:192,1,204
48,208,33581,6,0,P|16:144|144:32,1,272
416,80,34477,2,0,L|144:72,2,272
320,112,35820,1,0,0:0:0:0:
184,112,35969,1,0,0:0:0:0:
256,192,36118,12,0,38059,0:0:0:0:
128,120,38357,5,0,0:0:0:0:
328,152,38656,2,0,L|144:176,1,170
320,224,39104,2,0,L|424:224,1,85
304,200,39402,1,0,0:0:0:0:
72,192,39551,6,0,P|80:128|192:128,1,170
408,208,39999,2,0,P|400:144|288:144,1,170
152,184,40447,2,0,L|56:184,1,85
296,248,40745,6,0,P|320:216|296:88,1,170
144,64,41193,2,0,L|328:48,1,170
472,72,41641,2,0,L|368:80,1,85
96,112,41939,6,0,L|88:208,1,85
328,208,42238,2,0,L|432:216,1,85
256,256,42536,1,0,0:0:0:0:
160,280,42686,2,0,L|96:280,1,42.5
280,320,42835,1,0,0:0:0:0:
328,296,42910,1,0,0:0:0:0:
328,296,42984,1,0,0:0:0:0:
280,320,43059,1,0,0:0:0:0:
96,344,43133,6,0,P|72:304|144:184,1,170
272,192,43581,2,0,L|448:176,1,170
336,168,44029,2,0,L|456:152,1,85
120,96,44327,6,0,L|104:184,1,85
344,248,44626,2,0,P|304:208|176:216,1,170
448,280,45074,2,0,P|440:224|328:184,1,170
88,216,45521,5,0,0:0:0:0:
56,176,45596,1,0,0:0:0:0:
56,128,45671,1,0,0:0:0:0:
88,88,45745,1,0,0:0:0:0:
256,160,45820,2,0,L|303:160,1,42.5
256,208,45969,2,0,L|193:209,1,42.5
392,248,46118,5,0,0:0:0:0:
440,240,46193,1,0,0:0:0:0:
488,232,46268,1,0,0:0:0:0:
440,240,46342,1,0,0:0:0:0:
264,248,46417,2,0,L|160:240,1,85
432,192,46716,6,0,L|312:176,2,113.333333333333
224,240,47313,2,0,L|40:248,1,170
456,272,47910,6,0,P|488:216|448:112,1,170
304,96,48357,1,0,0:0:0:0:
256,104,48432,1,0,0:0:0:0:
208,112,48507,2,0,L|112:120,1,85
280,176,48805,2,0,L|384:192,1,85
80,232,49104,6,0,P|72:280|192:312,1,170
264,312,49551,2,0,L|272:264,1,42.5
80,232,49701,2,0,L|72:112,1,85
336,192,49999,2,0,L|344:88,1,85
80,104,50298,6,0,L|248:80,1,170
408,88,50745,1,0,0:0:0:0:
456,96,50820,1,0,0:0:0:0:
504,104,50895,2,0,L|416:88,1,85
264,144,51193,2,0,L|352:128,1,85
64,144,51492,6,0,L|56:256,1,85
204,286,51790,2,0,L|310:278,1,85
64,144,52089,5,0,0:0:0:0:
48,96,52163,1,0,0:0:0:0:
70,48,52238,1,0,0:0:0:0:
124,28,52313,1,0,0:0:0:0:
336,120,52387,1,0,0:0:0:0:
346,180,52462,1,0,0:0:0:0:
323,222,52536,1,0,0:0:0:0:
274,237,52611,1,0,0:0:0:0:
32,192,52686,6,0,L|216:216,1,170
304,224,53133,1,0,0:0:0:0:
64,256,53283,2,0,L|184:264,1,85
392,264,53581,2,0,L|488:248,1,85
208,216,53880,6,0,B|112:208|112:208|192:216,1,170
288,216,54327,1,0,0:0:0:0:
32,112,54477,2,0,L|24:16,1,85
288,120,54775,2,0,L|296:224,1,85
24,216,55074,6,0,L|224:224,1,170
296,224,55521,1,0,0:0:0:0:
56,256,55671,2,0,L|168:256,1,85
384,256,55969,2,0,L|272:264,1,85
56,232,56268,6,0,L|48:128,1,85
280,152,56566,1,0,0:0:0:0:
328,160,56641,1,0,0:0:0:0:
328,160,56716,1,0,0:0:0:0:
280,152,56790,1,0,0:0:0:0:
88,304,56865,6,0,L|72:208,1,85
312,200,57163,2,0,L|408:200,1,85
152,152,57462,5,0,0:0:0:0:
392,168,57611,1,0,0:0:0:0:
192,192,57910,1,0,0:0:0:0:
432,208,58059,2,0,L|440:312,1,85
48,288,58507,6,0,P|32:232|136:184,1,170
360,192,58954,2,0,L|248:192,1,85
128,184,59253,2,0,P|72:104|112:24,1,170
480,208,59850,6,0,P|464:272|360:288,1,170
216,264,60298,2,0,L|392:256,1,170
240,216,60745,2,0,L|144:216,1,85
424,168,61044,6,0,P|456:200|408:328,1,170
336,312,61492,1,0,0:0:0:0:
96,296,61641,2,0,L|88:200,1,85
328,272,61939,2,0,L|344:160,1,85
80,192,62238,6,0,P|24:184|88:152,1,170
328,168,62686,2,0,P|376:160|312:136,1,170
216,144,63133,2,0,L|120:152,1,85
382,208,63432,6,0,B|486:208|486:208|390:208,1,170
323,208,63880,1,0,0:0:0:0:
79,176,64029,2,0,L|34:174,1,42.5
29,123,64178,2,0,L|74:122,1,42.5
256,112,64327,2,0,L|318:112,1,42.5
256,112,64476,2,0,L|195:112,1,42.5
416,136,64626,6,0,P|416:208|320:224,1,170
232,216,65074,1,0,0:0:0:0:
464,256,65223,2,0,L|480:352,1,85
240,328,65521,2,0,L|136:320,1,85
424,296,65820,6,0,L|336:280,1,85
112,248,66118,2,0,L|232:240,1,85
352,240,66417,2,0,L|368:136,1,85
232,136,66716,1,0,0:0:0:0:
336,136,66865,1,0,0:0:0:0:
88,192,67014,6,0,L|72:288,1,85
320,256,67313,2,0,L|336:352,1,85
80,312,67611,2,0,L|192:312,1,85
424,288,67910,2,0,L|336:280,1,85
72,216,68208,5,0,0:0:0:0:
64,168,68283,1,0,0:0:0:0:
96,128,68357,1,0,0:0:0:0:
144,120,68432,1,0,0:0:0:0:
320,144,68507,1,0,0:0:0:0:
368,152,68581,1,0,0:0:0:0:
368,152,68656,1,0,0:0:0:0:
320,144,68730,1,0,0:0:0:0:
96,128,68805,5,0,0:0:0:0:
112,176,68880,1,0,0:0:0:0:
160,200,68954,1,0,0:0:0:0:
208,200,69029,1,0,0:0:0:0:
408,184,69104,2,0,L|456:176,1,42.5
400,152,69253,2,0,L|352:144,1,42.5
144,40,69402,6,0,B|56:48|56:48|144:42,1,170
296,64,69850,2,0,L|320:176,1,85
192,168,70148,2,0,L|168:272,1,85
416,256,70447,6,0,P|392:216|264:176,1,170
408,176,70895,2,0,L|504:176,1,85
328,144,71193,2,0,L|208:136,1,85
16,104,71492,2,0,L|112:96,1,85
392,120,71790,6,0,L|208:104,1,170
464,136,72238,2,0,L|480:248,1,85
208,208,72536,2,0,L|192:304,1,85
476,220,72835,6,0,P|460:172|332:156,1,170
96,152,73283,2,0,L|208:152,1,85
448,152,73581,2,0,L|344:152,1,85
88,256,73880,1,0,0:0:0:0:
40,256,73954,1,0,0:0:0:0:
40,256,74029,1,0,0:0:0:0:
88,256,74104,1,0,0:0:0:0:
256,256,74178,6,0,L|440:248,1,170
336,200,74626,1,0,0:0:0:0:
176,176,74775,2,0,P|120:128|176:56,1,170
440,176,75372,6,0,P|432:264|344:280,1,170
264,272,75820,1,0,0:0:0:0:
87,340,75969,2,0,P|47:262|119:195,1,170
480,344,76566,6,0,P|392:288|504:48,1,416.499987289429
120,128,78059,1,0,0:0:0:0:
472,96,78507,2,0,L|328:88,1,127.500004863739
96,152,78954,6,0,P|40:216|112:280,1,170
240,280,79402,2,0,P|272:256|224:144,1,170
120,144,79850,2,0,L|32:136,1,85
280,112,80148,6,0,L|376:104,2,85
120,104,80596,1,0,0:0:0:0:
216,120,80745,1,0,0:0:0:0:
456,144,80895,1,0,0:0:0:0:
360,168,81044,2,0,L|264:176,1,85
32,224,81342,6,0,L|216:232,1,170
304,240,81790,1,0,0:0:0:0:
352,232,81865,1,0,0:0:0:0:
184,184,81939,2,0,P|136:176|200:128,1,170
288,136,82387,1,0,0:0:0:0:
32,184,82536,6,0,L|24:272,1,85
272,288,82835,2,0,L|360:280,1,85
112,232,83133,5,0,0:0:0:0:
64,224,83208,1,0,0:0:0:0:
16,216,83283,1,0,0:0:0:0:
64,224,83357,1,0,0:0:0:0:
256,232,83432,1,0,0:0:0:0:
304,224,83507,1,0,0:0:0:0:
352,216,83582,1,0,0:0:0:0:
304,224,83656,1,0,0:0:0:0:
64,224,83730,6,0,L|56:136,1,85
216,144,84029,2,0,L|224:56,1,85
448,56,84327,2,0,P|488:80|456:184,1,170
96,128,84775,6,0,L|272:128,1,170
32,192,85223,2,0,L|136:200,1,85
360,224,85521,2,0,L|256:232,1,85
176,240,85820,1,0,0:0:0:0:
280,248,85969,1,0,0:0:0:0:
48,248,86118,6,0,L|136:264,1,85
288,280,86417,2,0,L|400:264,1,85
128,208,86716,2,0,P|80:192|144:144,1,170
296,168,87163,1,0,0:0:0:0:
56,144,87313,5,0,0:0:0:0:
48,96,87387,1,0,0:0:0:0:
72,48,87462,1,0,0:0:0:0:
120,32,87536,1,0,0:0:0:0:
168,32,87611,1,0,0:0:0:0:
390,58,87760,1,0,0:0:0:0:
248,88,87910,6,0,L|184:96,2,42.5
488,88,88208,1,0,0:0:0:0:
248,88,88357,1,0,0:0:0:0:
