osu file format v14

[General]
AudioFilename: audio.mp3
AudioLeadIn: 0
PreviewTime: 59178
Countdown: 0
SampleSet: Normal
StackLeniency: 0.7
Mode: 2
LetterboxInBreaks: 0
WidescreenStoryboard: 0

[Editor]
Bookmarks: 17910
DistanceSpacing: 1
BeatDivisor: 2
GridSize: 4
TimelineZoom: 3.299999

[Metadata]
Title:Paradisus-Paradoxum
TitleUnicode:Paradisus-Paradoxum
Artist:MYTH & ROID
ArtistUnicode:MYTH & ROID
Creator:Ascendance
Version:Reimu's Salad
Source:Re:ゼロから始める異世界生活
Tags:re: zero kara hajimeru isekai seikatsu life in a different world from zero re:zero tv size op opening Spectator [sc4v4ng3r] sc4v4nger scavanger chara osu_gangster ster sorcerer tomthewizard hareimu
BeatmapID:1425692
BeatmapSetID:667918

[Difficulty]
HPDrainRate:4
CircleSize:3
OverallDifficulty:7
ApproachRate:7
SliderMultiplier:1.3
SliderTickRate:1

[Events]
//Background and Video events
0,0,"cropped-1920-1080-743957.png",0,0
//Break Periods
//Storyboard Layer 0 (Background)
//Storyboard Layer 1 (Fail)
//Storyboard Layer 2 (Pass)
//Storyboard Layer 3 (Foreground)
//Storyboard Sound Samples

[TimingPoints]
6119,298.507462686567,4,1,1,65,1,0
9104,-100,4,2,1,50,0,0
9701,-100,4,1,1,60,0,0
14477,-142.857142857143,4,2,1,50,0,0
16865,-100,4,1,1,40,0,0
18357,-133.333333333333,4,1,1,55,0,0
19253,-100,4,1,1,60,0,0
28805,-100,4,1,1,70,0,0
29104,-200,4,2,1,50,0,0
35969,-200,4,2,1,65,0,0
37163,-83.3333333333333,4,2,1,35,0,0
37462,-83.3333333333333,4,2,1,50,0,0
37760,-83.3333333333333,4,2,1,65,0,0
38059,-83.3333333333333,4,2,1,40,0,0
38357,-100,4,1,1,60,0,0
45521,-100,4,1,1,40,0,0
45820,-100,4,1,1,50,0,0
46118,-100,4,1,1,65,0,0
47313,-100,4,2,1,45,0,0
47910,-100,4,1,1,50,0,0
55074,-100,4,1,1,60,0,0
56268,-100,4,1,1,70,0,0
59253,-166.666666666667,4,2,1,50,0,0
59850,-100,4,1,1,65,0,1
74178,-100,4,2,1,50,0,0
76566,-100,4,1,1,40,0,0
78059,-100,4,1,1,55,0,0
78954,-100,4,1,1,60,0,0

[Colours]
Combo1 : 255,149,248
Combo2 : 66,199,255
Combo3 : 255,98,98
Combo4 : 255,252,119

[HitObjects]
256,192,4924,12,0,7014,0:0:0:0:
337,233,7313,6,0,L|363:140,1,65,8|8,0:0|0:0,0:0:0:0:
192,218,7760,2,0,L|173:143,2,65,0|8|8,0:0|0:0|0:0,0:0:0:0:
355,195,8357,2,0,P|392:112|352:90,1,130,0|8,0:0|0:0,0:0:0:0:
311,94,8805,1,8,0:0:0:0:
168,116,9104,6,0,L|38:115,1,130,2|2,0:0|0:0,0:0:0:0:
299,119,9701,6,0,L|456:119,1,130,0|8,0:0|0:0,0:0:0:0:
364,265,10148,2,0,L|218:266,1,130,0|0,0:0|0:0,0:0:0:0:
299,119,10596,1,8,0:0:0:0:
352,167,10745,1,0,0:0:0:0:
212,118,10895,6,0,P|176:168|211:218,1,130,0|8,0:0|0:0,0:0:0:0:
341,222,11492,2,0,L|474:222,1,130,0|8,0:0|0:0,0:0:0:0:
225,224,12089,6,0,P|176:161|229:106,1,130,0|8,0:0|0:0,0:0:0:0:
258,122,12536,2,0,L|128:122,1,130,0|0,0:0|0:0,0:0:0:0:
368,282,13133,6,0,P|412:137|272:56,1,325,0|2,0:0|0:0,0:0:0:0:
394,125,14178,1,0,0:0:0:0:
144,86,14477,6,0,L|38:86,1,90.9999972229005,6|0,0:0|0:0,0:0:0:0:
144,277,15074,2,0,L|242:276,1,90.9999972229005,2|0,1:0|0:0,0:0:0:0:
485,124,15671,2,0,L|479:214,1,90.9999972229005,6|0,0:0|0:0,0:0:0:0:
388,218,16268,2,0,L|270:217,1,90.9999972229005,2|0,1:0|0:0,0:0:0:0:
21,349,16865,6,0,P|71:135|282:41,1,455,2|2,0:0|0:0,0:0:0:0:
416,41,18357,2,0,P|453:112|397:147,1,146.250005578995,2|2,0:0|0:0,0:0:0:0:
43,180,19253,5,4,0:0:0:0:
192,223,19551,1,8,0:0:0:0:
216,162,19700,1,0,0:0:0:0:
192,223,19850,1,0,0:0:0:0:
43,180,20148,1,8,0:0:0:0:
316,191,20447,6,0,L|466:189,1,130,2|8,0:0|0:0,0:0:0:0:
380,190,20895,2,0,L|250:191,1,130,2|0,0:0|0:0,0:0:0:0:
185,192,21342,1,10,0:0:0:0:
458,199,21641,5,0,0:0:0:0:
309,245,21939,1,8,0:0:0:0:
243,244,22089,1,0,0:0:0:0:
178,244,22238,1,0,0:0:0:0:
309,245,22536,1,8,0:0:0:0:
84,72,22835,5,2,0:0:0:0:
33,112,22984,1,0,0:0:0:0:
41,176,23133,1,8,0:0:0:0:
106,177,23283,1,2,0:0:0:0:
235,190,23581,1,0,0:0:0:0:
170,192,23730,1,10,0:0:0:0:
151,129,23880,1,0,0:0:0:0:
318,140,24029,6,0,L|449:140,1,130,6|8,0:0|0:0,0:0:0:0:
382,232,24477,1,0,0:0:0:0:
318,231,24626,2,0,L|449:231,1,130,0|8,0:0|0:0,0:0:0:0:
214,112,25223,5,2,0:0:0:0:
149,112,25372,1,0,0:0:0:0:
214,112,25521,1,8,0:0:0:0:
279,111,25671,1,2,0:0:0:0:
408,112,25969,1,0,0:0:0:0:
156,126,26268,6,0,P|70:215|150:288,1,260,0|0,0:0|0:0,0:0:0:0:
215,288,27014,2,0,L|72:288,1,130,0|8,0:0|0:0,0:0:0:0:
347,130,27611,5,8,0:0:0:0:
398,170,27760,1,0,0:0:0:0:
390,234,27909,1,10,0:0:0:0:
325,235,28059,1,8,0:0:0:0:
157,210,28357,2,0,L|85:208,2,65,10|8|0,0:0|0:0|0:0,0:0:0:0:
316,309,28805,5,4,0:0:0:0:
428,309,29104,2,0,L|460:187,1,97.5,2|0,0:0|0:0,0:0:0:0:
258,210,29999,2,0,L|150:211,2,97.5,2|2|2,0:0|0:0|0:0,0:0:0:0:
355,212,31193,6,0,P|401:134|326:54,1,195,2|0,0:0|0:0,0:0:0:0:
151,81,32686,2,0,L|30:81,1,97.5,2|2,0:0|0:0,0:0:0:0:
395,98,33581,6,0,P|430:150|390:196,1,130,2|0,0:0|0:0,0:0:0:0:
229,195,34477,2,0,L|383:194,2,130,2|2|2,0:0|0:0|0:0,0:0:0:0:
196,195,35820,1,0,0:0:0:0:
163,194,35969,1,2,0:0:0:0:
256,192,36268,12,0,38059,0:0:0:0:
386,203,38357,5,4,0:0:0:0:
223,155,38656,2,0,P|179:199|218:238,1,130,8|0,0:0|0:0,0:0:0:0:
284,236,39104,2,0,L|433:236,1,130,0|0,0:0|0:0,0:0:0:0:
349,236,39551,1,2,0:0:0:0:
122,97,39850,2,0,L|98:162,1,65,8|2,0:0|0:0,0:0:0:0:
328,153,40298,2,0,L|406:153,1,65,0|10,0:0|0:0,0:0:0:0:
107,149,40745,6,0,L|74:274,1,130,2|8,0:0|0:0,0:0:0:0:
139,275,41193,2,0,L|304:274,1,130,0|0,0:0|0:0,0:0:0:0:
203,273,41641,1,10,0:0:0:0:
73,274,41939,1,0,0:0:0:0:
334,277,42238,2,0,P|379:169|333:146,1,195,10|0,0:0|0:0,0:0:0:0:
36,56,43133,6,0,L|202:57,1,130,4|8,0:0|0:0,0:0:0:0:
231,136,43581,2,0,L|65:135,1,130,2|0,0:0|0:0,0:0:0:0:
35,133,44029,1,10,0:0:0:0:
164,245,44327,5,0,0:0:0:0:
397,247,44626,2,0,P|423:181|385:147,1,130,10|0,0:0|0:0,0:0:0:0:
320,148,45074,2,0,L|190:148,1,130,2|0,0:0|0:0,0:0:0:0:
320,148,45521,6,0,P|367:230|296:277,1,195,2|0,0:0|0:0,0:0:0:0:
155,271,46118,2,0,P|93:185|189:97,1,260,2|2,0:0|0:0,0:0:0:0:
319,98,47014,1,2,0:0:0:0:
103,104,47313,1,2,0:0:0:0:
76,231,47611,1,2,0:0:0:0:
352,71,47910,6,0,L|512:71,1,130,4|8,0:0|0:0,0:0:0:0:
311,317,48507,1,0,0:0:0:0:
246,317,48656,1,0,0:0:0:0:
181,315,48805,1,8,0:0:0:0:
436,66,49104,6,0,L|453:194,1,130,0|8,0:0|0:0,0:0:0:0:
322,198,49701,1,0,0:0:0:0:
387,198,49850,1,0,0:0:0:0:
452,198,49999,1,8,0:0:0:0:
191,106,50298,6,0,L|98:199,1,130,0|8,0:0|0:0,0:0:0:0:
229,196,50895,1,0,0:0:0:0:
164,196,51044,1,0,0:0:0:0:
99,196,51193,1,8,0:0:0:0:
351,151,51492,6,0,L|454:71,1,130,0|8,0:0|0:0,0:0:0:0:
323,76,52089,1,2,0:0:0:0:
387,77,52238,1,0,0:0:0:0:
413,136,52387,1,10,0:0:0:0:
159,209,52686,6,0,L|51:111,1,130,2|8,0:0|0:0,0:0:0:0:
191,122,53283,2,0,L|50:121,1,130,0|8,0:0|0:0,0:0:0:0:
311,125,53880,6,0,L|395:125,2,65,0|0|8,0:0|0:0|0:0,0:0:0:0:
73,125,54477,1,0,0:0:0:0:
89,188,54626,1,0,0:0:0:0:
148,217,54775,1,8,0:0:0:0:
421,227,55074,6,0,P|453:143|379:92,1,195,8|0,0:0|0:0,0:0:0:0:
249,91,55671,1,10,0:0:0:0:
199,133,55820,1,0,0:0:0:0:
249,91,55969,1,8,0:0:0:0:
411,167,56268,5,10,0:0:0:0:
461,125,56417,1,0,0:0:0:0:
411,167,56566,1,8,0:0:0:0:
213,162,56865,2,0,L|143:160,1,65,10|0,0:0|0:0,0:0:0:0:
213,162,57163,2,0,L|291:162,1,65,8|0,0:0|0:0,0:0:0:0:
148,195,57462,6,0,L|102:240,1,65,10|8,0:0|0:0,0:0:0:0:
261,202,57909,2,0,L|280:277,2,65,8|10|10,0:0|0:0|0:0,0:0:0:0:
65,129,58506,2,0,P|28:212|68:234,1,130,2|2,0:0|0:0,0:0:0:0:
109,230,58954,1,10,0:0:0:0:
368,158,59253,6,0,L|445:158,1,77.999997619629,2|0,0:0|0:0,0:0:0:0:
171,145,59850,6,0,L|14:145,1,130,4|8,0:0|0:0,0:0:0:0:
106,293,60297,2,0,L|243:293,1,130,0|0,0:0|0:0,0:0:0:0:
302,147,60745,1,8,0:0:0:0:
237,147,60894,1,0,0:0:0:0:
106,293,61044,6,0,P|82:232|129:191,1,130,0|8,0:0|0:0,0:0:0:0:
248,190,61641,2,0,L|115:190,1,130,0|8,0:0|0:0,0:0:0:0:
377,199,62238,6,0,L|433:320,1,130,0|8,0:0|0:0,0:0:0:0:
369,323,62685,2,0,L|215:322,2,130,0|0|0,0:0|0:0|0:0,0:0:0:0:
237,176,63432,6,0,L|95:175,1,130,0|8,0:0|0:0,0:0:0:0:
237,66,64029,2,0,L|401:67,1,130,2|2,0:0|0:0,0:0:0:0:
107,70,64626,6,0,L|55:190,1,130,4|8,0:0|0:0,0:0:0:0:
185,192,65223,1,0,0:0:0:0:
249,192,65372,1,0,0:0:0:0:
185,192,65521,1,8,0:0:0:0:
429,178,65820,6,0,L|471:53,1,130,0|8,0:0|0:0,0:0:0:0:
340,57,66417,2,0,L|505:55,1,130,0|8,0:0|0:0,0:0:0:0:
211,75,67014,6,0,L|79:76,3,130,2|8|2|8,0:0|0:0|0:0|0:0,0:0:0:0:
207,123,68208,6,0,P|269:189|164:302,1,260,2|2,0:0|0:0,0:0:0:0:
51,304,69104,1,2,0:0:0:0:
322,300,69402,6,0,L|377:171,1,130,4|8,0:0|0:0,0:0:0:0:
310,180,69850,2,0,L|151:180,1,130,0|0,0:0|0:0,0:0:0:0:
310,173,70447,2,0,P|377:262|304:316,1,195,0|8,0:0|0:0,0:0:0:0:
204,314,71193,1,0,0:0:0:0:
139,312,71342,1,0,0:0:0:0:
120,249,71492,1,8,0:0:0:0:
376,200,71790,6,0,P|448:150|457:73,1,130,0|8,0:0|0:0,0:0:0:0:
394,93,72238,2,0,L|258:93,1,130,0|0,0:0|0:0,0:0:0:0:
199,93,72686,1,8,0:0:0:0:
335,113,72835,6,0,P|392:166|305:245,1,195,0|2,0:0|0:0,0:0:0:0:
198,243,73581,2,0,L|386:244,1,130,2|2,0:0|0:0,0:0:0:0:
71,244,74178,6,0,L|44:115,1,130,6|0,0:0|0:0,0:0:0:0:
174,116,74775,2,0,L|44:117,1,130,2|0,1:0|0:0,0:0:0:0:
300,118,75372,2,0,L|457:118,3,130,6|0|2|0,0:0|0:0|1:0|0:0,0:0:0:0:
171,58,76566,6,0,P|81:87|192:333,1,455,0|2,0:0|0:0,0:0:0:0:
389,158,78059,1,2,0:0:0:0:
96,95,78507,1,2,0:0:0:0:
469,180,78954,5,4,0:0:0:0:
320,223,79252,1,8,0:0:0:0:
296,162,79401,1,0,0:0:0:0:
320,223,79551,1,0,0:0:0:0:
469,180,79849,1,8,0:0:0:0:
218,194,80148,6,0,L|392:193,1,130,2|8,0:0|0:0,0:0:0:0:
413,192,80596,2,0,L|283:193,1,130,2|0,0:0|0:0,0:0:0:0:
218,194,81044,1,10,0:0:0:0:
468,105,81342,5,0,0:0:0:0:
317,87,81640,1,8,0:0:0:0:
251,88,81790,1,0,0:0:0:0:
186,85,81939,1,0,0:0:0:0:
317,87,82237,1,8,0:0:0:0:
61,100,82536,6,0,L|50:167,2,65,2|0|8,0:0|0:0|0:0,0:0:0:0:
191,107,83133,1,0,0:0:0:0:
254,108,83283,1,0,0:0:0:0:
189,100,83432,1,10,0:0:0:0:
404,209,83730,6,0,L|437:81,1,130,0|10,0:0|0:0,0:0:0:0:
306,81,84327,2,0,P|284:138|324:186,1,130,2|8,0:0|0:0,0:0:0:0:
389,183,84775,6,0,L|231:181,1,130,0|0,0:0|0:0,0:0:0:0:
204,144,85223,1,8,0:0:0:0:
187,81,85372,1,0,0:0:0:0:
204,144,85521,1,0,0:0:0:0:
259,179,85671,1,0,0:0:0:0:
468,89,85969,6,0,L|316:92,1,130,0|0,0:0|0:0,0:0:0:0:
273,92,86417,2,0,L|350:94,1,65,8|0,0:0|0:0,0:0:0:0:
404,93,86716,2,0,P|426:150|386:198,1,130,2|8,0:0|0:0,0:0:0:0:
253,154,87163,6,0,P|231:211|271:259,1,130,0|0,0:0|0:0,0:0:0:0:
337,260,87611,2,0,L|409:260,1,65,2|0,0:0|0:0,0:0:0:0:
263,239,87910,1,0,0:0:0:0:
215,194,88059,1,0,0:0:0:0:
225,129,88208,1,4,0:0:0:0:
300,108,88358,1,0,0:0:0:0:
