osu file format v14

[General]
AudioFilename: audio.mp3
AudioLeadIn: 0
PreviewTime: 59178
Countdown: 0
SampleSet: Normal
StackLeniency: 0.7
Mode: 2
LetterboxInBreaks: 0
WidescreenStoryboard: 1

[Editor]
Bookmarks: 17910
DistanceSpacing: 1.1
BeatDivisor: 4
GridSize: 32
TimelineZoom: 1.5

[Metadata]
Title:Paradisus-Paradoxum
TitleUnicode:Paradisus-Paradoxum
Artist:MYTH & ROID
ArtistUnicode:MYTH & ROID
Creator:Ascendance
Version:Chara's Rain
Source:Re:ゼロから始める異世界生活
Tags:re: zero kara hajimeru isekai seikatsu life in a different world from zero re:zero tv size op opening Spectator [sc4v4ng3r] sc4v4nger scavanger chara osu_gangster ster sorcerer tomthewizard hareimu
BeatmapID:1413505
BeatmapSetID:667918

[Difficulty]
HPDrainRate:6
CircleSize:4
OverallDifficulty:9
ApproachRate:9
SliderMultiplier:1.7
SliderTickRate:2

[Events]
//Background and Video events
0,0,"cropped-1920-1080-743957.png",0,0
//Break Periods
//Storyboard Layer 0 (Background)
//Storyboard Layer 1 (Fail)
//Storyboard Layer 2 (Pass)
//Storyboard Layer 3 (Foreground)
//Storyboard Sound Samples

[TimingPoints]
6119,298.507462686567,4,2,1,50,1,0
7313,-100,4,1,1,65,0,0
9104,-100,4,2,1,50,0,0
9701,-100,4,1,1,70,0,0
13283,-100,4,1,1,70,0,0
14477,-142.857142857143,4,2,1,50,0,0
16865,-100,4,1,1,40,0,0
18357,-133.333333333333,4,1,1,55,0,0
19253,-100,4,1,1,60,0,0
28805,-100,4,1,1,70,0,0
29104,-133.333333333333,4,2,1,50,0,0
35969,-125,4,2,1,65,0,0
37089,-125,4,2,1,5,0,0
37163,-50,4,2,1,65,0,0
38357,-100,4,1,1,60,0,0
45521,-100,4,1,1,40,0,0
45820,-100,4,1,1,50,0,0
46118,-100,4,1,1,65,0,0
47313,-100,4,2,1,45,0,0
47910,-100,4,1,1,50,0,0
55074,-100,4,1,1,60,0,0
56268,-100,4,1,1,70,0,0
59253,-166.666666666667,4,2,1,50,0,0
59850,-90.9090909090909,4,1,1,65,0,1
74178,-100,4,2,1,50,0,0
76566,-100,4,1,1,40,0,0
78059,-125,4,1,1,55,0,0
78954,-100,4,1,1,60,0,0

[Colours]
Combo1 : 255,149,248
Combo2 : 66,199,255
Combo3 : 255,98,98
Combo4 : 255,252,119

[HitObjects]
256,192,4924,12,0,7163,0:0:0:0:
338,130,7313,6,0,L|443:110,1,85,0|0,0:0|0:0,0:0:0:0:
232,68,7760,1,0,0:0:0:0:
448,196,7910,2,0,L|365:212,1,85,0|0,0:0|0:0,0:0:0:0:
158,309,8357,2,0,L|335:346,1,170,0|0,0:0|0:0,0:0:0:0:
63,196,8805,2,0,P|17:165|71:79,1,170,0|0,0:0|0:0,0:0:0:0:
253,62,9701,6,0,L|451:79,1,170,4|0,0:2|2:0,0:0:0:0:
286,149,10148,2,0,P|259:234|309:296,1,170,0|0,1:0|2:0,0:0:0:0:
430,315,10596,2,0,L|308:332,1,85,4|0,0:3|2:0,0:0:0:0:
208,329,10895,5,0,0:0:0:0:
120,208,11044,1,0,2:0:0:0:
228,124,11193,2,0,L|244:246,1,85,2|4,0:0|2:0,0:0:0:0:
133,271,11492,2,0,L|244:254,1,85,0|0,0:0|1:0,0:0:0:0:
84,204,11790,2,0,L|67:93,1,85,4|0,0:3|2:0,0:0:0:0:
313,68,12089,6,0,P|354:145|278:213,1,170,0|2,0:0|1:0,0:0:0:0:
209,279,12536,2,0,L|406:306,1,170,4|0,2:2|0:0,0:0:0:0:
316,217,12984,1,8,0:0:0:0:
107,368,13133,6,0,L|94:263,1,85
143,277,13357,1,0,0:0:0:0:
189,270,13432,1,0,0:0:0:0:
305,256,13581,1,0,0:0:0:0:
171,234,13730,2,0,L|163:289,1,42.5,0|0,0:0|0:0,0:0:0:0:
238,246,13880,5,0,0:0:0:0:
285,233,13954,1,0,0:0:0:0:
322,201,14029,1,0,0:0:0:0:
341,156,14103,1,0,0:0:0:0:
337,107,14178,1,0,0:0:0:0:
311,65,14253,1,0,0:0:0:0:
270,39,14327,2,0,L|199:41,1,42.5
73,81,14477,6,0,P|36:114|62:238,1,178.499994552612,4|0,2:0|1:0,0:0:0:0:
286,275,15074,1,4,1:3:0:0:
439,303,15671,6,0,P|476:270|450:146,1,178.499994552612,4|0,2:0|1:0,0:0:0:0:
226,109,16268,1,4,1:3:0:0:
73,81,16865,6,0,B|15:99|2:114|2:136|29:180|54:201|73:207|116:213|193:207|205:201|220:155|209:112|160:99|56:114|44:165|46:217|77:269|135:285|160:265,1,510,0|0,0:0|0:0,0:0:0:0:
374,270,17910,1,0,0:0:0:0:
171,343,18357,2,0,P|131:301|173:229,1,127.500004863739,0|0,0:0|0:0,0:0:0:0:
318,202,18805,2,0,L|169:187,1,127.500004863739,0|0,0:0|0:0,0:0:0:0:
137,180,19178,1,0,0:0:0:0:
284,89,19253,6,0,P|329:151|253:234,1,170,4|2,2:0|0:0,0:0:0:0:
174,271,19701,2,0,L|156:329,1,42.5,4|0,1:3|0:0,0:0:0:0:
232,252,19850,2,0,L|348:263,1,85,0|4,2:0|2:3,0:0:0:0:
202,350,20148,2,0,L|86:361,1,85,8|0,0:0|0:0,0:0:0:0:
359,310,20447,5,4,2:2:0:0:
364,229,20596,1,0,2:0:0:0:
298,182,20745,1,8,0:0:0:0:
182,139,20895,2,0,L|292:130,1,85,2|0,0:0|0:0,0:0:0:0:
383,236,21193,2,0,L|273:227,1,85,4|10,1:3|0:0,0:0:0:0:
420,103,21492,1,0,0:0:0:0:
188,355,21641,6,0,P|132:280|188:200,1,170,4|8,2:0|0:0,0:0:0:0:
279,142,22089,2,0,L|198:135,1,42.5,0|0,2:0|2:0,0:0:0:0:
182,110,22238,2,0,L|291:97,1,85,2|4,2:0|1:3,0:0:0:0:
385,41,22536,2,0,L|276:28,1,85,8|0,0:0|2:0,0:0:0:0:
58,93,22835,5,4,2:0:0:0:
30,166,22984,1,2,2:0:0:0:
94,213,23133,1,8,0:0:0:0:
208,232,23283,2,0,L|220:128,1,85,0|2,0:0|2:0,0:0:0:0:
85,124,23581,1,0,0:0:0:0:
204,58,23730,2,0,L|95:52,1,85,10|0,0:0|2:0,0:0:0:0:
344,314,24029,6,0,P|402:289|417:157,1,170,4|8,2:0|0:0,0:0:0:0:
301,136,24477,2,0,L|243:165,1,42.5,0|0,2:0|2:0,0:0:0:0:
190,138,24626,2,0,L|84:182,1,85,2|4,2:0|0:3,0:0:0:0:
233,260,24924,2,0,L|245:173,1,85,8|0,0:0|2:0,0:0:0:0:
32,47,25223,5,2,1:2:0:0:
121,100,25372,1,2,2:0:0:0:
216,156,25521,1,0,0:0:0:0:
95,315,25671,2,0,L|198:331,1,85,4|0,2:3|2:0,0:0:0:0:
312,201,25969,2,0,L|209:217,1,85,4|8,0:3|0:0,0:0:0:0:
124,228,26268,1,0,0:0:0:0:
342,354,26417,6,0,P|379:294|300:236,1,170,4|8,2:2|0:0,0:0:0:0:
195,217,26865,2,0,L|145:225,1,42.5,0|0,2:0|2:0,0:0:0:0:
230,263,27014,2,0,L|329:244,1,85,2|4,2:0|1:3,0:0:0:0:
429,213,27313,1,8,0:0:0:0:
331,159,27462,1,0,2:0:0:0:
75,103,27611,6,0,L|44:202,1,85,2|0,3:2|3:0,0:0:0:0:
218,272,27910,1,8,0:0:0:0:
234,233,27984,1,0,2:0:0:0:
221,193,28059,1,8,3:0:0:0:
186,171,28133,1,0,0:0:0:0:
125,146,28208,2,0,L|239:144,1,85,2|0,2:0|0:0,0:0:0:0:
265,144,28432,1,0,0:0:0:0:
199,111,28507,2,0,L|189:173,1,42.5,10|0,1:0|0:0,0:0:0:0:
265,144,28656,1,0,0:0:0:0:
495,141,28805,5,4,2:0:0:0:
370,62,29104,2,0,L|177:102,1,191.250007295609,2|2,0:0|0:0,0:0:0:0:
19,192,29999,2,0,L|227:225,2,191.250007295609,2|2|2,0:0|0:0|0:0,0:0:0:0:
253,134,31193,2,0,P|327:185|190:365,1,382.500014591218,2|0,0:0|0:0,0:0:0:0:
112,290,32387,1,0,0:0:0:0:
251,234,32686,2,0,L|450:193,1,191.250007295609,2|2,0:0|0:0,0:0:0:0:
149,99,33581,6,0,P|110:148|202:288,1,255.000009727478,2|0,0:0|0:0,0:0:0:0:
327,244,34477,2,0,L|192:268,1,127.500004863739
402,304,35074,2,0,P|420:259|400:170,1,127.500004863739,2|0,0:0|0:0,0:0:0:0:
286,143,35521,1,0,0:0:0:0:
286,143,35596,1,0,0:0:0:0:
286,143,35671,1,2,0:0:0:0:
387,85,35820,1,0,0:0:0:0:
164,89,35969,6,0,B|102:110|106:139|127:151|168:145|199:143|213:143|228:151|230:168|218:188|156:196|122:199|85:199|58:211|58:240|69:263|81:277|104:285|151:292|168:288|182:288|199:288|203:288|222:290|242:298|251:304|251:319|240:329|220:348|203:360|167:365,1,510,2|0,0:0|0:0,0:0:0:0:
151,360,37163,6,0,B|130:195|130:195|235:55|235:55|250:222|250:222|153:365|153:365|9:407|23:245|-16:127|-7:47|47:2|119:0,1,1190
333,62,38357,5,4,1:2:0:0:
143,116,38656,1,10,0:0:0:0:
244,163,38805,2,0,L|50:201,1,170,0|4,0:0|0:3,0:0:0:0:
180,275,39253,2,0,P|197:225|166:180,1,85,8|0,0:0|0:0,0:0:0:0:
81,134,39551,5,0,0:0:0:0:
164,161,39701,1,2,2:0:0:0:
62,250,39850,1,8,0:0:0:0:
176,300,39999,2,0,P|209:256|162:157,1,170,0|4,0:0|0:3,0:0:0:0:
42,136,40447,2,0,L|139:120,1,85,8|0,0:0|0:0,0:0:0:0:
346,213,40745,6,0,P|402:176|360:83,1,170,0|8,0:0|0:0,0:0:0:0:
276,72,41193,1,0,0:0:0:0:
391,139,41342,2,0,L|412:250,1,85,0|4,0:0|0:3,0:0:0:0:
277,51,41641,2,0,L|388:30,1,85,8|0,0:0|0:0,0:0:0:0:
234,302,41939,1,0,1:3:0:0:
448,232,42238,6,0,L|244:221,1,170,8|0,1:2|0:0,0:0:0:0:
250,178,42610,1,0,3:0:0:0:
252,126,42685,1,0,3:0:0:0:
283,83,42759,1,0,3:0:0:0:
332,66,42835,2,0,L|385:68,2,42.5,8|0|8,0:0|0:0|0:0,0:0:0:0:
91,134,43133,6,0,P|52:190|131:252,1,170,4|8,2:0|0:0,0:0:0:0:
211,283,43581,1,2,2:0:0:0:
103,273,43730,2,0,L|89:366,1,85,4|0,0:3|2:0,0:0:0:0:
199,238,44029,1,8,0:0:0:0:
103,273,44178,1,2,2:0:0:0:
236,321,44327,6,0,L|342:308,1,85,0|0,0:0|2:0,0:0:0:0:
458,230,44626,2,0,L|262:201,1,170,8|0,0:0|0:0,0:0:0:0:
151,269,45074,2,0,L|52:254,2,85,2|8|0,2:0|0:0|0:0,0:0:0:0:
451,74,45521,6,0,L|458:194,1,85,12|0,0:3|0:0,0:0:0:0:
324,252,45820,1,0,0:0:0:0:
453,310,45969,2,0,L|462:246,1,42.5,2|0,2:0|2:0,0:0:0:0:
395,187,46118,2,0,L|269:195,1,85,4|0,0:3|0:0,0:0:0:0:
182,324,46417,2,0,L|308:332,1,85,8|0,0:0|0:0,0:0:0:0:
58,211,46716,6,0,L|44:130,1,56.6666666666667,0|0,0:0|0:0,0:0:0:0:
134,175,46915,2,0,L|134:92,1,56.6666666666667,0|0,0:0|0:0,0:0:0:0:
220,125,47114,2,0,L|234:44,1,56.6666666666667,0|0,0:0|0:0,0:0:0:0:
419,39,47313,2,0,P|452:97|396:205,1,170,2|2,2:0|2:0,0:0:0:0:
32,296,47910,5,4,0:0:0:0:
209,343,48208,2,0,L|218:232,1,85,4|0,3:0|3:0,0:0:0:0:
169,253,48432,1,0,3:0:0:0:
122,248,48507,1,12,3:0:0:0:
29,237,48656,1,2,2:0:0:0:
141,142,48805,2,0,L|17:129,1,85,8|0,0:0|2:0,0:0:0:0:
271,54,49104,6,0,P|313:89|259:174,1,170,4|4,0:2|3:0,0:0:0:0:
148,217,49551,1,0,3:0:0:0:
278,285,49701,2,0,L|292:333,2,42.5,12|0|2,3:0|0:0|2:0,0:0:0:0:
166,141,49999,2,0,L|56:168,1,85,8|0,0:0|2:0,0:0:0:0:
315,204,50298,6,0,L|501:171,1,170,4|8,2:2|0:0,0:0:0:0:
362,109,50745,1,0,3:0:0:0:
477,162,50895,1,0,3:0:0:0:
436,171,50969,1,0,0:0:0:0:
394,180,51044,1,4,3:0:0:0:
269,285,51193,2,0,L|370:300,1,85,8|0,0:0|2:0,0:0:0:0:
94,232,51492,6,0,L|79:131,1,85,2|0,1:2|2:0,0:0:0:0:
192,45,51790,2,0,L|91:60,1,85,10|0,1:2|2:0,0:0:0:0:
321,250,52089,5,8,3:1:0:0:
339,197,52163,1,0,3:0:0:0:
319,146,52238,1,0,3:0:0:0:
269,121,52312,1,0,3:0:0:0:
218,253,52387,1,8,3:1:0:0:
180,213,52461,1,0,3:0:0:0:
179,157,52536,1,0,3:0:0:0:
214,115,52610,1,0,3:0:0:0:
400,61,52686,6,0,P|441:101|393:196,1,170,4|4,0:2|0:3,0:0:0:0:
288,274,53133,1,0,3:0:0:0:
406,334,53283,2,0,L|418:262,2,42.5,4|0|0,0:3|0:0|3:0,0:0:0:0:
286,360,53581,2,0,L|379:371,1,85,4|0,0:3|3:0,0:0:0:0:
139,127,53880,6,0,P|61:154|30:247,1,170,4|8,2:0|0:0,0:0:0:0:
135,291,54327,1,0,3:0:0:0:
385,252,54477,2,0,L|391:132,1,85,4|0,2:0|3:0,0:0:0:0:
264,145,54775,2,0,L|258:25,1,85,10|0,2:0|3:0,0:0:0:0:
484,43,55074,5,4,0:0:0:0:
397,142,55223,1,0,0:0:0:0:
354,145,55297,1,0,0:0:0:0:
312,148,55372,1,8,0:0:0:0:
414,239,55521,1,2,2:0:0:0:
173,333,55671,6,0,L|167:234,1,85,0|4,1:0|3:0,0:0:0:0:
269,203,55969,1,8,0:0:0:0:
173,333,56118,1,0,3:0:0:0:
400,355,56268,5,2,0:2:0:0:
292,198,56417,2,0,L|222:208,1,42.5,0|0,2:0|0:0,0:0:0:0:
309,290,56566,2,0,L|379:300,2,42.5,8|0|0,0:0|0:0|2:0,0:0:0:0:
100,336,56865,2,0,L|16:327,1,85,10|0,0:2|2:0,0:0:0:0:
294,110,57163,2,0,L|378:100,1,85,8|0,0:0|2:0,0:0:0:0:
255,55,57462,5,0,0:0:0:0:
44,92,57611,1,8,0:0:0:0:
150,181,57760,2,0,L|160:287,1,85,0|0,0:0|0:0,0:0:0:0:
44,92,58059,5,8,0:0:0:0:
255,55,58208,2,0,L|265:161,1,85,8|0,0:0|0:0,0:0:0:0:
51,346,58507,2,0,P|13:298|75:197,1,170,0|0,0:0|0:0,0:0:0:0:
362,210,58954,2,0,B|445:192|445:192|352:159,1,170,8|0,0:0|0:0,0:0:0:0:
162,95,59850,6,0,L|377:66,1,187.000005706787,4|10,2:0|0:0,0:0:0:0:
247,32,60298,1,0,0:0:0:0:
352,136,60447,2,0,L|344:231,1,93.5000028533936,0|4,0:0|0:3,0:0:0:0:
211,282,60745,2,0,L|304:289,1,93.5000028533936,8|0,0:0|2:0,0:0:0:0:
42,145,61044,6,0,L|27:242,1,93.5000028533936,0|0,0:0|0:0,0:0:0:0:
152,290,61342,1,8,0:0:0:0:
42,145,61492,1,0,0:0:0:0:
152,290,61641,2,0,L|260:269,1,93.5000028533936,0|4,2:0|0:3,0:0:0:0:
115,93,61939,2,0,L|7:72,1,93.5000028533936,8|0,0:0|2:0,0:0:0:0:
263,72,62238,6,0,P|302:107|244:215,1,187.000005706787,0|8,0:0|0:0,0:0:0:0:
158,269,62686,1,0,0:0:0:0:
273,331,62835,2,0,L|296:223,1,93.5000028533936,0|4,0:0|0:3,0:0:0:0:
174,217,63133,2,0,L|151:109,1,93.5000028533936,8|0,0:0|2:0,0:0:0:0:
391,64,63432,6,0,L|485:55,1,93.5000028533936,0|0,0:0|0:0,0:0:0:0:
363,232,63730,2,0,L|269:222,1,93.5000028533936,8|2,0:0|2:0,0:0:0:0:
63,229,64029,1,8,0:0:0:0:
33,193,64103,1,0,3:0:0:0:
30,148,64178,1,0,3:0:0:0:
54,109,64252,1,0,3:0:0:0:
97,92,64327,2,0,L|147:93,1,46.7500014266968,8|0,0:0|3:0,0:0:0:0:
56,165,64477,2,0,L|43:98,1,46.7500014266968,0|0,3:0|3:0,0:0:0:0:
218,133,64626,6,0,L|427:112,1,187.000005706787,4|8,0:2|0:0,0:0:0:0:
296,66,65074,1,0,0:0:0:0:
196,205,65223,2,0,L|207:327,1,93.5000028533936,0|0,0:0|0:0,0:0:0:0:
352,273,65521,2,0,L|341:395,1,93.5000028533936,8|0,0:0|0:0,0:0:0:0:
51,204,65820,6,0,L|42:110,1,93.5000028533936,4|0,0:2|0:0,0:0:0:0:
178,62,66118,1,8,0:0:0:0:
79,39,66268,1,0,0:0:0:0:
199,209,66417,2,0,P|249:153|174:62,1,187.000005706787,0|8,0:0|0:0,0:0:0:0:
79,39,66865,1,0,0:0:0:0:
369,116,67014,6,0,L|373:225,1,93.5000028533936,2|0,2:0|2:0,0:0:0:0:
242,336,67313,2,0,L|351:340,1,93.5000028533936,8|4,0:0|3:0,0:0:0:0:
64,281,67611,2,0,L|60:172,1,93.5000028533936,8|4,0:0|3:0,0:0:0:0:
191,61,67910,2,0,L|82:57,1,93.5000028533936,8|4,0:0|3:0,0:0:0:0:
379,252,68208,5,8,1:0:0:0:
380,205,68282,1,0,3:0:0:0:
382,158,68357,1,0,3:0:0:0:
273,114,68507,1,8,1:0:0:0:
379,252,68656,1,0,3:0:0:0:
95,295,68805,1,8,1:0:0:0:
76,252,68880,1,0,3:0:0:0:
81,206,68954,1,0,3:0:0:0:
110,170,69029,1,0,3:0:0:0:
153,153,69104,2,0,L|220:163,1,46.7500014266968,0|0,1:0|3:0,0:0:0:0:
265,279,69253,2,0,L|198:289,1,46.7500014266968,0|0,3:0|3:0,0:0:0:0:
58,360,69402,6,0,P|36:308|124:223,1,187.000005706787,4|8,2:0|0:0,0:0:0:0:
222,230,69850,1,0,1:0:0:0:
118,356,69999,2,0,L|24:356,1,93.5000028533936,0|4,0:0|0:3,0:0:0:0:
145,234,70298,1,8,0:0:0:0:
44,215,70447,1,0,2:0:0:0:
276,66,70596,6,0,L|287:178,1,93.5000028533936,0|0,0:0|0:0,0:0:0:0:
147,56,70895,1,0,0:0:0:0:
240,31,71044,1,0,3:0:0:0:
370,184,71193,2,0,L|258:217,1,93.5000028533936,0|4,3:0|1:3,0:0:0:0:
163,283,71492,2,0,P|132:217|153:172,1,93.5000028533936,8|0,0:0|2:0,0:0:0:0:
451,118,71790,6,0,P|476:186|367:248,1,187.000005706787,2|8,0:0|0:0,0:0:0:0:
254,253,72238,2,0,L|356:239,1,93.5000028533936,4|0,2:0|0:0,0:0:0:0:
462,230,72536,1,4,2:0:0:0:
347,140,72686,1,8,0:0:0:0:
393,133,72760,1,0,0:0:0:0:
439,127,72835,1,0,3:0:0:0:
205,79,72984,6,0,L|184:180,1,93.5000028533936,0|0,0:0|0:0,0:0:0:0:
302,211,73283,2,0,L|319:292,2,46.7500014266968,8|0|2,0:0|0:0|2:0,0:0:0:0:
57,341,73581,2,0,L|158:362,1,93.5000028533936,0|0,0:0|2:0,0:0:0:0:
458,102,73880,2,0,L|357:123,1,93.5000028533936,8|0,0:0|2:0,0:0:0:0:
106,115,74178,6,0,P|15:162|112:216,1,255,4|0,0:0|1:0,0:0:0:0:
370,162,74775,1,8,1:0:0:0:
406,115,75372,6,0,P|497:162|400:216,1,255,4|0,0:0|1:0,0:0:0:0:
142,162,75969,1,8,1:0:0:0:
110,103,76566,2,0,B|42:126|13:161|23:194|87:207|137:190|189:209|211:230|176:267|127:273|77:261|52:261|36:277|38:327|77:345|147:364|232:358,1,510
439,294,77611,1,0,0:0:0:0:
251,362,78059,6,0,P|201:310|244:242,1,136,0|0,0:0|0:0,0:0:0:0:
333,211,78507,2,0,L|470:180,1,136,0|0,0:0|0:0,0:0:0:0:
424,134,78880,1,0,0:0:0:0:
249,95,78954,6,0,P|187:180|251:225,1,170,4|2,2:0|0:0,0:0:0:0:
342,235,79402,2,0,L|284:264,1,42.5,4|0,1:3|0:0,0:0:0:0:
220,310,79551,2,0,P|197:245|220:200,1,85,0|4,0:0|2:3,0:0:0:0:
317,169,79850,2,0,L|201:161,1,85,8|0,0:0|0:0,0:0:0:0:
22,129,80148,5,4,2:2:0:0:
135,164,80298,1,0,2:0:0:0:
17,259,80447,1,8,0:0:0:0:
146,290,80596,2,0,L|253:309,1,85,2|0,0:0|0:0,0:0:0:0:
366,197,80895,2,0,L|259:216,1,85,4|10,1:3|0:0,0:0:0:0:
183,230,81193,1,0,0:0:0:0:
431,264,81342,6,0,P|441:216|352:146,1,170,4|8,2:0|0:0,0:0:0:0:
224,101,81790,2,0,L|216:163,1,42.5,0|0,2:0|2:0,0:0:0:0:
288,80,81939,2,0,L|402:70,1,85,2|4,2:0|1:3,0:0:0:0:
496,18,82238,2,0,L|382:8,1,85,8|0,0:0|2:0,0:0:0:0:
110,112,82536,5,4,2:0:0:0:
206,134,82686,1,2,2:0:0:0:
298,149,82835,1,8,0:0:0:0:
187,248,82984,1,0,0:0:0:0:
408,336,83133,5,0,0:0:0:0:
457,312,83207,1,0,0:0:0:0:
464,259,83282,1,0,0:0:0:0:
423,223,83356,1,0,0:0:0:0:
353,210,83432,2,0,L|334:268,1,42.5,8|0,0:0|0:0,0:0:0:0:
401,297,83581,2,0,L|382:355,1,42.5,0|0,0:0|0:0,0:0:0:0:
195,339,83730,6,0,L|93:339,1,85,4|0,2:0|2:0,0:0:0:0:
247,258,84029,2,0,L|257:147,1,85,8|2,0:0|2:0,0:0:0:0:
47,139,84327,2,0,P|10:203|83:263,1,170,0|8,2:0|0:0,0:0:0:0:
161,267,84775,1,4,2:0:0:0:
409,172,84924,6,0,L|418:77,1,85,2|2,2:0|0:0,0:0:0:0:
323,59,85223,1,8,0:0:0:0:
230,86,85372,1,0,2:0:0:0:
378,197,85521,2,0,L|388:104,1,85,8|0,0:0|2:0,0:0:0:0:
288,84,85820,1,8,0:0:0:0:
52,241,85969,2,0,L|42:334,1,85,0|4,2:0|2:0,0:0:0:0:
191,184,86268,5,2,2:0:0:0:
104,206,86417,1,8,0:0:0:0:
16,150,86566,1,0,1:0:0:0:
298,72,86716,2,0,L|319:183,1,85,2|4,2:0|0:3,0:0:0:0:
203,239,87014,1,8,0:0:0:0:
331,303,87163,1,0,2:0:0:0:
87,351,87313,6,0,L|73:258,1,85,8|0,0:0|2:0,0:0:0:0:
120,260,87536,1,4,0:3:0:0:
166,253,87611,1,0,0:0:0:0:
46,134,87760,1,8,0:3:0:0:
309,205,87910,2,0,L|323:112,1,85,2|8,0:3|0:3,0:0:0:0:
256,104,88133,1,0,0:0:0:0:
190,120,88208,1,8,0:0:0:0:
466,134,88357,1,4,0:2:0:0:
