osu file format v14

[General]
AudioFilename: audio.mp3
AudioLeadIn: 0
PreviewTime: 59178
Countdown: 0
SampleSet: Normal
StackLeniency: 0.7
Mode: 2
LetterboxInBreaks: 0
WidescreenStoryboard: 0

[Editor]
Bookmarks: 17910
DistanceSpacing: 1
BeatDivisor: 2
GridSize: 32
TimelineZoom: 2.6

[Metadata]
Title:Paradisus-Paradoxum
TitleUnicode:Paradisus-Paradoxum
Artist:MYTH & ROID
ArtistUnicode:MYTH & ROID
Creator:Ascendance
Version:Cup
Source:Re:ゼロから始める異世界生活
Tags:re: zero kara hajimeru isekai seikatsu life in a different world from zero re:zero tv size op opening Spectator [sc4v4ng3r] sc4v4nger scavanger chara osu_gangster ster sorcerer tomthewizard hareimu
BeatmapID:1425691
BeatmapSetID:667918

[Difficulty]
HPDrainRate:3
CircleSize:2.5
OverallDifficulty:6
ApproachRate:6
SliderMultiplier:1.2
SliderTickRate:1

[Events]
//Background and Video events
0,0,"cropped-1920-1080-743957.png",0,0
//Break Periods
2,29005,34919
//Storyboard Layer 0 (Background)
//Storyboard Layer 1 (Fail)
//Storyboard Layer 2 (Pass)
//Storyboard Layer 3 (Foreground)
//Storyboard Sound Samples

[TimingPoints]
6119,298.507462686567,4,1,1,65,1,0
7313,-100,4,1,1,65,0,0
9701,-100,4,1,1,60,0,0
13283,-100,4,1,1,60,0,0
14477,-142.857142857143,4,2,1,50,0,0
16865,-100,4,1,1,40,0,0
18357,-133.333333333333,4,1,1,55,0,0
19253,-100,4,1,1,60,0,0
28805,-100,4,1,1,70,0,0
35969,-200,4,2,1,65,0,0
37163,-100,4,2,1,35,0,0
37462,-100,4,2,1,50,0,0
37760,-100,4,2,1,65,0,0
38357,-100,4,1,1,60,0,0
45521,-100,4,1,1,40,0,0
45820,-100,4,1,1,50,0,0
46118,-100,4,1,1,65,0,0
47313,-100,4,2,1,45,0,0
47910,-100,4,1,1,50,0,0
55074,-100,4,1,1,60,0,0
56268,-100,4,1,1,70,0,0
59850,-100,4,1,1,65,0,1
74178,-100,4,2,1,50,0,0
76566,-100,4,1,1,40,0,0
78059,-100,4,1,1,55,0,0
78954,-100,4,1,1,60,0,0

[Colours]
Combo1 : 255,149,248
Combo2 : 66,199,255
Combo3 : 255,98,98
Combo4 : 255,252,119

[HitObjects]
177,57,7313,6,0,P|104:142|219:232,1,240,8|8,0:0|0:0,0:0:0:0:
343,273,8357,2,0,P|250:255|141:282,1,180,0|8,0:0|0:0,0:0:0:0:
422,335,9701,6,0,P|464:252|386:177,1,180,0|0,0:0|0:0,0:0:0:0:
301,166,10447,2,0,L|140:178,1,120,0|0,0:0|0:0,0:0:0:0:
346,102,11193,1,8,0:0:0:0:
232,62,11492,2,0,L|90:70,1,120,0|8,0:0|0:0,0:0:0:0:
251,104,12089,6,0,P|303:167|218:258,1,180,0|0,0:0|0:0,0:0:0:0:
126,287,12835,1,0,0:0:0:0:
252,337,13133,2,0,P|378:262|485:359,1,300,0|2,0:0|0:0,0:0:0:0:
338,355,14178,1,0,0:0:0:0:
173,350,14477,5,6,0:0:0:0:
389,277,15074,1,2,1:0:0:0:
151,107,15671,1,4,0:0:0:0:
370,160,16268,1,2,1:0:0:0:
132,344,16865,6,0,B|125:203|125:203|279:220|279:220|276:97,1,420,2|2,0:0|0:0,0:0:0:0:
73,34,18357,2,0,L|228:42,1,135.000005149841,2|2,0:0|0:0,0:0:0:0:
395,51,19253,6,0,P|471:131|392:234,1,240,4|0,0:0|0:0,0:0:0:0:
303,276,20148,1,8,0:0:0:0:
193,227,20447,2,0,P|110:203|15:245,2,180,2|2|10,0:0|0:0|0:0,0:0:0:0:
355,288,21641,6,0,P|411:195|311:105,1,240,0|0,0:0|0:0,0:0:0:0:
197,97,22536,1,8,0:0:0:0:
316,188,22835,2,0,P|398:225|518:185,2,180,2|2|10,0:0|0:0|0:0,0:0:0:0:
154,312,24029,6,0,P|103:196|192:114,1,240,6|0,0:0|0:0,0:0:0:0:
337,100,24924,1,8,0:0:0:0:
211,72,25223,2,0,B|150:39|150:39|6:55,2,180,2|2|10,0:0|0:0|0:0,0:0:0:0:
376,94,26417,6,0,P|453:177|358:283,1,240,0|0,0:0|0:0,0:0:0:0:
256,286,27313,1,8,0:0:0:0:
113,284,27611,2,0,L|-10:285,2,120,8|10|0,0:0|0:0|0:0,0:0:0:0:
245,280,28507,2,0,L|332:280,1,60,8|0,0:0|0:0,0:0:0:0:
245,280,28805,5,4,0:0:0:0:
256,192,35969,12,0,37760,0:0:0:0:
60,52,38357,5,4,0:0:0:0:
167,106,38656,2,0,P|268:72|365:113,1,180,8|0,0:0|0:0,0:0:0:0:
216,219,39551,2,0,P|123:243|26:204,2,180,2|2|10,0:0|0:0|0:0,0:0:0:0:
353,324,40745,6,0,P|386:223|296:126,1,240,2|0,0:0|0:0,0:0:0:0:
181,131,41641,1,10,0:0:0:0:
340,109,41939,1,0,0:0:0:0:
181,131,42238,2,0,P|94:154|0:118,1,180,10|0,0:0|0:0,0:0:0:0:
229,247,43133,6,0,P|350:214|460:249,1,240,4|0,0:0|0:0,0:0:0:0:
306,146,44029,2,0,P|245:172|173:167,1,120,10|0,0:0|0:0,0:0:0:0:
63,30,44626,2,0,B|131:3|131:3|289:52,1,180,10|2,0:0|0:0,0:0:0:0:
431,56,45521,6,0,P|488:131|404:240,1,240,2|2,0:0|0:0,0:0:0:0:
219,304,46716,2,0,L|65:309,1,120,0|0,0:0|0:0,0:0:0:0:
248,210,47313,2,0,L|387:225,1,120,2|2,0:0|0:0,0:0:0:0:
512,244,47910,5,4,0:0:0:0:
308,116,48507,2,0,L|188:124,1,120,0|8,0:0|0:0,0:0:0:0:
43,135,49104,1,0,0:0:0:0:
271,273,49701,2,0,L|282:147,1,120,0|8,0:0|0:0,0:0:0:0:
133,83,50298,5,0,0:0:0:0:
356,200,50895,2,0,L|231:213,1,120,0|8,0:0|0:0,0:0:0:0:
424,283,51492,1,0,0:0:0:0:
187,343,52089,2,0,L|194:186,1,120,2|10,0:0|0:0,0:0:0:0:
336,248,52686,6,0,P|392:138|298:60,1,240,2|0,0:0|0:0,0:0:0:0:
175,36,53581,2,0,L|41:42,1,120,8|0,0:0|0:0,0:0:0:0:
293,190,54477,2,0,L|161:182,1,120,0|8,0:0|0:0,0:0:0:0:
313,298,55074,6,0,P|389:194|296:103,1,240,8|10,0:0|0:0,0:0:0:0:
185,90,55969,1,8,0:0:0:0:
321,35,56268,2,0,L|66:39,2,240,10|10|10,0:0|0:0|0:0,0:0:0:0:
142,280,58059,6,0,P|106:191|191:101,1,180,10|2,0:0|0:0,0:0:0:0:
295,106,58805,2,0,L|372:97,1,60,2|10,0:0|0:0,0:0:0:0:
115,39,59850,6,0,P|57:109|129:184,1,180,4|0,0:0|0:0,0:0:0:0:
223,235,60596,2,0,L|363:225,1,120,0|0,0:0|0:0,0:0:0:0:
131,346,61342,1,8,0:0:0:0:
260,283,61641,2,0,L|256:156,1,120,0|8,0:0|0:0,0:0:0:0:
126,97,62238,6,0,P|219:128|323:86,1,180,0|0,0:0|0:0,0:0:0:0:
443,74,62984,1,0,0:0:0:0:
296,99,63283,2,0,P|204:188|315:306,1,300,0|2,0:0|0:0,0:0:0:0:
424,301,64327,1,2,0:0:0:0:
256,324,64626,5,4,0:0:0:0:
64,187,65223,2,0,L|192:204,1,120,0|8,0:0|0:0,0:0:0:0:
316,303,65820,2,0,P|393:208|301:125,1,240,0|0,0:0|0:0,0:0:0:0:
214,105,66716,1,8,0:0:0:0:
80,99,67014,6,0,L|343:88,2,240,2|2|2,0:0|0:0|0:0,0:0:0:0:
270,278,68805,2,0,L|281:147,1,120,2|2,0:0|0:0,0:0:0:0:
161,109,69402,6,0,L|-25:99,1,180,4|0,0:0|0:0,0:0:0:0:
137,224,70148,2,0,L|271:216,1,120,0|0,0:0|0:0,0:0:0:0:
412,96,70895,1,8,0:0:0:0:
259,60,71193,2,0,L|271:186,1,120,0|8,0:0|0:0,0:0:0:0:
407,239,71790,5,0,0:0:0:0:
207,336,72238,2,0,L|81:327,2,120,0|0|0,0:0|0:0|0:0,0:0:0:0:
377,278,73283,1,2,0:0:0:0:
217,248,73581,1,2,0:0:0:0:
447,172,74178,5,6,0:0:0:0:
206,134,74775,1,2,1:0:0:0:
413,253,75372,1,2,0:0:0:0:
157,299,75969,1,2,1:0:0:0:
377,353,76566,6,0,P|500:239|341:86,1,420,2|2,0:0|0:0,0:0:0:0:
182,51,78059,2,0,L|-17:63,1,180,2|2,0:0|0:0,0:0:0:0:
215,122,78954,6,0,P|293:201|185:290,1,240,4|0,0:0|0:0,0:0:0:0:
74,299,79850,1,8,0:0:0:0:
224,290,80148,2,0,L|436:311,2,180,2|2|10,0:0|0:0|0:0,0:0:0:0:
95,273,81342,6,0,P|41:154|114:82,1,240,0|0,0:0|0:0,0:0:0:0:
230,65,82238,1,8,0:0:0:0:
388,83,82536,2,0,L|177:101,2,180,2|2|10,0:0|0:0|0:0,0:0:0:0:
264,189,83730,6,0,L|112:172,2,120,0|10|2,0:0|0:0|0:0,0:0:0:0:
448,268,84775,2,0,L|249:281,1,180,0|8,0:0|0:0,0:0:0:0:
117,285,85521,1,0,0:0:0:0:
356,173,86118,6,0,L|227:189,2,120,2|8|2,0:0|0:0|0:0,0:0:0:0:
142,53,87313,2,0,L|359:87,2,180,2|0|4,0:0|0:0|0:0,0:0:0:0:
48,34,88357,5,0,0:0:0:0:
