osu file format v14

[General]
AudioFilename: audio.mp3
AudioLeadIn: 0
PreviewTime: 59178
Countdown: 0
SampleSet: Normal
StackLeniency: 0.7
Mode: 2
LetterboxInBreaks: 0
WidescreenStoryboard: 0

[Editor]
DistanceSpacing: 4.5
BeatDivisor: 4
GridSize: 32
TimelineZoom: 3.399999

[Metadata]
Title:Paradisus-Paradoxum
TitleUnicode:Paradisus-Paradoxum
Artist:MYTH & ROID
ArtistUnicode:MYTH & ROID
Creator:Ascendance
Version:Broken Reality
Source:Re:ゼロから始める異世界生活
Tags:re: zero kara hajimeru isekai seikatsu life in a different world from zero re:zero tv size op opening Spectator [sc4v4ng3r] sc4v4nger scavanger chara osu_gangster ster sorcerer tomthewizard hareimu
BeatmapID:1413157
BeatmapSetID:667918

[Difficulty]
HPDrainRate:7
CircleSize:4.2
OverallDifficulty:9.4
ApproachRate:9.4
SliderMultiplier:1.9
SliderTickRate:2

[Events]
//Background and Video events
0,0,"cropped-1920-1080-743957.png",0,0
//Break Periods
//Storyboard Layer 0 (Background)
//Storyboard Layer 1 (Fail)
//Storyboard Layer 2 (Pass)
//Storyboard Layer 3 (Foreground)
//Storyboard Sound Samples

[TimingPoints]
6119,298.507462686567,4,1,1,65,1,0
7313,-100,4,1,1,65,0,0
9104,-100,4,2,1,50,0,0
9701,-100,4,1,1,60,0,0
13283,-100,4,1,1,60,0,0
14477,-142.857142857143,4,2,1,50,0,0
16865,-200,4,1,1,40,0,0
18357,-133.333333333333,4,1,1,55,0,0
19253,-100,4,1,1,60,0,0
28805,-100,4,1,1,70,0,0
29104,-133.333333333333,4,2,1,50,0,0
35969,-153.846153846154,4,2,1,65,0,0
37163,-83.3333333333333,4,2,1,35,0,0
37462,-83.3333333333333,4,2,1,50,0,0
37760,-83.3333333333333,4,2,1,65,0,0
38059,-83.3333333333333,4,2,1,40,0,0
38357,-100,4,1,1,60,0,0
45521,-100,4,1,1,40,0,0
45820,-100,4,1,1,50,0,0
46118,-100,4,1,1,65,0,0
47313,-100,4,2,1,45,0,0
47910,-100,4,1,1,50,0,0
55074,-100,4,1,1,60,0,0
56268,-100,4,1,1,70,0,0
59253,-133.333333333333,4,2,1,50,0,0
59850,-100,4,1,1,65,0,1
74178,-142.857142857143,4,2,1,50,0,0
76566,-100,4,1,1,40,0,0
78059,-125,4,1,1,55,0,0
78954,-100,4,1,1,60,0,0

[Colours]
Combo1 : 255,149,248
Combo2 : 66,199,255
Combo3 : 255,98,98
Combo4 : 255,252,119

[HitObjects]
256,192,4924,12,0,7014,0:0:0:0:
59,70,7313,6,0,L|182:83,1,95,8|8,0:0|0:0,0:0:0:0:
416,156,7760,2,0,L|305:169,2,95,0|8|8,0:0|0:0|0:0,0:0:0:0:
90,318,8357,2,0,P|49:236|118:162,1,190,0|8,0:0|0:0,0:0:0:0:
405,158,8805,1,8,0:0:0:0:
291,34,9104,2,0,L|500:55,1,190,2|2,0:0|0:0,0:0:0:0:
47,66,9701,5,0,0:0:0:0:
177,126,9850,1,0,0:0:0:0:
171,173,9924,1,0,0:0:0:0:
165,220,9999,1,8,0:0:0:0:
32,288,10148,2,0,L|150:311,2,95,0|0|0,0:0|0:0|0:0,0:0:0:0:
380,186,10596,1,8,0:0:0:0:
261,46,10745,6,0,P|199:112|274:179,1,190,0|0,0:0|0:0,0:0:0:0:
493,286,11193,2,0,P|428:292|386:308,1,95,8|0,0:0|0:0,0:0:0:0:
243,248,11492,2,0,P|300:257|345:254,1,95,0|0,0:0|0:0,0:0:0:0:
115,60,11790,2,0,P|72:132|126:191,1,142.5,8|0,0:0|0:0,0:0:0:0:
322,147,12089,6,0,L|425:135,2,95,0|0|8,0:0|0:0|0:0,0:0:0:0:
54,119,12536,2,0,L|59:222,1,95,0|0,0:0|0:0,0:0:0:0:
359,228,12835,2,0,L|362:338,1,95,0|8,0:0|0:0,0:0:0:0:
61,319,13133,1,0,0:0:0:0:
375,343,13283,5,2,0:0:0:0:
405,307,13357,1,0,0:0:0:0:
414,261,13432,1,0,0:0:0:0:
399,217,13506,1,0,0:0:0:0:
363,186,13581,1,0,0:0:0:0:
317,178,13656,1,0,0:0:0:0:
363,186,13730,2,0,L|438:186,1,47.5,0|0,0:0|0:0,0:0:0:0:
191,242,13880,6,0,L|186:172,1,47.5,2|0,0:0|0:0,0:0:0:0:
351,93,14029,2,0,L|399:87,1,47.5,0|0,0:0|0:0,0:0:0:0:
108,294,14178,2,0,L|103:224,1,47.5,0|0,0:0|0:0,0:0:0:0:
268,145,14327,2,0,L|316:139,1,47.5,0|0,0:0|0:0,0:0:0:0:
100,292,14477,6,0,P|49:209|131:140,1,199.499993911743,6|0,0:0|0:0,0:0:0:0:
385,130,15074,1,2,1:0:0:0:
412,292,15671,6,0,P|463:209|381:140,1,199.499993911743,6|0,0:0|0:0,0:0:0:0:
127,130,16268,1,2,1:0:0:0:
219,338,16865,6,0,P|218:232|284:342,1,332.5,2|2,0:0|0:0,0:0:0:0:
156,91,18357,2,0,L|324:96,1,142.500005435944,2|0,0:0|0:0,0:0:0:0:
262,95,18730,1,0,0:0:0:0:
62,94,18805,2,0,L|15:94,1,35.625001358986,2|0,0:0|0:0,0:0:0:0:
273,206,18954,2,0,L|326:206,1,35.625001358986,2|0,2:0|0:0,0:0:0:0:
120,295,19104,2,0,L|113:255,1,35.625001358986,0|0,0:0|0:0,0:0:0:0:
423,295,19253,6,0,P|474:225|406:157,1,190,4|8,0:0|0:0,0:0:0:0:
126,65,19701,1,0,0:0:0:0:
127,112,19775,1,0,0:0:0:0:
128,159,19850,1,0,0:0:0:0:
273,111,19999,1,0,0:0:0:0:
129,208,20148,2,0,L|25:215,1,95,8|0,0:0|0:0,0:0:0:0:
350,284,20447,5,2,0:0:0:0:
221,291,20596,1,0,0:0:0:0:
350,284,20745,1,8,0:0:0:0:
132,100,20895,2,0,L|324:113,1,190,2|0,0:0|0:0,0:0:0:0:
62,251,21342,2,0,P|36:176|84:124,1,142.5,10|0,0:0|0:0,0:0:0:0:
315,44,21641,6,0,L|426:60,1,95,0|0,0:0|0:0,0:0:0:0:
278,198,21939,1,8,0:0:0:0:
237,161,22013,1,0,0:0:0:0:
239,115,22088,1,0,0:0:0:0:
282,83,22162,1,0,0:0:0:0:
475,30,22238,2,0,L|359:38,1,95,0|0,0:0|0:0,0:0:0:0:
141,93,22536,2,0,L|146:254,1,142.5,8|0,0:0|0:0,0:0:0:0:
371,275,22835,5,2,0:0:0:0:
249,300,22984,1,0,0:0:0:0:
483,358,23133,1,8,0:0:0:0:
151,135,23283,2,0,L|376:166,1,190,2|0,0:0|0:0,0:0:0:0:
58,239,23730,2,0,L|46:134,1,95,10|0,0:0|0:0,0:0:0:0:
338,78,24029,6,0,L|129:87,1,190,6|8,0:0|0:0,0:0:0:0:
460,228,24477,1,0,0:0:0:0:
464,180,24551,1,0,0:0:0:0:
469,133,24626,1,0,0:0:0:0:
335,173,24775,1,0,0:0:0:0:
456,273,24924,2,0,L|334:277,1,95,8|0,0:0|0:0,0:0:0:0:
17,183,25223,6,0,L|142:198,2,95,2|0|8,0:0|0:0|0:0,0:0:0:0:
278,112,25671,2,0,L|260:330,1,190,2|0,0:0|0:0,0:0:0:0:
130,193,26118,1,10,0:0:0:0:
372,79,26268,6,0,L|142:88,1,190,0|0,0:0|0:0,0:0:0:0:
346,237,26716,1,8,0:0:0:0:
379,204,26790,1,0,0:0:0:0:
387,158,26865,1,0,0:0:0:0:
366,117,26939,1,0,0:0:0:0:
324,96,27014,1,0,0:0:0:0:
193,100,27163,1,0,0:0:0:0:
324,96,27313,2,0,L|438:89,1,95,8|0,0:0|0:0,0:0:0:0:
161,176,27611,6,0,L|99:183,1,47.5,8|0,0:0|0:0,0:0:0:0:
327,272,27760,2,0,L|336:206,1,47.5,0|0,0:0|0:0,0:0:0:0:
160,307,27910,2,0,L|217:307,1,47.5,10|8,0:0|0:0,0:0:0:0:
438,181,28059,2,0,L|383:181,1,47.5,8|0,0:0|0:0,0:0:0:0:
222,212,28208,6,0,L|218:160,1,47.5,0|0,0:0|0:0,0:0:0:0:
369,98,28357,2,0,L|429:91,1,47.5,10|8,0:0|0:0,0:0:0:0:
84,103,28507,2,0,L|76:35,1,47.5,8|0,0:0|0:0,0:0:0:0:
374,352,28656,2,0,L|320:357,1,47.5,0|0,0:0|0:0,0:0:0:0:
41,269,28805,5,4,0:0:0:0:
248,348,29104,2,0,P|307:260|224:192,1,213.750008153916,2|0,0:0|0:0,0:0:0:0:
81,94,29999,2,0,L|316:120,2,213.750008153916,2|2|2,0:0|0:0|0:0,0:0:0:0:
266,295,31193,6,0,P|370:219|231:86,1,356.25001358986,2|0,0:0|0:0,0:0:0:0:
143,102,32089,1,0,0:0:0:0:
331,50,32387,1,0,0:0:0:0:
143,102,32686,2,0,L|148:257,1,142.500005435944,2|0,0:0|0:0,0:0:0:0:
247,244,33133,2,0,L|402:256,1,142.500005435944,2|0,0:0|0:0,0:0:0:0:
198,322,33581,6,0,P|117:246|237:62,1,356.25001358986,2|2,0:0|0:0,0:0:0:0:
371,73,34477,2,0,L|73:81,1,285.000010871888,2|2,0:0|0:0,0:0:0:0:
305,154,35372,1,0,0:0:0:0:
137,267,35671,2,0,L|131:182,1,71.2500027179719,2|0,0:0|0:0,0:0:0:0:
306,345,35969,6,0,B|342:231|342:231|238:230|238:230|241:141|241:141|373:137,1,432.249980213166,2|0,0:0|0:0,0:0:0:0:
248,112,37163,6,0,L|228:93,6,28.4999991302491,0|0|0|0|0|0|0,0:0|0:0|0:0|0:0|0:0|0:0|0:0,0:0:0:0:
132,145,37462,6,0,L|87:158,6,28.4999991302491,0|0|0|0|0|0|0,0:0|0:0|0:0|0:0|0:0|0:0|0:0,0:0:0:0:
307,300,37760,6,0,L|316:273,1,28.4999991302491
228,231,37910,2,0,L|216:206,1,28.4999991302491
307,300,38059,6,0,L|316:273,1,28.4999991302491
228,231,38208,2,0,L|216:206,1,28.4999991302491
470,202,38357,6,0,L|476:86,1,95,4|0,0:0|0:0,0:0:0:0:
177,72,38656,2,0,L|309:82,2,95,8|0|0,0:0|0:0|0:0,0:0:0:0:
389,168,39104,2,0,L|182:177,1,190,0|0,0:0|0:0,0:0:0:0:
434,347,39551,6,0,L|454:284,1,47.5,2|0,0:0|0:0,0:0:0:0:
282,217,39701,2,0,L|271:166,1,47.5,0|0,0:0|0:0,0:0:0:0:
336,125,39850,1,8,0:0:0:0:
110,29,39999,2,0,P|51:93|129:174,1,190,2|0,0:0|0:0,0:0:0:0:
256,260,40447,2,0,L|107:265,1,142.5,10|0,0:0|0:0,0:0:0:0:
381,183,40745,6,0,P|450:192|486:183,1,95,2|0,0:0|0:0,0:0:0:0:
171,105,41044,1,8,0:0:0:0:
303,33,41193,2,0,L|292:229,1,190,0|0,0:0|0:0,0:0:0:0:
147,280,41641,2,0,P|81:282|41:293,1,95,10|0,0:0|0:0,0:0:0:0:
350,343,41939,6,0,L|374:244,1,95,0|0,0:0|0:0,0:0:0:0:
220,213,42238,2,0,L|198:102,1,95,10|0,0:0|0:0,0:0:0:0:
242,96,42462,1,0,0:0:0:0:
465,31,42536,1,0,0:0:0:0:
419,41,42610,1,0,0:0:0:0:
382,70,42685,1,0,0:0:0:0:
361,112,42759,1,0,0:0:0:0:
360,159,42834,1,0,0:0:0:0:
380,202,42909,1,0,0:0:0:0:
416,232,42983,1,0,0:0:0:0:
462,244,43058,1,0,0:0:0:0:
189,298,43133,6,0,L|84:306,2,95,4|0|8,0:0|0:0|0:0,0:0:0:0:
316,242,43581,2,0,L|412:251,2,95,2|0|0,0:0|0:0|0:0,0:0:0:0:
48,198,44029,1,10,0:0:0:0:
51,151,44103,1,0,0:0:0:0:
79,113,44178,1,0,0:0:0:0:
123,96,44252,1,0,0:0:0:0:
322,148,44327,6,0,L|423:138,1,95,0|0,0:0|0:0,0:0:0:0:
71,259,44626,2,0,P|24:179|109:110,1,190,10|0,0:0|0:0,0:0:0:0:
216,49,45074,2,0,L|111:35,2,95,2|0|0,0:0|0:0|0:0,0:0:0:0:
467,283,45521,5,2,0:0:0:0:
501,242,45595,1,0,0:0:0:0:
498,196,45670,1,0,0:0:0:0:
459,159,45744,1,0,0:0:0:0:
241,141,45820,2,0,L|167:143,1,47.5,2|0,0:0|0:0,0:0:0:0:
396,72,45969,2,0,L|460:71,1,47.5
260,183,46118,6,0,L|256:121,1,47.5,2|0,0:0|0:0,0:0:0:0:
435,260,46268,2,0,L|482:260,1,47.5
267,265,46417,2,0,L|207:267,1,47.5,2|0,0:0|0:0,0:0:0:0:
415,172,46567,2,0,L|423:119,1,47.5
88,93,46716,6,0,L|24:95,2,63.3333333333333,2|0|0,0:0|0:0|0:0,0:0:0:0:
269,165,47014,2,0,L|334:164,2,63.3333333333333,2|0|0,0:0|0:0|0:0,0:0:0:0:
457,289,47313,2,0,P|507:213|441:138,1,190,2|2,0:0|0:0,0:0:0:0:
98,57,47910,6,0,P|37:123|110:195,1,190,4|8,0:0|0:0,0:0:0:0:
222,197,48357,1,0,0:0:0:0:
89,318,48507,2,0,L|82:209,1,95,0|0,0:0|0:0,0:0:0:0:
222,197,48805,2,0,L|325:187,1,95,8|0,0:0|0:0,0:0:0:0:
30,45,49104,6,0,L|234:67,1,190,0|8,0:0|0:0,0:0:0:0:
83,151,49551,1,0,0:0:0:0:
239,97,49701,2,0,L|227:212,1,95,0|0,0:0|0:0,0:0:0:0:
87,293,49999,2,0,P|157:280|235:304,1,142.5,8|0,0:0|0:0,0:0:0:0:
429,360,50298,6,0,P|478:293|410:210,1,190,0|8,0:0|0:0,0:0:0:0:
283,123,50745,2,0,L|282:237,1,95,0|0,0:0|0:0,0:0:0:0:
395,107,51044,1,0,0:0:0:0:
236,28,51193,2,0,L|119:33,1,95,8|0,0:0|0:0,0:0:0:0:
466,158,51492,5,0,0:0:0:0:
320,233,51641,1,0,0:0:0:0:
461,347,51790,2,0,L|468:238,1,95,8|0,0:0|0:0,0:0:0:0:
201,69,52089,5,2,0:0:0:0:
141,67,52163,1,0,0:0:0:0:
98,98,52238,1,0,0:0:0:0:
91,152,52312,1,0,0:0:0:0:
282,198,52387,2,0,L|281:264,1,47.5,10|0,0:0|0:0,0:0:0:0:
99,290,52536,2,0,L|98:347,1,47.5,0|0,0:0|0:0,0:0:0:0:
329,349,52686,6,0,P|398:336|508:381,1,190,2|8,0:0|0:0,0:0:0:0:
365,253,53133,2,0,L|236:269,2,95,0|0|0,0:0|0:0|0:0,0:0:0:0:
127,141,53581,2,0,L|137:237,1,95,8|0,0:0|0:0,0:0:0:0:
360,66,53880,6,0,L|243:80,1,95
427,203,54178,2,0,L|444:92,1,95,8|0,0:0|0:0,0:0:0:0:
144,258,54477,2,0,L|369:285,1,190,0|8,0:0|0:0,0:0:0:0:
466,358,54924,2,0,L|479:299,1,47.5,0|0,0:0|0:0,0:0:0:0:
179,48,55074,6,0,P|120:118|191:195,1,190,8|8,0:0|0:0,0:0:0:0:
302,206,55521,1,0,0:0:0:0:
48,298,55671,2,0,L|164:315,1,95,10|0,0:0|0:0,0:0:0:0:
486,155,55969,2,0,L|367:173,1,95,8|0,0:0|0:0,0:0:0:0:
140,87,56268,5,10,0:0:0:0:
395,169,56417,1,0,0:0:0:0:
113,293,56566,2,0,L|77:193,1,95,8|0,0:0|0:0,0:0:0:0:
456,73,56865,5,10,0:0:0:0:
52,181,57014,1,0,0:0:0:0:
429,326,57163,2,0,L|473:214,1,95,8|0,0:0|0:0,0:0:0:0:
52,181,57462,5,10,0:0:0:0:
448,230,57611,1,8,0:0:0:0:
225,229,57910,1,8,0:0:0:0:
496,228,58059,1,10,0:0:0:0:
198,127,58208,1,10,0:0:0:0:
446,42,58507,2,0,L|439:268,1,190,2|2,0:0|0:0,0:0:0:0:
106,303,58954,1,10,0:0:0:0:
328,143,59253,6,0,L|181:148,1,142.500005435944,2|0,0:0|0:0,0:0:0:0:
60,154,59701,1,0,0:0:0:0:
405,338,59850,6,0,P|443:278|365:188,1,190,4|8,0:0|0:0,0:0:0:0:
113,105,60298,2,0,L|119:213,1,95,0|0,0:0|0:0,0:0:0:0:
373,112,60596,2,0,L|474:95,1,95,0|8,0:0|0:0,0:0:0:0:
153,24,60895,6,0,L|345:48,1,190,0|0,0:0|0:0,0:0:0:0:
222,172,61342,2,0,L|216:66,1,95,8|0,0:0|0:0,0:0:0:0:
371,247,61641,2,0,L|169:259,1,190,0|8,0:0|0:0,0:0:0:0:
37,146,62089,2,0,L|104:161,1,47.5,0|0,0:0|0:0,0:0:0:0:
311,68,62238,6,0,L|173:80,1,95,0|0,0:0|0:0,0:0:0:0:
481,147,62536,1,8,0:0:0:0:
119,330,62686,2,0,L|146:220,1,95,0|0,0:0|0:0,0:0:0:0:
410,194,62984,2,0,L|438:93,1,95,0|8,0:0|0:0,0:0:0:0:
118,107,63283,6,0,P|208:81|321:138,1,190,0|0,0:0|0:0,0:0:0:0:
143,255,63730,2,0,L|136:192,1,47.5,8|0,0:0|0:0,0:0:0:0:
196,158,63880,1,0,0:0:0:0:
345,218,64029,6,0,L|344:275,1,47.5,2|0,0:0|0:0,0:0:0:0:
168,337,64178,2,0,L|102:338,1,47.5,0|0,0:0|0:0,0:0:0:0:
431,140,64327,2,0,L|378:140,1,47.5,2|0,0:0|0:0,0:0:0:0:
174,112,64477,2,0,L|124:112,1,47.5,0|0,0:0|0:0,0:0:0:0:
454,67,64626,6,0,P|511:134|429:210,1,190,4|8,0:0|0:0,0:0:0:0:
321,304,65074,2,0,L|322:198,1,95,0|0,0:0|0:0,0:0:0:0:
480,348,65372,1,0,0:0:0:0:
166,236,65521,2,0,L|61:245,1,95,8|0,0:0|0:0,0:0:0:0:
377,152,65820,6,0,L|170:130,1,190,0|8,0:0|0:0,0:0:0:0:
53,55,66268,2,0,L|61:172,1,95,0|0,0:0|0:0,0:0:0:0:
196,233,66566,1,0,0:0:0:0:
148,236,66640,1,0,0:0:0:0:
101,239,66715,1,8,0:0:0:0:
223,313,66865,1,0,0:0:0:0:
460,330,67014,6,0,P|502:256|434:181,1,190,2|8,0:0|0:0,0:0:0:0:
212,146,67462,2,0,L|108:155,1,95,0|2,0:0|0:0,0:0:0:0:
373,71,67760,2,0,L|474:86,1,95,0|8,0:0|0:0,0:0:0:0:
137,47,68059,1,0,0:0:0:0:
367,311,68208,6,0,L|376:250,1,47.5,2|0,0:0|0:0,0:0:0:0:
208,207,68357,2,0,L|155:200,1,47.5,0|0,0:0|0:0,0:0:0:0:
321,154,68507,2,0,L|376:159,1,47.5,10|0,0:0|0:0,0:0:0:0:
60,106,68656,2,0,L|54:57,1,47.5,0|0,0:0|0:0,0:0:0:0:
316,58,68805,5,2,0:0:0:0:
271,72,68879,1,0,0:0:0:0:
235,103,68954,1,0,0:0:0:0:
214,145,69028,1,0,0:0:0:0:
211,192,69103,1,2,0:0:0:0:
227,236,69178,1,0,0:0:0:0:
259,271,69252,1,0,0:0:0:0:
302,291,69327,1,0,0:0:0:0:
126,323,69402,6,0,L|26:338,2,95,4|0|8,0:0|0:0|0:0,0:0:0:0:
410,206,69850,2,0,L|429:108,1,95,0|0,0:0|0:0,0:0:0:0:
181,147,70148,2,0,L|70:137,1,95,0|8,0:0|0:0,0:0:0:0:
367,47,70447,6,0,L|165:56,1,190,0|0,0:0|0:0,0:0:0:0:
321,183,70895,2,0,L|331:70,1,95,8|0,0:0|0:0,0:0:0:0:
187,151,71193,2,0,P|126:215|191:291,1,190,0|8,0:0|0:0,0:0:0:0:
316,296,71641,1,0,0:0:0:0:
51,343,71790,6,0,L|176:331,2,95,0|0|8,0:0|0:0|0:0,0:0:0:0:
295,199,72238,2,0,L|428:221,1,95,0|0,0:0|0:0,0:0:0:0:
128,159,72536,2,0,L|21:158,1,95,0|8,0:0|0:0,0:0:0:0:
384,92,72835,6,0,P|469:182|343:290,1,285,0|2,0:0|0:0,0:0:0:0:
237,289,73432,1,0,0:0:0:0:
351,211,73581,2,0,L|399:211,1,47.5,2|0,0:0|0:0,0:0:0:0:
179,183,73730,1,0,0:0:0:0:
136,145,73804,1,0,0:0:0:0:
140,98,73879,1,2,0:0:0:0:
191,67,73953,1,0,0:0:0:0:
403,36,74029,2,0,L|352:35,1,47.5,0|0,0:0|0:0,0:0:0:0:
100,292,74178,6,0,P|49:209|131:140,1,199.499993911743,6|0,0:0|0:0,0:0:0:0:
385,130,74775,1,2,1:0:0:0:
412,292,75372,6,0,P|463:209|381:140,1,199.499993911743,6|0,0:0|0:0,0:0:0:0:
127,130,75969,1,2,1:0:0:0:
346,68,76566,6,0,B|346:197|346:197|213:195|213:195|217:320|217:320|414:326,1,570
76,138,77611,1,2,0:0:0:0:
343,135,78059,2,0,L|100:135,1,228,2|2,0:0|0:0,0:0:0:0:
223,68,78805,2,0,L|170:68,1,38,0|0,0:0|0:0,0:0:0:0:
415,310,78954,6,0,P|467:237|382:174,1,190,4|8,0:0|0:0,0:0:0:0:
141,162,79402,2,0,L|93:162,2,47.5,0|0|0,0:0|0:0|0:0,0:0:0:0:
269,163,79701,1,0,0:0:0:0:
126,317,79850,2,0,L|126:205,1,95,8|0,0:0|0:0,0:0:0:0:
364,251,80148,5,2,0:0:0:0:
269,253,80297,1,0,0:0:0:0:
174,255,80446,1,8,0:0:0:0:
469,344,80596,2,0,P|514:251|455:203,1,190,2|0,0:0|0:0,0:0:0:0:
219,112,81044,2,0,P|308:131|375:95,1,142.5,10|0,0:0|0:0,0:0:0:0:
133,51,81342,6,0,P|73:119|144:191,1,190,0|8,0:0|0:0,0:0:0:0:
387,284,81790,1,0,0:0:0:0:
339,287,81864,1,0,0:0:0:0:
292,291,81939,1,0,0:0:0:0:
168,307,82089,1,0,0:0:0:0:
280,206,82238,2,0,L|166:220,1,95,8|0,0:0|0:0,0:0:0:0:
449,89,82536,6,0,L|341:103,2,95,2|0|8,0:0|0:0|0:0,0:0:0:0:
106,63,82984,1,2,0:0:0:0:
342,338,83133,1,0,0:0:0:0:
388,328,83207,1,0,0:0:0:0:
424,298,83282,1,0,0:0:0:0:
443,255,83356,1,0,0:0:0:0:
440,208,83431,1,10,0:0:0:0:
417,167,83506,1,0,0:0:0:0:
377,142,83580,1,0,0:0:0:0:
330,137,83655,1,0,0:0:0:0:
135,118,83730,6,0,L|139:232,1,95,0|0,0:0|0:0,0:0:0:0:
359,246,84029,2,0,L|471:258,1,95,10|2,0:0|0:0,0:0:0:0:
415,211,84253,1,0,0:0:0:0:
219,335,84327,1,2,0:0:0:0:
181,306,84401,1,0,0:0:0:0:
167,262,84476,1,0,0:0:0:0:
182,217,84550,1,0,0:0:0:0:
220,190,84625,1,8,0:0:0:0:
372,179,84775,2,0,L|362:102,1,47.5,0|0,0:0|0:0,0:0:0:0:
186,64,84924,6,0,L|86:71,1,95,0|0,0:0|0:0,0:0:0:0:
336,152,85223,2,0,L|438:144,1,95,8|0,0:0|0:0,0:0:0:0:
186,166,85521,2,0,L|186:283,1,95,0|0,0:0|0:0,0:0:0:0:
330,242,85820,1,8,0:0:0:0:
188,352,85969,2,0,L|134:358,1,47.5,0|0,0:0|0:0,0:0:0:0:
363,318,86118,6,0,L|486:334,2,95,2|0|8,0:0|0:0|0:0,0:0:0:0:
228,299,86566,1,0,0:0:0:0:
455,93,86716,2,0,L|236:116,1,190,2|8,0:0|0:0,0:0:0:0:
393,207,87163,1,0,0:0:0:0:
119,333,87313,6,0,L|109:275,1,47.5,2|0,0:0|0:0,0:0:0:0:
289,276,87462,2,0,L|343:275,1,47.5,0|0,0:0|0:0,0:0:0:0:
195,194,87611,2,0,L|140:197,1,47.5,2|0,0:0|0:0,0:0:0:0:
392,145,87760,2,0,L|401:83,1,47.5,0|0,0:0|0:0,0:0:0:0:
125,50,87910,5,0,0:0:0:0:
258,152,88059,2,0,L|145:161,1,95,0|4,0:0|0:0,0:0:0:0:
436,254,88357,1,0,0:0:0:0:
