osu file format v14

[General]
AudioFilename: audio.mp3
AudioLeadIn: 0
PreviewTime: 45197
Countdown: 0
SampleSet: Soft
StackLeniency: 0.7
Mode: 0
LetterboxInBreaks: 0
WidescreenStoryboard: 1

[Editor]
Bookmarks: 434,2960,13065,28223,33276,42118,45907,56012,66118,76223,88855
DistanceSpacing: 1.26
BeatDivisor: 6
GridSize: 16
TimelineZoom: 2

[Metadata]
Title:PANTA RHEI (TV Size)
TitleUnicode:PANTA RHEI (TV Size)
Artist:MYTH & ROID
ArtistUnicode:MYTH & ROID
Creator:wafer
Version:Xenon's Hard
Source:Isekai Cheat Magician
Tags:異世界チート魔術師 マジシャン isekai cheat majutsu-shi majutsushi japanese anime opening myth&roid myth and roid cami nelliel xenon- xehn xenon iwaifu xen
BeatmapID:2169859
BeatmapSetID:1037954

[Difficulty]
HPDrainRate:5
CircleSize:3.8
OverallDifficulty:6.5
ApproachRate:8
SliderMultiplier:1
SliderTickRate:1

[Events]
//Background and Video events
0,0,"D_FeQSdUEAIFyEb.jpg",0,0
//Break Periods
2,33331,41381
//Storyboard Layer 0 (Background)
//Storyboard Layer 1 (Fail)
//Storyboard Layer 2 (Pass)
//Storyboard Layer 3 (Foreground)
//Storyboard Layer 4 (Overlay)
//Storyboard Sound Samples

[TimingPoints]
447,315.789473684211,4,2,1,60,1,0
447,-80,4,2,1,60,0,0
33289,-95.2380952380952,4,2,1,40,0,0
42131,-80,4,2,1,50,0,0
45289,-80,4,2,1,5,0,0
45920,-68.9655172413793,4,2,1,70,0,1
54762,-80,4,2,1,70,0,0
55394,-80,4,2,1,5,0,0
56025,-68.9655172413793,4,2,1,70,0,1
66131,-80,4,2,1,50,0,0
72920,-80,4,2,1,5,0,0
73236,-80,4,2,1,50,0,0
73552,-80,4,2,1,5,0,0
73710,-80,4,2,1,50,0,0
74262,-80,4,2,1,5,0,0
74341,-80,4,2,1,50,0,0
74815,-80,4,2,1,5,0,0
74973,-80,4,2,1,50,0,0
75131,-80,4,2,1,5,0,0
75289,-80,4,2,1,50,0,0
75368,-80,4,2,1,5,0,0
75447,-80,4,2,1,50,0,0
76236,-80,4,2,1,60,0,0
88868,-80,4,2,1,5,0,0

[Colours]
Combo1 : 221,223,196
Combo2 : 168,244,255
Combo3 : 225,238,155
Combo4 : 151,195,134

[HitObjects]
129,60,447,6,0,L|121:123,1,62.5,0|0,1:0|1:0,0:0:0:0:
76,191,762,2,0,P|122:155|173:185,1,125,12|12,0:0|0:0,0:0:0:0:
305,287,1394,6,0,L|297:223,1,62.5,0|0,1:0|1:0,0:0:0:0:
252,156,1709,2,0,P|298:191|349:161,1,125,12|12,0:0|0:0,0:0:0:0:
458,0,2341,6,0,L|473:124,1,125,0|0,0:0|0:0,0:0:0:0:
371,233,2973,6,0,L|388:90,1,125,6|8,1:2|0:0,0:0:0:0:
326,50,3447,2,0,B|267:28|267:28|217:65,1,125,2|0,0:0|1:0,0:0:0:0:
177,139,3920,2,0,L|114:131,1,62.5,10|0,0:0|0:0,0:0:0:0:
87,53,4236,6,0,P|37:98|42:169,1,125,2|10,1:2|0:0,0:0:0:0:
93,211,4710,2,0,L|110:353,1,125,2|0,1:2|1:0,0:0:0:0:
182,373,5183,1,8,0:0:0:0:
197,380,5499,6,0,P|226:338|316:352,1,125,6|8,1:2|0:0,0:0:0:0:
362,284,5973,2,0,L|344:141,1,125,2|0,1:2|1:0,0:0:0:0:
278,112,6446,2,0,L|287:32,1,62.5,10|0,0:0|0:0,0:0:0:0:
219,0,6762,5,2,1:2:0:0:
146,40,6920,2,0,P|120:22|89:21,1,62.5,0|10,0:0|0:0,0:0:0:0:
33,82,7236,2,0,L|50:224,1,125,2|0,1:2|1:0,0:0:0:0:
116,254,7710,1,8,0:0:0:0:
235,139,8025,6,0,P|245:93|335:78,1,125,6|8,1:2|0:0,0:0:0:0:
380,115,8499,2,0,L|395:239,1,125,2|0,1:2|1:0,0:0:0:0:
468,278,8973,2,0,L|460:340,1,62.5,10|0,0:0|0:0,0:0:0:0:
378,357,9289,6,0,P|336:306|280:320,1,125,2|10,1:2|0:0,0:0:0:0:
235,384,9762,2,0,L|252:241,1,125,2|0,1:2|1:0,0:0:0:0:
194,198,10236,1,8,0:0:0:0:
185,207,10552,6,0,B|126:185|126:185|76:222,1,125,6|8,1:2|0:0,0:0:0:0:
1,185,11026,2,0,L|18:42,1,125,2|0,1:2|1:0,0:0:0:0:
90,23,11499,2,0,P|115:40|146:41,1,62.5,10|0,0:0|0:0,0:0:0:0:
218,0,11815,5,2,1:2:0:0:
284,49,11973,2,0,L|276:112,1,62.5,0|10,0:0|0:0,0:0:0:0:
209,161,12289,2,0,L|226:303,1,125,2|0,0:0|0:0,0:0:0:0:
293,331,12762,2,0,P|323:331|349:348,1,62.5,8|8,0:0|0:0,0:0:0:0:
366,363,12999,1,8,0:0:0:0:
366,363,13078,6,0,L|383:220,1,125,6|8,1:2|0:0,0:0:0:0:
454,197,13552,2,0,L|436:54,1,125,2|2,0:0|1:2,0:0:0:0:
364,35,14025,2,0,P|338:53|307:54,1,62.5,10|0,0:0|0:0,0:0:0:0:
240,4,14341,6,0,P|277:41|263:134,1,125,0|8,1:0|0:0,0:0:0:0:
200,78,14815,1,0,1:0:0:0:
210,160,14973,2,0,L|202:222,1,62.5,2|0,0:0|1:0,0:0:0:0:
125,255,15289,2,0,L|132:317,1,62.5,10|0,0:0|0:0,0:0:0:0:
192,375,15604,6,0,P|145:337|87:355,1,125,2|8,1:2|0:0,0:0:0:0:
12,318,16078,2,0,L|29:175,1,125,2|2,1:2|1:2,0:0:0:0:
96,146,16552,1,10,0:0:0:0:
107,153,16868,6,0,L|97:73,1,62.5,0|0,1:0|0:0,0:0:0:0:
167,43,17183,1,8,0:0:0:0:
167,43,17341,1,0,1:0:0:0:
242,78,17499,2,0,L|226:202,1,125,2|10,0:0|0:0,0:0:0:0:
280,266,17973,1,0,0:0:0:0:
217,321,18131,6,0,B|267:358|267:358|326:336,1,125,2|8,1:2|0:0,0:0:0:0:
362,261,18604,2,0,L|346:136,1,125,2|0,1:2|1:0,0:0:0:0:
272,98,19078,2,0,L|279:34,1,62.5,8|2,0:0|0:0,0:0:0:0:
354,0,19394,6,0,P|415:3|452:55,1,125,0|8,1:0|0:0,0:0:0:0:
404,120,19868,1,0,1:2:0:0:
470,168,20025,2,0,L|480:252,1,62.5,2|0,0:0|1:0,0:0:0:0:
419,288,20341,1,10,0:0:0:0:
414,299,20657,6,0,B|364:262|364:262|305:284,1,125,2|8,1:2|0:0,0:0:0:0:
280,364,21131,2,0,L|262:221,1,125,2|0,1:2|1:0,0:0:0:0:
198,190,21604,2,0,L|205:126,1,62.5,8|0,0:0|0:0,0:0:0:0:
269,74,21920,6,0,P|209:42|144:71,1,125,0|8,1:0|0:0,0:0:0:0:
82,21,22394,1,0,0:0:0:0:
24,81,22552,2,0,L|31:143,1,62.5,2|0,0:0|1:0,0:0:0:0:
101,196,22868,1,10,0:0:0:0:
101,196,23025,1,0,1:0:0:0:
37,249,23183,6,0,B|96:227|96:227|146:264,1,125,6|8,1:2|0:0,0:0:0:0:
167,344,23657,2,0,P|171:279|235:252,1,125,2|2,1:2|1:2,0:0:0:0:
278,193,24131,2,0,L|268:113,1,62.5,10|0,0:2|0:0,0:0:0:0:
326,69,24446,6,0,L|450:84,1,125,0|8,1:0|0:0,0:0:0:0:
508,143,24920,1,0,1:2:0:0:
460,211,25078,2,0,P|477:236|479:267,1,62.5,2|0,0:0|1:0,0:0:0:0:
399,293,25394,2,0,P|381:267|379:236,1,62.5,10|0,0:0|0:0,0:0:0:0:
333,168,25709,6,0,L|208:152,1,125,2|8,1:2|0:0,0:0:0:0:
167,225,26183,2,0,L|24:242,1,125,2|2,1:2|1:2,0:0:0:0:
1,168,26657,1,10,0:2:0:0:
12,159,26973,6,0,L|19:96,1,62.5,0|0,1:2|0:0,0:0:0:0:
92,53,27288,1,10,0:0:0:0:
92,53,27446,1,2,0:0:0:0:
161,98,27604,2,0,B|211:61|211:61|270:83,1,125,2|10,0:0|0:0,0:0:0:0:
224,153,28078,1,4,0:3:0:0:
287,206,28236,6,0,B|311:259|311:259|438:244,1,187.5,6|0,1:2|0:0,0:0:0:0:
482,172,28868,1,8,0:0:0:0:
430,107,29025,2,0,L|437:44,2,62.5,0|2|2,1:0|0:0|0:0,0:0:0:0:
368,163,29499,6,0,L|240:178,1,125,0|0,0:0|1:0,0:0:0:0:
198,250,29973,1,2,0:0:0:0:
198,250,30131,2,0,L|70:234,1,125,10|0,0:0|1:0,0:0:0:0:
1,85,30762,6,0,L|128:69,1,125,2|0,0:0|1:0,0:0:0:0:
176,3,31236,2,0,L|238:10,1,62.5,2|10,0:0|0:0,0:0:0:0:
295,71,31552,2,0,P|321:53|352:52,2,62.5,0|2|0,1:0|1:2|0:0,0:0:0:0:
220,108,32025,6,0,P|269:95|318:160,1,125,2|0,0:0|1:0,0:0:0:0:
380,198,32499,1,2,0:0:0:0:
322,258,32657,2,0,L|197:242,1,125,8|0,0:0|1:0,0:0:0:0:
133,296,33131,1,0,0:0:0:0:
98,344,42131,6,0,L|115:201,1,125,4|0,1:2|0:0,0:0:0:0:
65,148,42604,2,0,P|124:132|176:164,1,125,4|0,1:2|0:0,0:0:0:0:
195,246,43078,2,0,L|274:236,1,62.5,2|0,1:2|0:0,0:0:0:0:
317,296,43394,6,0,B|376:274|376:274|426:311,1,125,2|0,1:0|0:0,0:0:0:0:
497,266,43868,2,0,L|487:186,1,62.5,2|0,1:0|0:0,0:0:0:0:
414,167,44183,2,0,L|431:24,1,125,2|0,1:0|0:0,0:0:0:0:
357,0,44657,5,0,1:0:0:0:
472,234,45920,6,0,L|313:253,1,145.000004425049,6|10,1:2|0:0,0:0:0:0:
266,319,46394,1,0,1:0:0:0:
194,263,46552,2,0,P|164:283|128:283,1,72.5000022125245,2|0,0:0|1:0,0:0:0:0:
101,197,46868,2,0,P|130:176|166:176,1,72.5000022125245,10|0,0:0|0:0,0:0:0:0:
235,118,47183,6,0,L|223:22,1,72.5000022125245,6|0,1:2|0:0,0:0:0:0:
305,0,47499,1,8,0:0:0:0:
383,46,47657,2,0,L|363:204,1,145.000004425049,6|0,1:2|1:0,0:0:0:0:
426,257,48131,1,10,0:0:0:0:
433,246,48447,6,0,L|441:317,1,72.5000022125245,6|0,1:2|0:0,0:0:0:0:
374,379,48762,1,8,0:0:0:0:
304,321,48920,1,2,1:2:0:0:
233,378,49078,2,0,L|161:369,1,72.5000022125245,2|0,0:0|1:0,0:0:0:0:
112,291,49394,2,0,L|183:282,1,72.5000022125245,10|0,0:0|0:0,0:0:0:0:
232,204,49710,6,0,L|375:221,1,145.000004425049,6|8,1:2|0:0,0:0:0:0:
444,280,50183,1,0,0:0:0:0:
502,210,50341,2,0,P|469:248|513:324,1,145.000004425049,6|8,1:2|0:0,0:0:0:0:
505,121,50973,6,0,P|463:61|381:70,1,145.000004425049,6|8,1:2|0:0,0:0:0:0:
317,105,51447,2,0,L|173:87,1,145.000004425049,0|0,1:0|1:0,0:0:0:0:
108,28,51919,1,8,0:0:0:0:
108,28,52078,1,0,0:0:0:0:
46,91,52236,6,0,B|3:113|3:113|15:209,1,145.000004425049,6|8,1:2|0:0,0:0:0:0:
86,268,52710,1,0,0:0:0:0:
154,208,52868,2,0,L|249:219,1,72.5000022125245,2|0,1:2|0:0,0:0:0:0:
299,163,53184,1,14,0:0:0:0:
313,169,53499,6,0,P|292:139|289:102,1,72.5000022125245,14|4,0:2|0:3,0:0:0:0:
337,25,53815,2,4,L|378:19,3,24.1666674041748,4|4|4|4,0:3|0:3|0:3|0:3,0:3:0:0:
427,87,54131,2,0,P|435:122|423:156,1,72.5000022125245,12|4,0:2|0:3,0:0:0:0:
378,236,54447,2,4,L|382:275,3,24.1666674041748,4|4|4|4,0:3|0:3|0:3|0:3,0:3:0:0:
424,325,54762,6,0,P|379:284|320:304,1,125,6|0,1:2|0:0,0:0:0:0:
52,301,56025,6,0,L|211:282,1,145.000004425049,6|10,1:2|0:0,0:0:0:0:
261,219,56499,1,0,1:0:0:0:
193,158,56657,2,0,L|201:86,1,72.5000022125245,2|0,0:2|1:0,0:0:0:0:
111,74,56973,2,0,L|102:145,1,72.5000022125245,10|0,0:0|0:0,0:0:0:0:
27,198,57289,6,0,L|39:294,1,72.5000022125245,6|0,1:2|0:0,0:0:0:0:
108,323,57604,1,8,0:0:0:0:
170,257,57762,2,0,B|235:226|235:226|291:272,1,145.000004425049,6|0,1:2|1:0,0:0:0:0:
223,333,58236,1,10,0:0:0:0:
167,167,58552,6,0,L|175:96,1,72.5000022125245,6|0,1:2|0:0,0:0:0:0:
235,27,58867,1,10,0:0:0:0:
302,87,59025,1,0,1:0:0:0:
366,23,59183,2,0,L|438:32,1,72.5000022125245,2|0,0:0|1:0,0:0:0:0:
492,105,59499,2,0,P|471:135|471:171,1,72.5000022125245,10|0,0:0|0:0,0:0:0:0:
399,226,59815,6,0,B|343:179|343:179|277:210,1,145.000004425049,6|8,1:2|0:0,0:0:0:0:
197,250,60288,1,0,1:0:0:0:
142,176,60447,2,0,P|89:157|38:232,1,145.000004425049,2|10,0:0|0:0,0:0:0:0:
171,337,61078,6,0,L|330:318,1,145.000004425049,6|8,1:2|0:0,0:0:0:0:
389,372,61552,2,0,B|346:350|346:350|358:254,1,145.000004425049,0|0,1:0|1:2,0:0:0:0:
447,285,62025,1,8,0:0:0:0:
447,285,62183,1,2,0:0:0:0:
428,197,62341,6,0,P|365:163|298:184,1,145.000004425049,6|8,1:2|0:0,0:0:0:0:
266,269,62815,1,2,1:2:0:0:
209,198,62973,2,0,L|114:187,1,72.5000022125245,2|0,0:2|0:0,0:0:0:0:
70,252,63289,1,8,0:0:0:0:
60,242,63604,6,0,L|40:83,1,145.000004425049,6|0,1:2|0:0,0:0:0:0:
104,31,64078,2,0,L|203:47,1,72.5000022125245,6|0,1:2|0:0,0:0:0:0:
237,109,64394,5,0,0:0:0:0:
171,172,64552,2,0,P|150:202|150:238,1,72.5000022125245,6|0,1:2|0:0,0:0:0:0:
223,289,64868,5,0,0:0:0:0:
192,373,65025,2,0,L|335:355,1,145.000004425049,6|0,1:2|0:0,0:0:0:0:
384,278,65499,6,0,P|416:295|451:291,1,72.5000022125245,6|0,1:2|0:0,0:0:0:0:
470,202,65815,2,0,P|437:184|402:188,1,72.5000022125245,0|0,0:0|1:0,0:0:0:0:
316,219,66131,6,0,B|255:211|255:211|219:158|219:158|172:201|172:201|112:193,1,250,6|0,1:2|1:0,0:0:0:0:
33,46,67078,2,0,L|157:30,1,125,2|0,1:2|0:0,0:0:0:0:
231,80,67552,1,8,0:0:0:0:
231,80,67710,1,2,1:2:0:0:
369,171,68025,6,0,B|316:134|316:134|260:156,1,125,10|0,1:2|0:0,0:0:0:0:
209,222,68499,2,0,L|224:349,1,125,4|0,1:2|0:0,0:0:0:0:
141,358,68973,2,0,L|125:230,1,125,4|0,1:2|0:0,0:0:0:0:
155,155,69447,1,4,1:2:0:0:
381,138,69920,6,0,L|318:130,1,62.5,2|0,1:3|1:0,0:0:0:0:
292,210,70236,2,0,L|307:337,1,125,6|0,1:2|0:0,0:0:0:0:
224,346,70710,2,0,L|208:218,1,125,6|2,1:2|0:3,0:0:0:0:
238,143,71183,5,6,1:2:0:0:
251,151,71499,2,0,B|301:114|301:114|360:136,2,125,0|2|6,1:0|1:2|1:2,0:0:0:0:
189,305,72447,6,0,L|126:312,1,62.5,0|0,0:0|0:0,0:0:0:0:
100,233,72763,2,0,L|115:105,1,125,6|0,1:2|0:0,0:0:0:0:
32,97,73237,2,0,L|16:224,1,125,6|0,1:2|0:0,0:0:0:0:
50,301,73710,5,8,0:1:0:0:
50,301,73868,1,8,0:1:0:0:
100,233,74025,2,0,P|140:184|210:196,1,125,6|8,1:2|0:0,0:0:0:0:
264,237,74499,2,0,P|324:238|361:190,1,125,2|0,1:2|0:0,0:0:0:0:
443,203,74973,6,0,L|427:327,1,125,2|2,1:2|1:2,0:0:0:0:
489,383,75447,1,2,1:2:0:0:
197,220,76236,6,0,L|211:95,1,125,6|8,1:2|0:0,0:0:0:0:
152,37,76710,2,0,B|93:15|93:15|43:52,1,125,2|0,1:2|1:0,0:0:0:0:
3,125,77183,2,0,L|11:188,1,62.5,10|0,0:0|0:0,0:0:0:0:
77,238,77499,6,0,P|132:231|171:296,1,125,2|10,1:2|0:0,0:0:0:0:
110,339,77973,2,0,B|169:317|169:317|219:354,1,125,2|0,1:2|1:0,0:0:0:0:
293,317,78446,1,8,0:0:0:0:
301,329,78762,6,0,B|351:292|351:292|410:314,1,125,6|8,1:2|0:0,0:0:0:0:
456,384,79236,2,0,L|438:241,1,125,2|0,1:2|1:0,0:0:0:0:
373,210,79710,2,0,L|382:130,1,62.5,10|0,0:0|0:0,0:0:0:0:
327,82,80025,5,2,1:2:0:0:
254,122,80183,2,0,P|228:104|197:103,1,62.5,0|10,1:0|0:0,0:0:0:0:
164,179,80499,2,0,L|149:54,1,125,2|0,1:2|1:0,0:0:0:0:
212,0,80973,1,8,0:0:0:0:
353,85,81288,6,0,P|399:95|414:185,1,125,6|8,1:2|0:0,0:0:0:0:
377,230,81762,2,0,L|253:245,1,125,2|0,1:2|1:0,0:0:0:0:
214,318,82236,2,0,L|152:310,1,62.5,10|0,0:0|0:0,0:0:0:0:
135,228,82552,6,0,P|186:186|172:130,1,125,2|10,1:2|0:0,0:0:0:0:
108,85,83025,2,0,L|251:102,1,125,2|0,1:2|1:0,0:0:0:0:
294,44,83499,1,8,0:0:0:0:
211,188,83815,6,0,B|152:210|152:210|102:173,1,125,6|8,1:2|0:0,0:0:0:0:
27,210,84289,2,0,L|44:353,1,125,2|0,1:2|1:0,0:0:0:0:
116,372,84762,2,0,P|141:355|172:354,1,62.5,10|0,0:0|0:0,0:0:0:0:
232,295,85078,5,2,1:2:0:0:
298,345,85236,2,0,L|302:376,2,31.25,0|0|10,1:0|1:0|0:0,0:0:0:0:
351,280,85552,1,4,0:3:0:0:
351,280,85710,2,0,L|475:295,1,125,6|10,1:2|0:0,0:0:0:0:
325,202,86341,6,0,P|268:182|226:223,1,125,6|14,1:2|0:0,0:0:0:0:
252,303,86815,2,0,P|308:322|350:281,1,125,2|0,0:0|0:0,0:0:0:0:
407,218,87289,2,0,L|414:155,1,62.5,0|0,1:0|1:0,0:0:0:0:
460,86,87604,6,0,B|401:64|401:64|351:101,1,125,14|14,0:0|0:0,0:0:0:0:
328,181,88078,1,0,0:0:0:0:
269,121,88236,2,0,L|206:128,2,62.5,0|0|0,0:0|0:0|0:0,0:0:0:0:
