osu file format v14

[General]
AudioFilename: audio.mp3
AudioLeadIn: 0
PreviewTime: 45197
Countdown: 0
SampleSet: Soft
StackLeniency: 0.3
Mode: 0
LetterboxInBreaks: 0
WidescreenStoryboard: 1

[Editor]
DistanceSpacing: 1.1
BeatDivisor: 4
GridSize: 4
TimelineZoom: 2

[Metadata]
Title:PANTA RHEI (TV Size)
TitleUnicode:PANTA RHEI (TV Size)
Artist:MYTH & ROID
ArtistUnicode:MYTH & ROID
Creator:wafer
Version:Nelliel's Normal
Source:Isekai Cheat Magician
Tags:異世界チート魔術師 マジシャン isekai cheat majutsu-shi majutsushi japanese anime opening myth&roid myth and roid cami nelliel xenon- xehn xenon iwaifu xen
BeatmapID:2169858
BeatmapSetID:1037954

[Difficulty]
HPDrainRate:4
CircleSize:3
OverallDifficulty:4
ApproachRate:4.5
SliderMultiplier:1
SliderTickRate:1

[Events]
//Background and Video events
0,0,"D_FeQSdUEAIFyEb.jpg",0,0
//Break Periods
//Storyboard Layer 0 (Background)
//Storyboard Layer 1 (Fail)
//Storyboard Layer 2 (Pass)
//Storyboard Layer 3 (Foreground)
//Storyboard Layer 4 (Overlay)
//Storyboard Sound Samples

[TimingPoints]
447,315.789473684211,4,2,1,60,1,0
28236,-100,4,2,1,60,0,0
33289,-100,4,2,1,40,0,0
37078,-100,4,2,1,40,0,0
42131,-100,4,2,1,50,0,0
43078,-100,4,2,1,50,0,0
43394,-100,4,2,1,50,0,0
44183,-100,4,2,1,50,0,0
45289,-100,4,2,1,5,0,0
45920,-100,4,2,1,70,0,1
55394,-100,4,2,1,5,0,0
56025,-100,4,2,1,70,0,1
66131,-100,4,2,1,50,0,0
68499,-100,4,2,1,50,0,0
71815,-100,4,2,1,50,0,0
72920,-100,4,2,1,5,0,0
73236,-100,4,2,1,50,0,0
73552,-100,4,2,1,5,0,0
73710,-100,4,2,1,50,0,0
74025,-100,4,2,1,50,0,0
74262,-100,4,2,1,5,0,0
74341,-100,4,2,1,50,0,0
74815,-100,4,2,1,5,0,0
74973,-100,4,2,1,50,0,0
75289,-100,4,2,1,50,0,0
75368,-100,4,2,1,5,0,0
75447,-100,4,2,1,50,0,0
76236,-100,4,2,1,60,0,0
88868,-100,4,2,1,5,0,0

[Colours]
Combo1 : 221,223,196
Combo2 : 168,244,255
Combo3 : 225,238,155
Combo4 : 151,195,134

[HitObjects]
19,39,447,6,0,L|70:44,1,50,0|0,1:0|1:0,0:0:0:0:
106,77,762,2,0,L|215:64,1,100,12|12,0:0|0:0,0:0:0:0:
285,5,1394,2,0,L|336:10,1,50,0|0,1:0|1:0,0:0:0:0:
368,47,1709,2,0,L|477:34,1,100,12|12,0:0|0:0,0:0:0:0:
512,125,2341,2,0,B|475:160|475:160|480:226,1,100,0|0,0:0|0:0,0:0:0:0:
449,304,2973,6,0,P|399:286|351:288,1,100,6|8,1:2|0:0,0:0:0:0:
306,300,3447,2,0,P|256:318|208:315,1,100,2|0,0:0|1:0,0:0:0:0:
163,297,3920,1,10,0:0:0:0:
129,202,4236,2,0,L|135:144,1,50,2|0,1:2|0:0,0:0:0:0:
162,110,4552,1,10,0:0:0:0:
162,110,4710,2,0,P|211:108|258:125,1,100,2|0,1:2|1:0,0:0:0:0:
294,160,5183,1,8,0:0:0:0:
368,226,5499,6,0,P|417:227|464:210,1,100,6|8,1:2|0:0,0:0:0:0:
496,171,5973,2,0,L|486:63,1,100,2|0,1:2|1:0,0:0:0:0:
480,21,6447,1,10,0:0:0:0:
389,62,6762,2,0,L|394:118,2,50,2|0|10,1:2|0:0|0:0,0:0:0:0:
346,34,7236,2,0,B|291:23|291:23|235:37,1,100,2|0,1:2|1:0,0:0:0:0:
201,50,7710,1,8,0:0:0:0:
107,85,8025,6,0,L|119:199,1,100,6|8,1:2|0:0,0:0:0:0:
82,220,8499,2,0,L|70:334,1,100,2|0,1:2|1:0,0:0:0:0:
64,369,8973,1,10,0:0:0:0:
155,328,9289,2,0,P|178:312|206:306,1,50,2|0,1:2|0:0,0:0:0:0:
247,319,9604,1,10,0:0:0:0:
247,319,9762,2,0,P|280:330|362:333,1,100,2|0,1:2|1:0,0:0:0:0:
393,321,10236,1,8,0:0:0:0:
458,245,10552,6,0,P|408:227|360:229,1,100,6|8,1:2|0:0,0:0:0:0:
315,249,11026,2,0,P|265:267|217:264,1,100,2|0,1:2|1:0,0:0:0:0:
172,246,11499,1,10,0:0:0:0:
166,146,11815,2,0,L|172:88,2,50,2|0|10,1:2|0:0|0:0,0:0:0:0:
215,152,12289,2,0,P|264:154|311:137,1,100,2|0,0:0|0:0,0:0:0:0:
330,90,12762,2,0,P|354:91|378:82,1,50,8|8,0:0|0:0,0:0:0:0:
418,52,13078,6,0,L|404:221,2,150,6|2|10,1:2|0:0|0:0,0:0:0:0:
508,114,14341,2,0,L|499:222,1,100,0|8,1:0|0:0,0:0:0:0:
465,257,14815,1,0,1:0:0:0:
465,257,14973,2,0,P|414:288|360:268,1,100,2|10,0:0|0:0,0:0:0:0:
308,203,15604,6,0,L|323:38,2,150,2|2|10,1:2|1:2|0:0,0:0:0:0:
256,300,16868,2,0,P|206:304|158:290,1,100,0|8,1:0|0:0,0:0:0:0:
119,251,17341,1,0,1:0:0:0:
119,251,17499,2,0,P|114:201|128:153,1,100,2|10,0:0|0:0,0:0:0:0:
218,91,18131,6,0,B|294:92|259:158|347:160,2,150,2|2|8,1:2|1:2|0:0,0:0:0:0:
127,153,19394,2,0,P|113:201|119:251,1,100,0|8,1:0|0:0,0:0:0:0:
167,276,19868,1,0,1:2:0:0:
167,276,20025,2,0,P|215:263|255:234,1,100,2|10,0:0|0:0,0:0:0:0:
318,143,20657,6,0,P|366:155|406:184,1,100,2|8,1:2|0:0,0:0:0:0:
435,226,21131,2,0,B|434:289|434:289|417:324|417:324|416:378,1,150,2|8,1:2|0:0,0:0:0:0:
323,333,21920,1,0,1:0:0:0:
260,254,22236,2,0,P|231:245|201:246,1,50,8|0,0:0|0:0,0:0:0:0:
183,286,22552,2,0,P|154:295|124:294,1,50,2|0,0:0|1:0,0:0:0:0:
103,255,22868,1,10,0:0:0:0:
3,258,23183,6,0,L|15:99,2,150,6|2|10,1:2|1:2|0:2,0:0:0:0:
102,247,24447,2,0,L|109:143,1,100,0|8,1:0|0:0,0:0:0:0:
139,108,24920,1,0,1:2:0:0:
139,108,25078,2,0,P|199:91|248:101,1,100,2|10,0:0|0:0,0:0:0:0:
295,176,25710,6,0,L|305:335,2,150,2|2|10,1:2|1:2|0:2,0:0:0:0:
330,82,26973,2,0,P|379:77|426:93,1,100,0|10,1:2|0:0,0:0:0:0:
455,135,27447,1,2,0:0:0:0:
455,135,27604,2,0,L|446:242,1,100,2|10,0:0|0:0,0:0:0:0:
366,295,28236,6,0,B|174:305|275:172|83:187,1,300,6|2,1:2|0:0,0:0:0:0:
63,95,29499,2,0,B|35:51|35:51|234:55|234:55|201:103,1,300,0|0,0:0|1:0,0:0:0:0:
177,191,30762,6,0,B|181:244|181:244|173:266|173:266|177:317|177:317|260:269|366:312,1,300,2|2,0:0|1:2,0:0:0:0:
427,357,32025,2,0,B|478:381|478:381|493:132,1,300,2|0,0:0|1:0,0:0:0:0:
506,38,33289,6,0,P|441:47|411:80,1,100,2|0,0:0|0:0,0:0:0:0:
368,156,33920,1,10,0:0:0:0:
276,114,34236,1,0,0:0:0:0:
209,188,34552,2,0,L|108:180,1,100,2|0,0:3|0:0,0:0:0:0:
68,209,35025,2,0,P|52:264|49:313,1,100,0|0,1:0|0:0,0:0:0:0:
62,354,35499,1,0,0:0:0:0:
160,370,35815,6,0,B|277:367|209:304|342:306,1,200,2|8,0:0|0:0,0:0:0:0:
440,295,36762,1,2,0:0:0:0:
495,213,37078,2,0,L|487:101,1,100,2|0,1:2|0:0,0:0:0:0:
421,37,37710,1,10,0:0:0:0:
346,103,38025,2,0,L|342:152,1,50,0|0,1:0|1:0,0:0:0:0:
307,188,38341,6,0,L|314:287,1,100,2|0,1:2|0:0,0:0:0:0:
219,322,38973,2,0,L|215:371,2,50,10|0|2,0:0|0:0|0:0,0:0:0:0:
127,281,39604,2,0,P|76:300|20:294,1,100,2|0,1:2|0:0,0:0:0:0:
0,201,40236,2,0,P|4:174|11:145,1,50,10|0,0:0|0:0,0:0:0:0:
20,102,40552,1,2,1:2:0:0:
101,44,40868,6,0,P|150:42|196:60,1,100,2|0,1:2|0:0,0:0:0:0:
259,138,41499,1,10,0:0:0:0:
352,102,41815,1,2,0:0:0:0:
445,137,42131,2,0,B|465:217|390:196|414:295,2,150,4|4|2,1:2|1:2|1:2,0:0:0:0:
374,66,43394,2,0,P|331:54|268:53,1,100,2|0,1:0|0:0,0:0:0:0:
234,80,43868,2,0,P|189:92|123:93,1,100,2|2,1:0|1:0,0:0:0:0:
6,19,44657,5,0,1:0:0:0:
256,330,45920,6,0,L|265:217,1,100,6|10,1:2|0:0,0:0:0:0:
330,155,46552,2,0,L|321:42,1,100,2|10,0:0|0:0,0:0:0:0:
349,13,47025,1,0,0:0:0:0:
349,13,47183,2,0,P|396:7|458:19,1,100,6|8,1:2|0:0,0:0:0:0:
479,54,47657,2,0,L|470:167,1,100,6|0,1:2|1:0,0:0:0:0:
468,203,48131,1,10,0:0:0:0:
449,301,48447,5,6,1:2:0:0:
349,284,48762,2,0,P|323:273|293:272,1,50,8|2,0:0|1:2,0:0:0:0:
261,301,49078,2,0,P|212:321|156:323,1,100,2|10,0:0|0:0,0:0:0:0:
90,257,49710,2,0,L|94:152,1,100,6|8,1:2|0:0,0:0:0:0:
139,68,50341,1,6,1:2:0:0:
230,108,50657,1,8,0:0:0:0:
314,54,50973,6,0,P|367:37|432:46,1,100,6|8,1:2|0:0,0:0:0:0:
456,59,51447,2,0,L|447:163,1,100,0|0,1:0|1:0,0:0:0:0:
446,258,52078,1,0,0:0:0:0:
446,258,52236,2,0,P|396:256|349:272,1,100,6|8,1:2|0:0,0:0:0:0:
279,344,52868,2,0,P|229:345|182:329,1,100,2|14,1:2|0:0,0:0:0:0:
126,250,53499,6,0,L|130:143,1,100,14|4,0:2|0:3,0:0:0:0:
197,76,54131,1,12,0:2:0:0:
127,3,54447,1,4,0:3:0:0:
40,52,54762,2,0,L|36:151,1,100,6|0,1:2|0:0,0:0:0:0:
276,331,56025,6,0,L|272:232,1,100,6|10,1:2|0:0,0:0:0:0:
341,158,56657,2,0,L|345:59,1,100,2|10,0:2|0:0,0:0:0:0:
304,28,57131,1,0,0:0:0:0:
304,28,57289,2,0,P|246:15|198:24,1,100,6|8,1:2|0:0,0:0:0:0:
180,64,57762,2,0,L|184:163,1,100,6|0,1:2|1:0,0:0:0:0:
187,214,58236,1,10,0:0:0:0:
107,274,58552,5,6,1:2:0:0:
158,359,58868,2,0,P|183:368|213:368,1,50,10|0,0:0|1:0,0:0:0:0:
241,333,59183,2,0,P|293:314|351:315,1,100,2|10,0:0|0:0,0:0:0:0:
430,350,59815,2,0,L|438:238,1,100,6|8,1:2|0:0,0:0:0:0:
441,149,60447,1,2,0:0:0:0:
365,83,60762,1,10,0:0:0:0:
267,105,61078,6,0,P|214:126|155:126,1,100,6|8,1:2|0:0,0:0:0:0:
159,79,61552,2,0,P|106:58|47:58,1,100,0|0,1:0|1:2,0:0:0:0:
3,135,62183,1,2,0:0:0:0:
3,135,62341,2,0,L|11:243,1,100,6|8,1:2|0:0,0:0:0:0:
38,276,62815,1,2,1:2:0:0:
38,276,62973,2,0,P|87:272|133:252,1,100,2|8,0:2|0:0,0:0:0:0:
192,167,63604,6,0,B|241:194|241:194|229:291,2,150,6|6|6,1:2|1:2|1:2,0:0:0:0:
123,33,65025,2,0,B|196:20|196:20|268:44,1,150,6|6,1:2|1:2,0:0:0:0:
340,114,65815,1,0,0:0:0:0:
401,192,66131,6,0,B|410:256|410:256|393:279|393:279|401:345|401:345|341:286|250:310,1,300,6|2,1:2|1:2,0:0:0:0:
186,357,67394,2,0,P|161:363|136:365,1,50,0|8,0:0|0:0,0:0:0:0:
88,352,67710,1,2,1:2:0:0:
34,268,68025,2,0,L|46:149,1,100,10|0,1:2|0:0,0:0:0:0:
53,118,68499,5,4,1:2:0:0:
204,52,68973,2,0,L|188:201,1,150,10|4,1:2|1:2,0:0:0:0:
124,353,69920,2,0,P|155:360|181:363,1,50,2|0,1:3|1:0,0:0:0:0:
227,352,70236,2,0,P|285:339|334:334,1,100,6|0,1:2|0:0,0:0:0:0:
377,352,70710,2,0,P|435:366|484:371,1,100,6|2,1:2|0:3,0:0:0:0:
488,317,71183,6,0,P|502:260|507:211,1,100,6|0,1:2|1:0,0:0:0:0:
442,128,71815,1,2,1:2:0:0:
341,83,72131,1,6,1:2:0:0:
341,83,72289,2,0,P|290:58|241:52,1,100
218,98,72762,2,0,B|129:118|170:50|70:47,1,150,6|6,1:2|1:2,0:0:0:0:
18,199,73710,6,0,P|20:223|28:247,1,50,8|8,0:1|0:1,0:0:0:0:
51,297,74025,2,0,P|98:280|147:276,1,100,6|8,1:2|0:0,0:0:0:0:
195,303,74499,1,2,1:2:0:0:
353,255,74973,2,0,P|360:221|365:190,1,50,2|0,1:2|0:0,0:0:0:0:
316,175,75289,2,0,P|309:141|304:110,1,50,2|2,1:2|1:2,0:0:0:0:
67,83,76236,6,0,P|113:100|163:98,1,100,6|8,1:2|0:0,0:0:0:0:
195,60,76710,2,0,P|245:42|293:45,1,100,2|0,1:2|1:0,0:0:0:0:
338,62,77183,1,10,0:0:0:0:
369,157,77499,2,0,L|363:215,1,50,2|0,1:2|1:0,0:0:0:0:
336,249,77815,1,10,0:0:0:0:
336,249,77973,2,0,P|287:251|240:234,1,100,2|0,1:2|1:0,0:0:0:0:
197,207,78446,1,8,0:0:0:0:
116,147,78762,6,0,P|67:146|20:163,1,100,6|8,1:2|0:0,0:0:0:0:
14,213,79236,2,0,L|24:321,1,100,2|0,1:2|1:0,0:0:0:0:
27,362,79710,1,10,0:0:0:0:
112,311,80025,2,0,L|107:255,2,50,2|0|10,1:2|1:0|0:0,0:0:0:0:
151,342,80499,2,0,B|206:353|206:353|262:339,1,100,2|0,1:2|1:0,0:0:0:0:
295,326,80973,1,8,0:0:0:0:
389,291,81288,6,0,L|377:177,1,100,6|8,1:2|0:0,0:0:0:0:
422,166,81762,2,0,L|434:52,1,100,2|0,1:2|1:0,0:0:0:0:
438,16,82236,1,10,0:0:0:0:
349,62,82552,2,0,P|326:78|298:84,1,50,2|0,1:2|1:0,0:0:0:0:
263,65,82867,1,10,0:0:0:0:
263,65,83025,2,0,P|230:54|148:51,1,100,2|0,1:2|1:0,0:0:0:0:
117,63,83499,1,8,0:0:0:0:
52,139,83815,6,0,P|102:157|150:155,1,100,6|8,1:2|0:0,0:0:0:0:
195,135,84289,2,0,P|245:117|293:120,1,100,2|0,1:2|1:0,0:0:0:0:
338,138,84762,1,10,0:0:0:0:
372,233,85078,2,0,L|366:291,1,50,2|0,1:2|1:0,0:0:0:0:
339,325,85394,1,10,0:0:0:0:
339,325,85552,2,0,P|290:327|243:310,1,100,4|0,0:3|1:0,0:0:0:0:
204,280,86025,1,10,0:0:0:0:
109,313,86341,6,0,L|115:203,1,100,6|14,1:2|0:0,0:0:0:0:
82,173,86815,2,0,L|76:63,1,100,2|0,0:0|0:0,0:0:0:0:
75,22,87289,1,0,1:0:0:0:
168,58,87604,2,0,P|205:41|225:39,2,50,14|0|14,0:0|0:0|0:0,0:0:0:0:
175,107,88078,2,0,L|186:225,1,100,0|0,0:0|0:0,0:0:0:0:
