osu file format v14

[General]
AudioFilename: audio.mp3
AudioLeadIn: 0
PreviewTime: 45197
Countdown: 0
SampleSet: Soft
StackLeniency: 0.2
Mode: 0
LetterboxInBreaks: 0
WidescreenStoryboard: 0

[Editor]
DistanceSpacing: 2.5
BeatDivisor: 4
GridSize: 4
TimelineZoom: 2.5

[Metadata]
Title:PANTA RHEI (TV Size)
TitleUnicode:PANTA RHEI (TV Size)
Artist:MYTH & ROID
ArtistUnicode:MYTH & ROID
Creator:wafer
Version:Insane
Source:Isekai Cheat Magician
Tags:異世界チート魔術師 マジシャン isekai cheat majutsu-shi majutsushi japanese anime opening myth&roid myth and roid cami nelliel xenon- xehn xenon iwaifu xen
BeatmapID:2169857
BeatmapSetID:1037954

[Difficulty]
HPDrainRate:6
CircleSize:4.2
OverallDifficulty:8
ApproachRate:9
SliderMultiplier:1.6
SliderTickRate:1

[Events]
//Background and Video events
0,0,"D_FeQSdUEAIFyEb.jpg",0,0
//Break Periods
//Storyboard Layer 0 (Background)
//Storyboard Layer 1 (Fail)
//Storyboard Layer 2 (Pass)
//Storyboard Layer 3 (Foreground)
//Storyboard Layer 4 (Overlay)
//Storyboard Sound Samples

[TimingPoints]
447,315.789473684211,4,2,1,60,1,0
13078,-111.111111111111,4,2,1,60,0,0
28236,-142.857142857143,4,2,1,60,0,0
33289,-250.000000000001,4,2,1,40,0,0
40868,-200.000000000001,4,2,1,40,0,0
42131,-125,4,2,1,50,0,0
44657,-166.666666666667,4,2,1,50,0,0
45289,-166.666666666667,4,2,1,5,0,0
45920,-83.3333333333334,4,2,1,70,0,1
54762,-100,4,2,1,70,0,0
55394,-100,4,2,1,5,0,0
56025,-83.3333333333333,4,2,1,70,0,1
63604,-76.9230769230769,4,2,1,70,0,1
66131,-100,4,2,1,50,0,0
67078,-125,4,2,1,50,0,0
68499,-76.9230769230769,4,2,1,50,0,0
71183,-125,4,2,1,50,0,0
72920,-125,4,2,1,5,0,0
73236,-125,4,2,1,50,0,0
73552,-125,4,2,1,5,0,0
73710,-125,4,2,1,50,0,0
74025,-76.9230769230769,4,2,1,50,0,0
74262,-76.9230769230769,4,2,1,5,0,0
74341,-76.9230769230769,4,2,1,50,0,0
74815,-76.9230769230769,4,2,1,5,0,0
74973,-76.9230769230769,4,2,1,50,0,0
75131,-76.9230769230769,4,2,1,5,0,0
75289,-76.9230769230769,4,2,1,50,0,0
75368,-76.9230769230769,4,2,1,5,0,0
75447,-66.6666666666667,4,2,1,50,0,0
76236,-100,4,2,1,60,0,0
85710,-83.3333333333333,4,2,1,50,0,0
86341,-100,4,2,1,50,0,0
88868,-100,4,2,1,5,0,0

[Colours]
Combo1 : 170,175,107
Combo2 : 129,228,228
Combo3 : 207,213,102
Combo4 : 151,195,134

[HitObjects]
111,309,447,5,0,1:0:0:0:
183,278,604,1,0,1:0:0:0:
313,281,762,6,0,B|269:281|269:281|233:297|233:297|193:297,1,120,12|0,0:0|0:0,0:0:0:0:
207,335,1078,2,0,B|251:335|251:335|287:319|287:319|327:319,1,120,12|0,0:0|0:0,0:0:0:0:
381,363,1394,5,0,1:0:0:0:
412,291,1551,1,0,1:0:0:0:
353,171,1710,6,0,B|408:200|408:200|488:161,1,120,12|0,0:0|0:0,0:0:0:0:
480,196,2025,2,0,B|403:233|403:233|337:198,1,160,12|0,0:0|0:0,0:0:0:0:
337,198,2973,6,0,P|357:145|429:140,1,120,6|0,1:2|0:0,0:0:0:0:
480,196,3289,1,8,0:0:0:0:
437,61,3447,2,0,B|345:51|370:119|270:98,1,160,2|0,0:0|1:0,0:0:0:0:
181,27,3920,2,0,P|198:76|139:108,1,120,10|0,0:0|0:0,0:0:0:0:
99,45,4236,6,0,L|110:201,1,120,2|0,1:2|0:0,0:0:0:0:
68,229,4552,1,10,0:0:0:0:
168,280,4710,2,0,P|116:289|63:376,1,160,2|0,1:2|1:0,0:0:0:0:
0,287,5183,1,8,0:0:0:0:
0,287,5499,6,0,B|48:291|48:291|78:316|78:316|121:323,1,120,6|0,1:2|0:0,0:0:0:0:
168,280,5815,1,8,0:0:0:0:
295,352,5973,2,0,B|259:328|255:284|255:284|253:328|211:352,1,160,2|0,1:2|1:0,0:0:0:0:
326,285,6447,2,0,P|377:266|428:310,1,120,10|0,0:0|0:0,0:0:0:0:
365,341,6762,6,0,L|346:237,1,80,2|0,1:2|0:0,0:0:0:0:
433,168,7078,1,10,0:0:0:0:
400,62,7236,2,0,P|406:128|411:237,1,160,2|0,1:2|1:0,0:0:0:0:
316,126,7710,1,8,0:0:0:0:
316,126,8025,6,0,P|380:130|415:83,1,120,6|0,1:2|0:0,0:0:0:0:
366,31,8341,1,8,0:0:0:0:
213,91,8499,2,0,B|158:99|158:99|108:76|108:76|42:81,1,160,2|0,1:2|1:0,0:0:0:0:
22,222,8973,2,0,P|78:211|86:142,1,120,10|0,0:0|0:0,0:0:0:0:
58,80,9289,6,0,L|68:223,1,120,2|0,1:2|0:0,0:0:0:0:
121,252,9604,1,10,0:0:0:0:
231,247,9762,2,0,P|180:244|126:340,1,160,2|0,1:2|1:0,0:0:0:0:
133,182,10236,1,8,0:0:0:0:
133,182,10552,6,0,B|155:196|165:216|165:216|166:171|206:132,1,120,6|0,1:2|0:0,0:0:0:0:
247,96,10868,1,8,0:0:0:0:
346,153,11025,2,0,B|341:123|319:82|319:82|365:44|411:68,1,160,2|0,1:2|1:0,0:0:0:0:
490,149,11499,2,0,P|449:152|410:82,1,120,10|0,0:0|0:0,0:0:0:0:
480,75,11815,6,0,L|474:165,1,80,2|0,1:2|0:0,0:0:0:0:
511,269,12131,1,10,0:0:0:0:
424,341,12289,2,0,P|428:265|507:267,1,160,2|0,0:0|0:0,0:0:0:0:
371,215,12762,1,8,0:0:0:0:
307,273,12920,1,8,0:0:0:0:
239,294,13078,6,0,P|271:278|307:273,1,71.9999978027344,6|0,1:2|0:0,0:0:0:0:
216,210,13394,1,8,0:0:0:0:
134,312,13552,2,0,P|179:333|239:304,1,107.999996704102,2|0,0:0|0:0,0:0:0:0:
239,294,13868,1,2,1:2:0:0:
121,217,14025,6,0,B|88:217|65:232|65:232|67:202|52:154,1,107.999996704102,10|0,0:0|0:0,0:0:0:0:
119,138,14341,2,0,P|76:112|40:118,1,71.9999978027344,0|0,1:0|0:0,0:0:0:0:
59,183,14657,1,8,0:0:0:0:
5,56,14815,1,0,1:0:0:0:
84,34,14973,6,0,L|13:39,1,71.9999978027344,2|0,0:0|1:0,0:0:0:0:
133,144,15289,2,0,P|177:154|224:107,1,107.999996704102,10|0,0:0|0:0,0:0:0:0:
287,47,15604,6,0,L|299:130,1,71.9999978027344,2|0,1:2|0:0,0:0:0:0:
284,212,15920,1,8,0:0:0:0:
434,156,16078,2,0,B|383:175|383:175|302:128,1,143.999995605469,2|2,1:2|1:2,0:0:0:0:
496,111,16552,6,0,B|518:158|500:190|500:190|513:212|507:244,1,107.999996704102,10|0,0:0|0:0,0:0:0:0:
426,258,16868,2,0,P|456:281|494:276,1,71.9999978027344,0|0,1:0|0:0,0:0:0:0:
397,183,17183,1,8,0:0:0:0:
347,308,17341,1,0,1:0:0:0:
428,355,17499,6,0,P|386:340|351:313,1,71.9999978027344,2|0,0:0|1:0,0:0:0:0:
209,229,17815,2,0,P|257:248|260:300,1,107.999996704102,10|0,0:0|0:0,0:0:0:0:
166,333,18131,6,0,B|86:320|117:382|0:368,1,143.999995605469,2|8,1:2|0:0,0:0:0:0:
95,259,18604,2,0,P|80:203|67:89,1,143.999995605469,2|0,1:2|1:0,0:0:0:0:
0,265,19078,1,8,0:0:0:0:
0,265,19394,5,0,1:0:0:0:
95,259,19552,1,0,0:0:0:0:
163,123,19710,1,8,0:0:0:0:
68,117,19868,1,0,1:2:0:0:
158,197,20025,6,0,P|212:182|231:156,1,71.9999978027344,2|0,0:0|1:0,0:0:0:0:
341,83,20341,2,0,P|346:143|376:188,1,107.999996704102,10|0,0:0|0:0,0:0:0:0:
380,268,20657,6,0,B|332:248|332:248|293:256|277:323,1,143.999995605469,2|8,1:2|0:0,0:0:0:0:
430,364,21131,2,0,P|428:295|441:213,1,143.999995605469,2|0,1:2|1:0,0:0:0:0:
349,347,21604,1,8,0:0:0:0:
349,347,21920,5,0,1:0:0:0:
331,253,22078,1,0,0:0:0:0:
454,131,22236,1,8,0:0:0:0:
438,221,22394,1,0,0:0:0:0:
438,221,22710,5,0,1:0:0:0:
454,131,22868,1,10,0:0:0:0:
363,41,23025,1,0,1:0:0:0:
255,122,23183,6,0,B|326:99|281:44|365:41,1,143.999995605469,6|8,1:2|0:0,0:0:0:0:
342,161,23657,2,0,P|307:201|238:178,1,107.999996704102,2|0,1:2|0:0,0:0:0:0:
255,122,23973,1,2,1:2:0:0:
141,38,24131,2,0,P|153:89|158:156,1,107.999996704102,10|0,0:2|0:0,0:0:0:0:
98,190,24447,5,0,1:0:0:0:
82,280,24605,1,0,0:0:0:0:
187,347,24762,1,8,0:0:0:0:
172,215,24920,1,0,1:2:0:0:
263,303,25078,6,0,P|314:318|369:270,1,107.999996704102,2|0,0:0|0:0,0:0:0:0:
365,219,25394,2,0,B|336:218|312:237|312:237|327:213|319:181,1,107.999996704102,10|0,0:0|0:0,0:0:0:0:
384,137,25710,6,0,P|362:173|397:238,1,107.999996704102,2|0,1:2|0:0,0:0:0:0:
446,183,26025,1,8,0:0:0:0:
449,95,26183,2,0,P|423:66|381:61,1,71.9999978027344,2|0,1:2|0:0,0:0:0:0:
466,202,26499,1,2,1:2:0:0:
400,325,26657,2,0,B|330:320|355:370|286:359,1,107.999996704102,10|0,0:2|0:0,0:0:0:0:
263,303,26973,5,0,1:2:0:0:
176,322,27131,1,0,0:0:0:0:
117,219,27289,1,10,0:0:0:0:
245,172,27447,1,2,0:0:0:0:
72,275,27604,2,0,P|49:249|44:214,1,71.9999978027344,2|0,0:0|1:0,0:0:0:0:
118,99,27920,1,10,0:0:0:0:
118,99,27999,1,4,0:3:0:0:
118,99,28078,2,0,L|118:148,1,35.9999989013672,4|0,0:3|0:0,0:0:0:0:
0,28,28236,6,0,B|48:37|48:37|110:15|110:15|176:20,1,167.999994873047,6|0,1:2|0:0,0:0:0:0:
118,135,28868,1,8,0:0:0:0:
188,193,29025,1,0,1:0:0:0:
199,199,29183,1,2,0:0:0:0:
211,205,29341,1,2,0:0:0:0:
312,172,29499,6,0,P|261:179|240:113,1,111.999996582031,0|0,0:0|1:0,0:0:0:0:
274,72,29973,1,2,0:0:0:0:
363,43,30131,1,10,0:0:0:0:
374,49,30289,1,0,1:0:0:0:
388,55,30447,1,0,1:0:0:0:
388,55,30762,6,0,B|419:105|373:129|400:170,1,111.999996582031,2|0,0:0|1:0,0:0:0:0:
461,210,31236,1,2,0:0:0:0:
461,210,31394,1,10,0:0:0:0:
396,265,31552,1,0,1:0:0:0:
406,290,31710,1,2,1:2:0:0:
414,315,31868,1,0,0:0:0:0:
328,349,32025,6,0,P|277:356|256:290,1,111.999996582031,2|0,0:0|1:0,0:0:0:0:
276,239,32499,1,2,0:0:0:0:
169,184,32657,1,8,0:0:0:0:
169,184,32973,1,0,1:0:0:0:
137,266,33131,1,0,0:0:0:0:
137,266,33604,6,0,P|141:293|141:340,2,64,0|10|0,0:0|0:0|0:0,0:0:0:0:
72,223,34552,2,0,P|88:206|129:191,1,64,2|0,0:3|0:0,0:0:0:0:
196,207,35025,1,0,1:0:0:0:
196,207,35183,2,0,B|205:189|205:189|191:147,1,64,8|0,0:0|0:0,0:0:0:0:
82,109,35815,6,0,B|154:109|132:61|213:73,1,128,2|8,0:0|0:0,0:0:0:0:
200,71,36762,1,2,0:0:0:0:
285,130,37078,6,0,L|276:63,1,64,2|0,1:2|0:0,0:0:0:0:
331,11,37552,1,0,1:0:0:0:
372,125,37710,6,0,L|363:192,1,64,10|0,0:0|1:0,0:0:0:0:
418,244,38184,1,0,1:0:0:0:
492,159,38341,6,0,P|458:171|438:237,1,96,2|0,1:2|0:0,0:0:0:0:
485,285,38973,1,10,0:0:0:0:
479,308,39131,1,0,0:0:0:0:
401,345,39289,2,0,P|404:323|393:295,1,48,2|0,0:0|0:0,0:0:0:0:
326,328,39604,6,0,B|298:319|298:353|266:343,1,64,2|0,1:2|0:0,0:0:0:0:
267,343,40078,1,0,1:0:0:0:
187,269,40236,1,10,0:0:0:0:
166,277,40394,1,0,0:0:0:0:
119,342,40552,2,0,P|145:352|156:353,1,32,2|0,1:2|1:0,0:0:0:0:
48,344,40868,6,0,P|51:314|70:288,1,60,2|0,1:2|0:0,0:0:0:0:
80,210,41183,2,0,P|52:222|27:222,1,40,0|0,0:0|0:0,0:0:0:0:
0,104,41499,6,0,P|24:121|37:151,1,60,10|0,0:0|0:0,0:0:0:0:
103,190,41815,2,0,P|105:159|124:133,1,60,2|0,0:0|0:0,0:0:0:0:
172,222,42131,6,0,L|158:75,1,128,4|0,1:2|0:0,0:0:0:0:
270,157,42604,1,4,1:2:0:0:
262,233,42762,1,0,0:0:0:0:
255,309,42920,1,0,0:0:0:0:
363,360,43078,2,0,P|338:324|265:307,1,96,2|0,1:2|0:0,0:0:0:0:
387,192,43394,6,0,P|380:229|373:354,1,160,2|0,1:0|0:0,0:0:0:0:
478,352,43868,2,0,B|434:371|434:371|382:347,1,96,2|0,1:0|0:0,0:0:0:0:
430,286,44183,2,0,B|443:236|443:236|429:194|429:194|439:124,1,160,2|0,1:0|0:0,0:0:0:0:
489,49,44657,2,2,B|454:137|454:137|357:115,1,191.999994140625,0|0,1:0|0:0,0:0:0:0:
359,115,45920,6,0,P|307:65|227:97,1,143.999995605469,6|0,1:2|0:0,0:0:0:0:
207,158,46236,2,0,P|240:128|237:69,1,95.9999970703126,10|0,0:0|1:0,0:0:0:0:
88,102,46552,2,0,B|112:107|128:126|128:126|142:107|180:88,1,95.9999970703126,2|0,0:0|1:0,0:0:0:0:
6,35,46868,2,0,L|2:197,1,143.999995605469,10|0,0:0|0:0,0:0:0:0:
133,316,47183,6,0,P|81:309|77:230,1,143.999995605469,6|0,1:2|0:0,0:0:0:0:
173,217,47499,1,8,0:0:0:0:
321,348,47657,2,0,B|422:370|390:285|515:312,1,191.999994140625,6|0,1:2|1:0,0:0:0:0:
475,216,48131,2,0,P|415:216|341:299,1,143.999995605469,10|0,0:0|0:0,0:0:0:0:
321,348,48447,6,0,P|330:299|316:167,1,143.999995605469,6|0,1:2|0:0,0:0:0:0:
287,112,48762,1,8,0:0:0:0:
220,221,48920,1,2,1:2:0:0:
365,271,49078,2,0,P|413:258|427:192,1,95.9999970703126,2|0,0:0|1:0,0:0:0:0:
287,97,49394,2,0,P|350:146|408:116,1,143.999995605469,10|0,0:0|0:0,0:0:0:0:
282,14,49710,6,0,B|196:12|232:81|152:85,1,143.999995605469,6|0,1:2|0:0,0:0:0:0:
53,37,50025,2,0,B|103:12|103:12|83:57|74:121,1,143.999995605469,8|0,0:0|0:0,0:0:0:0:
163,172,50341,2,0,B|134:189|125:208|125:208|94:187|112:136,1,95.9999970703126,6|0,1:2|1:0,0:0:0:0:
181,308,50657,1,8,0:0:0:0:
181,308,50973,6,0,B|220:281|261:296|261:296|313:370|379:321,1,191.999994140625,6|8,1:2|0:0,0:0:0:0:
444,217,51447,2,0,B|387:205|331:267|331:267|303:223|255:227,1,191.999994140625,0|0,1:0|1:0,0:0:0:0:
178,192,51920,2,0,B|223:183|223:183|239:127,1,95.9999970703126,8|0,0:0|0:0,0:0:0:0:
22,50,52236,2,0,B|122:68|93:-5|227:32,1,191.999994140625,6|8,1:2|0:0,0:0:0:0:
207,27,52868,6,0,B|235:25|259:68|259:68|286:36|344:44,1,143.999995605469,2|0,1:2|0:0,0:0:0:0:
316,130,53183,2,0,P|384:115|431:174,1,143.999995605469,14|0,0:0|0:0,0:0:0:0:
491,231,53499,6,0,L|485:269,4,31.9999990234375,14|4|4|4|4,0:2|0:3|0:3|0:3|0:3,0:0:0:0:
435,338,53815,2,0,L|441:376,4,31.9999990234375,4|4|4|4|4,0:3|0:3|0:3|0:3|0:3,0:0:0:0:
366,234,54131,2,0,P|332:215|256:270,1,127.99999609375,12|4,0:2|0:3,0:0:0:0:
236,327,54447,2,0,L|230:365,4,31.9999990234375,4|4|4|4|4,0:3|0:3|0:3|0:3|0:3,0:0:0:0:
144,284,54762,6,0,B|101:250|36:270|36:270|66:188|12:140,1,240,6|0,1:2|0:0,0:0:0:0:
51,188,56025,6,0,B|128:195|128:195|179:146,1,143.999995605469,6|0,1:2|0:0,0:0:0:0:
259,122,56341,2,0,B|209:117|209:117|168:156,1,95.9999970703126,10|0,0:0|1:0,0:0:0:0:
220,282,56657,2,0,P|243:231|235:191,1,95.9999970703126,2|0,0:2|1:0,0:0:0:0:
83,343,56973,2,0,B|127:376|161:327|161:327|184:361|245:351,1,143.999995605469,10|0,0:0|0:0,0:0:0:0:
322,298,57289,6,0,P|272:281|266:198,1,143.999995605469,6|0,1:2|0:0,0:0:0:0:
343,145,57604,1,8,0:0:0:0:
509,255,57762,2,0,B|441:262|441:262|397:230|397:230|305:229,1,191.999994140625,6|0,1:2|1:0,0:0:0:0:
439,324,58236,2,0,L|456:176,1,143.999995605469,10|0,0:0|0:0,0:0:0:0:
396,100,58552,6,0,P|424:147|351:223,1,143.999995605469,6|0,1:2|0:0,0:0:0:0:
281,199,58868,1,10,0:0:0:0:
315,79,59025,1,0,1:0:0:0:
444,181,59183,2,0,L|339:151,1,95.9999970703126,2|0,0:0|1:0,0:0:0:0:
158,102,59499,2,0,L|315:57,1,143.999995605469,10|0,0:0|0:0,0:0:0:0:
213,170,59815,6,0,P|182:119|91:127,1,143.999995605469,6|0,1:2|0:0,0:0:0:0:
143,235,60131,2,0,P|193:237|223:182,1,95.9999970703126,8|0,0:0|1:0,0:0:0:0:
38,231,60447,2,0,L|26:333,1,95.9999970703126,2|0,0:0|1:0,0:0:0:0:
8,161,60762,2,0,B|61:156|61:156|96:183|96:183|159:173,1,143.999995605469,10|0,0:0|0:0,0:0:0:0:
265,80,61078,6,0,B|277:110|256:131|256:131|309:113|309:113|339:142|394:135,1,191.999994140625,6|8,1:2|0:0,0:0:0:0:
501,67,61552,2,0,P|450:68|404:51,1,95.9999970703126,0|0,1:0|0:0,0:0:0:0:
475,191,61868,2,0,P|504:227|503:284,1,95.9999970703126,0|8,1:2|0:0,0:0:0:0:
385,166,62183,1,2,0:0:0:0:
428,336,62341,6,0,B|417:299|433:256|433:256|393:225|393:225|395:186|380:152,1,191.999994140625,6|8,1:2|0:0,0:0:0:0:
313,270,62815,2,0,P|276:316|241:340,2,95.9999970703126,2|2|0,1:2|0:2|0:0,0:0:0:0:
228,206,63289,1,8,0:0:0:0:
141,290,63447,1,0,1:0:0:0:
107,199,63604,6,0,B|64:260|104:338|104:338|128:329|141:290,1,207.999990478516,6|0,1:2|0:0,0:0:0:0:
201,57,64078,2,0,B|252:53|264:103|240:158|182:161|144:124|107:66,1,207.999990478516,6|0,1:2|0:0,0:0:0:0:
264,199,64552,2,0,P|323:118|294:23,1,207.999990478516,6|0,1:2|0:0,0:0:0:0:
420,158,65025,2,0,B|446:207|446:207|422:270|422:270|435:360,1,207.999990478516,6|0,1:2|0:0,0:0:0:0:
250,300,65499,2,0,B|300:266|274:202|274:202|308:247|377:209,1,207.999990478516,6|0,1:2|0:0,0:0:0:0:
324,333,65973,1,0,1:0:0:0:
197,240,66131,2,0,P|167:310|316:346,1,280,6|0,1:2|0:0,0:0:0:0:
250,300,66762,1,0,1:0:0:0:
250,300,67078,6,0,B|191:315|191:315|123:283,1,128,2|0,1:2|0:0,0:0:0:0:
60,217,67552,1,8,0:0:0:0:
151,145,67710,2,0,B|189:180|189:180|199:251,1,96,2|0,1:2|0:0,0:0:0:0:
130,286,68025,2,0,L|67:303,2,64,10|0|0,1:2|0:0|0:0,0:0:0:0:
9,99,68499,6,0,L|15:170,1,51.999997619629,4|0,1:2|0:0,0:0:0:0:
246,51,68973,6,0,L|240:122,1,51.999997619629,4|0,1:2|0:0,0:0:0:0:
140,344,69447,6,0,L|134:273,1,51.999997619629,4|0,1:2|0:2,0:0:0:0:
406,237,69841,5,2,0:3:0:0:
423,251,69920,2,0,B|422:282|422:282|410:313,1,51.999997619629,2|0,1:3|1:0,0:0:0:0:
492,255,70078,2,0,B|491:224|491:224|479:193,1,51.999997619629,0|0,1:0|1:0,0:0:0:0:
440,86,70236,6,0,L|434:157,1,51.999997619629,6|0,1:2|0:0,0:0:0:0:
344,323,70710,6,0,L|338:252,1,51.999997619629,6|0,1:2|0:0,0:0:0:0:
235,94,71025,5,2,0:3:0:0:
235,94,71104,1,2,0:3:0:0:
235,94,71183,6,0,P|201:120|136:107,1,96,6|0,1:2|0:0,0:0:0:0:
80,57,71499,1,0,1:0:0:0:
80,57,71815,2,0,P|76:98|58:171,1,96,2|0,1:2|0:0,0:0:0:0:
64,151,72131,1,6,1:2:0:0:
1,244,72289,2,0,B|14:236|23:220|23:220|24:237|31:250,1,64,0|0,0:0|0:0,0:0:0:0:
37,256,72604,1,0,0:0:0:0:
142,279,72762,6,0,B|108:299|100:324|100:324|71:314|14:336,1,128,6|0,1:2|0:0,0:0:0:0:
255,239,73236,6,0,B|288:259|297:284|297:284|326:274|382:296,1,128,6|0,1:2|0:0,0:0:0:0:
489,185,73710,1,8,0:1:0:0:
379,78,73868,1,8,0:1:0:0:
359,275,74025,6,0,L|352:182,1,51.999997619629,6|0,1:2|0:0,0:0:0:0:
198,78,74341,6,0,L|191:171,1,51.999997619629,8|0,0:0|0:0,0:0:0:0:
178,202,74499,2,0,L|168:81,1,103.999995239258,2|0,1:2|0:0,0:0:0:0:
9,295,74973,6,0,L|16:202,1,51.999997619629,2|0,1:2|0:0,0:0:0:0:
170,98,75289,6,0,L|177:191,1,51.999997619629,2|0,1:2|0:0,0:0:0:0:
190,222,75447,2,0,L|199:101,1,120.000004577637,2|0,1:2|0:0,0:0:0:0:
198,102,76236,6,0,P|156:138|106:96,1,120,6|0,1:2|0:0,0:0:0:0:
150,39,76552,1,8,0:0:0:0:
268,151,76710,2,0,P|221:210|124:231,1,160,2|0,1:2|1:0,0:0:0:0:
31,352,77183,2,0,B|61:332|77:301|77:301|71:340|94:364,1,120,10|0,0:0|0:0,0:0:0:0:
194,372,77499,6,0,P|146:366|120:297,1,120,2|0,1:2|0:0,0:0:0:0:
142,232,77815,1,10,0:0:0:0:
264,290,77973,2,0,B|315:288|315:288|354:307|354:307|436:297,1,160,2|0,1:2|1:0,0:0:0:0:
296,366,78447,1,8,0:0:0:0:
296,366,78762,6,0,P|331:328|328:249,1,120,6|0,1:2|0:0,0:0:0:0:
264,290,79078,1,8,0:0:0:0:
322,143,79236,2,0,B|342:138|363:156|363:156|356:113|329:84|267:94,1,160,2|0,1:2|1:0,0:0:0:0:
440,20,79710,2,0,B|480:41|480:41|493:80|479:134,1,120,10|0,0:0|0:0,0:0:0:0:
441,179,80025,6,0,P|451:124|488:104,1,80,2|0,1:2|1:0,0:0:0:0:
500,238,80341,1,10,0:0:0:0:
427,352,80499,2,0,P|435:266|501:259,1,160,2|0,1:2|1:0,0:0:0:0:
361,235,80973,1,8,0:0:0:0:
361,235,81289,6,0,P|342:282|249:274,1,120,6|0,1:2|0:0,0:0:0:0:
232,235,81604,1,8,0:0:0:0:
161,345,81762,2,0,B|82:347|104:280|15:291,1,160,2|0,1:2|1:0,0:0:0:0:
114,178,82236,2,0,P|116:233|162:276,1,120,10|0,0:0|0:0,0:0:0:0:
187,199,82552,6,0,L|44:189,1,120,2|0,1:2|0:0,0:0:0:0:
16,130,82868,1,10,0:0:0:0:
178,57,83025,2,0,L|-18:42,1,160,2|0,1:2|1:0,0:0:0:0:
116,131,83499,1,8,0:0:0:0:
116,131,83815,6,0,B|166:134|183:174|183:174|189:153|219:128,1,120,6|0,1:2|0:0,0:0:0:0:
270,107,84131,1,8,0:0:0:0:
406,193,84289,2,0,B|385:152|381:98|381:98|378:146|361:177,1,160,2|0,1:2|1:0,0:0:0:0:
438,267,84762,2,0,P|478:231|468:154,1,120,10|0,0:0|0:0,0:0:0:0:
406,193,85078,5,2,1:2:0:0:
292,295,85236,1,0,1:0:0:0:
325,294,85314,1,0,1:0:0:0:
356,305,85393,1,10,0:0:0:0:
382,326,85472,1,4,0:3:0:0:
411,342,85552,1,4,0:3:0:0:
444,349,85631,1,4,0:3:0:0:
477,347,85710,6,0,L|469:232,1,95.9999970703126,6|0,1:2|1:0,0:0:0:0:
484,72,86025,2,0,L|475:187,1,95.9999970703126,10|2,0:0|0:0,0:0:0:0:
288,90,86341,6,0,B|327:77|327:77|385:84,1,80,6|0,1:2|1:0,0:0:0:0:
281,12,86657,2,0,P|232:40|339:151,1,280,14|0,0:0|0:0,0:0:0:0:
288,90,87289,1,0,1:0:0:0:
217,163,87447,1,0,1:0:0:0:
352,289,87604,6,0,B|356:212|356:212|308:163,1,120,14|0,0:0|0:0,0:0:0:0:
336,152,87920,2,0,B|388:205|388:205|384:290,1,160,14|0,0:0|0:0,0:0:0:0:
