osu file format v14

[General]
AudioFilename: audio.mp3
AudioLeadIn: 0
PreviewTime: 45197
Countdown: 0
SampleSet: Soft
StackLeniency: 0.3
Mode: 0
LetterboxInBreaks: 0
WidescreenStoryboard: 1

[Editor]
DistanceSpacing: 2.5
BeatDivisor: 4
GridSize: 4
TimelineZoom: 1.7

[Metadata]
Title:PANTA RHEI (TV Size)
TitleUnicode:PANTA RHEI (TV Size)
Artist:MYTH & ROID
ArtistUnicode:MYTH & ROID
Creator:wafer
Version:Cami's Insane
Source:Isekai Cheat Magician
Tags:異世界チート魔術師 マジシャン isekai cheat majutsu-shi majutsushi japanese anime opening myth&roid myth and roid cami nelliel xenon- xehn xenon iwaifu xen
BeatmapID:2169856
BeatmapSetID:1037954

[Difficulty]
HPDrainRate:6
CircleSize:4.2
OverallDifficulty:7.5
ApproachRate:8.6
SliderMultiplier:1.3
SliderTickRate:1

[Events]
//Background and Video events
0,0,"D_FeQSdUEAIFyEb.jpg",0,0
//Break Periods
//Storyboard Layer 0 (Background)
//Storyboard Layer 1 (Fail)
//Storyboard Layer 2 (Pass)
//Storyboard Layer 3 (Foreground)
//Storyboard Layer 4 (Overlay)
//Storyboard Sound Samples

[TimingPoints]
447,315.789473684211,4,2,1,60,1,0
28236,-125,4,2,1,60,0,0
33289,-200,4,2,1,40,0,0
37078,-142.857142857143,4,2,1,40,0,0
42131,-71.4285714285714,4,2,1,50,0,0
43078,-142.857142857143,4,2,1,50,0,0
43394,-100,4,2,1,50,0,0
44183,-142.857142857143,4,2,1,50,0,0
45289,-100,4,2,1,5,0,0
45920,-86.9565217391304,4,2,1,70,0,1
55394,-86.9565217391304,4,2,1,5,0,0
56025,-86.9565217391304,4,2,1,70,0,1
66131,-153.846153846153,4,2,1,50,0,0
68499,-76.9230769230769,4,2,1,50,0,0
71815,-100,4,2,1,50,0,0
72920,-100,4,2,1,5,0,0
73236,-100,4,2,1,50,0,0
73552,-100,4,2,1,5,0,0
73710,-100,4,2,1,50,0,0
74025,-83.3333333333333,4,2,1,50,0,0
74262,-83.3333333333333,4,2,1,5,0,0
74341,-83.3333333333333,4,2,1,50,0,0
74815,-83.3333333333333,4,2,1,5,0,0
74973,-83.3333333333333,4,2,1,50,0,0
75131,-83.3333333333333,4,2,1,5,0,0
75289,-83.3333333333333,4,2,1,50,0,0
75368,-83.3333333333333,4,2,1,5,0,0
75447,-83.3333333333333,4,2,1,50,0,0
76236,-100,4,2,1,60,0,0
88868,-100,4,2,1,5,0,0

[Colours]
Combo1 : 221,223,196
Combo2 : 168,244,255
Combo3 : 225,238,155
Combo4 : 151,195,134

[HitObjects]
94,195,447,5,0,1:0:0:0:
114,113,604,1,0,1:0:0:0:
222,211,762,2,0,L|236:323,1,97.5,12|0,0:0|0:0,0:0:0:0:
252,315,1078,2,0,L|239:218,1,97.5,12|0,0:0|0:0,0:0:0:0:
280,154,1394,5,0,1:0:0:0:
358,174,1552,1,0,1:0:0:0:
408,34,1710,2,0,P|369:36|333:88,1,97.5,12|0,0:0|0:0,0:0:0:0:
317,85,2025,2,0,P|353:32|417:24,1,130,12|0,0:0|0:0,0:0:0:0:
415,23,2973,6,0,B|340:6|361:43|269:33,1,130,6|8,1:2|0:0,0:0:0:0:
126,115,3447,2,0,P|157:98|211:165,1,130,2|0,0:0|1:0,0:0:0:0:
100,283,3920,2,0,P|92:239|84:208,1,65,10|0,0:0|0:0,0:0:0:0:
235,344,4236,6,0,P|243:289|251:237,1,97.5,2|0,1:2|0:0,0:0:0:0:
264,226,4552,1,10,0:0:0:0:
332,115,4710,2,0,B|270:145|270:145|194:115,1,130,2|0,1:2|1:0,0:0:0:0:
114,18,5183,2,0,P|123:90|127:135,1,97.5,8|0,0:0|0:0,0:2:0:0:
105,135,5499,6,0,B|99:192|99:192|103:215|103:215|92:273,1,130,6|8,1:2|0:0,0:0:0:0:
232,365,5973,2,0,P|254:319|193:256,1,130,2|0,1:2|1:0,0:0:0:0:
213,260,6446,2,0,P|260:255|286:249,1,65,10|0,0:0|0:0,0:0:0:0:
444,345,6762,6,0,P|377:330|327:323,1,97.5,2|0,1:2|0:0,0:0:0:0:
326,333,7078,1,10,0:0:0:0:
437,260,7236,2,0,P|431:199|428:126,1,130,2|0,1:2|1:0,0:0:0:0:
292,29,7710,1,8,0:0:0:0:
292,29,8025,6,0,B|241:39|241:39|211:29|211:29|147:40,1,130,6|8,1:2|0:0,0:0:0:0:
18,176,8499,2,0,P|45:121|104:134,1,130,2|0,1:2|1:0,0:0:0:0:
203,240,8973,2,0,P|232:253|263:235,1,65,10|0,0:0|0:0,0:0:0:0:
375,111,9289,6,0,B|381:156|381:156|385:162|385:162|390:209,1,97.5,2|0,1:2|0:0,0:0:0:0:
391,234,9604,1,10,0:0:0:0:
290,316,9762,2,0,B|210:299|253:277|169:259,1,130,2|0,1:2|1:0,0:0:0:0:
362,367,10236,2,0,P|405:353|458:342,1,97.5,8|0,0:0|0:0,0:0:0:0:
479,333,10552,6,0,P|509:301|470:228,1,130,6|8,1:2|0:0,0:0:0:0:
305,217,11025,2,0,B|385:200|342:178|426:160,1,130,2|0,1:2|1:0,0:0:0:0:
266,110,11499,1,10,0:0:0:0:
266,110,11815,6,0,P|222:130|210:189,1,97.5,2|0,1:2|0:0,0:0:0:0:
216,204,12131,1,10,0:0:0:0:
109,274,12289,1,2,0:0:0:0:
70,207,12447,2,0,L|87:288,1,65,0|0,1:0|0:0,0:0:0:0:
227,304,12762,2,0,P|218:333|210:385,1,65,8|8,0:0|0:0,0:0:0:0:
219,375,12999,1,8,0:0:0:0:
219,375,13078,6,0,L|207:226,1,130,6|8,1:2|0:0,0:0:0:0:
315,133,13552,1,2,0:0:0:0:
336,209,13710,1,0,0:0:0:0:
211,161,13868,1,2,1:2:0:0:
304,46,14025,2,0,P|340:43|384:40,1,65,10|0,0:0|0:0,0:0:0:0:
475,173,14341,6,0,P|480:137|488:101,1,65,0|0,1:0|0:0,0:0:0:0:
438,274,14657,1,8,0:0:0:0:
379,215,14815,1,0,1:0:0:0:
301,329,14973,2,0,B|333:338|333:338|372:331,1,65,2|0,0:0|1:0,0:0:0:0:
315,158,15289,2,0,B|283:149|283:149|244:156,1,65,10|0,0:0|0:0,0:0:0:0:
116,259,15604,6,0,B|32:231|82:218|5:196,1,130,2|8,1:2|0:0,0:0:0:0:
151,114,16078,2,0,P|142:143|132:192,1,65,2|0,1:2|0:0,0:0:0:0:
0,119,16394,1,2,1:2:0:0:
61,25,16552,2,0,P|69:54|80:103,1,65,10|0,0:0|0:0,0:0:0:0:
134,176,16868,6,0,P|158:146|260:160,1,130,0|8,1:0|0:0,0:0:0:0:
305,238,17341,1,0,1:0:0:0:
203,313,17499,2,0,L|194:242,1,65,2|0,0:0|1:0,0:0:0:0:
397,197,17815,2,0,L|388:261,1,65,10|0,0:0|0:0,0:0:0:0:
388,261,18131,6,0,B|469:242|440:280|512:281,1,130,2|8,1:2|0:0,0:0:0:0:
512,103,18604,2,0,B|433:94|466:134|377:120,1,130,2|0,1:2|1:0,0:0:0:0:
266,22,19078,1,8,0:0:0:0:
312,87,19236,1,2,0:0:0:0:
196,185,19394,6,0,L|184:46,1,130,0|8,1:0|0:0,0:0:0:0:
116,98,19868,1,0,1:2:0:0:
273,161,20025,2,0,P|317:172|352:187,1,65,2|0,0:0|1:0,0:0:0:0:
169,300,20341,2,0,P|211:283|256:257,1,97.5,10|0,0:0|0:0,0:0:0:0:
278,239,20657,6,0,B|297:301|297:301|260:371,1,130,2|8,1:2|0:0,0:0:0:0:
176,205,21131,2,0,B|157:143|157:143|194:73,1,130,2|0,1:2|1:0,0:0:0:0:
336,146,21604,2,0,P|307:152|263:163,1,65,8|0,0:0|0:0,0:0:0:0:
187,85,21920,6,0,P|158:79|114:68,1,65,0|0,1:0|0:0,0:0:0:0:
16,176,22236,2,0,P|11:149|4:112,1,65,8|0,0:0|0:0,0:0:0:0:
133,216,22552,1,2,0:0:0:0:
67,278,22710,1,0,1:0:0:0:
155,364,22868,1,10,0:0:0:0:
66,258,23025,1,0,1:0:0:0:
257,289,23183,6,0,B|309:282|309:282|330:262|330:262|384:254,1,130,6|8,1:2|0:0,0:0:0:0:
319,80,23657,2,0,P|287:114|307:176,1,97.5,2|0,1:2|0:0,0:0:0:0:
310,175,23973,1,2,1:2:0:0:
190,252,24131,2,0,P|194:216|197:176,1,65,10|0,0:2|0:0,0:0:0:0:
78,115,24447,6,0,P|136:122|159:124,1,65,0|0,1:0|0:0,0:0:0:0:
38,39,24762,1,8,0:0:0:0:
38,39,24920,1,0,1:2:0:0:
21,175,25078,2,0,P|35:231|39:256,1,65,2|0,0:0|1:0,0:0:0:0:
197,267,25394,2,0,P|183:323|179:348,1,65,10|0,0:0|0:0,0:0:0:0:
122,211,25710,6,0,P|155:175|250:191,1,130,2|8,1:2|0:0,0:0:0:0:
354,250,26183,2,0,P|325:254|283:263,1,65,2|0,1:2|0:0,0:0:0:0:
409,189,26499,1,2,1:2:0:0:
418,344,26657,2,0,P|386:337|354:332,1,65,10|0,0:2|0:0,0:0:0:0:
264,241,26973,6,0,L|245:129,1,97.5,0|0,1:2|0:0,0:0:0:0:
240,121,27289,1,10,0:0:0:0:
171,197,27447,1,2,0:0:0:0:
334,157,27604,2,0,P|348:104|356:82,1,65,2|0,0:0|1:0,0:0:0:0:
152,27,27920,1,10,0:0:0:0:
156,39,27999,1,4,0:3:0:0:
159,52,28078,1,4,0:3:0:0:
65,210,28236,6,0,B|51:191|21:177|21:177|89:199|191:196,1,208,6|8,1:2|0:0,0:0:0:0:
267,245,29025,2,0,P|305:234|333:229,2,52,0|2|2,1:0|0:0|0:0,0:0:0:0:
387,311,29499,6,0,L|404:195,1,104,0|0,0:0|1:0,0:0:0:0:
420,135,29973,1,2,0:0:0:0:
326,0,30131,2,0,L|338:61,1,52,10|0,0:0|1:0,0:0:0:0:
285,108,30447,1,0,1:0:0:0:
285,108,30762,6,0,B|223:101|250:87|183:82,1,104,2|0,0:0|1:0,0:0:0:0:
116,110,31236,1,2,0:0:0:0:
212,201,31394,2,0,P|237:194|268:187,1,52,10|0,0:0|1:0,0:0:0:0:
143,263,31710,2,0,P|118:256|87:249,1,52,2|0,1:2|0:0,0:0:0:0:
92,250,32025,6,0,P|136:293|126:346,1,104,2|0,0:0|1:0,0:0:0:0:
67,364,32499,1,2,0:0:0:0:
220,285,32657,2,0,L|326:296,1,104,8|0,0:0|1:0,0:0:0:0:
433,308,33289,5,2,0:0:0:0:
427,290,33604,1,0,0:0:0:0:
466,221,33920,1,10,0:0:0:0:
472,203,34235,1,0,0:0:0:0:
418,143,34552,5,2,0:3:0:0:
412,128,35025,1,0,1:0:0:0:
349,83,35183,2,0,L|278:78,1,65,8|0,0:0|0:0,0:0:0:0:
173,158,35657,1,0,0:0:0:0:
188,172,35815,6,0,B|263:162|241:202|313:212,1,130,2|8,0:0|0:0,0:0:0:0:
346,274,36762,1,2,0:0:0:0:
218,345,37078,6,0,P|213:302|205:244,1,90.9999972229005,2|0,1:2|0:0,0:0:0:0:
255,194,37552,1,0,1:0:0:0:
256,179,37710,2,0,P|270:105|276:81,1,90.9999972229005,10|0,0:0|1:0,0:0:0:0:
187,121,38183,1,0,1:0:0:0:
114,78,38341,5,2,1:2:0:0:
114,78,38973,2,0,P|108:104|102:133,1,45.4999986114502,10|0,0:0|0:0,0:0:0:0:
43,166,39289,2,0,P|49:192|55:221,1,45.4999986114502,2|0,0:0|1:0,0:0:0:0:
118,256,39604,6,0,B|197:270|169:232|263:259,1,136.499995834351,2|0,1:2|1:0,0:0:0:0:
320,300,40236,1,10,0:0:0:0:
322,314,40394,1,0,0:0:0:0:
397,350,40552,2,0,P|401:328|406:302,1,45.4999986114502,2|0,1:2|1:0,0:0:0:0:
475,263,40868,6,0,P|492:238|470:170,1,90.9999972229005,2|0,1:2|0:0,0:0:0:0:
388,121,41499,1,10,0:0:0:0:
302,198,41815,2,0,P|266:203|230:208,1,68.2499979171754,2|0,0:0|0:0,0:0:0:0:
164,237,42131,6,0,P|204:246|235:253,1,45.4999986114502,4|0,1:2|0:0,0:0:0:0:
68,114,42604,6,0,P|108:105|139:98,1,45.4999986114502,4|0,1:2|0:0,0:0:0:0:
10,279,43078,6,0,P|45:295|80:314,1,68.2499979171754,2|0,1:2|0:0,0:0:0:0:
76,314,43394,6,0,B|117:323|143:301|143:301|165:317|165:317|203:307|257:325,1,162.5,2|0,1:0|0:0,0:0:0:0:
304,344,43868,2,0,L|315:239,1,97.5,2|0,1:0|0:0,0:0:0:0:
372,195,44183,2,0,B|349:138|349:138|363:79,1,113.749996528626,2|0,1:0|0:0,0:0:0:0:
305,32,44657,6,2,B|231:27|231:27|196:60|196:60|128:54,1,181.999994445801,0|0,1:0|0:0,0:1:0:0:
136,54,45920,6,0,B|160:105|160:105|136:186,1,112.125002138615,6|0,1:2|0:0,0:0:0:0:
147,228,46236,2,0,B|133:196|133:196|144:157,1,74.7500014257431,10|0,0:0|1:0,0:0:0:0:
338,91,46552,2,0,B|349:129|349:129|335:161,1,74.7500014257431,2|0,0:0|1:0,0:0:0:0:
226,270,46868,2,0,P|271:263|306:322,1,112.125002138615,10|0,0:0|0:0,0:0:0:0:
305,384,47183,6,0,L|310:222,1,149.500002851486,6|8,1:2|0:0,0:0:0:0:
34,81,47657,6,0,B|67:208|67:208|67:235,1,149.500002851486,6|0,1:2|1:0,0:0:0:0:
67,226,48131,2,0,B|135:213|106:252|192:253,1,112.125002138615,10|0,0:0|0:0,0:0:0:0:
253,296,48447,6,0,B|283:281|288:251|288:251|315:292|393:286,1,149.500002851486,6|8,1:2|0:0,0:0:0:0:
252,159,48920,1,2,1:2:0:0:
432,245,49078,2,0,B|449:276|449:276|436:321,1,74.7500014257431,2|0,0:0|1:0,0:0:0:0:
252,159,49394,2,0,L|374:144,1,112.125002138615,10|0,0:0|0:0,0:0:0:0:
427,98,49710,5,6,1:2:0:0:
421,82,50025,1,8,0:0:0:0:
283,268,50341,5,6,1:2:0:0:
286,260,50499,1,0,1:0:0:0:
289,252,50656,1,8,0:0:0:0:
75,75,50973,6,0,B|94:114|94:114|83:182|83:182|103:220,1,149.500002851486,6|8,1:2|0:0,0:0:0:0:
241,177,51447,2,0,P|203:174|167:165,1,74.7500014257431,0|0,1:0|0:0,0:0:0:0:
36,263,51762,1,0,1:0:0:0:
94,316,51920,2,0,B|115:292|115:292|212:277,1,112.125002138615,8|0,0:0|0:0,0:0:0:0:
270,337,52236,6,0,B|310:359|343:336|335:337|368:314|421:349,1,149.500002851486,6|8,1:2|0:0,0:0:0:0:
425,352,52710,1,0,0:0:0:0:
304,265,52868,2,0,P|301:228|295:158,1,74.7500014257431,2|0,1:2|0:0,0:0:0:0:
409,17,53183,2,0,P|412:82|416:155,1,112.125002138615,14|0,0:0|0:0,0:0:0:0:
397,204,53499,6,0,L|367:218,10,24.9166671419144,14|4|4|4|4|4|4|4|4|4|4,0:2|0:3|0:3|0:3|0:3|0:3|0:3|0:3|0:3|0:3|0:3,0:0:0:0:
304,265,54131,6,0,L|281:254,10,24.9166671419144,12|4|4|4|4|4|4|4|4|4|4,0:2|0:3|0:3|0:3|0:3|0:3|0:3|0:3|0:3|0:3|0:3,0:0:0:0:
211,292,54762,6,0,B|138:287|84:222|84:222|70:306|16:364,1,299.000005702973,6|0,1:2|0:0,0:0:0:0:
0,374,56025,6,0,L|138:357,1,112.125002138615,6|0,1:2|0:0,0:0:0:0:
185,350,56341,2,0,L|110:360,1,74.7500014257431,10|0,0:0|1:0,0:0:0:0:
0,169,56657,2,0,L|74:179,1,74.7500014257431,2|0,0:2|1:0,0:0:0:0:
224,275,56973,2,0,P|250:227|208:173,1,112.125002138615,10|0,0:0|0:0,0:0:0:0:
148,148,57289,6,0,B|175:118|196:95|196:95|236:106|290:121,1,149.500002851486,6|8,1:2|0:0,0:0:0:0:
396,245,57762,2,0,L|378:128,1,112.125002138615,6|0,1:2|0:0,0:0:0:0:
373,110,58078,1,0,1:0:0:0:
482,228,58236,2,0,P|479:274|474:331,1,74.7500014257431,10|0,0:0|0:0,0:0:0:0:
476,302,58552,6,0,L|325:317,1,149.500002851486,6|10,1:2|0:0,0:0:0:0:
220,227,59025,1,0,1:0:0:0:
91,269,59183,2,0,P|83:311|131:336,1,74.7500014257431,2|0,0:0|1:0,0:0:0:0:
230,326,59499,2,0,B|249:271|249:271|219:226,1,112.125002138615,10|0,0:0|0:0,0:0:0:0:
184,155,59815,6,0,B|272:131|248:186|347:179,1,149.500002851486,6|8,1:2|0:0,0:0:0:0:
387,133,60289,1,0,1:0:0:0:
433,258,60447,2,0,P|418:319|413:346,1,74.7500014257431,2|0,0:0|1:0,0:0:0:0:
314,99,60762,2,0,P|350:61|429:66,1,112.125002138615,10|0,0:0|0:0,0:0:0:0:
465,112,61078,6,0,P|447:189|432:267,1,149.500002851486,6|8,1:2|0:0,0:0:0:0:
343,328,61552,2,0,L|250:344,1,74.7500014257431,0|0,1:0|0:0,0:0:0:0:
129,295,61868,1,0,1:2:0:0:
281,213,62025,1,8,0:0:0:0:
187,365,62183,5,2,0:0:0:0:
203,190,62341,2,0,B|212:152|212:152|183:28,1,149.500002851486,6|8,1:2|0:0,0:0:0:0:
322,146,62815,5,2,1:2:0:0:
281,213,62973,2,0,B|272:251|272:251|301:375,1,149.500002851486,2|8,0:2|0:0,0:0:0:0:
347,253,63447,1,0,1:0:0:0:
196,285,63604,6,0,B|131:277|131:277|89:296|89:296|37:289,1,149.500002851486,6|0,1:2|0:0,0:0:0:0:
148,352,64078,2,0,L|73:213,1,149.500002851486,6|0,1:2|0:0,0:0:0:0:
148,88,64552,2,0,L|77:219,1,149.500002851486,6|0,1:2|0:0,0:0:0:0:
79,56,65025,2,0,B|142:52|142:52|160:39|160:39|237:37,1,149.500002851486,6|0,1:2|0:0,0:0:0:0:
377,87,65499,6,0,B|329:70|290:89|265:122|271:176|271:176|257:140|220:128,1,224.250004277229,6|0,1:2|1:0,0:0:0:0:
199,198,66131,6,0,B|314:177|254:235|380:220,1,168.999992263794,6|0,1:2|1:0,0:0:0:0:
361,221,67078,2,0,P|358:265|354:313,1,84.4999961318971,2|0,1:2|0:0,0:0:0:0:
246,365,67552,1,8,0:0:0:0:
229,351,67710,2,0,P|224:328|218:296,1,42.2499980659486,2|0,1:2|0:0,0:0:0:0:
137,198,68025,2,0,P|128:255|123:295,1,84.4999961318971,10|0,1:2|0:0,0:0:0:0:
26,119,68499,6,0,P|38:155|43:175,1,42.2499980659486,4|0,1:2|0:0,0:0:0:0:
286,67,68973,6,0,P|274:103|269:123,1,42.2499980659486,4|0,1:2|0:0,0:0:0:0:
462,216,69447,6,0,L|472:264,1,42.2499980659486,4|0,1:2|0:2,0:2:0:0:
477,269,69841,5,2,0:3:0:0:
477,269,69920,2,0,L|423:278,1,42.2499980659486,2|0,1:3|1:0,0:0:0:0:
352,208,70078,2,0,L|414:197,1,42.2499980659486,0|0,1:0|1:0,0:0:0:0:
282,322,70236,6,0,P|253:310|227:301,1,42.2499980659486,6|0,1:2|0:0,0:0:0:0:
93,234,70710,6,0,P|64:246|38:255,1,42.2499980659486,6|0,1:2|0:0,0:0:0:0:
251,314,71025,5,2,0:3:0:0:
251,314,71104,1,2,0:3:0:0:
251,314,71183,2,0,B|296:323|296:323|336:306|336:306|437:329,1,168.999992263794,6|0,1:2|1:0,0:0:0:0:
428,328,71657,1,0,1:0:0:0:
363,229,71815,2,0,P|362:189|360:155,1,65,2|0,1:2|0:0,0:0:0:0:
243,64,72131,6,0,L|249:197,1,130,6|0,1:2|0:0,0:0:0:0:
324,87,72604,1,0,0:0:0:0:
164,187,72762,6,0,B|152:199|147:215|147:215|146:198|136:177,1,65,6|0,1:2|0:0,0:0:0:0:
16,309,73236,6,0,B|50:309|71:342|71:342|62:305|87:269,1,130,6|0,1:2|0:0,0:0:0:0:
163,322,73710,5,8,0:1:0:0:
147,319,73868,1,8,0:1:0:0:
41,203,74025,6,0,B|93:192|93:192|110:179|110:179|175:168,1,116.999996429443,6|0,1:2|0:0,0:0:0:0:
180,166,74341,1,8,0:0:0:0:
396,149,74499,6,0,B|334:138|334:138|318:111|318:111|250:97,1,155.999995239258,2|0,1:2|0:0,0:0:0:0:
257,98,74973,6,0,P|268:153|275:201,1,77.999997619629,2|0,1:2|0:0,0:0:0:0:
165,258,75289,2,0,P|151:297|149:314,1,38.9999988098145,2|0,1:2|0:0,0:0:0:0:
259,355,75447,1,2,1:2:0:0:
259,355,76236,6,0,P|276:300|234:240,1,130,6|8,1:2|0:0,0:0:0:0:
23,178,76710,2,0,B|94:152|74:203|168:179,1,130,2|0,1:2|1:0,0:0:0:0:
317,96,77183,2,0,P|259:82|239:76,1,65,10|0,0:0|0:0,0:0:0:0:
253,80,77499,5,2,1:2:0:0:
299,170,77657,1,0,1:0:0:0:
238,242,77815,1,10,0:0:0:0:
284,321,77973,6,0,L|302:169,1,130,2|0,1:2|1:0,0:0:0:0:
428,100,78447,2,0,L|444:175,1,65,8|0,0:0|0:0,0:0:0:0:
386,354,78762,6,0,P|329:305|266:345,1,130,6|8,1:2|0:0,0:0:0:0:
137,245,79236,2,0,P|177:265|210:256,1,65,2|0,1:2|0:0,0:0:0:0:
187,188,79552,1,0,1:0:0:0:
23,282,79710,2,0,L|5:166,1,97.5,10|0,0:0|0:0,0:0:0:0:
14,177,80025,6,0,L|87:186,1,65,2|0,1:2|1:0,0:0:0:0:
209,110,80341,1,10,0:0:0:0:
142,71,80499,2,0,L|291:56,1,130,2|0,1:2|1:0,0:0:0:0:
429,135,80973,1,8,0:0:0:0:
356,109,81131,1,2,0:0:0:0:
416,59,81289,6,0,P|388:130|367:187,1,130,6|8,1:2|0:0,0:0:0:0:
227,293,81762,2,0,P|264:255|343:271,1,130,2|0,1:2|1:0,0:0:0:0:
496,373,82236,2,0,P|460:361|426:352,1,65,10|0,0:0|0:0,0:0:0:0:
369,180,82552,5,2,1:2:0:0:
437,141,82710,1,0,1:0:0:0:
500,189,82868,1,10,0:0:0:0:
432,231,83025,2,0,P|429:189|419:85,1,130,2|0,1:2|1:0,0:0:0:0:
503,13,83499,2,0,P|509:61|514:86,1,65,8|0,0:0|1:0,0:0:0:0:
307,236,83815,6,0,B|358:224|358:224|388:238|388:238|441:229,1,130,6|8,1:2|0:0,0:0:0:0:
258,111,84289,2,0,B|207:99|207:99|177:113|177:113|124:104,1,130,2|0,1:2|1:0,0:0:0:0:
70,255,84762,2,0,P|93:225|62:165,1,97.5,10|0,0:0|0:0,0:0:0:0:
65,165,85078,6,0,L|136:185,1,65,2|0,1:2|1:0,0:0:0:0:
291,272,85394,1,10,0:0:0:0:
260,296,85473,1,4,1:3:0:0:
229,320,85552,1,4,0:3:0:0:
225,282,85631,1,4,0:3:0:0:
218,245,85710,2,0,P|217:210|215:166,1,65,6|0,1:2|1:0,0:0:0:0:
4,20,86025,6,0,P|6:81|8:99,1,65,10|2,0:0|0:0,0:0:0:0:
75,172,86341,5,6,1:2:0:0:
191,105,86499,1,0,1:0:0:0:
313,225,86657,2,0,P|339:190|304:133,1,97.5,14|0,0:0|0:0,0:0:0:0:
325,128,86973,2,0,P|349:174|329:232,1,97.5,14|0,0:0|0:0,0:0:0:0:
267,238,87289,5,0,1:0:0:0:
168,343,87447,1,0,1:0:0:0:
342,364,87604,2,0,B|302:352|302:352|291:339|291:339|239:324,1,97.5,14|0,0:0|0:0,0:0:0:0:
245,315,87920,2,0,B|294:329|294:329|309:346|309:346|363:362,1,130,14|0,0:0|0:0,0:0:0:0:
