osu file format v14

[General]
AudioFilename: audio.mp3
AudioLeadIn: 0
PreviewTime: 45131
Countdown: 0
SampleSet: Soft
StackLeniency: 0.7
Mode: 0
LetterboxInBreaks: 0
WidescreenStoryboard: 1

[Editor]
Bookmarks: 13078,28236,40157
DistanceSpacing: 1
BeatDivisor: 2
GridSize: 4
TimelineZoom: 2.4

[Metadata]
Title:PANTA RHEI (TV Size)
TitleUnicode:PANTA RHEI (TV Size)
Artist:MYTH & ROID
ArtistUnicode:MYTH & ROID
Creator:Sharpay
Version:LURU'S NORMAL
Source:Isekai Cheat Magician
Tags:異世界チート魔術師 マジシャン japanese jpop j-pop pop anime opening isekai cheat majutsu-shi majutsushi lurumic astrolis
BeatmapID:3474696
BeatmapSetID:1697863

[Difficulty]
HPDrainRate:4
CircleSize:3.4
OverallDifficulty:4.8
ApproachRate:5
SliderMultiplier:1
SliderTickRate:1

[Events]
//Background and Video events
0,0,"bg.jpg",0,0
//Break Periods
//Storyboard Layer 0 (Background)
//Storyboard Layer 1 (Fail)
//Storyboard Layer 2 (Pass)
//Storyboard Layer 3 (Foreground)
//Storyboard Layer 4 (Overlay)
//Storyboard Sound Samples

[TimingPoints]
447,315.789473684211,4,2,1,60,1,0
2973,315.789473684211,4,2,1,60,1,0
2973,-100,4,2,1,70,0,0
13078,-100,4,2,1,60,0,0
28236,-100,4,2,1,55,0,0
33289,-100,4,2,1,50,0,0
34552,-100,4,2,1,40,0,0
42131,-100,4,2,1,60,0,0
45920,315.789473684211,4,2,1,75,1,0
63604,-100,4,2,1,60,0,0
76236,-100,4,2,1,70,0,0
88868,-100,4,2,1,5,0,0

[Colours]
Combo1 : 147,113,74
Combo2 : 214,150,159
Combo3 : 206,169,226

[HitObjects]
22,328,447,6,0,L|29:262,1,50,0|0,1:2|1:2,0:0:0:0:
52,235,762,2,0,L|35:130,1,100,12|12,0:0|0:0,0:0:0:0:
120,56,1394,2,0,L|186:63,1,50,0|0,1:2|1:2,0:0:0:0:
212,86,1709,2,0,L|317:69,1,100,12|12,0:0|0:0,0:0:0:0:
411,70,2341,2,0,L|421:6,2,50,2|2|2,0:0|0:0|0:0,0:0:0:0:
474,147,2973,6,0,P|482:195|462:255,1,100,6|8,1:2|0:0,0:0:0:0:
419,254,3447,2,0,P|359:246|320:275,1,100,2|0,1:2|1:2,0:0:0:0:
288,297,3920,1,10,0:0:0:0:
191,271,4236,2,0,P|177:223|189:175,1,100,2|10,1:2|0:0,0:0:0:0:
221,137,4710,2,0,P|294:158|367:139,1,150,2|8,1:2|0:0,0:0:0:0:
445,82,5499,5,6,1:2:0:0:
362,36,5815,1,8,0:0:0:0:
362,36,5973,2,0,P|308:18|259:31,1,100,2|0,1:2|1:2,0:0:0:0:
220,45,6447,1,10,0:0:0:0:
128,84,6762,2,0,P|103:143|125:187,1,100,2|10,1:2|0:0,0:0:0:0:
156,201,7236,2,0,P|226:207|264:288,1,150,2|8,1:2|0:0,0:0:0:0:
202,348,8025,6,0,P|266:372|314:352,1,100,6|8,1:2|0:0,0:0:0:0:
342,351,8499,2,0,P|365:306|358:257,1,100,2|0,1:2|1:2,0:0:0:0:
332,215,8973,1,10,0:0:0:0:
367,121,9289,2,0,P|419:113|479:133,1,100,2|10,1:2|0:0,0:0:0:0:
501,158,9762,2,0,P|522:202|496:304,1,150,2|8,1:2|0:0,0:0:0:0:
412,343,10552,5,6,1:2:0:0:
345,275,10868,1,8,0:0:0:0:
345,275,11025,2,0,P|286:285|238:289,1,100,2|0,1:2|1:2,0:0:0:0:
196,297,11499,1,10,0:0:0:0:
116,357,11815,6,0,P|94:323|106:252,1,100,2|10,1:2|0:0,0:0:0:0:
111,217,12289,2,0,P|129:171|116:111,1,100,2|0,1:2|1:2,0:0:0:0:
95,89,12762,1,8,0:0:0:0:
170,23,13078,6,0,P|224:7|282:21,1,100,6|8,1:2|0:0,0:0:0:0:
313,31,13552,1,2,1:2:0:0:
334,133,13868,1,2,1:2:0:0:
334,133,14025,2,0,P|440:169|521:120,1,200,10|8,0:0|0:0,0:0:0:0:
478,36,14973,1,2,0:0:0:0:
377,36,15289,1,10,0:0:0:0:
334,133,15604,6,0,P|320:186|348:240,1,100,2|10,1:2|0:0,0:0:0:0:
291,250,16078,2,0,P|244:234|197:248,1,100,2|2,1:2|1:2,0:0:0:0:
152,271,16552,2,0,B|128:325|175:365|175:365|212:342|269:351,1,200,10|8,0:0|0:0,0:0:0:0:
367,361,17499,1,2,0:0:0:0:
452,308,17815,1,10,0:0:0:0:
403,220,18131,6,0,P|330:217|247:241,2,150,2|2|8,1:2|1:2|0:0,0:0:0:0:
494,261,19394,2,0,P|506:214|499:195,1,50,0|0,1:2|0:0,0:0:0:0:
486,169,19710,2,0,P|452:134|431:131,1,50,8|0,0:0|1:2,0:0:0:0:
403,123,20025,1,2,0:0:0:0:
315,73,20341,1,10,0:0:0:0:
221,109,20657,6,0,L|199:264,2,150,2|2|8,1:2|1:2|0:0,0:0:0:0:
155,30,21920,2,0,P|113:22|42:45,1,100,0|8,1:2|0:0,0:0:0:0:
1,118,22552,2,0,P|5:154|9:182,1,50,0|0,0:0|1:2,0:0:0:0:
41,202,22868,2,0,P|37:238|33:266,1,50,8|8,0:0|0:0,0:0:0:0:
5,294,23183,6,0,B|69:290|41:338|110:336,1,100,6|10,1:2|0:0,0:0:0:0:
142,344,23657,1,2,1:2:0:0:
234,300,23973,1,2,1:2:0:0:
234,300,24131,2,0,P|311:282|426:334,1,200,10|8,0:0|0:0,0:0:0:0:
483,250,25078,2,0,P|495:210|475:138,1,100,2|10,0:0|0:0,0:0:0:0:
395,107,25710,6,0,B|337:99|337:99|292:123,1,100,2|10,1:2|0:0,0:0:0:0:
263,151,26183,2,0,B|225:170|225:170|168:163,1,100,2|2,1:2|1:2,0:0:0:0:
119,171,26657,2,0,P|71:135|123:23,1,200,10|8,0:0|0:0,0:0:0:0:
209,63,27604,2,0,P|249:63|269:51,1,50,2|0,0:0|1:2,0:0:0:0:
303,37,27920,1,8,0:0:0:0:
399,63,28236,6,0,P|429:124|403:176,1,100,6|2,1:2|0:0,0:0:0:0:
350,227,28868,2,0,P|325:234|288:220,1,50,8|2,0:0|1:2,0:0:0:0:
260,201,29183,1,2,1:2:0:0:
160,210,29499,2,0,P|138:258|175:336,1,100,2|0,0:0|1:2,0:0:0:0:
230,356,30131,2,0,P|266:365|302:333,1,50,10|0,0:0|1:2,0:0:0:0:
322,340,30447,1,0,1:2:0:0:
337,241,30762,6,0,P|382:222|429:237,1,100,2|2,0:0|1:2,0:0:0:0:
473,213,31236,2,0,P|458:166|476:120,1,100,2|2,0:0|1:2,0:0:0:0:
512,85,31710,1,2,1:2:0:0:
418,31,32025,2,0,P|366:16|287:56,1,100,2|0,0:0|1:2,0:0:0:0:
230,67,32657,1,10,0:0:0:0:
290,146,32973,2,0,P|291:177|275:213,1,50,0|8,1:2|0:0,0:0:0:0:
268,242,33289,6,0,B|231:232|200:243|193:289|193:289|155:254|118:288|118:288|108:241|70:233|33:246,1,300,2|2,1:2|0:0,0:0:0:0:
7,149,34552,2,0,P|8:77|72:45,2,150,2|2|2,1:2|1:2|0:0,0:0:0:0:
55,236,35815,2,0,B|113:187|202:235|146:273|187:341|254:369|312:317,1,300,2|0,1:2|0:0,0:0:0:0:
373,267,37078,1,0,1:2:0:0:
472,296,37394,6,0,P|484:257|443:183,1,100,2|10,0:0|0:0,0:0:0:0:
371,169,38025,2,0,P|353:123|364:75,1,100,2|2,1:2|1:2,0:0:0:0:
168,34,38973,6,0,P|136:30|112:42,1,50,10|2,0:0|0:0,0:0:0:0:
74,57,39289,2,0,P|57:100|79:161,1,100,2|2,0:0|1:2,0:0:0:0:
248,244,40236,6,0,P|280:248|304:236,2,50,10|2|2,0:2|0:0|1:2,0:0:0:0:
205,158,40868,1,2,1:2:0:0:
288,100,41183,1,2,0:0:0:0:
360,168,41499,2,0,P|416:180|472:140,1,100,10|2,0:0|0:0,0:0:0:0:
501,251,42131,6,0,B|510:295|510:295|475:270|418:288,1,100,6|0,1:2|0:0,0:0:0:0:
408,272,42604,2,0,B|362:255|362:255|365:298|322:317,1,100,6|0,1:2|0:0,0:0:0:0:
310,337,43078,1,2,1:2:0:0:
217,298,43394,1,6,1:2:0:0:
256,192,43552,12,4,44657,1:2:0:0:
489,349,45920,6,0,P|508:323|501:288,1,50,6|0,1:2|0:0,0:0:0:0:
507,254,46236,2,0,P|493:224|460:213,1,50,10|0,0:0|1:2,0:0:0:0:
430,203,46552,2,0,P|396:173|395:106,1,100,2|10,0:0|0:0,0:0:0:0:
289,118,47183,2,0,P|277:165|238:194,1,100,2|10,1:2|0:0,0:0:0:0:
189,205,47657,2,0,P|141:216|112:255,1,100,2|0,1:2|1:2,0:0:0:0:
98,304,48131,1,8,0:0:0:0:
172,371,48447,1,0,1:2:0:0:
242,300,48762,6,0,P|281:311|306:303,1,50,10|2,0:0|1:2,0:0:0:0:
339,309,49078,2,0,P|369:281|375:255,1,50,2|0,0:0|1:2,0:0:0:0:
391,227,49394,1,10,0:0:0:0:
326,150,49710,2,0,P|305:111|323:40,1,100,2|10,1:2|0:0,0:0:0:0:
410,40,50341,2,0,P|431:79|413:150,1,100,2|10,1:2|0:0,0:0:0:0:
391,227,50973,6,0,P|339:253|283:233,1,100,2|8,1:2|0:0,0:0:0:0:
250,235,51447,2,0,P|221:194|224:145,1,100,0|0,1:2|1:2,0:0:0:0:
265,116,51920,2,0,P|277:76|272:52,1,50,8|2,0:0|0:0,0:0:0:0:
246,27,52236,2,0,P|201:16|141:41,1,100,2|8,1:2|0:0,0:0:0:0:
69,92,52868,1,2,1:2:0:0:
96,187,53183,1,10,0:0:0:0:
187,226,53499,6,0,P|196:286|160:342,1,100,6|2,1:2|1:2,0:0:0:0:
141,349,53973,1,0,1:2:0:0:
141,349,54131,2,0,P|81:358|25:322,1,100,6|2,1:2|1:2,0:0:0:0:
11,306,54604,1,0,1:2:0:0:
11,306,54762,1,6,1:2:0:0:
377,348,56025,6,0,P|413:347|436:333,1,50,6|0,1:2|0:0,0:0:0:0:
475,335,56341,2,0,P|492:303|492:276,1,50,10|0,0:0|1:2,0:0:0:0:
470,245,56657,2,0,P|441:210|445:143,1,100,2|10,0:0|0:0,0:0:0:0:
344,120,57289,2,0,P|309:149|242:145,1,100,2|10,1:2|0:0,0:0:0:0:
206,148,57762,2,0,P|156:147|118:116,1,100,2|0,1:2|1:2,0:0:0:0:
91,74,58236,1,8,0:0:0:0:
0,114,58552,1,0,1:2:0:0:
45,203,58868,6,0,L|53:258,1,50,10|2,0:0|1:2,0:0:0:0:
99,269,59183,2,0,L|106:318,1,50,2|0,0:0|1:2,0:0:0:0:
114,368,59499,1,10,0:0:0:0:
198,308,59815,2,0,B|250:290|250:290|309:317,1,100,2|10,1:2|0:0,0:0:0:0:
378,357,60447,2,0,B|414:330|414:330|425:276,1,100,2|10,1:2|0:0,0:0:0:0:
370,192,61078,6,0,B|330:221|330:221|259:205,1,100,6|8,1:2|0:0,0:0:0:0:
234,190,61552,2,0,B|209:148|209:148|221:79,1,100,0|0,1:2|1:2,0:0:0:0:
245,55,62025,2,0,B|269:40|269:40|310:47,1,50,8|2,0:0|0:0,0:0:0:0:
333,69,62341,2,0,B|381:85|381:85|426:67,1,100,2|8,1:2|0:0,0:0:0:0:
508,113,62973,1,0,0:0:0:0:
503,212,63289,1,8,0:0:0:0:
406,235,63604,6,0,B|398:271|431:287|431:287|445:321|421:359,1,100,14|2,0:0|0:0,0:0:0:0:
396,354,64078,2,0,B|351:338|351:338|291:372,1,100,14|2,0:0|0:0,0:0:0:0:
265,327,64552,2,0,B|257:290|290:274|290:274|304:240|280:202,1,100,14|2,0:0|0:0,0:0:0:0:
266,197,65025,1,14,0:0:0:0:
116,188,65499,6,0,P|98:141|112:94,1,100,14|2,0:0|0:0,0:0:0:0:
142,56,65973,1,0,1:2:0:0:
142,56,66131,2,0,B|246:3|246:82|354:55,1,200,6|8,1:2|0:0,0:0:0:0:
426,14,67078,5,2,1:2:0:0:
466,105,67394,2,0,L|513:123,2,50,0|8|0,0:0|0:0|1:2,0:0:0:0:
377,150,68025,2,0,B|327:150|327:150|283:170|283:170|231:166,1,150,8|8,0:0|0:0,0:0:0:0:
90,116,68973,5,12,0:0:0:0:
132,259,69447,1,12,0:0:0:0:
279,230,69920,2,0,L|343:241,1,50,0|0,1:2|1:2,0:0:0:0:
377,250,70236,1,12,0:0:0:0:
452,379,70710,1,12,0:0:0:0:
504,238,71183,6,0,B|513:202|513:202|479:137,1,100,4|0,1:2|1:2,0:0:0:0:
384,126,71815,1,0,1:2:0:0:
329,209,72131,2,0,B|321:243|321:243|262:252|227:205|154:246,1,200,0|12,1:2|0:0,0:0:0:0:
79,116,73236,1,12,0:0:0:0:
19,251,73710,2,0,P|17:287|30:305,1,50,8|8,0:0|0:0,0:0:0:0:
61,330,74025,6,0,L|175:311,1,100,4|8,1:2|0:0,0:0:0:0:
209,304,74499,1,4,1:2:0:0:
312,194,74973,2,0,L|293:79,1,100,4|8,1:2|0:0,0:0:0:0:
284,46,75447,1,4,1:2:0:0:
505,206,76236,6,0,P|513:254|493:314,1,100,6|8,1:2|0:0,0:0:0:0:
468,342,76710,2,0,B|419:346|436:313|367:314,1,100,2|0,1:2|1:2,0:0:0:0:
325,325,77183,1,10,0:0:0:0:
231,288,77499,2,0,P|183:274|135:286,1,100,2|10,1:2|0:0,0:0:0:0:
101,323,77973,2,0,B|120:271|57:249|80:178,1,150,2|8,1:2|0:0,0:0:0:0:
95,80,78762,5,6,1:2:0:0:
187,37,79078,1,8,0:0:0:0:
187,37,79236,2,0,P|252:26|291:35,1,100,2|0,1:2|1:2,0:0:0:0:
330,53,79710,1,10,0:0:0:0:
410,111,80025,2,0,P|433:144|417:217,1,100,2|10,1:2|0:0,0:0:0:0:
395,238,80499,2,0,P|348:260|256:227,1,150,2|8,1:2|0:0,0:0:0:0:
177,172,81289,6,0,P|108:168|69:202,1,100,6|8,1:2|0:0,0:0:0:0:
43,212,81762,2,0,P|28:258|41:306,1,100,2|0,1:2|1:2,0:0:0:0:
62,351,82236,1,10,0:0:0:0:
143,292,82552,2,0,P|196:274|260:294,1,100,2|10,1:2|0:0,0:0:0:0:
274,316,83025,2,0,P|363:346|425:318,1,150,2|8,1:2|0:0,0:0:0:0:
486,260,83815,5,6,1:2:0:0:
420,188,84131,1,8,0:0:0:0:
420,188,84288,2,0,P|393:113|409:82,1,100,2|0,1:2|1:2,0:0:0:0:
421,53,84762,1,10,0:0:0:0:
335,1,85078,1,2,1:2:0:0:
268,76,85393,1,2,1:2:0:0:
172,46,85710,2,0,P|164:23|169:-1,2,50,2|2|8,1:2|1:2|0:0,0:0:0:0:
191,144,86341,6,0,L|125:151,1,50,0|0,1:2|1:2,0:0:0:0:
98,174,86657,2,0,L|-7:157,1,100,12|12,0:0|0:0,0:0:0:0:
12,257,87289,2,0,L|78:264,1,50,0|0,1:2|1:2,0:0:0:0:
104,287,87604,2,0,L|209:270,1,100,12|12,0:0|0:0,0:0:0:0:
299,301,88236,2,0,L|370:311,1,50,2|2,0:0|0:0,0:0:0:0:
394,329,88552,2,0,P|412:355|429:308,1,100,2|0,0:0|0:0,0:0:0:0:
