osu file format v14

[General]
AudioFilename: audio.mp3
AudioLeadIn: 0
PreviewTime: 45131
Countdown: 0
SampleSet: Soft
StackLeniency: 0.7
Mode: 0
LetterboxInBreaks: 0
WidescreenStoryboard: 1

[Editor]
DistanceSpacing: 1.4
BeatDivisor: 4
GridSize: 8
TimelineZoom: 2.4

[Metadata]
Title:PANTA RHEI (TV Size)
TitleUnicode:PANTA RHEI (TV Size)
Artist:MYTH & ROID
ArtistUnicode:MYTH & ROID
Creator:Sharpay
Version:ASTROLIS' HARD
Source:Isekai Cheat Magician
Tags:異世界チート魔術師 マジシャン japanese jpop j-pop pop anime opening isekai cheat majutsu-shi majutsushi lurumic astrolis
BeatmapID:3471751
BeatmapSetID:1697863

[Difficulty]
HPDrainRate:5
CircleSize:3.8
OverallDifficulty:6.8
ApproachRate:8
SliderMultiplier:1.4
SliderTickRate:1

[Events]
//Background and Video events
0,0,"bg.jpg",0,0
//Break Periods
//Storyboard Layer 0 (Background)
//Storyboard Layer 1 (Fail)
//Storyboard Layer 2 (Pass)
//Storyboard Layer 3 (Foreground)
//Storyboard Layer 4 (Overlay)
//Storyboard Sound Samples

[TimingPoints]
447,315.789473684211,4,2,1,60,1,0
447,-142.857142857143,4,2,1,60,0,0
2893,-142.857142857143,4,2,1,5,0,0
2973,315.789473684211,4,2,1,60,1,0
2973,-100,4,2,1,70,0,0
5419,-100,4,2,1,5,0,0
5499,-100,4,2,1,70,0,0
6683,-100,4,2,1,5,0,0
6762,-100,4,2,1,70,0,0
7946,-100,4,2,1,5,0,0
8025,-100,4,2,1,70,0,0
11735,-100,4,2,1,5,0,0
11815,-100,4,2,1,70,0,0
13078,-117.647058823529,4,2,1,60,0,0
15209,-117.647058823529,4,2,1,5,0,0
15289,-117.647058823529,4,2,1,60,0,0
23419,-117.647058823529,4,2,1,5,0,0
23499,-117.647058823529,4,2,1,60,0,0
25630,-117.647058823529,4,2,1,5,0,0
25710,-117.647058823529,4,2,1,60,0,0
28236,-133.333333333333,4,2,1,55,0,0
33289,-133.333333333333,4,2,1,50,0,0
34552,-133.333333333333,4,2,1,40,0,0
42131,-100,4,2,1,60,0,0
44104,-100,4,2,1,5,0,0
44183,-100,4,2,1,60,0,0
45289,-100,4,2,1,5,0,0
45920,315.789473684211,4,2,1,60,1,0
45920,-90.9090909090909,4,2,1,75,0,0
46156,-90.9090909090909,4,2,1,5,0,0
46236,-90.9090909090909,4,2,1,75,0,0
48683,-90.9090909090909,4,2,1,5,0,0
48762,-90.9090909090909,4,2,1,75,0,0
49314,-90.9090909090909,4,2,1,5,0,0
49394,-90.9090909090909,4,2,1,75,0,0
49946,-90.9090909090909,4,2,1,5,0,0
50025,-90.9090909090909,4,2,1,75,0,0
50577,-90.9090909090909,4,2,1,5,0,0
50657,-90.9090909090909,4,2,1,75,0,0
52472,-90.9090909090909,4,2,1,5,0,0
52552,-90.9090909090909,4,2,1,75,0,0
53736,-90.9090909090909,4,2,1,5,0,0
53815,-90.9090909090909,4,2,1,75,0,0
54368,-90.9090909090909,4,2,1,5,0,0
54447,-90.9090909090909,4,2,1,75,0,0
55236,-90.9090909090909,4,2,1,5,0,0
56025,-90.9090909090909,4,2,1,75,0,0
56261,-90.9090909090909,4,2,1,5,0,0
56341,-90.9090909090909,4,2,1,75,0,0
58788,-90.9090909090909,4,2,1,5,0,0
58868,-90.9090909090909,4,2,1,75,0,0
59419,-90.9090909090909,4,2,1,5,0,0
59499,-90.9090909090909,4,2,1,75,0,0
60051,-90.9090909090909,4,2,1,5,0,0
60131,-90.9090909090909,4,2,1,75,0,0
60683,-90.9090909090909,4,2,1,5,0,0
60762,-90.9090909090909,4,2,1,75,0,0
63604,-90.9090909090909,4,2,1,60,0,0
66131,-133.333333333333,4,2,1,60,0,0
71183,-117.647058823529,4,2,1,60,0,0
71419,-117.647058823529,4,2,1,5,0,0
71499,-117.647058823529,4,2,1,60,0,0
76236,-100,4,2,1,70,0,0
78683,-100,4,2,1,5,0,0
78762,-100,4,2,1,70,0,0
79946,-100,4,2,1,5,0,0
80025,-100,4,2,1,70,0,0
81209,-100,4,2,1,5,0,0
81289,-100,4,2,1,70,0,0
83735,-100,4,2,1,5,0,0
83815,-100,4,2,1,70,0,0
84998,-100,4,2,1,5,0,0
85078,-100,4,2,1,70,0,0
88868,-100,4,2,1,5,0,0

[Colours]
Combo1 : 147,113,74
Combo2 : 214,150,159
Combo3 : 206,169,226

[HitObjects]
503,67,447,5,0,1:2:0:0:
503,67,604,1,0,1:2:0:0:
445,120,762,2,0,L|346:125,2,97.9999970092774,12|12|0,0:0|0:0|1:2,0:0:0:0:
503,66,1552,1,0,1:2:0:0:
438,21,1710,6,0,L|340:25,2,97.9999970092774,12|12|2,0:0|0:0|0:0,0:0:0:0:
508,74,2499,1,2,0:0:0:0:
508,74,2657,2,0,L|514:170,1,73.4999977569581,2|0,0:0|0:0,0:0:0:0:
512,148,2973,6,0,P|478:181|498:281,1,140,6|8,1:2|0:0,0:0:0:0:
496,366,3447,2,0,P|428:343|347:327,1,140,2|0,1:2|1:2,0:0:0:0:
272,370,3920,2,0,L|261:284,1,70,10|0,0:0|0:0,0:0:0:0:
247,203,4236,5,2,1:2:0:0:
247,203,4394,1,2,1:2:0:0:
306,125,4552,1,10,0:0:0:0:
306,125,4710,2,0,P|287:86|191:54,1,140,2|0,1:2|1:2,0:0:0:0:
116,3,5183,2,0,P|76:18|0:21,1,105,8|0,0:0|0:0,0:0:0:0:
14,22,5499,6,0,P|34:70|57:177,1,140,6|8,1:2|0:0,0:0:0:0:
11,244,5973,2,0,P|45:269|127:206,1,140,2|0,1:2|1:2,0:0:0:0:
171,142,6447,2,0,L|288:153,1,105,10|0,0:0|0:0,0:0:0:0:
275,151,6762,5,2,1:2:0:0:
318,239,6920,1,2,1:2:0:0:
393,176,7078,1,10,0:0:0:0:
393,176,7236,2,0,B|465:193|465:193|526:137,1,140,2|0,1:2|1:2,0:0:0:0:
488,53,7710,2,0,P|430:49|381:75,1,105,8|0,0:0|0:0,0:0:0:0:
388,68,8025,6,0,P|342:77|252:18,1,140,6|8,1:2|0:0,0:0:0:0:
168,7,8499,2,0,L|187:168,1,140,2|0,1:2|1:2,0:0:0:0:
270,195,8973,2,0,L|258:288,1,70,10|0,0:0|0:0,0:0:0:0:
251,362,9289,5,2,1:2:0:0:
251,362,9447,1,2,1:2:0:0:
164,316,9604,1,10,0:0:0:0:
164,316,9762,2,0,P|136:365|64:343,1,140,2|0,1:2|1:2,0:0:0:0:
12,262,10236,2,0,P|28:229|31:179,1,70,8|0,0:0|0:0,0:0:0:0:
122,155,10552,6,0,P|100:126|83:27,1,140,6|8,1:2|0:0,0:0:0:0:
179,6,11025,2,0,B|237:10|237:10|243:13|243:13|341:18,1,140,2|0,1:2|1:2,0:0:0:0:
383,90,11499,2,0,P|401:141|362:196,1,105,10|0,0:0|0:0,0:0:0:0:
379,184,11815,5,2,1:2:0:0:
307,250,11973,1,2,1:2:0:0:
371,330,12131,1,10,0:0:0:0:
371,330,12289,2,0,P|393:365|486:355,1,140,2|0,1:2|1:2,0:0:0:0:
506,264,12762,1,8,0:0:0:0:
506,264,12920,1,8,0:0:0:0:
482,184,13078,6,0,L|492:109,1,59.5000011348725,6|0,1:2|1:2,0:0:0:0:
495,44,13394,1,8,0:0:0:0:
495,44,13552,2,0,B|461:25|428:43|438:57|414:80|372:69,1,119.000002269745,2|2,1:2|1:2,0:0:0:0:
319,22,14025,2,0,P|273:36|199:22,1,119.000002269745,10|0,0:0|1:2,0:0:0:0:
120,13,14499,5,0,1:2:0:0:
120,13,14657,2,0,L|112:81,1,59.5000011348725,8|0,0:0|1:2,0:0:0:0:
160,147,14973,2,0,P|210:144|272:158,1,89.2500017023087,2|0,0:0|0:0,0:0:0:0:
280,177,15289,1,10,0:0:0:0:
405,286,15604,6,0,P|352:267|298:309,1,119.000002269745,2|10,1:2|0:0,0:0:0:0:
257,369,16078,2,0,P|226:342|140:354,1,119.000002269745,2|2,1:2|1:2,0:0:0:0:
72,372,16552,2,0,P|61:310|59:242,1,119.000002269745,10|0,0:0|1:2,0:0:0:0:
25,183,17025,5,0,1:2:0:0:
25,183,17183,2,0,L|36:112,1,59.5000011348725,8|0,0:0|1:2,0:0:0:0:
22,41,17499,2,0,P|72:48|154:43,1,119.000002269745,2|10,0:0|0:0,0:0:0:0:
216,9,17973,1,0,0:0:0:0:
285,55,18131,6,0,P|264:83|293:161,1,119.000002269745,2|8,1:2|0:0,0:0:0:0:
353,207,18604,2,0,P|379:156|354:104,1,119.000002269745,2|0,1:2|1:2,0:0:0:0:
359,21,19078,2,0,L|425:14,1,59.5000011348725,8|0,0:0|0:0,0:0:0:0:
501,24,19394,6,0,B|498:79|498:79|501:83|501:83|497:166,1,119.000002269745,0|8,1:2|0:0,0:0:0:0:
490,225,19868,1,0,1:2:0:0:
490,225,20025,2,0,P|459:236|435:260,1,59.5000011348725,2|0,0:0|1:2,0:0:0:0:
471,331,20341,1,10,0:0:0:0:
310,372,20657,6,0,L|173:377,1,119.000002269745,2|8,1:2|0:0,0:0:0:0:
116,338,21131,2,0,P|68:305|14:323,1,119.000002269745,2|0,1:2|1:2,0:0:0:0:
1,241,21604,2,0,P|13:209|8:178,1,59.5000011348725,8|0,0:0|0:0,0:0:0:0:
92,169,21920,6,0,B|142:198|142:198|223:169,1,119.000002269745,0|8,1:2|0:0,0:0:0:0:
278,148,22394,1,0,1:2:0:0:
278,148,22552,2,0,L|286:220,1,59.5000011348725,0|0,0:0|1:2,0:0:0:0:
372,206,22868,1,8,0:0:0:0:
372,206,23025,1,8,0:0:0:0:
446,167,23183,6,0,P|491:157|506:94,1,89.2500017023087,6|0,1:2|0:0,0:0:0:0:
510,121,23499,1,10,0:0:0:0:
507,38,23657,2,0,P|476:42|427:42,1,59.5000011348725,2|0,1:2|0:0,0:0:0:0:
367,17,23973,1,2,1:2:0:0:
367,17,24131,2,0,P|316:6|247:12,1,119.000002269745,10|0,0:0|1:2,0:0:0:0:
209,84,24604,5,0,1:2:0:0:
209,84,24762,2,0,L|200:146,1,59.5000011348725,8|0,0:0|1:2,0:0:0:0:
199,154,24999,1,2,0:0:0:0:
200,165,25078,2,0,L|209:227,1,59.5000011348725,2|0,0:0|1:2,0:0:0:0:
203,307,25394,1,10,0:0:0:0:
203,307,25710,6,0,P|248:300|282:303,1,59.5000011348725,2|0,1:2|1:2,0:0:0:0:
347,319,26025,1,10,0:0:0:0:
347,319,26183,2,0,P|340:273|343:239,1,59.5000011348725,2|0,1:2|0:0,0:0:0:0:
408,211,26498,1,2,1:2:0:0:
408,211,26657,2,0,P|466:222|520:171,1,119.000002269745,10|0,0:0|1:2,0:0:0:0:
444,138,27131,5,0,1:2:0:0:
361,124,27289,2,0,L|291:130,1,59.5000011348725,8|0,0:0|1:2,0:0:0:0:
243,188,27604,1,2,0:0:0:0:
243,188,27762,1,0,1:2:0:0:
159,189,27920,1,8,0:0:0:0:
107,255,28078,1,0,1:2:0:0:
107,255,28236,6,0,B|98:364|98:364|28:329|28:329|34:283,1,210.000008010865,6|8,1:2|0:0,0:0:0:0:
10,236,29025,2,0,L|17:184,1,52.5000020027161,2|2,1:2|1:2,0:0:0:0:
28,111,29340,1,2,0:0:0:0:
28,111,29499,6,0,P|5:77|52:32,2,105.000004005432,0|0|10,0:0|1:2|0:0,0:0:0:0:
102,137,30289,1,0,1:2:0:0:
102,137,30447,1,0,1:2:0:0:
238,82,30762,6,0,P|250:43|192:-2,2,105.000004005432,2|2|8,0:0|1:2|0:0,0:0:0:0:
186,135,31552,2,0,L|179:200,1,52.5000020027161,2|2,1:2|1:2,0:0:0:0:
178,264,31868,1,2,0:0:0:0:
178,264,32025,6,0,B|136:293|136:293|81:269,2,105.000004005432,2|0|10,0:0|1:2|0:0,0:0:0:0:
276,374,32973,1,0,1:2:0:0:
276,374,33131,1,8,0:0:0:0:
334,328,33289,1,2,1:2:0:0:
256,192,33447,12,2,35815,1:2:0:0:
493,20,36447,5,8,0:0:0:0:
492,166,36762,2,0,L|428:177,1,52.5000020027161,0|0,0:0|1:2,0:0:0:0:
384,126,37078,6,0,B|330:113|283:158|306:175|264:222|179:198,1,210.000008010865,0|10,1:2|0:0,0:0:0:0:
57,235,38025,1,2,1:2:0:0:
57,235,38183,1,0,1:2:0:0:
25,301,38341,6,0,P|49:358|181:334,1,210.000008010865,2|10,1:2|0:0,0:0:0:0:
229,292,39131,1,2,0:0:0:0:
275,348,39289,2,0,L|340:361,1,52.5000020027161,2|0,0:0|0:0,0:0:0:0:
379,307,39604,6,0,B|381:229|381:229|386:223|386:223|388:144,1,157.500006008148,2|0,1:2|1:2,0:0:0:0:
384,77,40236,2,0,P|418:70|452:87,1,52.5000020027161,10|2,0:2|0:0,0:0:0:0:
486,134,40552,1,2,1:2:0:0:
486,134,40710,1,0,1:2:0:0:
501,206,40868,6,0,P|495:248|495:322,1,105.000004005432,2|2,1:2|0:0,0:0:0:0:
365,381,41499,2,0,P|364:328|358:276,1,105.000004005432,10|2,0:0|0:0,0:0:0:0:
373,203,41973,1,0,0:0:0:0:
373,203,42131,6,0,B|357:171|317:156|306:188|262:175|243:130,1,140,6|0,1:2|0:0,0:0:0:0:
210,58,42604,1,6,1:2:0:0:
210,58,42683,1,0,1:2:0:0:
210,58,42762,2,0,P|220:40|271:25,1,70,0|0,1:2|0:0,0:0:0:0:
361,8,43078,2,0,P|394:15|415:42,1,70,2|0,1:2|1:2,0:0:0:0:
486,110,43394,6,0,P|435:119|339:159,1,140,6|0,1:2|0:0,0:0:0:0:
302,235,43868,2,0,P|237:207|196:200,1,105,4|0,1:2|0:0,0:0:0:0:
203,200,44183,2,0,P|161:211|117:128,1,140,4|0,1:2|0:0,0:0:0:0:
81,47,44657,6,0,B|30:22|30:22|27:108|27:108|0:153|0:153|24:186|24:186|21:252,1,280,4|0,1:2|0:0,0:0:0:0:
392,8,45920,6,0,P|381:53|375:142,1,115.50000352478,6|0,1:2|0:0,0:0:0:0:
374,121,46236,2,0,P|344:147|299:134,1,77.0000023498536,10|0,0:0|1:2,0:0:0:0:
261,44,46552,2,0,P|224:24|159:101,1,154.000004699707,2|10,0:0|0:0,0:0:0:0:
105,187,47025,1,0,0:0:0:0:
152,283,47183,6,0,B|205:275|205:275|245:303|245:303|316:293,1,154.000004699707,2|10,1:2|0:0,0:0:0:0:
340,196,47657,2,0,B|287:204|287:204|247:176|247:176|176:186,1,154.000004699707,2|0,1:2|1:2,0:0:0:0:
137,91,48131,2,0,L|55:81,1,77.0000023498536,8|0,0:0|0:0,0:0:0:0:
6,176,48447,6,0,P|19:234|26:304,1,115.50000352478,0|0,1:2|0:0,0:0:0:0:
25,289,48762,1,10,0:0:0:0:
87,377,48920,1,2,1:2:0:0:
192,346,49078,2,0,P|222:336|302:399,1,115.50000352478,2|0,0:0|0:0,0:0:0:0:
293,372,49394,2,0,P|343:373|392:384,1,77.0000023498536,10|0,0:0|0:0,0:0:0:0:
477,371,49710,6,0,B|499:340|482:306|470:318|452:287|470:240,1,115.50000352478,2|0,1:2|0:0,0:0:0:0:
464,262,50025,2,0,P|432:239|421:187,1,77.0000023498536,10|0,0:0|0:0,0:0:0:0:
511,151,50341,2,0,P|502:88|510:21,1,115.50000352478,2|0,1:2|0:0,0:0:0:0:
506,36,50657,2,0,B|473:12|473:12|424:37,1,77.0000023498536,10|0,0:0|0:0,0:0:0:0:
336,0,50973,6,0,P|308:68|221:69,1,154.000004699707,2|8,1:2|0:0,0:0:0:0:
186,174,51447,1,0,1:2:0:0:
186,174,51525,1,0,1:2:0:0:
186,174,51604,2,0,P|153:164|100:157,1,77.0000023498536,0|0,1:2|1:2,0:0:0:0:
9,185,51920,1,8,0:0:0:0:
9,185,52078,1,2,0:0:0:0:
14,80,52236,6,0,P|69:55|152:49,1,115.50000352478,2|0,1:2|0:0,0:0:0:0:
123,47,52552,2,0,B|158:24|158:24|206:34,1,77.0000023498536,8|0,0:0|0:0,0:0:0:0:
273,103,52868,2,0,B|314:111|314:111|340:152,1,77.0000023498536,2|0,1:2|1:2,0:0:0:0:
327,248,53183,2,0,B|350:283|350:283|340:331,1,77.0000023498536,10|0,0:0|0:0,0:0:0:0:
248,371,53499,6,0,L|121:345,1,115.50000352478,6|0,1:2|0:0,0:0:0:0:
134,347,53815,2,0,L|50:369,1,77.0000023498536,2|0,1:2|1:2,0:0:0:0:
24,268,54131,6,0,P|17:208|91:180,1,115.50000352478,6|0,1:2|0:0,0:0:0:0:
56,176,54447,2,0,P|89:183|110:228,1,77.0000023498536,2|0,1:2|1:2,0:0:0:0:
197,280,54762,6,0,B|211:264|211:240|211:240|185:195|221:174|221:174|359:157|359:157|323:189|329:227,1,308.000009399414,6|0,1:2|0:0,0:0:0:0:
254,161,56025,6,0,P|217:132|237:44,1,115.50000352478,6|0,1:2|0:0,0:0:0:0:
215,68,56341,2,0,P|234:34|287:30,1,77.0000023498536,10|0,0:0|1:2,0:0:0:0:
376,42,56657,2,0,P|401:49|540:47,1,154.000004699707,2|10,0:0|0:0,0:0:0:0:
504,155,57131,1,0,0:0:0:0:
501,262,57289,6,0,P|476:255|337:257,1,154.000004699707,2|10,1:2|0:0,0:0:0:0:
256,197,57762,2,0,P|214:227|255:322,1,154.000004699707,2|0,1:2|1:2,0:0:0:0:
325,377,58236,2,0,L|416:371,1,77.0000023498536,8|0,0:0|0:0,0:0:0:0:
508,351,58552,6,0,L|496:219,1,115.50000352478,0|0,1:2|0:0,0:0:0:0:
497,235,58868,1,10,0:0:0:0:
415,165,59025,1,2,1:2:0:0:
321,219,59183,2,0,B|295:200|262:214|270:226|241:243|195:233,1,115.50000352478,2|0,0:0|0:0,0:0:0:0:
212,235,59499,2,0,P|164:217|151:177,1,77.0000023498536,10|0,0:0|0:0,0:0:0:0:
225,116,59815,6,0,P|213:77|144:21,1,115.50000352478,2|0,1:2|0:0,0:0:0:0:
159,26,60131,2,0,P|124:63|81:61,1,77.0000023498536,10|0,0:0|0:0,0:0:0:0:
6,10,60447,2,0,L|18:153,1,115.50000352478,2|0,1:2|0:0,0:0:0:0:
15,125,60762,2,0,B|40:152|40:152|83:142,1,77.0000023498536,10|0,0:0|0:0,0:0:0:0:
156,219,61078,6,0,P|220:175|303:159,1,154.000004699707,6|8,1:2|0:0,0:0:0:0:
324,54,61552,2,0,P|355:60|416:96,1,77.0000023498536,0|0,1:2|0:0,0:0:0:0:
494,34,61868,1,0,1:2:0:0:
494,34,62025,1,8,0:0:0:0:
510,140,62183,1,2,0:0:0:0:
511,247,62341,6,0,P|471:229|347:213,1,154.000004699707,2|8,1:2|0:0,0:0:0:0:
283,146,62815,1,0,1:2:0:0:
283,146,62973,2,0,P|206:153|134:180,1,154.000004699707,0|8,0:0|0:0,0:0:0:0:
39,231,63447,1,0,1:2:0:0:
18,336,63604,6,0,B|63:306|103:339|86:349|129:378|179:345,1,154.000004699707,14|2,0:0|0:0,0:0:0:0:
266,378,64078,2,0,P|248:309|253:199,1,154.000004699707,14|2,0:0|0:0,0:0:0:0:
342,172,64552,2,0,P|375:143|335:48,1,154.000004699707,14|2,0:0|0:0,0:0:0:0:
243,12,65025,6,0,B|190:10|190:10|164:42|164:42|82:39,1,154.000004699707,14|2,0:0|0:0,0:0:0:0:
29,118,65499,2,0,L|191:123,1,154.000004699707,14|2,0:0|0:0,0:0:0:0:
272,183,65973,1,0,1:2:0:0:
343,263,66131,6,0,P|466:253|495:78,1,315.000012016297,6|2,1:2|1:2,0:0:0:0:
380,23,67394,1,0,0:0:0:0:
380,23,67552,1,8,0:0:0:0:
380,23,67710,2,0,L|254:19,1,105.000004005432,0|8,1:2|0:0,0:0:0:0:
211,56,68183,2,0,P|186:88|203:162,1,105.000004005432,2|8,0:0|0:0,0:0:0:0:
266,362,68973,5,12,0:0:0:0:
266,362,69447,1,12,0:0:0:0:
85,381,69841,1,0,1:0:0:0:
76,366,69920,2,0,L|79:291,1,52.5000020027161,0|0,1:2|1:2,0:0:0:0:
39,250,70236,1,12,0:0:0:0:
39,250,70710,1,12,0:0:0:0:
21,104,71025,1,0,1:2:0:0:
26,119,71104,1,0,1:2:0:0:
42,144,71183,6,0,L|151:160,1,89.2500017023087,4|0,1:2|0:0,0:0:0:0:
130,157,71499,2,0,P|163:180|204:176,1,59.5000011348725,0|0,1:2|0:0,0:0:0:0:
262,201,71815,2,0,P|302:187|313:129,1,89.2500017023087,0|0,1:2|0:0,0:0:0:0:
309,104,72131,2,0,P|297:54|292:30,1,59.5000011348725,0|0,1:2|0:0,0:0:0:0:
141,15,72604,5,2,0:0:0:0:
141,15,72762,2,0,P|125:56|42:58,1,119.000002269745,12|0,0:0|0:0,0:0:0:0:
15,141,73236,2,0,P|79:154|146:181,1,119.000002269745,12|0,0:0|0:0,0:0:0:0:
174,243,73710,5,8,0:0:0:0:
174,243,73868,1,8,0:0:0:0:
127,311,74025,2,0,L|60:301,1,59.5000011348725,4|0,1:2|0:0,0:0:0:0:
25,376,74341,1,8,0:0:0:0:
25,376,74499,2,0,L|83:384,1,59.5000011348725,4|0,1:2|0:0,0:0:0:0:
251,380,74973,5,4,1:2:0:0:
362,255,75289,1,8,0:0:0:0:
362,255,75447,1,4,1:2:0:0:
362,255,76236,6,0,L|369:115,1,140,6|8,1:2|0:0,0:0:0:0:
383,17,76710,2,0,B|438:61|438:61|509:34,1,140,2|0,1:2|1:2,0:0:0:0:
506,134,77183,2,0,P|487:174|483:219,1,70,10|0,0:0|0:0,0:0:0:0:
509,294,77499,5,2,1:2:0:0:
509,294,77657,1,2,1:2:0:0:
449,372,77815,1,10,0:0:0:0:
449,372,77973,2,0,P|402:360|303:353,1,140,2|0,1:2|1:2,0:0:0:0:
215,375,78447,2,0,P|184:338|205:272,1,105,8|0,0:0|0:0,0:0:0:0:
192,285,78762,6,0,P|223:253|235:157,1,140,6|8,1:2|0:0,0:0:0:0:
324,118,79236,2,0,P|305:53|223:42,1,140,2|0,1:2|1:2,0:0:0:0:
142,45,79710,2,0,P|98:59|12:38,1,105,10|0,0:0|0:0,0:0:0:0:
40,52,80025,5,2,1:2:0:0:
7,144,80183,1,2,1:2:0:0:
76,212,80341,1,10,0:0:0:0:
76,212,80499,2,0,L|221:197,1,140,2|0,1:2|1:2,0:0:0:0:
309,226,80973,2,0,L|299:341,1,105,8|0,0:0|0:0,0:0:0:0:
299,330,81289,6,0,P|282:374|197:350,1,140,6|8,1:2|0:0,0:0:0:0:
106,378,81762,2,0,P|97:333|58:232,1,140,2|0,1:2|1:2,0:0:0:0:
5,165,82236,2,0,L|15:79,1,70,10|0,0:0|0:0,0:0:0:0:
63,10,82552,5,2,1:2:0:0:
63,10,82710,1,2,1:2:0:0:
148,58,82868,1,10,0:0:0:0:
148,58,83025,2,0,B|190:38|224:62|216:75|257:95|293:80,1,140,2|0,1:2|1:2,0:0:0:0:
338,4,83499,2,0,P|380:23|451:21,1,105,8|0,0:0|0:0,0:0:0:0:
438,24,83815,6,0,P|436:69|522:87,1,140,6|8,1:2|0:0,0:0:0:0:
502,190,84289,2,0,B|442:222|442:222|387:165,1,140,2|0,1:2|1:2,0:0:0:0:
294,160,84762,2,0,P|286:209|285:281,1,105,10|0,0:0|0:0,0:0:0:0:
284,264,85078,5,2,1:2:0:0:
351,349,85236,1,2,1:2:0:0:
351,349,85315,1,0,1:2:0:0:
351,349,85394,2,0,L|344:397,2,35,2|0|0,1:2|1:2|1:2,0:0:0:0:
445,321,85710,2,0,P|485:336|519:319,1,70,2|2,1:2|1:2,0:0:0:0:
510,229,86025,2,0,P|470:214|436:231,1,70,8|0,0:0|0:0,0:0:0:0:
361,274,86341,5,0,1:2:0:0:
361,274,86499,1,0,1:2:0:0:
304,194,86657,2,0,B|225:187|225:187|224:184|224:184|145:177,1,140,12|12,0:0|0:0,0:0:0:0:
13,303,87289,1,0,1:2:0:0:
13,303,87447,1,0,1:2:0:0:
83,370,87604,6,0,B|157:376|157:376|159:378|159:378|249:386,1,140,12|12,0:0|0:0,0:0:0:0:
421,381,88236,1,2,0:0:0:0:
421,381,88394,1,2,0:0:0:0:
482,304,88552,2,0,P|419:261|377:294,1,140,2|0,0:0|0:0,0:0:0:0:
