osu file format v14

[General]
AudioFilename: lol.mp3
AudioLeadIn: 1000
PreviewTime: 42145
Countdown: 0
SampleSet: Normal
StackLeniency: 0.5
Mode: 0
LetterboxInBreaks: 0
WidescreenStoryboard: 0

[Editor]
Bookmarks: 12221,16836,21452,22028,26067,32413,34721,69909,74524
DistanceSpacing: 1
BeatDivisor: 4
GridSize: 4
TimelineZoom: 1

[Metadata]
Title:L.L.L.
TitleUnicode:L.L.L.
Artist:MYTH & ROID
ArtistUnicode:MYTH & ROID
Creator:jonathanlfj
Version:Normal
Source:オーバーロード
Tags:Overlord ending ed albedo madhouse tv size ミスアンドロイド Trust Raose TTMouse Nyquill Irreversible captin1 and
BeatmapID:754441
BeatmapSetID:334466

[Difficulty]
HPDrainRate:3.5
CircleSize:3.5
OverallDifficulty:3.8
ApproachRate:5
SliderMultiplier:0.999999999999999
SliderTickRate:1

[Events]
//Background and Video events
0,0,"51338548_p0.jpg",0,0
Video,-450,"dude nice.avi"
//Break Periods
//Storyboard Layer 0 (Background)
//Storyboard Layer 1 (Fail)
//Storyboard Layer 2 (Pass)
//Storyboard Layer 3 (Foreground)
//Storyboard Sound Samples

[TimingPoints]
678,288.461538461538,4,2,1,50,1,0
678,-111.111111111111,4,2,1,50,0,0
2986,288.461538461538,4,1,1,70,1,0
13082,-100,4,1,1,60,0,0
16832,-100,4,1,1,70,0,0
17698,-100,4,1,1,60,0,0
21448,-100,4,1,1,70,0,0
22313,-100,4,1,1,60,0,0
26063,-100,4,1,1,70,0,0
26928,-100,4,1,1,60,0,0
29524,-100,4,2,1,60,0,0
30678,-100,4,1,1,70,0,0
32409,-100,4,2,1,30,0,0
33130,-100,4,1,1,75,0,0
34717,-100,4,2,1,30,0,0
35438,-100,4,1,1,80,0,0
37024,-100,4,1,1,60,0,0
37601,-100,4,1,1,70,0,0
40053,-100,4,2,1,60,0,0
41928,-100,4,2,1,20,0,0
42216,-90.9090909090909,4,1,1,80,0,1
60678,-100,4,1,1,70,0,0
69909,-90.9090909090909,4,1,1,80,0,1
79140,-90.9090909090909,4,1,1,70,0,1
79717,-90.9090909090909,4,1,1,80,0,1
80293,-111.111111111111,4,2,1,60,0,0
86063,-100,4,1,1,30,0,0
87409,-100,4,1,1,10,0,0

[Colours]
Combo1 : 255,47,47
Combo2 : 187,176,157
Combo3 : 142,145,98
Combo4 : 113,155,168

[HitObjects]
55,266,678,6,0,P|85:232|124:212,1,89.999997253418,0|0,1:0|0:0,0:0:0:0:
215,210,1254,1,0,0:0:0:0:
284,268,1543,1,2,0:0:0:0:
364,228,1831,2,0,P|404:128|404:88,1,134.999995880127,0|0,1:0|0:0,0:0:0:0:
368,20,2552,1,2,0:0:0:0:
240,60,2985,6,0,B|196:68|196:68|100:52,2,134.999995880127,6|0|8,0:0|0:0|0:0,0:0:0:0:
324,112,4139,2,0,P|336:172|328:264,1,150,2|0,0:0|0:0,0:0:0:0:
244,312,4860,2,2,L|136:304,1,99.9999999999999,10|8,0:0|0:0,0:0:0:0:
96,320,5293,6,0,P|124:264|92:168,2,150,2|0|8,0:0|0:0|0:0,0:0:0:0:
26,247,6447,2,0,P|5:176|34:109,1,150,2|2,0:0|0:0,0:0:0:0:
132,87,7168,2,2,L|235:94,1,99.9999999999999,2|0,0:0|0:0,0:0:0:0:
270,125,7601,22,0,P|288:172|288:228,1,99.9999999999999,4|8,0:0|0:0,0:0:0:0:
232,304,8178,1,0,0:0:0:0:
332,312,8466,1,8,0:0:0:0:
289,221,8755,2,0,P|237:209|168:216,1,99.9999999999999,0|8,0:0|0:0,0:0:0:0:
104,160,9332,2,0,P|104:104|120:60,1,99.9999999999999,0|8,0:0|0:0,0:0:0:0:
160,36,9764,6,0,B|197:23|197:23|320:52|320:52|352:40,2,200,6|2|2,0:0|0:0|0:0,0:0:0:0:
256,152,11351,2,2,B|268:192|256:228|256:228|244:264|256:300,1,150,0|2,0:0|0:0,0:0:0:0:
400,264,12216,22,2,P|412:216|416:156,1,99.9999999999999,4|8,0:0|0:2,0:0:0:0:
368,76,12793,1,2,0:0:0:0:
280,124,13082,1,8,0:2:0:0:
200,64,13370,2,0,L|48:72,2,150,0|0|8,0:0|0:0|0:2,0:0:0:0:
280,124,14524,38,0,B|296:172|296:172|292:228,1,99.9999999999999,8|0,0:2|0:0,0:0:0:0:
228,300,15101,2,0,B|184:320|184:320|112:316,1,99.9999999999999,8|8,0:2|0:2,0:0:0:0:
40,277,15678,2,0,P|91:225|164:222,2,150,0|0|8,0:0|0:0|0:2,0:0:0:0:
132,317,16832,5,4,0:0:0:0:
232,300,17120,1,8,0:2:0:0:
264,204,17409,2,2,P|264:152|236:96,1,99.9999999999999,2|8,0:0|0:2,0:0:0:0:
152,68,17985,2,0,P|92:84|8:60,2,150,0|0|8,0:0|0:0|0:2,0:0:0:0:
236,12,19139,6,0,L|336:24,1,99.9999999999999,0|8,0:0|0:2,0:0:0:0:
396,104,19716,2,0,L|296:115,1,99.9999999999999,0|8,0:0|0:2,0:0:0:0:
360,192,20293,2,0,L|464:204,2,99.9999999999999,0|8|4,0:0|0:2|0:2,0:0:0:0:
312,280,21159,1,4,0:2:0:0:
228,228,21447,38,2,P|204:172|204:128,1,99.9999999999999,4|8,0:0|0:0,0:0:0:0:
272,60,22024,1,2,0:0:0:0:
176,36,22312,1,8,0:0:0:0:
104,108,22601,2,0,P|104:184|136:272,2,150,0|2|8,0:0|0:0|0:0,0:0:0:0:
176,36,23755,22,0,P|216:56|276:60,1,99.9999999999999,0|8,0:0|0:0,0:0:0:0:
320,148,24332,2,0,P|268:168|232:216,1,99.9999999999999,0|8,0:0|0:0,0:0:0:0:
244,300,24909,2,0,P|304:340|384:328,2,150,0|0|8,0:0|0:0|0:0,0:0:0:0:
328,248,26062,21,4,0:0:0:0:
239,200,26351,1,8,0:0:0:0:
324,148,26639,2,2,P|328:88|312:40,1,99.9999999999999,2|8,0:0|0:0,0:0:0:0:
232,104,27216,2,0,B|212:104|192:97|192:97|144:120|84:112,2,150,0|0|8,0:0|0:0|0:0,0:0:0:0:
324,148,28370,6,0,P|396:136|468:168,1,150
488,212,28947,1,0,0:0:0:0:
480,312,29235,1,0,0:0:0:0:
392,360,29524,2,0,B|344:360|344:360|296:340|296:340|244:340,1,150,4|2,0:0|0:0,0:0:0:0:
144,344,30245,1,0,0:0:0:0:
232,224,30678,6,0,P|240:180|220:120,1,99.9999999999999,0|0,0:0|0:0,0:0:0:0:
140,184,31255,2,0,P|64:160|40:92,1,150,8|0,0:0|0:0,0:0:0:0:
56,52,31832,2,0,L|160:36,1,99.9999999999999,8|8,0:0|0:0,0:0:0:0:
244,84,32409,21,2,0:0:0:0:
336,48,32697,1,2,0:0:0:0:
268,180,33130,38,0,P|264:224|276:288,1,99.9999999999999,0|0,0:0|0:0,0:0:0:0:
316,304,33562,2,0,B|376:288|432:308|432:308|448:272,1,150,8|0,0:0|0:0,0:0:0:0:
464,232,34139,2,0,L|468:128,1,99.9999999999999,8|8,0:0|0:0,0:0:0:0:
424,44,34716,5,2,0:0:0:0:
336,92,35005,1,2,0:0:0:0:
204,24,35437,6,0,P|192:60|196:132,1,99.9999999999999,0|0,0:0|0:0,0:0:0:0:
216,168,35870,2,0,P|224:232|208:320,1,150,8|0,0:0|0:0,0:0:0:0:
172,348,36447,1,8,0:0:0:0:
72,347,36735,1,8,0:0:0:0:
24,260,37024,2,0,B|28:228|28:228|20:192|20:192|24:160,1,99.9999999999999,0|0,0:0|0:0,0:0:0:0:
100,96,37601,5,4,0:0:0:0:
160,176,37889,1,8,0:0:0:0:
244,120,38178,2,0,P|296:116|356:128,1,99.9999999999999,8|8,0:0|0:0,0:0:0:0:
404,204,38755,2,0,P|440:144|420:56,1,150,0|8,0:0|0:0,0:0:0:0:
336,24,39476,2,0,B|276:16|220:28|220:28|192:64|148:80,1,200,4|2,0:2|0:0,0:0:0:0:
56,88,40341,5,0,0:0:0:0:
116,168,40630,2,0,P|168:172|220:152,1,99.9999999999999,2|0,0:0|0:0,0:0:0:0:
296,212,41207,1,0,0:0:0:0:
232,292,41495,2,2,B|208:300|208:300|180:296|180:296|132:316|84:300,1,150,2|0,0:3|0:0,0:1:0:0:
16,216,42216,22,0,L|8:100,1,110.000003356934,4|8,0:0|0:0,0:0:0:0:
76,20,42793,1,0,2:0:0:0:
172,68,43082,1,10,0:0:0:0:
108,156,43370,2,0,P|172:176|260:132,1,165.0000050354,0|0,0:0|0:0,0:0:0:0:
276,28,44091,2,2,L|396:32,1,110.000003356934,2|0,0:0|2:0,0:0:0:0:
432,64,44524,5,0,0:0:0:0:
368,156,44812,1,8,0:0:0:0:
452,228,45101,2,0,P|456:292|444:336,1,110.000003356934,0|10,0:0|0:0,0:0:0:0:
340,372,45678,2,0,P|284:344|176:352,1,165.0000050354,0|0,0:0|0:0,0:0:0:0:
92,288,46399,2,2,B|76:236|76:236|80:180,1,110.000003356934,2|0,0:0|0:0,0:0:0:0:
108,132,46832,6,0,B|112:76|112:76|96:24,2,110.000003356934,4|8|0,0:0|0:0|0:0,0:0:0:0:
188,208,47697,1,8,0:0:0:0:
276,140,47985,2,0,B|308:116|308:116|444:136,1,165.0000050354,0|0,0:0|0:0,0:0:0:0:
504,216,48707,1,0,0:0:0:0:
416,284,48995,22,2,B|384:308|384:308|248:288,1,165.0000050354,6|8,0:0|0:0,0:0:0:0:
188,208,49716,1,0,0:0:0:0:
192,100,50005,1,8,0:0:0:0:
273,26,50293,2,0,L|398:40,1,110.000003356934,2|10,0:0|0:0,0:0:0:0:
420,77,50726,2,2,P|426:158|391:232,1,165.0000050354,2|8,0:0|0:0,0:0:0:0:
292,280,51447,5,4,0:0:0:0:
188,240,51735,1,8,0:0:0:0:
156,136,52024,2,0,L|164:24,1,110.000003356934,0|10,2:0|0:0,0:0:0:0:
64,72,52601,2,0,L|52:240,1,165.0000050354,0|0,0:0|0:0,0:0:0:0:
124,320,53322,2,2,B|180:308|180:308|236:316,1,110.000003356934,2|0,0:0|2:0,0:0:0:0:
288,324,53755,5,0,0:0:0:0:
380,264,54043,1,8,0:0:0:0:
464,336,54332,2,0,P|484:288|484:220,1,110.000003356934,0|10,2:0|0:0,0:0:0:0:
400,160,54909,2,0,P|312:180|240:136,1,165.0000050354,0|0,0:0|0:0,0:0:0:0:
332,72,55630,2,2,P|392:52|448:60,1,110.000003356934,2|0,0:0|0:0,0:0:0:0:
484,88,56062,22,0,P|504:128|504:200,2,110.000003356934,4|8|0,0:0|0:0|0:0,0:0:0:0:
400,160,56928,1,8,0:0:0:0:
316,232,57216,2,0,P|315:286|338:336,1,110.000003356934,0|8,0:0|0:0,0:0:0:0:
422,264,57793,1,0,0:0:0:0:
340,124,58226,6,2,P|264:104|168:116,1,165.0000050354,6|8,0:0|0:0,0:0:0:0:
136,148,58803,1,4,0:0:0:0:
120,257,59091,1,2,0:0:0:0:
33,189,59380,2,2,P|33:113|106:42,1,165.0000050354,6|10,0:0|0:0,0:0:0:0:
200,60,60101,2,0,L|264:68,1,55.0000016784668,0|10,0:0|0:0,0:0:0:0:
376,152,60678,21,4,0:0:0:0:
332,244,60966,1,8,0:0:0:0:
432,236,61255,1,4,0:2:0:0:
320,68,61832,38,0,L|156:64,1,150,0|2,0:0|0:0,0:0:0:0:
92,128,62553,2,0,P|80:172|88:232,1,99.9999999999999,0|0,0:0|0:0,0:0:0:0:
116,264,62985,5,4,0:0:0:0:
176,184,63274,1,8,0:0:0:0:
260,240,63562,1,4,0:2:0:0:
92,128,64139,6,0,P|88:68|104:24,1,99.9999999999999,0|8,0:0|0:0,0:0:0:0:
184,84,64716,2,0,P|224:52|288:40,1,99.9999999999999,2|8,0:0|0:0,0:0:0:0:
268,140,65293,37,4,0:0:0:0:
352,196,65582,1,8,0:0:0:0:
440,152,65870,1,4,0:2:0:0:
260,240,66447,22,0,B|232:252|232:252|104:244,1,150,0|2,0:0|0:0,0:0:0:0:
12,232,67168,2,0,P|40:176|76:152,1,99.9999999999999
118,144,67601,6,0,L|107:94,1,50,4|0,0:2|0:0,0:0:0:0:
196,47,68034,2,0,L|205:95,2,50,2|0|0,0:0|0:0|0:0,0:0:0:0:
297,54,68610,2,0,L|306:102,2,50,2|0|0,0:0|0:0|0:0,0:0:0:0:
397,60,69187,2,0,L|406:108,2,50,2|8|0,0:0|0:0|0:0,0:0:0:0:
414,12,69620,1,8,0:0:0:0:
507,69,69909,6,2,P|509:132|484:186,1,110.000003356934,4|8,0:0|0:0,0:0:0:0:
414,251,70485,1,2,0:0:0:0:
308,224,70774,1,8,0:0:0:0:
220,292,71062,2,0,P|200:220|208:176,1,110.000003356934,0|8,0:0|0:0,0:0:0:0:
236,140,71495,2,2,B|192:160|192:160|60:148,1,165.0000050354,0|8,0:0|0:0,0:0:0:0:
64,40,72216,6,0,L|180:52,1,110.000003356934,0|8,0:0|0:0,0:0:0:0:
284,40,72793,2,0,L|400:52,1,110.000003356934,0|8,0:0|0:0,0:0:0:0:
452,144,73370,2,0,P|444:208|420:252,1,110.000003356934,2|8,0:0|0:0,0:0:0:0:
376,272,73803,2,2,P|304:236|216:252,1,165.0000050354,2|8,0:0|0:0,0:0:0:0:
148,328,74524,37,4,0:0:0:0:
112,224,74812,1,8,0:0:0:0:
184,144,75101,2,2,P|192:88|184:32,1,110.000003356934,2|8,0:0|0:0,0:0:0:0:
284,88,75678,2,0,P|360:104|452:72,1,165.0000050354
468,188,76399,2,2,P|456:240|456:312,1,110.000003356934,2|0,0:0|0:0,0:0:0:0:
476,348,76832,21,8,0:0:0:0:
368,364,77120,1,8,0:0:0:0:
288,292,77409,2,0,P|276:232|276:172,1,110.000003356934,8|8,0:0|0:0,0:0:0:0:
364,116,77985,2,0,P|362:61|351:7,2,110.000003356934,2|8|2,0:0|0:0|0:0,0:0:0:0:
456,180,78851,1,8,0:0:0:0:
380,260,79139,6,0,B|324:268|276:232|276:232|220:248|171:223|171:223|172:164|128:124,1,330.000010070801,4|8,0:0|0:0,0:0:0:0:
38,118,80293,21,4,0:0:0:0:
90,44,80582,1,0,0:0:0:0:
179,52,80870,1,2,0:0:0:0:
168,232,81447,2,0,L|159:371,1,134.999995880127,2|0,0:0|0:0,0:0:0:0:
80,324,82168,2,0,P|56:264|56:184,1,134.999995880127,0|2,0:0|0:0,0:0:0:0:
104,120,82889,5,0,0:0:0:0:
192,96,83178,2,0,L|296:108,1,89.999997253418,2|0,0:0|0:0,0:0:0:0:
344,172,83755,2,0,P|332:240|272:280,1,134.999995880127,2|0,0:0|0:0,0:0:0:0:
192,297,84476,2,0,P|203:232|256:192,1,134.999995880127,2|4,0:0|1:3,0:0:0:0:
256,192,84981,12,0,87409,2:0:0:0:
