osu file format v14

[General]
AudioFilename: lol.mp3
AudioLeadIn: 1000
PreviewTime: 42145
Countdown: 0
SampleSet: Normal
StackLeniency: 0.5
Mode: 0
LetterboxInBreaks: 0
WidescreenStoryboard: 1

[Editor]
Bookmarks: 12221,16836,21452,26067,32413,34721,69909,74524
DistanceSpacing: 1.1
BeatDivisor: 4
GridSize: 4
TimelineZoom: 1

[Metadata]
Title:L.L.L.
TitleUnicode:L.L.L.
Artist:MYTH & ROID
ArtistUnicode:MYTH & ROID
Creator:jonathanlfj
Version:Hard
Source:オーバーロード
Tags:Overlord ending ed albedo madhouse tv size ミスアンドロイド Trust Raose TTMouse Nyquill Irreversible captin1 and
BeatmapID:783570
BeatmapSetID:334466

[Difficulty]
HPDrainRate:5
CircleSize:3.8
OverallDifficulty:5.5
ApproachRate:7.3
SliderMultiplier:1.3
SliderTickRate:1

[Events]
//Background and Video events
0,0,"51338548_p0.jpg",0,0
Video,-450,"dude nice.avi"
//Break Periods
//Storyboard Layer 0 (Background)
//Storyboard Layer 1 (Fail)
//Storyboard Layer 2 (Pass)
//Storyboard Layer 3 (Foreground)
//Storyboard Sound Samples

[TimingPoints]
678,288.461538461538,4,2,1,50,1,0
678,-125,4,2,1,50,0,0
2986,288.461538461538,4,1,1,70,1,0
12216,-90.9090909090909,4,1,1,70,0,0
13082,-100,4,1,1,60,0,0
16832,-90.9090909090909,4,1,1,70,0,0
17697,-100,4,1,1,60,0,0
21447,-90.9090909090909,4,1,1,70,0,0
22312,-100,4,1,1,60,0,0
26062,-90.9090909090909,4,1,1,70,0,0
26928,-100,4,1,1,60,0,0
29524,-125,4,2,1,60,0,0
30678,-100,4,1,1,70,0,0
32409,-133.333333333333,4,2,1,30,0,0
33130,-100,4,1,1,75,0,0
34716,-133.333333333333,4,2,1,30,0,0
35438,-100,4,1,1,80,0,0
37024,-100,4,1,1,60,0,0
37601,-100,4,1,1,70,0,0
40053,-111.111111111111,4,2,1,60,0,0
41928,-100,4,2,1,20,0,0
42216,-90.9090909090909,4,1,1,80,0,1
60678,-100,4,1,1,70,0,0
69909,-90.9090909090909,4,1,1,80,0,1
79139,-90.9090909090909,4,1,1,70,0,1
79716,-90.9090909090909,4,1,1,80,0,1
80293,-125,4,2,1,60,0,0
86063,-100,4,1,1,30,0,0
87409,-100,4,2,1,10,0,0

[Colours]
Combo1 : 255,47,47
Combo2 : 187,176,157
Combo3 : 142,145,98
Combo4 : 113,155,168

[HitObjects]
65,212,678,5,0,1:0:0:0:
173,272,966,1,0,0:0:0:0:
245,172,1254,2,0,L|249:112,2,52,0|2|2,0:0|0:0|0:0,0:0:0:0:
301,284,1831,1,0,1:0:0:0:
301,284,1976,2,0,P|345:308|407:312,2,104,0|0|2,0:0|0:0|0:0,0:0:0:0:
400,92,2986,6,0,P|448:84|476:84,2,65,6|0|8,0:0|0:0|0:0,0:0:0:0:
336,126,3418,2,2,P|288:130|204:102,1,130,0|2,0:0|0:0,0:0:0:0:
164,52,3851,1,8,0:0:0:0:
80,168,4139,2,0,L|84:244,1,65,2|0,0:0|0:0,0:0:0:0:
140,284,4428,1,8,0:0:0:0:
140,284,4572,2,2,P|204:264|272:280,1,130,0|10,0:0|0:0,0:0:0:0:
388,348,5149,1,8,0:0:0:0:
388,348,5221,1,0,0:0:0:0:
388,348,5293,6,0,P|444:324|456:256,1,130,2|8,0:0|0:0,0:0:0:0:
408,208,5726,2,2,P|400:168|464:104,1,130,0|2,0:0|0:0,0:0:0:0:
472,176,6159,1,8,0:0:0:0:
336,224,6447,2,0,L|252:232,2,65,2|0|8,0:0|0:0|0:0,0:0:0:0:
359,156,6880,2,2,P|360:100|308:32,2,130,2|2|0,0:0|0:0|0:0,0:0:0:0:
336,224,7601,21,4,0:0:0:0:
152,160,7889,1,8,0:0:0:0:
300,32,8178,1,0,0:0:0:0:
336,224,8466,1,8,0:0:0:0:
264,223,8610,1,0,2:0:0:0:
192,223,8755,1,0,0:0:0:0:
353,295,9043,1,8,0:0:0:0:
458,154,9332,2,0,P|460:120|446:84,2,65,0|0|8,0:0|2:0|0:0,0:0:0:0:
388,132,9764,6,2,B|356:120|356:120|196:108,1,195,6|8,0:0|0:0,0:0:0:0:
144,160,10341,2,2,P|136:228|168:288,1,130,2|0,0:0|0:0,0:0:0:0:
228,312,10774,1,8,0:0:0:0:
278,260,10918,2,2,P|286:192|254:132,1,130,2|0,0:0|0:0,0:0:0:0:
195,107,11351,1,0,0:0:0:0:
97,212,11639,1,8,0:0:0:0:
97,212,11784,2,2,L|106:342,1,130,2|0,0:0|2:0,0:0:0:0:
178,373,12216,22,2,P|224:367|262:345,1,71.5000021820069,4|0,0:0|2:0,0:0:0:0:
283,287,12505,2,2,P|334:277|366:281,1,71.5000021820069,8|0,0:2|2:0,0:0:0:0:
408,334,12793,1,2,0:0:0:0:
353,202,13082,38,0,P|346:143|350:117,1,65,8|8,0:2|0:2,0:0:0:0:
389,80,13370,2,0,L|475:68,2,65,2|0|0,0:0|0:0|0:0,0:0:0:0:
316,72,13803,2,2,P|244:92|168:68,1,130,0|2,0:0|0:0,0:0:0:0:
130,43,14235,1,8,0:2:0:0:
88,180,14524,22,0,B|80:244|80:244|104:308,1,130,8|0,0:2|0:0,0:0:0:0:
168,344,14957,1,0,0:0:0:0:
168,344,15101,2,0,B|233:324|233:324|296:352,1,130,8|8,0:2|0:2,0:0:0:0:
414,279,15678,2,0,P|423:215|400:148,1,130,0|8,0:0|0:2,0:0:0:0:
338,122,16110,2,0,L|201:130,2,130,0|8|8,0:0|0:3|0:2,0:0:0:0:
377,53,16832,38,2,L|453:48,1,71.5000021820069,4|0,0:0|2:0,0:0:0:0:
501,106,17120,2,2,L|501:183,1,71.5000021820069,8|0,0:2|2:0,0:0:0:0:
438,225,17409,1,2,0:0:0:0:
338,122,17697,22,0,P|304:113|260:114,1,65,8|8,0:2|0:2,0:0:0:0:
210,144,17985,2,0,P|158:151|138:149,2,65,2|0|0,0:0|0:0|0:0,0:0:0:0:
269,184,18418,2,2,P|288:275|277:329,1,130,0|2,0:0|0:0,0:0:0:0:
234,363,18851,1,8,0:2:0:0:
130,263,19139,5,0,0:0:0:0:
130,263,19284,2,0,P|111:172|122:118,1,130
162,81,19716,1,0,0:0:0:0:
162,81,19860,2,0,P|219:93|294:78,1,130,0|0,0:0|0:0,0:0:0:0:
349,118,20293,2,0,L|363:196,1,65,0|0,0:0|0:0,0:0:0:0:
320,241,20582,2,0,L|311:318,1,65,8|0,0:2|0:0,0:0:0:0:
358,360,20870,1,4,0:2:0:0:
256,208,21159,1,4,0:2:0:0:
423,97,21447,6,2,P|431:51|427:22,1,71.5000021820069,4|0,0:0|2:0,0:0:0:0:
355,54,21735,2,2,P|317:20|287:9,1,71.5000021820069,8|0,0:0|2:0,0:0:0:0:
287,91,22024,1,2,0:0:0:0:
404,172,22312,6,0,P|435:172|475:155,1,65,8|8,0:0|0:0,0:0:0:0:
466,160,22601,2,0,L|459:301,1,130,2|8,0:0|0:0,0:0:0:0:
396,325,23034,2,2,P|308:304|250:324,1,130
216,359,23466,1,8,0:0:0:0:
282,232,23755,6,0,P|289:183|281:155,2,65,0|0|8,0:0|0:0|0:0,0:0:0:0:
219,196,24187,1,0,0:0:0:0:
157,232,24332,2,0,B|146:207|146:207|164:84,1,130,0|8,0:0|0:0,0:0:0:0:
31,166,24909,2,0,B|42:191|42:191|24:314,1,130,0|8,0:0|0:2,0:0:0:0:
15,363,25341,2,0,P|70:334|154:332,1,130,0|8,0:0|0:2,0:0:0:0:
204,351,25774,1,8,0:0:0:0:
332,259,26062,22,2,L|341:182,1,71.5000021820069,4|0,0:0|2:0,0:0:0:0:
282,134,26351,2,2,L|275:47,1,71.5000021820069,8|0,0:0|2:0,0:0:0:0:
214,13,26639,1,2,0:0:0:0:
157,144,26928,38,0,P|151:195|153:218,1,65,8|8,0:0|0:0,0:0:0:0:
189,269,27216,2,0,P|188:310|178:347,2,65,2|0|8,0:0|0:0|0:0,0:0:0:0:
137,219,27649,2,2,L|-5:213,2,130,0|2|2,0:0|0:0|0:0,0:0:0:0:
209,250,28370,22,0,P|270:250|315:199,1,130
310,124,28803,1,0,0:0:0:0:
310,124,28875,1,0,0:0:0:0:
310,124,28947,2,0,L|302:49,1,65,0|8,0:0|0:3,0:0:0:0:
389,14,29235,2,0,L|395:78,1,65,0|0,0:0|0:0,0:0:0:0:
392,174,29524,1,4,0:0:0:0:
392,174,30678,5,0,0:0:0:0:
392,174,30822,2,0,L|301:159,1,65,0|0,0:0|0:0,0:0:0:0:
276,221,31110,2,0,L|192:228,1,65,0|8,0:0|0:0,0:0:0:0:
211,226,31687,6,0,P|218:268|216:298,1,65,0|8,0:0|0:0,0:0:0:0:
143,266,31976,2,0,P|136:224|138:194,1,65,0|8,0:0|0:0,0:0:0:0:
204,120,32409,5,2,0:0:0:0:
308,120,32697,1,2,0:0:0:0:
204,120,33130,5,0,0:0:0:0:
156,189,33274,2,0,L|153:266,1,65
197,326,33562,1,8,0:0:0:0:
197,326,33995,6,0,P|240:332|276:328,1,65,0|8,0:0|0:0,0:0:0:0:
344,356,34284,2,0,P|368:332|384:300,1,65,0|8,0:0|0:0,0:0:0:0:
316,204,34716,21,2,0:0:0:0:
196,204,35005,1,2,0:0:0:0:
316,204,35437,37,0,0:0:0:0:
394,252,35582,2,0,P|407:208|405:168,1,65
349,119,35870,1,8,0:0:0:0:
349,119,36303,22,0,L|272:121,1,65,0|8,0:0|0:0,0:0:0:0:
224,188,36591,2,0,L|142:179,1,65,0|8,0:0|0:0,0:0:0:0:
69,67,37024,2,0,L|57:26,3,32.5,0|0|0|0,0:0|0:0|0:0|0:0,0:0:0:0:
69,67,37312,2,0,P|106:58|141:59,1,65,0|8,0:0|0:3,0:0:0:0:
199,83,37601,5,4,0:0:0:0:
256,252,37889,1,8,0:0:0:0:
313,83,38178,1,8,0:0:0:0:
168,188,38466,1,8,0:0:0:0:
344,188,38755,1,0,0:0:0:0:
372,122,38899,2,0,L|389:79,2,32.5,8|8|0,0:2|0:2|0:0,0:0:0:0:
415,180,39187,2,0,B|426:221|426:221|422:265|422:265|435:310,1,130,8|4,0:0|0:2,0:0:0:0:
434,306,40053,6,0,L|371:302,1,58.4999982147217,2|0,0:0|0:0,0:0:0:0:
308,338,40341,2,0,L|241:343,1,58.4999982147217,0|2,0:0|0:0,0:0:0:0:
187,298,40630,2,0,L|112:290,2,58.4999982147217,2|0|0,0:0|0:0|0:0,0:0:0:0:
255,264,41062,1,2,0:0:0:0:
298,202,41207,2,0,P|306:154|302:131,1,58.4999982147217,0|2,0:0|0:0,0:0:0:0:
257,84,41495,6,2,P|183:123|236:164,1,175.499994644165,2|0,0:3|0:0,1:0:0:0:
257,84,42216,6,0,P|196:23|129:37,1,143.000004364014,4|8,0:0|0:0,0:0:0:0:
82,172,42793,2,2,P|123:183|157:181,1,71.5000021820069,0|2,2:0|0:0,0:0:0:0:
226,158,43082,1,10,0:0:0:0:
312,289,43370,1,0,0:0:0:0:
312,289,43514,2,0,L|295:373,1,71.5000021820069,0|8,0:0|0:0,0:0:0:0:
389,297,43803,2,2,P|364:231|287:215,2,143.000004364014,0|2|0,0:0|0:0|2:0,0:0:0:0:
312,289,44524,5,0,0:0:0:0:
427,181,44812,2,0,P|440:130|437:100,1,71.5000021820069,8|2,0:0|0:0,0:0:0:0:
390,50,45101,2,2,B|345:58|345:58|235:40,1,143.000004364014,0|10,0:0|0:0,0:0:0:0:
110,118,45678,2,0,P|100:154|100:196,1,71.5000021820069,0|0,0:0|0:0,0:0:0:0:
134,258,45966,1,8,0:0:0:0:
204,224,46110,2,2,B|249:216|249:216|359:234,1,143.000004364014
250,357,46687,1,0,0:0:0:0:
250,357,46760,1,0,0:0:0:0:
250,357,46832,6,0,P|175:329|105:342,1,143.000004364014,4|8,0:0|0:0,0:0:0:0:
260,279,47409,2,0,P|335:251|405:264,1,143.000004364014,0|8,0:0|0:0,0:0:0:0:
249,202,47985,2,0,P|174:174|104:187,1,143.000004364014,0|8,0:0|0:0,0:0:0:0:
50,230,48418,2,0,L|64:308,1,71.5000021820069,0|0,0:0|2:0,0:0:0:0:
113,183,48707,2,0,L|126:102,1,71.5000021820069,0|8,0:0|0:0,0:0:0:0:
177,227,48995,22,2,P|240:246|316:236,1,143.000004364014,4|2,0:0|0:0,0:0:0:0:
379,190,49428,1,8,0:0:0:0:
329,339,49716,1,0,0:0:0:0:
469,268,50005,1,8,0:0:0:0:
315,236,50293,2,2,P|304:202|308:148,1,71.5000021820069,2|0,0:0|0:0,0:0:0:0:
360,112,50582,1,10,0:0:0:0:
304,56,50726,2,2,P|207:38|137:52,1,143.000004364014,2|0,0:0|0:0,0:0:0:0:
35,134,51303,1,8,0:0:0:0:
35,134,51375,1,0,0:0:0:0:
35,134,51447,6,0,B|60:201|60:201|40:277,1,143.000004364014,4|8,0:0|0:0,0:0:0:0:
171,359,52024,2,0,L|193:279,1,71.5000021820069,0|2,2:0|0:0,0:0:0:0:
251,240,52312,2,2,L|227:168,1,71.5000021820069,10|0,0:0|2:0,0:0:0:0:
165,125,52601,1,0,0:0:0:0:
165,125,52745,2,0,L|176:39,1,71.5000021820069,0|8,0:0|0:0,0:0:0:0:
246,24,53034,2,2,P|310:44|396:26,2,143.000004364014,0|2|0,0:0|0:0|2:0,0:0:0:0:
174,54,53755,5,0,0:0:0:0:
296,153,54043,1,8,0:0:0:0:
169,246,54332,2,0,P|157:290|158:323,1,71.5000021820069,0|0,2:0|0:0,0:0:0:0:
233,295,54620,2,0,P|268:326|299:334,1,71.5000021820069,10|0,0:0|2:0,0:0:0:0:
303,255,54909,2,0,P|371:252|447:289,1,143.000004364014,0|8,0:0|0:0,0:0:0:0:
481,215,55341,2,2,B|461:203|461:203|450:144|467:70,1,143.000004364014
311,43,55918,1,0,0:0:0:0:
311,43,55990,1,0,0:0:0:0:
311,43,56062,21,4,0:0:0:0:
180,130,56351,1,8,0:0:0:0:
361,127,56639,1,0,0:0:0:0:
206,223,56928,1,8,0:0:0:0:
275,261,57072,1,0,2:0:0:0:
273,182,57216,1,0,0:0:0:0:
139,265,57505,2,0,L|17:255,1,107.25000327301,8|8,0:0|0:3,0:0:0:0:
32,256,57793,2,0,B|21:220|21:220|23:182,1,71.5000021820069,0|8,0:0|0:3,0:0:0:0:
67,121,58082,1,8,0:0:0:0:
134,160,58226,6,2,B|181:181|236:167|236:167|291:153|347:172,1,214.500006546021,6|8,0:0|0:0,0:0:0:0:
387,237,58803,2,2,P|365:185|388:86,1,143.000004364014,4|2,0:0|0:0,0:0:0:0:
443,56,59235,1,8,0:0:0:0:
443,56,59380,2,2,P|465:108|442:207,1,143.000004364014,6|8,0:0|0:2,0:0:0:0:
387,237,59812,1,10,0:0:0:0:
269,132,60101,1,0,0:0:0:0:
269,132,60173,1,0,0:0:0:0:
269,132,60245,2,2,B|236:105|236:105|244:212,1,143.000004364014,10|0,0:0|2:0,0:0:0:0:
248,292,60678,21,4,0:0:0:0:
252,296,60966,1,8,0:0:0:0:
256,300,61255,1,4,0:2:0:0:
260,304,61543,2,2,L|392:296,1,130,10|0,0:0|0:0,0:0:0:0:
437,242,61976,38,0,P|419:199|416:172,1,65,0|8,0:0|0:0,0:0:0:0:
443,114,62264,2,2,P|400:144|313:150,1,130,2|0,0:0|0:0,0:0:0:0:
255,130,62697,2,2,L|245:61,1,65,10|0,0:0|0:0,0:0:0:0:
172,16,62985,5,4,0:0:0:0:
168,20,63274,1,8,0:0:0:0:
164,24,63562,1,4,0:2:0:0:
160,28,63851,2,2,L|144:168,1,130,10|0,0:0|0:0,0:0:0:0:
98,211,64284,6,0,B|124:195|124:195|248:203,1,130,0|2,0:0|0:0,0:0:0:0:
284,240,64716,1,2,0:0:0:0:
288,244,64860,2,2,B|314:260|314:260|438:252,1,130,0|2,0:0|0:0,0:0:0:0:
488,204,65293,37,4,0:0:0:0:
484,200,65582,1,8,0:0:0:0:
480,196,65870,1,4,0:2:0:0:
476,192,66159,2,2,L|488:48,1,130,10|0,0:0|0:0,0:0:0:0:
422,29,66591,22,0,P|375:44|348:44,1,65,0|8,0:0|0:0,0:0:0:0:
294,14,66880,2,2,P|345:58|340:120,1,130,2|0,0:0|0:0,0:0:0:0:
287,162,67312,2,2,L|279:237,1,65,10|0,0:0|0:0,0:0:0:0:
328,285,67601,5,4,0:2:0:0:
328,285,67745,1,0,0:0:0:0:
209,196,68034,1,2,0:0:0:0:
209,196,68178,2,0,L|132:205,1,65,0|0,0:0|0:0,0:0:0:0:
337,104,68610,1,2,0:0:0:0:
337,104,68755,2,0,L|414:113,1,65,0|0,0:0|0:0,0:0:0:0:
189,12,69187,1,2,0:0:0:0:
189,12,69332,2,0,L|112:21,1,65,8|0,0:0|0:0,0:0:0:0:
213,91,69620,2,0,L|143:125,1,65,8|8,0:0|0:3,0:0:0:0:
285,130,69909,6,2,P|338:139|410:127,1,107.25000327301,4|0,0:0|2:0,0:0:0:0:
407,125,70197,2,2,P|426:164|434:235,1,107.25000327301,8|0,0:0|2:0,0:0:0:0:
426,242,70485,2,2,B|413:260|395:276|395:276|445:275|494:298,1,143.000004364014,2|10,0:0|0:0,0:0:0:0:
339,346,71062,6,0,P|297:346|262:335,1,71.5000021820069,0|0,0:0|2:0,0:0:0:0:
215,280,71351,1,8,0:0:0:0:
215,280,71495,2,2,P|136:305|68:281,1,143.000004364014,0|2,0:0|0:0,0:0:0:0:
40,221,71928,2,0,L|33:136,1,71.5000021820069,8|0,0:0|0:0,0:0:0:0:
72,80,72216,5,0,0:0:0:0:
176,197,72505,1,8,0:0:0:0:
288,66,72793,1,0,0:0:0:0:
392,222,73082,2,0,L|386:306,1,71.5000021820069,8|0,0:0|2:0,0:0:0:0:
472,266,73370,2,0,L|477:194,1,71.5000021820069,2|0,0:0|0:0,0:0:0:0:
422,138,73659,1,8,0:0:0:0:
422,138,73803,2,2,B|375:140|375:140|330:157|330:157|281:159,1,143.000004364014
211,123,74235,2,0,P|201:84|198:43,1,71.5000021820069,8|0,0:0|0:0,0:0:0:0:
201,43,74452,1,0,0:0:0:0:
204,35,74524,22,2,P|140:30|87:52,1,107.25000327301,4|0,0:0|2:0,0:0:0:0:
90,54,74812,2,2,P|111:113|101:169,1,107.25000327301,8|0,0:0|2:0,0:0:0:0:
100,169,75101,2,2,B|89:187|72:201|72:201|126:193|173:212,1,143.000004364014,2|10,0:0|0:0,0:0:0:0:
287,316,75678,38,0,P|247:329|205:325,1,71.5000021820069,0|0,0:0|0:0,0:0:0:0:
240,252,75966,1,8,0:0:0:0:
318,243,76110,2,2,L|472:226,1,143.000004364014,0|2,0:0|0:0,0:0:0:0:
491,300,76543,2,0,L|416:308,1,71.5000021820069,8|0,0:0|0:0,0:0:0:0:
342,317,76832,21,8,0:0:0:0:
470,225,77120,1,8,0:0:0:0:
301,251,77409,1,8,0:0:0:0:
391,88,77697,1,8,0:0:0:0:
233,211,77985,2,2,L|149:216,1,71.5000021820069,10|0,0:0|0:0,0:0:0:0:
254,134,78274,1,8,0:0:0:0:
254,134,78418,2,2,P|304:181|300:251,1,143.000004364014,2|0,0:0|0:0,0:0:0:0:
234,291,78851,2,0,L|150:296,1,71.5000021820069,8|0,0:0|0:0,0:0:0:0:
92,259,79139,38,0,P|87:191|120:146,1,107.25000327301,4|0,0:0|0:0,0:0:0:0:
137,136,79428,2,0,P|184:163|241:167,1,107.25000327301,8|0,0:0|0:0,0:0:0:0:
275,167,79716,2,0,P|328:162|375:136,1,107.25000327301,8|0,0:0|0:0,0:0:0:0:
406,158,80005,2,0,P|428:206|420:259,1,107.25000327301,8|0,0:0|0:0,0:0:0:0:
400,280,80293,21,4,0:0:0:0:
280,246,80582,1,0,0:0:0:0:
174,312,80870,2,0,L|161:373,2,52,2|0|0,0:0|0:0|0:0,0:0:0:0:
166,187,81447,1,2,0:0:0:0:
166,187,81591,2,0,P|131:152|64:133,1,104,0|0,0:0|0:0,0:0:0:0:
202,104,82168,2,0,P|245:77|297:72,1,104,0|0,0:0|0:0,0:0:0:0:
297,72,82601,5,2,0:0:0:0:
287,196,82889,1,0,0:0:0:0:
165,223,83178,1,2,0:0:0:0:
98,117,83466,1,0,0:0:0:0:
180,23,83755,1,2,0:0:0:0:
180,23,83899,2,0,P|191:81|216:129,1,104
306,201,84476,2,0,B|307:263|268:309|268:309|258:292|256:273,1,156,2|4,0:0|1:3,0:0:0:0:
256,192,84981,12,2,86062,2:0:0:0:
256,192,86135,12,0,87409,2:0:0:0:
