osu file format v14

[General]
AudioFilename: audio.mp3
AudioLeadIn: 0
PreviewTime: 43412
Countdown: 0
SampleSet: Soft
StackLeniency: 0.7
Mode: 0
LetterboxInBreaks: 0
WidescreenStoryboard: 1

[Editor]
DistanceSpacing: 1.1
BeatDivisor: 4
GridSize: 32
TimelineZoom: 2.7

[Metadata]
Title:L.L.L. (TV Size)
TitleUnicode:L.L.L. (TV Size)
Artist:MYTH & ROID
ArtistUnicode:MYTH & ROID
Creator:Kuki1537
Version:XENON'S HARD
Source:オーバーロード
Tags:overlord ending ed albedo j-rock jrock j rock anime japanese female vocal ミスアンドロイド season 1 s1 lll nyantiaz browiec xenon- xehn xen skyflame english and
BeatmapID:2834373
BeatmapSetID:1361680

[Difficulty]
HPDrainRate:5
CircleSize:3.8
OverallDifficulty:6.5
ApproachRate:8
SliderMultiplier:0.999999999999999
SliderTickRate:1

[Events]
//Background and Video events
0,0,"albedo.jpg",0,0
Video,840,"vid.avi"
//Break Periods
//Storyboard Layer 0 (Background)
//Storyboard Layer 1 (Fail)
//Storyboard Layer 2 (Pass)
//Storyboard Layer 3 (Foreground)
//Storyboard Layer 4 (Overlay)
//Storyboard Sound Samples

[TimingPoints]
1946,288.461538461538,4,2,1,70,1,0
1946,-83.3333333333333,4,2,1,70,0,0
4254,-71.4285714285714,4,2,1,70,0,0
17739,-71.4285714285714,4,2,2,70,0,0
17811,-71.4285714285714,4,2,1,70,0,0
26537,-71.4285714285714,4,2,2,70,0,0
26609,-71.4285714285714,4,2,1,70,0,0
26897,-71.4285714285714,4,2,2,70,0,0
27042,-71.4285714285714,4,2,1,70,0,0
30503,-71.4285714285714,4,2,2,70,0,0
30792,-71.4285714285714,4,2,1,70,0,0
40311,-71.4285714285714,4,2,2,70,0,0
40455,-71.4285714285714,4,2,1,70,0,0
43484,-64.5161290322581,4,2,1,70,0,1
52138,-64.5161290322581,4,2,2,70,0,1
52282,-64.5161290322581,4,2,1,70,0,1
59061,-64.5161290322581,4,2,2,70,0,1
59349,-64.5161290322581,4,2,1,70,0,1
61945,-71.4285714285714,4,2,1,70,0,0
81561,-83.3333333333333,4,2,1,70,0,0
86177,-71.4285714285714,4,2,1,70,0,0
86248,-71.4285714285714,4,2,2,70,0,0
86465,-71.4285714285714,4,2,1,70,0,0
86537,-71.4285714285714,4,2,3,70,0,0
86609,-71.4285714285714,4,2,1,70,0,0
86825,-71.4285714285714,4,2,2,70,0,0
87186,-71.4285714285714,4,2,1,70,0,0

[Colours]
Combo1 : 189,185,179
Combo2 : 190,170,129
Combo3 : 179,139,113
Combo4 : 114,102,80

[HitObjects]
237,319,1946,6,0,L|254:176,1,119.999996337891,6|2,1:2|0:2,0:0:0:0:
371,99,2522,2,0,L|363:35,2,59.9999981689453,2|2|2,0:2|0:2|0:2,0:0:0:0:
216,121,3099,6,0,P|193:102|163:99,1,59.9999981689453,6|2,1:2|0:2,0:0:0:0:
40,194,3532,2,0,L|54:313,1,119.999996337891,2|2,0:2|0:2,0:0:0:0:
248,266,4254,6,0,B|324:250|304:309|380:292,1,139.999995727539,6|10,1:2|0:2,0:0:0:0:
448,333,4686,1,2,1:2:0:0:
511,283,4830,2,0,L|502:213,1,69.9999978637695,0|2,0:0|1:2,0:0:0:0:
434,170,5119,2,0,L|445:74,1,69.9999978637695,10|2,0:2|0:2,0:0:0:0:
384,44,5407,5,2,0:2:0:0:
313,81,5552,2,0,P|286:59|251:55,1,69.9999978637695,2|10,1:2|0:2,0:0:0:0:
177,27,5840,2,0,P|213:52|200:113,1,104.999996795654,2|0,1:2|0:0,0:0:0:0:
201,116,6128,2,0,L|209:185,1,69.9999978637695,10|0,0:2|1:0,0:0:0:0:
261,246,6417,1,10,0:2:0:0:
214,311,6561,6,0,L|75:293,1,139.999995727539,6|10,1:2|0:2,0:0:0:0:
20,235,6994,1,2,1:2:0:0:
68,171,7138,2,0,P|64:136|42:109,1,69.9999978637695,0|2,0:0|1:2,0:0:0:0:
81,39,7427,2,0,L|150:47,1,69.9999978637695,10|2,0:2|0:2,0:0:0:0:
206,104,7715,5,2,1:2:0:0:
166,173,7859,2,0,P|144:199|140:234,1,69.9999978637695,0|10,0:0|0:2,0:0:0:0:
192,295,8148,2,0,L|261:286,1,69.9999978637695,2|4,0:2|1:2,0:0:0:0:
326,333,8436,2,0,L|320:380,4,34.9999989318848,2|0|10|8|8,1:2|1:0|0:2|0:2|0:2,0:0:0:0:
402,360,8869,6,0,P|462:353|485:278,1,139.999995727539,6|8,1:2|0:2,0:0:0:0:
436,223,9302,1,0,0:0:0:0:
360,249,9446,2,0,L|290:240,1,69.9999978637695,2|0,1:2|0:0,0:0:0:0:
242,176,9734,2,0,L|172:184,1,69.9999978637695,8|0,0:2|0:0,0:0:0:0:
104,142,10023,5,2,1:2:0:0:
49,200,10167,2,0,P|65:230|63:264,1,69.9999978637695,0|8,0:0|0:2,0:0:0:0:
117,323,10455,2,0,B|193:339|173:280|249:296,1,139.999995727539,0|0,0:0|1:2,0:0:0:0:
304,237,10888,1,8,0:2:0:0:
254,174,11032,6,0,L|273:15,1,139.999995727539,6|0,1:2|1:0,0:0:0:0:
348,12,11465,1,8,0:2:0:0:
410,61,11609,2,0,P|440:44|474:46,1,69.9999978637695,2|0,1:2|0:0,0:0:0:0:
512,118,11898,2,0,L|506:165,3,34.9999989318848,8|8|8|8,0:2|0:2|0:2|0:2,0:0:0:0:
502,161,12186,6,0,L|510:230,1,69.9999978637695,6|0,1:2|0:0,0:0:0:0:
448,281,12475,1,8,0:2:0:0:
434,279,12547,1,8,0:2:0:0:
420,277,12619,2,0,B|344:260|364:319|288:303,1,139.999995727539,2|12,1:2|0:2,0:0:0:0:
228,251,13051,2,0,P|235:199|190:126,1,139.999995727539,6|0,1:2|0:0,0:0:0:0:
113,109,13484,6,0,L|104:39,1,69.9999978637695,14|0,1:2|0:0,0:0:0:0:
25,51,13773,2,0,L|33:120,1,69.9999978637695,14|0,1:2|0:0,0:0:0:0:
85,182,14061,2,0,B|123:205|123:205|111:308,1,139.999995727539,14|8,1:2|1:2,0:0:0:0:
174,349,14494,1,2,0:2:0:0:
239,303,14638,6,0,P|273:300|303:317,2,69.9999978637695,2|2|10,1:2|0:2|0:2,0:0:0:0:
204,230,15071,2,0,L|221:87,1,139.999995727539,2|0,0:2|0:0,0:0:0:0:
289,50,15503,1,8,0:2:0:0:
351,204,15792,6,0,P|316:201|286:218,1,69.9999978637695,2|2,1:2|0:2,0:0:0:0:
306,295,16080,2,0,P|340:297|370:280,1,69.9999978637695,10|2,0:2|1:2,0:0:0:0:
428,224,16369,1,2,1:2:0:0:
407,146,16514,1,2,1:2:0:0:
467,94,16658,2,0,L|475:24,1,69.9999978637695,10|2,0:2|1:2,0:0:0:0:
400,0,16946,6,0,L|352:5,3,34.9999989318848,10|8|8|8,0:2|0:2|0:2|0:2,0:0:0:0:
355,0,17234,1,10,0:3:0:0:
292,49,17378,2,0,L|257:44,3,34.9999989318848,10|8|8|8,0:2|0:2|0:3|0:3,0:0:0:0:
250,53,17667,2,0,L|202:58,3,34.9999989318848,4|4|8|8,0:3|0:3|0:2|0:2,0:0:0:0:
205,52,17955,1,0,1:0:0:0:
144,104,18099,6,0,P|111:91|78:98,1,69.9999978637695,14|2,1:2|0:2,0:0:0:0:
73,178,18388,2,0,P|105:190|138:183,1,69.9999978637695,14|2,1:2|0:2,0:0:0:0:
206,226,18677,2,0,B|229:264|229:264|332:252,1,139.999995727539,14|8,1:2|0:2,0:0:0:0:
382,199,19110,1,2,1:2:0:0:
445,247,19254,6,0,P|475:230|509:232,2,69.9999978637695,2|2|10,1:2|0:2|0:2,0:0:0:0:
421,323,19687,2,0,L|282:340,1,139.999995727539,2|0,1:2|0:0,0:0:0:0:
212,379,20119,1,8,0:2:0:0:
75,295,20407,5,2,1:2:0:0:
127,234,20552,2,0,B|203:218|183:277|259:260,1,139.999995727539,2|2,1:2|0:2,0:0:0:0:
327,302,20984,1,2,1:2:0:0:
389,251,21129,2,0,L|371:112,1,139.999995727539,2|0,1:2|1:0,0:0:0:0:
305,68,21561,5,2,1:2:0:0:
245,121,21705,2,0,P|214:104|180:106,1,69.9999978637695,2|8,0:2|0:2,0:0:0:0:
123,163,21994,1,2,1:2:0:0:
159,234,22138,1,10,1:2:0:0:
89,378,22427,1,10,1:2:0:0:
169,240,22715,6,0,L|178:310,1,69.9999978637695,14|0,1:2|0:0,0:0:0:0:
257,298,23004,2,0,L|249:229,1,69.9999978637695,14|0,1:2|0:0,0:0:0:0:
302,169,23292,2,0,B|340:146|340:146|328:43,1,139.999995727539,14|8,1:2|1:2,0:0:0:0:
391,0,23725,1,0,1:2:0:0:
448,56,23869,6,0,P|482:53|512:70,2,69.9999978637695,2|2|10,0:2|1:2|0:2,0:0:0:0:
422,132,24302,2,0,L|405:275,1,139.999995727539,2|0,0:2|1:0,0:0:0:0:
446,339,24734,1,8,0:2:0:0:
271,324,25023,6,0,P|306:327|336:310,1,69.9999978637695,2|2,1:2|1:2,0:0:0:0:
316,233,25311,2,0,P|282:231|252:248,1,69.9999978637695,10|2,0:2|0:2,0:0:0:0:
194,304,25600,1,2,1:2:0:0:
174,226,25745,1,2,1:2:0:0:
118,282,25889,2,0,L|48:274,1,69.9999978637695,10|2,0:2|0:2,0:0:0:0:
10,204,26177,6,0,L|5:169,3,34.9999989318848,10|8|0|8,0:2|0:2|1:0|0:3,0:0:0:0:
12,161,26465,1,10,0:3:0:0:
72,108,26609,2,0,L|76:73,3,34.9999989318848,10|8|8|8,0:2|0:2|0:3|0:3,0:0:0:0:
70,65,26897,1,4,0:3:0:0:
136,19,27042,2,0,L|207:10,1,69.9999978637695,8|2,0:3|1:2,0:0:0:0:
273,52,27330,5,14,1:2:0:0:
233,214,27619,1,14,1:2:0:0:
362,120,27907,2,0,L|223:137,1,139.999995727539,14|8,1:2|0:2,0:0:0:0:
159,185,28340,1,2,1:2:0:0:
97,133,28484,6,0,P|100:99|83:69,2,69.9999978637695,2|2|8,1:2|1:2|0:2,0:0:0:0:
34,183,28917,2,0,L|51:321,1,139.999995727539,2|0,0:2|1:0,0:0:0:0:
119,365,29350,1,8,0:2:0:0:
246,267,29638,6,0,P|220:206|154:199,1,139.999995727539,6|8,1:2|0:2,0:0:0:0:
102,139,30071,1,10,0:2:0:0:
104,125,30143,1,8,0:2:0:0:
106,111,30215,2,0,L|117:15,1,69.9999978637695,10|8,0:2|0:3,0:0:0:0:
184,3,30503,2,0,P|218:0|248:17,1,69.9999978637695,6|0,0:3|1:0,0:0:0:0:
265,95,30792,5,6,1:2:0:0:
317,73,32090,6,0,L|325:3,2,69.9999978637695,14|10|10,0:2|0:2|0:2,0:0:0:0:
245,111,32522,1,14,0:2:0:0:
506,250,32955,6,0,B|476:232|476:232|443:240,2,69.9999978637695,14|10|10,0:2|0:2|0:2,0:0:0:0:
462,318,33388,1,14,0:2:0:0:
123,162,34398,6,0,L|113:82,2,69.9999978637695,14|10|10,0:2|0:2|0:2,0:0:0:0:
62,213,34830,1,14,0:2:0:0:
289,287,35263,6,0,B|259:269|259:269|226:277,2,69.9999978637695,14|10|10,0:2|0:2|0:2,0:0:0:0:
245,355,35696,1,14,0:2:0:0:
402,159,36705,6,0,L|410:89,1,69.9999978637695,14|10,0:2|0:2,0:0:0:0:
353,32,36994,1,10,0:2:0:0:
278,59,37138,1,14,0:2:0:0:
170,268,37571,6,0,B|200:286|200:286|233:278,1,69.9999978637695,14|10,0:2|0:2,0:0:0:0:
214,200,37859,1,10,0:2:0:0:
227,122,38003,1,14,0:2:0:0:
96,214,38292,6,0,L|91:253,3,34.9999989318848,8|8|8|8,0:2|0:2|0:2|0:2,0:0:0:0:
84,258,38580,2,0,L|88:297,3,34.9999989318848,10|8|8|0,0:2|0:2|0:3|0:0,0:0:0:0:
95,301,38869,6,0,B|171:317|151:258|227:275,1,139.999995727539,14|8,0:2|0:2,0:0:0:0:
388,316,39446,2,0,P|391:350|374:380,1,69.9999978637695,10|0,0:2|1:0,0:0:0:0:
296,361,39734,2,0,P|293:327|310:297,1,69.9999978637695,8|0,0:2|1:0,0:0:0:0:
367,239,40023,5,14,0:2:0:0:
307,185,40167,2,0,L|272:189,3,34.9999989318848,8|8|6|4,0:3|0:3|0:3|0:3,0:0:0:0:
265,197,40455,2,0,P|225:256|159:230,1,139.999995727539,6|14,1:2|1:2,0:0:0:0:
256,192,40888,12,2,42763,0:2:0:0:
81,205,43484,6,0,P|121:165|176:173,1,116.250000886917,6|0,1:2|0:0,0:0:0:0:
184,180,43773,2,0,L|174:103,1,77.500000591278,10|0,0:2|1:0,0:0:0:0:
239,47,44061,1,2,0:2:0:0:
314,85,44205,1,2,1:2:0:0:
377,27,44350,2,0,P|415:21|445:44,1,77.500000591278,10|0,0:2|1:2,0:0:0:0:
507,103,44638,5,2,1:2:0:0:
458,173,44782,2,0,L|469:268,1,77.500000591278,2|8,0:2|0:2,0:0:0:0:
507,325,45071,2,0,P|475:279|419:283,1,116.250000886917,2|0,1:2|0:0,0:0:0:0:
413,294,45359,1,2,1:2:0:0:
338,252,45503,1,8,0:2:0:0:
359,82,45792,6,0,B|303:63|303:63|257:99,1,116.250000886917,2|0,1:2|0:0,0:0:0:0:
251,107,46080,2,0,P|237:71|204:51,1,77.500000591278,10|0,0:2|1:0,0:0:0:0:
119,62,46369,2,0,P|95:91|94:129,1,77.500000591278,2|0,0:2|1:0,0:0:0:0:
146,198,46657,2,0,P|183:203|217:185,1,77.500000591278,10|0,0:2|1:0,0:0:0:0:
285,236,46946,6,0,P|261:265|260:303,1,77.500000591278,2|0,1:2|0:0,0:0:0:0:
327,355,47234,1,10,0:2:0:0:
393,303,47378,2,0,P|392:265|369:236,1,77.500000591278,2|0,1:2|0:0,0:0:0:0:
399,155,47667,2,0,B|447:131|447:131|434:30,1,155.000001182556,2|8,1:2|0:2,0:0:0:0:
354,0,48100,5,4,1:2:0:0:
314,170,48388,2,0,L|171:187,1,116.250000886917,10|0,0:2|0:0,0:0:0:0:
190,178,48677,2,0,B|199:215|199:215|176:247,1,77.500000591278,2|0,1:2|0:0,0:0:0:0:
92,235,48965,2,0,B|82:197|82:197|105:165,1,77.500000591278,10|0,0:2|0:0,0:0:0:0:
160,100,49253,6,0,L|247:89,1,77.500000591278,2|0,1:2|1:2,0:0:0:0:
293,26,49542,1,10,0:2:0:0:
361,76,49686,2,0,P|415:88|438:139,1,116.250000886917,2|0,1:2|0:0,0:0:0:0:
431,147,49975,2,0,L|419:242,1,77.500000591278,2|8,1:2|0:2,0:0:0:0:
462,298,50263,6,0,B|406:316|406:316|360:280,1,116.250000886917,6|0,1:2|0:0,0:0:0:0:
356,272,50551,1,2,1:2:0:0:
280,312,50696,1,10,0:2:0:0:
219,252,50840,1,2,0:2:0:0:
256,174,50984,2,0,L|246:97,1,77.500000591278,2|0,1:2|0:0,0:0:0:0:
174,49,51273,1,10,0:2:0:0:
140,215,51561,6,0,B|108:192|108:192|70:202,1,77.500000591278,2|0,1:2|0:0,0:0:0:0:
19,271,51850,1,10,0:2:0:0:
70,339,51994,2,0,B|108:349|108:349|140:327,1,77.500000591278,10|4,0:3|0:3,0:0:0:0:
207,275,52283,1,8,0:2:0:0:
221,276,52355,1,8,0:2:0:0:
235,277,52427,2,0,L|311:286,1,77.500000591278,8|8,0:2|0:2,0:0:0:0:
372,226,52715,6,0,P|412:186|467:194,1,116.250000886917,6|0,1:2|0:0,0:0:0:0:
475,201,53003,2,0,L|485:278,1,77.500000591278,10|0,0:2|1:0,0:0:0:0:
446,354,53292,2,0,P|408:360|379:337,1,77.500000591278,2|0,0:2|1:0,0:0:0:0:
311,286,53581,1,10,0:2:0:0:
237,329,53725,1,2,0:2:0:0:
173,271,53869,5,2,1:2:0:0:
207,192,54013,2,0,L|198:115,1,77.500000591278,0|10,0:0|0:2,0:0:0:0:
134,57,54302,2,0,P|88:24|36:47,1,116.250000886917,2|0,1:2|0:0,0:0:0:0:
33,56,54590,1,2,1:2:0:0:
1,134,54734,1,8,0:2:0:0:
99,273,55023,6,0,B|155:254|155:254|201:290,1,116.250000886917,2|0,1:2|0:0,0:0:0:0:
207,298,55311,2,0,P|221:262|254:242,1,77.500000591278,10|0,0:2|1:0,0:0:0:0:
266,157,55600,2,0,P|303:147|338:163,1,77.500000591278,2|0,0:2|1:0,0:0:0:0:
415,124,55888,2,0,P|444:149|451:187,1,77.500000591278,10|0,0:2|1:2,0:0:0:0:
512,249,56177,6,0,L|500:344,1,77.500000591278,2|0,1:2|0:0,0:0:0:0:
434,377,56465,1,10,0:2:0:0:
365,325,56609,2,0,L|356:249,1,77.500000591278,2|0,1:2|0:0,0:0:0:0:
284,202,56898,2,0,B|199:219|224:152|139:170,1,155.000001182556,2|8,1:2|0:2,0:0:0:0:
80,232,57331,5,4,1:2:0:0:
168,86,57619,2,0,L|295:71,1,116.250000886917,10|0,0:2|0:0,0:0:0:0:
290,79,57907,2,0,P|285:41|309:11,1,77.500000591278,2|0,1:2|1:0,0:0:0:0:
390,36,58196,2,0,P|394:73|370:103,1,77.500000591278,8|0,0:2|1:0,0:0:0:0:
309,162,58484,5,0,1:0:0:0:
151,227,58773,2,0,P|193:262|163:338,1,116.250000886917,10|8,0:2|0:3,0:0:0:0:
180,327,59061,2,0,B|265:310|240:377|325:359,1,155.000001182556,6|8,0:3|0:2,0:0:0:0:
374,289,59494,6,0,P|364:218|430:186,1,155.000001182556,6|2,1:2|1:2,0:0:0:0:
491,126,59927,1,10,0:2:0:0:
429,66,60071,2,0,L|352:74,1,77.500000591278,6|0,1:2|0:0,0:0:0:0:
275,37,60359,2,0,L|279:-1,2,38.750000295639,10|8|8,0:2|0:2|0:2,0:0:0:0:
200,80,60648,6,0,P|155:86|127:188,1,155.000001182556,6|8,1:2|0:3,0:0:0:0:
132,189,61008,1,8,0:3:0:0:
141,199,61080,1,6,1:3:0:0:
261,305,61369,1,10,0:2:0:0:
247,306,61441,1,8,0:2:0:0:
233,307,61513,2,0,B|148:325|173:258|88:275,1,155.000001182556,10|0,0:2|0:0,0:0:0:0:
24,225,61946,6,0,B|15:157|15:157|18:154|18:154|9:86,2,139.999995727539,6|10|2,1:2|0:2|1:2,0:0:0:0:
111,358,62811,1,8,0:2:0:0:
215,227,63100,6,0,L|294:236,1,69.9999978637695,2|2,1:2|0:2,0:0:0:0:
345,184,63388,1,10,0:2:0:0:
298,119,63532,2,0,B|222:103|242:162|166:146,1,139.999995727539,2|2,0:2|1:2,0:0:0:0:
108,90,63965,2,0,P|73:87|48:110,1,69.9999978637695,10|2,0:2|0:2,0:0:0:0:
4,176,64253,6,0,B|12:243|12:243|9:246|9:246|18:314,2,139.999995727539,6|10|2,1:2|0:2|1:2,0:0:0:0:
113,59,65118,1,10,0:2:0:0:
155,213,65407,6,0,P|124:196|90:199,2,69.9999978637695,2|2|10,1:2|1:2|0:2,0:0:0:0:
200,279,65840,1,2,1:2:0:0:
234,207,65984,2,0,L|313:216,1,69.9999978637695,14|2,0:2|1:2,0:0:0:0:
316,216,66200,1,0,1:0:0:0:
328,217,66273,2,0,L|322:169,3,34.9999989318848,10|8|8|8,0:2|0:2|0:2|0:2,0:0:0:0:
315,172,66561,6,0,B|323:104|323:104|320:101|320:101|329:33,2,139.999995727539,14|14|14,1:2|1:2|1:2,0:0:0:0:
433,268,67426,1,10,0:2:0:0:
287,335,67715,6,0,P|252:331|222:348,1,69.9999978637695,6|2,1:2|1:2,0:0:0:0:
149,379,68003,1,8,0:2:0:0:
85,331,68147,2,0,L|104:172,1,139.999995727539,2|2,1:2|1:2,0:0:0:0:
165,142,68580,2,0,P|200:146|230:129,1,69.9999978637695,10|8,0:2|0:2,0:0:0:0:
213,50,68869,6,0,P|178:46|148:63,2,69.9999978637695,6|0|10,1:2|1:0|0:2,0:0:0:0:
289,73,69302,1,0,1:0:0:0:
309,150,69446,2,0,L|297:246,1,69.9999978637695,2|0,1:2|1:0,0:0:0:0:
363,268,69734,2,0,P|393:251|427:255,1,69.9999978637695,10|0,0:2|1:0,0:0:0:0:
479,314,70023,5,2,1:2:0:0:
428,372,70167,2,0,P|393:376|363:360,1,69.9999978637695,0|12,1:0|0:2,0:0:0:0:
296,316,70455,1,0,1:0:0:0:
231,363,70600,2,0,L|161:371,1,69.9999978637695,12|8,1:2|0:2,0:0:0:0:
149,371,70817,1,8,0:2:0:0:
137,372,70889,2,0,L|141:337,3,34.9999989318848,10|8|8|8,0:2|0:2|0:3|0:3,0:0:0:0:
151,327,71177,6,0,P|120:344|86:341,1,69.9999978637695,14|0,1:2|0:0,0:0:0:0:
69,263,71465,2,0,P|100:246|134:249,1,69.9999978637695,10|0,1:2|0:0,0:0:0:0:
209,272,71753,2,0,L|351:289,1,139.999995727539,14|8,1:2|0:2,0:0:0:0:
483,193,72330,5,2,1:2:0:0:
436,128,72475,2,0,P|401:130|371:113,1,69.9999978637695,2|8,1:2|0:2,0:0:0:0:
296,86,72763,2,0,B|334:109|334:109|322:212,1,139.999995727539,2|2,1:2|1:2,0:0:0:0:
254,245,73196,1,10,0:2:0:0:
185,204,73340,1,2,1:2:0:0:
124,255,73484,6,0,P|139:286|134:320,1,69.9999978637695,6|0,1:2|1:0,0:0:0:0:
55,333,73772,2,0,P|39:301|44:267,1,69.9999978637695,10|0,0:2|1:0,0:0:0:0:
74,194,74061,2,0,L|91:51,1,139.999995727539,2|10,1:2|0:2,0:0:0:0:
227,41,74638,5,14,1:2:0:0:
167,94,74783,2,0,L|175:163,1,69.9999978637695,2|8,1:2|0:2,0:0:0:0:
240,209,75071,2,0,L|232:272,3,34.9999989318848,2|0|8|8,1:2|1:0|0:2|0:2,0:0:0:0:
228,251,75359,1,10,0:2:0:0:
275,314,75503,2,0,L|282:377,3,34.9999989318848,10|8|10|8,0:2|0:2|0:2|0:2,0:0:0:0:
287,355,75792,6,0,P|321:350|352:365,1,69.9999978637695,6|0,1:2|0:0,0:0:0:0:
425,334,76080,2,0,L|413:238,1,69.9999978637695,10|0,0:2|0:0,0:0:0:0:
357,210,76369,2,0,B|281:194|301:253|225:237,1,139.999995727539,6|8,1:2|0:2,0:0:0:0:
104,342,76946,5,2,1:2:0:0:
48,284,77091,2,0,L|57:204,1,69.9999978637695,2|8,1:2|0:2,0:0:0:0:
2,156,77378,2,0,P|52:186|101:129,1,139.999995727539,2|2,1:2|1:2,0:0:0:0:
163,83,77812,1,10,0:2:0:0:
231,124,77956,1,0,1:0:0:0:
283,63,78100,6,0,L|362:53,1,69.9999978637695,6|0,1:2|1:0,0:0:0:0:
414,106,78388,2,0,L|423:185,1,69.9999978637695,10|0,0:2|1:0,0:0:0:0:
370,237,78677,2,0,L|290:246,1,69.9999978637695,2|0,1:2|1:0,0:0:0:0:
239,193,78965,2,0,L|231:124,1,69.9999978637695,10|0,1:2|1:0,0:0:0:0:
163,83,79253,5,10,0:2:0:0:
101,134,79398,2,0,P|66:129|35:144,1,69.9999978637695,2|8,1:2|0:2,0:0:0:0:
0,215,79686,1,2,1:2:0:0:
58,269,79830,2,0,L|46:364,1,69.9999978637695,8|8,0:2|0:2,0:0:0:0:
128,351,80119,2,0,L|139:255,1,69.9999978637695,8|8,0:2|0:2,0:0:0:0:
204,240,80407,6,0,L|198:192,3,34.9999989318848,0|0|8|8,1:0|1:0|0:2|0:2,0:0:0:0:
193,197,80696,2,0,L|198:149,3,34.9999989318848,8|8|8|8,0:2|0:2|0:2|0:2,0:0:0:0:
204,154,80984,2,0,L|198:106,3,34.9999989318848,8|8|8|8,0:2|0:2|0:2|0:2,0:0:0:0:
193,111,81273,2,0,L|197:76,3,34.9999989318848,8|8|8|8,0:2|0:2|0:2|0:2,0:0:0:0:
204,68,81561,6,0,P|251:72|276:3,1,119.999996337891,6|2,1:2|0:2,0:0:0:0:
395,99,82138,2,0,L|335:106,2,59.9999981689453,2|2|2,0:2|0:2|0:2,0:0:0:0:
351,236,82715,6,0,P|354:206|373:183,1,59.9999981689453,6|2,0:2|0:2,0:0:0:0:
406,324,83148,2,0,L|278:308,1,119.999996337891,2|2,0:2|0:2,0:0:0:0:
94,201,83869,6,0,P|138:165|190:189,1,119.999996337891,6|2,0:2|0:2,0:0:0:0:
210,332,84446,2,0,P|165:367|113:343,1,119.999996337891,2|2,0:2|0:2,0:0:0:0:
293,234,85023,6,0,P|263:237|240:256,1,59.9999981689453,6|2,0:2|0:2,0:0:0:0:
381,284,85456,2,0,L|365:156,1,119.999996337891,2|2,0:2|0:2,0:0:0:0:
161,312,86177,6,0,L|167:264,3,34.9999989318848,12|8|0|0,0:2|0:3|1:0|1:0,0:0:0:0:
172,269,86466,2,0,L|167:221,3,34.9999989318848,8|12|0|0,0:2|0:3|1:0|1:0,0:0:0:0:
161,226,86754,2,0,L|167:178,3,34.9999989318848,8|8|0|0,0:2|0:3|1:0|1:0,0:0:0:0:
172,183,87043,2,0,L|168:148,3,34.9999989318848,0|4|8|8,1:0|1:3|0:2|0:2,0:0:0:0:
