osu file format v14

[General]
AudioFilename: audio.mp3
AudioLeadIn: 0
PreviewTime: 43412
Countdown: 0
SampleSet: Soft
StackLeniency: 0.7
Mode: 0
LetterboxInBreaks: 0
WidescreenStoryboard: 1

[Editor]
DistanceSpacing: 1
BeatDivisor: 4
GridSize: 32
TimelineZoom: 2.7

[Metadata]
Title:L.L.L. (TV Size)
TitleUnicode:L.L.L. (TV Size)
Artist:MYTH & ROID
ArtistUnicode:MYTH & ROID
Creator:Kuki1537
Version:NORMAL
Source:オーバーロード
Tags:overlord ending ed albedo j-rock jrock j rock anime japanese female vocal ミスアンドロイド season 1 s1 lll nyantiaz browiec xenon- xehn xen skyflame english and
BeatmapID:2834249
BeatmapSetID:1361680

[Difficulty]
HPDrainRate:4
CircleSize:3.5
OverallDifficulty:4
ApproachRate:6
SliderMultiplier:1
SliderTickRate:1

[Events]
//Background and Video events
0,0,"albedo.jpg",0,0
Video,840,"vid.avi"
//Break Periods
//Storyboard Layer 0 (Background)
//Storyboard Layer 1 (Fail)
//Storyboard Layer 2 (Pass)
//Storyboard Layer 3 (Foreground)
//Storyboard Layer 4 (Overlay)
//Storyboard Sound Samples

[TimingPoints]
1946,288.461538461538,4,2,1,70,1,0
1946,-125,4,2,1,70,0,0
4253,-100,4,2,1,70,0,1
13484,-100,4,2,1,70,0,0
17739,-100,4,2,2,70,0,0
17811,-100,4,2,1,70,0,0
26537,-100,4,2,2,70,0,0
26609,-100,4,2,1,70,0,0
26897,-100,4,2,2,70,0,0
27042,-100,4,2,1,70,0,0
30503,-100,4,2,2,70,0,0
30792,-100,4,2,1,70,0,0
40311,-100,4,2,2,70,0,0
40455,-100,4,2,1,70,0,0
43484,-100,4,2,1,70,0,1
52138,-100,4,2,2,70,0,1
52282,-100,4,2,1,70,0,1
59061,-100,4,2,2,70,0,1
59349,-100,4,2,1,70,0,1
61873,-100,4,2,1,70,0,0
61945,-100,4,2,1,70,0,1
63965,-100,4,2,1,70,0,0
71176,-90.9090909090909,4,2,1,70,0,1
81561,-125,4,2,1,70,0,0
86248,-125,4,2,2,70,0,0
86465,-125,4,2,1,70,0,0
86537,-125,4,2,3,70,0,0
86609,-125,4,2,1,70,0,0
86825,-125,4,2,2,70,0,0
87186,-125,4,2,1,70,0,0

[Colours]
Combo1 : 189,185,179
Combo2 : 190,170,129
Combo3 : 179,139,113
Combo4 : 114,102,80

[HitObjects]
120,247,1945,6,0,B|171:216|221:249|206:258|257:286|311:263,1,200,6|2,1:2|0:2,0:0:0:0:
314,103,3099,2,0,B|287:96|259:82|259:82|271:191,1,160,6|0,1:2|0:0,0:0:0:0:
387,345,4253,5,6,1:2:0:0:
472,293,4542,2,0,L|477:236,1,50,10|2,0:2|1:2,0:0:0:0:
512,209,4830,2,0,L|507:159,1,50,0|2,0:0|1:2,0:0:0:0:
476,119,5119,1,10,0:2:0:0:
397,57,5407,2,0,L|389:5,2,50,2|2|10,0:2|1:2|0:2,0:0:0:0:
363,94,5840,2,0,P|335:113|257:101,1,100,2|10,1:2|0:2,0:0:0:0:
234,76,6272,1,0,1:0:0:0:
149,22,6561,6,0,L|31:38,1,100,6|10,1:2|0:2,0:0:0:0:
13,69,6994,1,2,1:2:0:0:
13,69,7138,2,0,P|26:104|26:137,1,50,0|2,0:0|1:2,0:0:0:0:
9,163,7426,1,10,0:2:0:0:
83,229,7715,2,0,B|188:214,1,100,2|10,1:2|0:2,0:0:0:0:
221,184,8147,1,2,0:2:0:0:
292,113,8436,2,0,P|329:105|394:146,1,100,2|8,1:2|0:2,0:0:0:0:
430,147,8869,5,6,1:2:0:0:
491,225,9157,2,0,P|499:262|494:289,1,50,8|0,0:2|0:0,0:0:0:0:
477,319,9445,2,0,L|369:305,1,100,2|8,1:2|0:2,0:0:0:0:
281,328,10022,2,0,L|275:378,2,50,2|0|8,1:2|0:0|0:2,0:0:0:0:
250,288,10455,2,0,P|210:305|139:288,1,100,0|0,0:0|1:2,0:0:0:0:
117,273,10888,1,8,0:2:0:0:
117,273,11032,6,0,L|130:162,1,100,6|0,1:2|1:0,0:0:0:0:
68,93,11609,2,0,P|96:76|179:87,1,100,2|8,1:2|0:2,0:0:0:0:
206,109,12042,1,8,0:2:0:0:
206,109,12186,2,0,L|324:94,1,100,6|8,1:2|0:2,0:0:0:0:
355,92,12619,1,2,1:2:0:0:
451,57,12907,1,12,0:2:0:0:
451,57,13051,2,0,L|463:176,1,100,6|0,1:2|0:0,0:0:0:0:
498,190,13484,5,14,1:2:0:0:
457,281,13772,1,14,1:2:0:0:
356,276,14061,2,0,P|319:251|248:257,1,100,14|8,1:2|1:2,0:0:0:0:
190,182,14638,2,0,L|200:113,2,50,2|2|10,1:2|0:2|0:2,0:0:0:0:
149,211,15070,2,0,B|90:221|90:221|65:244|65:244|2:256,1,150,2|8,0:2|0:2,0:0:0:0:
32,352,15792,5,2,1:2:0:0:
128,376,16080,1,10,0:2:0:0:
206,313,16369,2,0,P|237:303|276:308,1,50,2|2,1:2|1:2,0:0:0:0:
297,327,16657,1,10,0:2:0:0:
389,364,16945,2,0,L|400:254,1,100,10|10,0:2|0:3,0:0:0:0:
438,233,17378,2,0,L|427:123,1,100,10|4,0:2|0:3,0:0:0:0:
397,93,17811,1,8,0:2:0:0:
320,29,18099,5,14,1:2:0:0:
229,71,18388,1,14,1:2:0:0:
144,17,18676,2,0,P|98:12|44:54,1,100,14|8,1:2|0:2,0:0:0:0:
48,139,19253,2,0,L|-3:148,2,50,2|2|10,1:2|0:2|0:2,0:0:0:0:
94,158,19686,2,0,B|124:177|143:208|143:208|236:192,1,150,2|8,1:2|0:2,0:0:0:0:
308,143,20407,5,2,1:2:0:0:
308,143,20551,1,2,1:2:0:0:
367,62,20840,2,0,L|358:13,2,50,2|2|2,0:2|1:2|1:2,0:0:0:0:
450,117,21417,2,0,L|506:107,2,50,0|2|2,1:0|1:2|0:2,0:0:0:0:
397,203,21994,1,2,1:2:0:0:
397,203,22138,2,0,P|423:257|414:313,1,100,10|10,1:2|1:2,0:0:0:0:
356,373,22715,5,14,1:2:0:0:
269,324,23003,1,14,1:2:0:0:
178,366,23292,2,0,L|76:350,1,100,14|8,1:2|1:2,0:0:0:0:
48,255,23869,2,0,L|-6:263,2,50,2|2|10,0:2|1:2|0:2,0:0:0:0:
78,215,24301,2,0,P|109:175|216:199,1,150,2|8,0:2|0:2,0:0:0:0:
278,252,25022,5,2,1:2:0:0:
278,252,25167,2,0,L|393:240,1,100,2|2,1:2|0:2,0:0:0:0:
414,207,25599,2,0,L|422:155,1,50,2|2,1:2|1:2,0:0:0:0:
402,111,25888,1,10,0:2:0:0:
331,40,26176,2,0,P|290:65|223:55,1,100,10|10,0:2|0:3,0:0:0:0:
202,28,26609,2,0,L|95:43,1,100,10|4,0:2|0:3,0:0:0:0:
60,68,27042,2,0,L|51:129,1,50,8|2,0:3|1:2,0:0:0:0:
27,160,27330,5,14,1:2:0:0:
88,238,27619,1,14,1:2:0:0:
66,335,27907,2,0,P|105:368|166:364,1,100,14|8,1:2|0:2,0:0:0:0:
235,313,28484,2,0,L|299:320,2,50,2|2|8,1:2|1:2|0:2,0:0:0:0:
210,269,28917,2,0,B|199:207|199:207|214:182|214:182|205:124,1,150,2|8,0:2|0:2,0:0:0:0:
271,49,29638,6,0,P|311:28|379:48,1,100,6|8,1:2|0:2,0:0:0:0:
404,73,30070,1,10,0:2:0:0:
404,73,30215,2,0,L|398:131,1,50,10|8,0:2|0:3,0:0:0:0:
410,171,30503,1,6,0:3:0:0:
438,267,30792,1,6,1:2:0:0:
170,112,32090,5,14,0:2:0:0:
170,112,32234,2,0,L|161:55,2,50,10|10|14,0:2|0:2|0:2,0:0:0:0:
112,253,32955,1,14,0:2:0:0:
112,253,33099,2,0,L|104:302,2,50,10|10|14,0:2|0:2|0:2,0:0:0:0:
196,199,33676,1,2,3:2:0:0:
290,233,33965,1,2,3:2:0:0:
394,125,34397,5,14,0:2:0:0:
394,125,34542,2,0,P|365:114|337:112,2,50,10|10|14,0:2|0:2|0:2,0:0:0:0:
465,263,35263,1,14,0:2:0:0:
465,263,35408,2,0,P|494:252|522:250,2,50,10|10|14,0:2|0:2|0:2,0:0:0:0:
389,328,35984,1,2,3:2:0:0:
289,323,36272,1,2,3:2:0:0:
150,374,36705,5,14,0:2:0:0:
150,374,36849,2,0,L|140:312,1,50,10|10,0:2|0:2,0:0:0:0:
112,284,37138,1,14,0:2:0:0:
15,176,37570,1,14,0:2:0:0:
15,176,37714,2,0,L|25:114,1,50,10|10,0:2|0:2,0:0:0:0:
53,86,38003,1,14,0:2:0:0:
140,135,38292,2,0,P|181:154|253:137,1,100,8|10,0:2|0:2,0:0:0:0:
297,70,38869,6,0,P|328:43|403:49,1,100,14|8,0:2|0:2,0:0:0:0:
431,69,39301,1,0,1:0:0:0:
431,69,39445,2,0,L|418:192,1,100,10|8,0:2|0:2,0:0:0:0:
471,254,40022,2,0,L|367:265,1,100,14|6,0:2|0:3,0:0:0:0:
327,289,40455,1,6,1:2:0:0:
251,354,40744,2,0,L|145:341,1,100,14|0,1:2|0:0,0:0:0:0:
256,192,41320,12,2,42763,0:2:0:0:
80,84,43484,5,6,1:2:0:0:
166,34,43772,1,10,0:2:0:0:
217,119,44061,1,2,0:2:0:0:
217,119,44205,1,2,1:2:0:0:
217,119,44349,2,0,L|234:227,1,100,10|2,0:2|1:2,0:0:0:0:
242,267,44782,1,2,0:2:0:0:
311,338,45070,1,2,1:2:0:0:
413,325,45359,1,2,1:2:0:0:
413,325,45503,2,0,P|428:284|426:259,1,50,8|0,0:2|0:0,0:0:0:0:
399,236,45792,5,2,1:2:0:0:
439,144,46080,2,0,L|446:92,1,50,10|0,0:2|1:0,0:0:0:0:
418,52,46369,2,0,L|366:45,1,50,2|0,0:2|1:0,0:0:0:0:
323,68,46657,1,10,0:2:0:0:
223,80,46945,2,0,L|217:30,2,50,2|0|10,1:2|0:0|0:2,0:0:0:0:
205,126,47378,1,2,1:2:0:0:
240,219,47667,2,0,P|209:235|140:230,1,100,2|8,1:2|0:2,0:0:0:0:
100,209,48099,5,4,1:2:0:0:
33,283,48388,2,0,L|45:382,2,100,10|2|10,0:2|1:2|0:2,0:0:0:0:
3,187,49253,2,0,L|11:123,1,50,2|0,1:2|1:2,0:0:0:0:
33,95,49542,1,10,0:2:0:0:
33,95,49686,2,0,P|65:110|132:91,1,100,2|2,1:2|1:2,0:0:0:0:
214,49,50263,6,0,L|331:35,1,100,6|2,1:2|1:2,0:0:0:0:
366,24,50695,1,10,0:2:0:0:
366,24,50840,1,2,0:2:0:0:
366,24,50984,2,0,P|399:74|390:128,1,100,2|10,1:2|0:2,0:0:0:0:
408,213,51561,2,0,L|460:205,2,50,2|0|10,1:2|0:0|0:2,0:0:0:0:
364,238,51994,2,0,P|316:214|257:220,1,100,10|8,0:3|0:2,0:0:0:0:
230,245,52426,1,8,0:2:0:0:
132,219,52715,5,6,1:2:0:0:
53,280,53003,1,10,0:2:0:0:
90,373,53292,1,2,0:2:0:0:
189,361,53580,2,0,P|215:353|249:352,1,50,10|2,0:2|0:2,0:0:0:0:
289,370,53869,1,2,1:2:0:0:
289,370,54013,2,0,P|315:378|349:379,1,50,0|10,0:0|0:2,0:0:0:0:
374,346,54301,1,2,1:2:0:0:
460,303,54590,2,0,L|447:188,1,100,2|0,1:2|0:0,0:0:0:0:
443,155,55022,5,2,1:2:0:0:
383,74,55311,2,0,L|328:67,1,50,10|0,0:2|1:0,0:0:0:0:
294,36,55599,2,0,L|244:42,1,50,2|0,0:2|1:0,0:0:0:0:
208,77,55888,1,10,0:2:0:0:
235,172,56176,2,0,P|262:166|294:167,2,50,2|0|10,1:2|0:0|0:2,0:0:0:0:
199,208,56609,1,2,1:2:0:0:
145,292,56897,2,0,P|113:332|48:335,1,100,2|8,1:2|0:2,0:0:0:0:
22,317,57330,5,4,1:2:0:0:
7,217,57619,1,10,0:2:0:0:
76,145,57907,2,0,L|90:44,1,100,2|8,1:2|0:2,0:0:0:0:
127,13,58340,1,0,1:0:0:0:
127,13,58484,1,0,1:0:0:0:
215,58,58772,2,0,P|256:67|275:64,1,50,10|8,0:2|0:3,0:0:0:0:
309,46,59061,2,0,P|350:37|369:40,1,50,6|0,0:3|1:0,0:0:0:0:
436,100,59494,6,0,L|422:214,1,100,6|2,1:2|1:2,0:0:0:0:
477,283,60070,2,0,P|429:282|377:320,1,100,6|10,1:2|0:2,0:0:0:0:
354,348,60503,1,8,0:2:0:0:
354,348,60647,2,0,P|312:321|262:322,1,100,6|8,1:2|0:3,0:0:0:0:
221,351,61080,1,6,1:3:0:0:
146,283,61369,2,0,L|155:222,1,50,10|10,0:2|0:2,0:0:0:0:
98,93,61945,6,0,B|-5:81,2,100,6|10|2,1:2|0:2|1:2,0:0:0:0:
184,42,62811,1,8,0:2:0:0:
258,108,63099,2,0,L|311:101,2,50,2|2|10,1:2|0:2|0:2,0:0:0:0:
221,142,63532,1,2,0:2:0:0:
256,235,63820,1,2,1:2:0:0:
256,235,63965,2,0,P|265:260|265:290,1,50,10|2,0:2|0:2,0:0:0:0:
246,329,64253,6,0,P|212:351|140:346,2,100,6|10|2,1:2|0:2|1:2,0:0:0:0:
339,290,65119,1,10,0:2:0:0:
433,320,65407,2,0,L|445:217,1,100,2|10,1:2|0:2,0:0:0:0:
484,190,65840,2,0,L|472:87,1,100,2|2,1:2|1:2,0:0:0:0:
440,52,66272,1,10,0:2:0:0:
357,108,66561,6,0,P|327:122|249:110,2,100,14|14|14,1:2|1:2|1:2,0:0:0:0:
304,22,67426,1,10,0:2:0:0:
208,34,67715,1,6,1:2:0:0:
208,34,67859,2,0,P|174:25|145:25,1,50,2|8,1:2|0:2,0:0:0:0:
118,52,68147,2,0,L|128:160,1,100,2|2,1:2|1:2,0:0:0:0:
110,199,68580,1,10,0:2:0:0:
199,244,68869,5,6,1:2:0:0:
199,244,69013,1,0,1:0:0:0:
273,310,69301,2,0,L|266:366,2,50,0|2|0,1:0|1:2|1:0,0:0:0:0:
366,274,69878,2,0,L|422:281,2,50,0|2|0,1:0|1:2|1:0,0:0:0:0:
301,204,70455,1,0,1:0:0:0:
301,204,70599,2,0,P|290:146|306:104,1,100,12|10,1:2|0:2,0:0:0:0:
335,3,71176,6,0,P|380:34|444:27,2,110.000003356934,14|10|14,1:2|1:2|1:2,0:0:0:0:
234,50,72042,1,8,0:2:0:0:
133,18,72330,1,2,1:2:0:0:
133,18,72474,1,2,1:2:0:0:
60,101,72763,2,0,P|40:136|60:221,1,110.000003356934,2|2,1:2|1:2,0:0:0:0:
99,243,73195,1,10,0:2:0:0:
99,243,73340,1,2,1:2:0:0:
99,243,73484,6,0,L|222:263,2,110.000003356934,6|10|2,1:2|0:2|1:2,0:0:0:0:
169,158,74349,1,10,0:2:0:0:
278,129,74638,1,14,1:2:0:0:
278,129,74782,1,2,1:2:0:0:
358,207,75070,2,0,L|346:322,1,110.000003356934,2|10,1:2|0:2,0:0:0:0:
401,352,75503,1,10,0:2:0:0:
401,352,75647,1,10,0:2:0:0:
401,352,75792,6,0,P|457:361|511:334,2,110.000003356934,6|10|6,1:2|0:2|1:2,0:0:0:0:
440,249,76657,1,8,0:2:0:0:
490,151,76945,1,2,1:2:0:0:
490,151,77090,1,2,1:2:0:0:
430,58,77378,2,0,P|391:39|321:47,1,110.000003356934,2|2,1:2|1:2,0:0:0:0:
275,66,77811,1,10,0:2:0:0:
187,131,78099,5,6,1:2:0:0:
80,106,78388,1,10,0:2:0:0:
23,200,78676,1,2,1:2:0:0:
95,283,78965,1,10,1:2:0:0:
199,243,79253,1,10,0:2:0:0:
199,243,79397,2,0,P|229:228|268:229,1,55.0000016784668,2|8,1:2|0:2,0:0:0:0:
298,263,79686,1,2,1:2:0:0:
298,263,79830,2,0,P|327:309|395:325,1,110.000003356934,8|8,0:2|0:2,0:0:0:0:
485,350,80407,6,0,L|476:290,1,55.0000016784668,0|8,1:0|0:2,0:0:0:0:
494,243,80695,2,0,L|485:183,1,55.0000016784668,8|8,0:2|0:2,0:0:0:0:
503,136,80984,2,0,L|494:76,1,55.0000016784668,8|8,0:2|0:2,0:0:0:0:
459,39,81272,1,8,0:2:0:0:
355,75,81561,6,0,L|183:56,1,160,6|2,1:2|0:2,0:0:0:0:
67,153,82715,2,0,P|113:141|211:204,1,160,6|0,0:2|0:0,0:0:0:0:
286,332,83869,2,0,B|351:327|351:327|374:346|374:346|447:341,1,160,6|2,0:2|0:2,0:0:0:0:
344,212,85022,6,0,B|257:159|187:235|212:242|141:320|52:273,1,320,6|12,0:2|0:2,0:0:0:0:
256,192,86320,12,0,89061,0:0:0:0:
