osu file format v14

[General]
AudioFilename: audio.mp3
AudioLeadIn: 0
PreviewTime: 43412
Countdown: 0
SampleSet: Soft
StackLeniency: 0.7
Mode: 0
LetterboxInBreaks: 0
WidescreenStoryboard: 1

[Editor]
DistanceSpacing: 0.4
BeatDivisor: 4
GridSize: 32
TimelineZoom: 2.7

[Metadata]
Title:L.L.L. (TV Size)
TitleUnicode:L.L.L. (TV Size)
Artist:MYTH & ROID
ArtistUnicode:MYTH & ROID
Creator:Kuki1537
Version:INSANE
Source:オーバーロード
Tags:overlord ending ed albedo j-rock jrock j rock anime japanese female vocal ミスアンドロイド season 1 s1 lll nyantiaz browiec xenon- xehn xen skyflame english and
BeatmapID:2841370
BeatmapSetID:1361680

[Difficulty]
HPDrainRate:5
CircleSize:3.8
OverallDifficulty:8
ApproachRate:9
SliderMultiplier:1.8
SliderTickRate:1

[Events]
//Background and Video events
0,0,"albedo.jpg",0,0
Video,840,"vid.avi"
//Break Periods
//Storyboard Layer 0 (Background)
//Storyboard Layer 1 (Fail)
//Storyboard Layer 2 (Pass)
//Storyboard Layer 3 (Foreground)
//Storyboard Layer 4 (Overlay)
//Storyboard Sound Samples

[TimingPoints]
1946,288.461538461538,4,2,1,70,1,0
4253,-100,4,2,1,70,0,1
4470,-100,4,2,1,5,0,1
4542,-100,4,2,1,70,0,1
6777,-100,4,2,1,5,0,1
6849,-100,4,2,1,70,0,1
9085,-100,4,2,1,5,0,1
9157,-100,4,2,1,70,0,1
11248,-100,4,2,1,5,0,1
11320,-100,4,2,1,70,0,1
11825,-100,4,2,1,5,0,1
11897,-100,4,2,1,70,0,1
13051,-133.333333333333,4,2,1,70,0,0
13484,-100,4,2,1,70,0,1
13700,-100,4,2,1,5,0,1
13772,-100,4,2,1,70,0,1
13988,-100,4,2,1,5,0,1
14061,-100,4,2,1,70,0,1
14349,-125,4,2,1,70,0,0
17739,-125,4,2,2,70,0,0
17811,-125,4,2,1,70,0,0
18099,-100,4,2,1,70,0,1
18316,-100,4,2,1,5,0,1
18389,-100,4,2,1,70,0,1
18604,-100,4,2,1,5,0,1
18677,-100,4,2,1,70,0,1
18965,-125,4,2,1,70,0,0
22715,-100,4,2,1,70,0,1
22931,-100,4,2,1,5,0,1
23004,-100,4,2,1,70,0,1
23220,-100,4,2,1,5,0,1
23293,-100,4,2,1,70,0,1
23580,-125,4,2,1,70,0,0
26537,-125,4,2,2,70,0,0
26609,-125,4,2,1,70,0,0
26897,-125,4,2,2,70,0,0
27042,-125,4,2,1,70,0,0
27330,-100,4,2,1,70,0,1
27546,-100,4,2,1,5,0,1
27619,-100,4,2,1,70,0,1
27835,-100,4,2,1,5,0,1
27908,-100,4,2,1,70,0,1
28195,-125,4,2,1,70,0,0
30503,-125,4,2,2,70,0,0
30792,-125,4,2,1,70,0,0
40311,-125,4,2,2,70,0,0
40455,-125,4,2,1,70,0,0
41320,-125,4,2,1,70,0,0
43195,-125,4,2,1,70,0,0
43484,-90.9090909090909,4,2,1,70,0,1
43700,-90.9090909090909,4,2,1,5,0,1
43772,-90.9090909090909,4,2,1,70,0,1
46008,-90.9090909090909,4,2,1,5,0,1
46080,-90.9090909090909,4,2,1,70,0,1
47595,-90.9090909090909,4,2,1,5,0,1
47667,-90.9090909090909,4,2,1,70,0,1
48099,-90.9090909090909,4,2,1,70,0,0
48316,-90.9090909090909,4,2,1,5,0,0
48388,-90.9090909090909,4,2,1,70,0,0
48893,-90.9090909090909,4,2,1,5,0,0
48965,-90.9090909090909,4,2,1,70,0,0
52138,-90.9090909090909,4,2,2,70,0,0
52282,-90.9090909090909,4,2,1,70,0,0
52715,-90.9090909090909,4,2,1,70,0,1
52931,-90.9090909090909,4,2,1,5,0,1
53003,-90.9090909090909,4,2,1,70,0,1
55239,-90.9090909090909,4,2,1,5,0,1
55311,-90.9090909090909,4,2,1,70,0,1
56825,-90.9090909090909,4,2,1,5,0,1
56897,-90.9090909090909,4,2,1,70,0,1
57330,-90.9090909090909,4,2,1,70,0,0
57546,-90.9090909090909,4,2,1,5,0,0
57619,-90.9090909090909,4,2,1,70,0,0
59061,-90.9090909090909,4,2,2,70,0,0
59349,-90.9090909090909,4,2,1,70,0,0
59710,-90.9090909090909,4,2,1,5,0,0
59783,-90.9090909090909,4,2,1,70,0,0
60287,-90.9090909090909,4,2,1,5,0,0
60360,-90.9090909090909,4,2,1,70,0,0
61945,-90.9090909090909,4,2,1,70,0,1
62522,-111.111111111111,4,2,1,70,0,1
63965,-111.111111111111,4,2,1,70,0,0
71176,-90.9090909090909,4,2,1,70,0,1
71393,-90.9090909090909,4,2,1,5,0,1
71465,-90.9090909090909,4,2,1,70,0,1
71681,-90.9090909090909,4,2,1,5,0,1
71753,-90.9090909090909,4,2,1,70,0,1
71970,-90.9090909090909,4,2,1,5,0,1
72042,-90.9090909090909,4,2,1,70,0,1
73700,-90.9090909090909,4,2,1,5,0,1
73772,-90.9090909090909,4,2,1,70,0,1
73989,-90.9090909090909,4,2,1,5,0,1
74061,-90.9090909090909,4,2,1,70,0,1
74277,-90.9090909090909,4,2,1,5,0,1
74349,-90.9090909090909,4,2,1,70,0,1
76008,-90.9090909090909,4,2,1,5,0,1
76080,-90.9090909090909,4,2,1,70,0,1
76296,-90.9090909090909,4,2,1,5,0,1
76368,-90.9090909090909,4,2,1,70,0,1
76585,-90.9090909090909,4,2,1,5,0,1
76657,-90.9090909090909,4,2,1,70,0,1
78316,-90.9090909090909,4,2,1,5,0,1
78388,-90.9090909090909,4,2,1,70,0,1
78604,-90.9090909090909,4,2,1,5,0,1
78676,-90.9090909090909,4,2,1,70,0,1
78893,-90.9090909090909,4,2,1,5,0,1
78965,-90.9090909090909,4,2,1,70,0,1
81561,-333.333333333333,4,2,1,70,0,0
86032,-333.333333333333,4,2,1,5,0,0
86176,-100,4,2,1,70,0,0
86248,-100,4,2,2,70,0,0
86465,-100,4,2,1,70,0,0
86537,-100,4,2,3,70,0,0
86609,-100,4,2,1,70,0,0
86825,-100,4,2,2,70,0,0
87186,-100,4,2,1,70,0,0
89061,-333.333333333333,4,2,1,5,0,0

[Colours]
Combo1 : 189,185,179
Combo2 : 190,170,129
Combo3 : 179,139,113
Combo4 : 114,102,80

[HitObjects]
114,101,1945,5,6,1:2:0:0:
70,187,2522,1,2,0:2:0:0:
376,297,3099,5,6,1:2:0:0:
332,211,3676,1,0,0:0:0:0:
34,361,4253,6,0,P|60:320|159:324,1,135,6|0,1:2|0:0,0:0:0:0:
155,324,4542,2,0,L|145:230,1,90,10|2,0:2|1:2,0:0:0:0:
254,106,4830,2,0,L|244:200,1,90,0|2,0:0|1:2,0:0:0:0:
327,293,5119,1,10,0:2:0:0:
340,306,5407,5,2,0:2:0:0:
420,172,5551,1,2,1:2:0:0:
471,315,5695,1,10,0:2:0:0:
333,203,5840,2,0,P|328:152|351:108,1,90,2|0,1:2|0:0,0:0:0:0:
497,102,6128,2,0,L|505:152,2,45,10|0|0,0:2|1:0|1:0,0:0:0:0:
406,0,6417,1,10,0:2:0:0:
406,0,6489,1,8,0:2:0:0:
406,0,6561,6,0,L|264:18,1,135,6|0,1:2|0:0,0:0:0:0:
256,31,6849,2,0,P|268:79|238:142,1,90,10|2,0:2|1:2,0:0:0:0:
80,116,7138,2,0,P|115:81|185:76,1,90,0|2,0:0|1:2,0:0:0:0:
74,222,7426,1,10,0:2:0:0:
60,235,7715,5,2,1:2:0:0:
171,175,7859,2,0,L|180:264,1,90,0|10,0:0|0:2,0:0:0:0:
302,384,8147,2,0,L|311:294,1,90,2|4,0:2|1:2,0:0:0:0:
404,153,8436,5,2,1:2:0:0:
419,144,8508,1,0,1:0:0:0:
436,138,8580,1,10,0:2:0:0:
453,136,8652,1,8,0:2:0:0:
471,138,8724,2,0,L|479:199,1,45,8|8,0:2|0:2,0:0:0:0:
481,270,8869,6,0,B|416:259|416:259|355:292,1,135,6|0,1:2|0:0,0:0:0:0:
342,304,9157,2,0,L|233:290,1,90,8|0,0:2|0:0,0:0:0:0:
205,166,9445,2,0,L|314:152,1,90,2|0,1:2|0:0,0:0:0:0:
146,278,9734,1,8,0:2:0:0:
159,264,10022,5,2,1:2:0:0:
0,202,10167,1,0,0:0:0:0:
64,338,10311,1,8,0:2:0:0:
109,173,10455,2,0,L|97:79,1,90,0|2,0:0|1:2,0:0:0:0:
193,23,10744,1,0,1:2:0:0:
193,23,10888,1,8,0:2:0:0:
334,154,11032,6,0,P|293:122|211:142,1,135,6|0,1:2|0:0,0:0:0:0:
206,151,11320,1,0,1:0:0:0:
325,252,11465,1,8,0:2:0:0:
404,90,11609,6,0,B|446:128|446:128|419:219,1,135,2|0,1:2|0:0,0:0:0:0:
434,220,11897,2,0,L|442:272,3,45,8|8|8|8,0:2|0:2|0:2|0:2,0:0:0:0:
512,358,12186,6,0,B|470:334|418:358|433:367|375:396|329:366,1,180,6|8,1:2|0:2,0:0:0:0:
324,356,12546,1,8,0:2:0:0:
324,356,12619,2,0,B|336:225|336:225|326:251|297:267,1,180,2|12,1:2|0:2,0:0:0:0:
229,318,13051,1,6,1:2:0:0:
79,189,13484,6,0,P|77:129|7:88,1,135,14|0,1:2|0:0,0:0:0:0:
7,76,13772,2,0,P|66:74|108:4,1,135,14|0,1:2|0:0,0:0:0:0:
120,7,14061,2,0,B|169:55|169:55|284:36,1,180,14|8,1:2|1:2,0:0:0:0:
387,16,14494,1,2,0:2:0:0:
375,126,14638,6,0,P|334:143|295:136,2,72,2|2|10,1:2|0:2|0:2,0:0:0:0:
479,61,15070,2,0,L|459:224,1,144,2|0,0:2|0:0,0:0:0:0:
489,302,15503,1,8,0:2:0:0:
260,265,15792,5,2,1:2:0:0:
348,247,15936,1,2,0:2:0:0:
365,336,16080,1,10,0:2:0:0:
277,353,16224,1,2,1:2:0:0:
260,265,16369,2,0,P|217:244|178:247,1,72,2|2,1:2|1:2,0:0:0:0:
86,367,16657,2,0,P|125:340|142:304,1,72,10|2,0:2|1:2,0:0:0:0:
46,282,16945,6,0,L|41:241,3,36,10|8|8|8,0:2|0:2|0:2|0:2,0:0:0:0:
124,193,17234,1,10,0:3:0:0:
124,193,17306,1,8,0:3:0:0:
124,193,17378,2,0,L|129:152,3,36,10|8|8|8,0:2|0:2|0:3|0:3,0:0:0:0:
31,96,17667,1,4,0:3:0:0:
31,96,17739,1,4,0:3:0:0:
31,96,17811,2,0,L|26:55,3,36,8|8|0|0,0:2|0:2|1:0|1:0,0:0:0:0:
112,0,18099,6,0,P|164:-15|246:46,1,135,14|0,1:2|0:0,0:0:0:0:
249,13,18388,2,0,P|305:47|369:33,1,135,14|0,1:2|0:0,0:0:0:0:
382,21,18676,2,0,L|403:203,1,180,14|8,1:2|0:2,0:0:0:0:
384,294,19109,1,2,1:2:0:0:
252,204,19253,6,0,L|261:131,2,72,2|2|10,1:2|0:2|0:2,0:0:0:0:
169,310,19686,2,0,P|210:292|303:332,1,144,2|0,1:2|0:0,0:0:0:0:
404,379,20119,1,8,0:2:0:0:
486,202,20407,5,2,1:2:0:0:
391,254,20551,2,0,L|380:180,1,72,2|8,1:2|0:2,0:0:0:0:
312,37,20840,5,2,0:2:0:0:
411,98,20984,1,2,1:2:0:0:
291,192,21128,2,0,L|302:118,1,72,2|8,1:2|0:2,0:0:0:0:
108,17,21417,5,0,1:0:0:0:
220,70,21561,1,2,1:2:0:0:
86,177,21705,2,0,L|75:103,1,72,2|8,0:2|0:2,0:0:0:0:
191,167,21994,1,2,1:2:0:0:
24,253,22138,5,10,1:2:0:0:
220,380,22426,5,10,1:2:0:0:
371,218,22715,6,0,P|414:200|499:240,1,135,14|0,1:2|0:0,0:0:0:0:
512,225,23003,2,0,P|475:195|467:102,1,135,14|0,1:2|0:0,0:0:0:0:
479,99,23292,2,0,B|409:90|409:90|385:62|385:62|301:50,1,180,14|8,1:2|1:2,0:0:0:0:
214,4,23724,1,0,1:2:0:0:
185,133,23869,6,0,L|175:209,2,72,2|2|10,0:2|1:2|0:2,0:0:0:0:
123,48,24301,2,0,P|65:37|1:94,1,144,2|0,0:2|1:0,0:0:0:0:
32,183,24734,1,8,0:2:0:0:
116,379,25022,5,2,1:2:0:0:
204,362,25166,1,2,1:2:0:0:
187,273,25310,1,10,0:2:0:0:
99,291,25454,1,2,0:2:0:0:
204,362,25599,2,0,P|251:341|289:345,1,72,2|2,1:2|1:2,0:0:0:0:
305,246,25888,2,0,P|275:228|254:199,1,72,10|2,0:2|0:2,0:0:0:0:
164,140,26176,6,0,L|171:94,3,36,10|8|0|8,0:2|0:2|1:0|0:3,0:0:0:0:
181,19,26465,1,10,0:3:0:0:
271,78,26609,2,0,L|264:124,3,36,10|8|8|8,0:2|0:2|0:3|0:3,0:0:0:0:
254,199,26898,1,4,0:3:0:0:
355,176,27042,2,0,L|362:130,3,36,8|8|2|0,0:3|0:3|1:2|1:0,0:0:0:0:
374,48,27330,6,0,P|430:74|498:48,1,135,14|0,1:2|0:0,0:0:0:0:
512,61,27619,2,0,P|460:96|449:168,1,135,14|0,1:2|0:0,0:0:0:0:
462,177,27907,2,0,B|514:222|514:222|488:341,1,180,14|8,1:2|0:2,0:0:0:0:
396,384,28340,1,2,1:2:0:0:
331,262,28484,6,0,L|409:251,2,72,2|2|8,1:2|1:2|0:2,0:0:0:0:
257,334,28917,2,0,B|223:315|181:333|194:340|153:358|115:341,1,144,2|0,0:2|1:0,0:0:0:0:
33,287,29349,1,8,0:2:0:0:
102,50,29638,6,0,B|153:80|153:80|129:178,1,144,6|8,1:2|0:2,0:0:0:0:
190,252,30070,1,10,0:2:0:0:
190,252,30143,1,8,0:2:0:0:
190,252,30215,2,0,P|224:233|275:233,1,72,10|8,0:2|0:3,0:0:0:0:
368,158,30503,2,0,P|332:153|301:135,1,72,6|0,0:3|1:0,0:0:0:0:
245,47,30792,5,6,1:2:0:0:
256,192,30864,12,0,31946,1:0:0:0:
211,224,32090,5,14,0:2:0:0:
222,147,32234,1,10,0:2:0:0:
299,158,32378,1,10,0:2:0:0:
288,235,32522,1,14,0:2:0:0:
294,243,32955,5,14,0:2:0:0:
307,152,33099,1,10,0:2:0:0:
216,139,33243,1,10,0:2:0:0:
203,230,33387,1,14,0:2:0:0:
297,134,34397,5,14,0:2:0:0:
198,148,34542,1,10,0:2:0:0:
212,247,34686,1,10,0:2:0:0:
311,233,34830,1,14,0:2:0:0:
320,239,35263,5,14,0:2:0:0:
206,256,35407,1,10,0:2:0:0:
190,142,35551,1,10,0:2:0:0:
303,126,35696,1,14,0:2:0:0:
179,247,36705,5,14,0:2:0:0:
198,115,36849,1,10,0:2:0:0:
330,134,36993,1,10,0:2:0:0:
311,266,37137,1,14,0:2:0:0:
317,273,37570,5,14,0:2:0:0:
337,129,37714,1,10,0:2:0:0:
193,108,37858,1,10,0:2:0:0:
172,253,38002,1,14,0:2:0:0:
256,192,38292,6,0,L|251:154,3,36,8|8|8|8,0:2|0:2|0:2|0:2,0:0:0:0:
350,120,38580,1,10,0:2:0:0:
362,112,38652,1,8,0:2:0:0:
375,107,38724,1,8,0:3:0:0:
389,105,38796,1,0,0:0:0:0:
403,105,38869,6,0,L|386:263,1,144,14|8,0:2|0:2,0:0:0:0:
447,337,39301,1,0,1:0:0:0:
447,337,39373,1,0,1:0:0:0:
447,337,39445,2,0,P|396:354|299:305,1,144,10|8,0:2|0:2,0:0:0:0:
227,235,39878,1,0,1:0:0:0:
227,235,39950,1,0,1:0:0:0:
227,235,40022,6,0,P|213:287|114:325,1,144,14|6,0:2|0:3,0:0:0:0:
32,380,40455,2,0,L|22:298,1,72,6|0,1:2|0:0,0:0:0:0:
136,236,40744,2,0,L|156:74,1,144,14|0,1:2|0:0,0:0:0:0:
256,192,41320,12,0,43195,0:0:0:0:
349,30,43484,6,0,P|400:3|474:69,1,148.50000453186,6|0,1:2|0:0,0:0:0:0:
484,61,43772,2,0,L|471:163,1,99.0000030212403,10|0,0:2|1:0,0:0:0:0:
309,271,44061,1,2,0:2:0:0:
374,148,44205,1,2,1:2:0:0:
508,257,44349,2,0,P|457:265|413:246,1,99.0000030212403,10|0,0:2|1:2,0:0:0:0:
242,184,44638,5,2,1:2:0:0:
294,368,44782,2,0,L|309:269,1,99.0000030212403,2|8,0:2|0:2,0:0:0:0:
232,94,45070,2,0,P|186:112|152:158,1,99.0000030212403,2|0,1:2|0:0,0:0:0:0:
177,335,45359,2,0,P|184:286|161:233,1,99.0000030212403,2|8,1:2|0:2,0:0:0:0:
0,153,45647,1,0,1:0:0:0:
0,153,45720,1,0,1:0:0:0:
0,153,45792,6,0,L|18:306,1,148.50000453186,2|0,1:2|0:0,0:0:0:0:
6,316,46080,2,0,P|54:293|113:299,1,99.0000030212403,10|0,0:2|1:0,0:0:0:0:
228,176,46369,2,0,P|180:153|121:159,1,99.0000030212403,2|0,0:2|1:0,0:0:0:0:
0,35,46657,2,0,P|48:12|107:18,1,99.0000030212403,10|0,0:2|1:0,0:0:0:0:
327,126,46945,5,2,1:2:0:0:
179,62,47090,1,0,0:0:0:0:
340,14,47234,1,10,0:2:0:0:
215,156,47378,2,0,B|260:202|260:202|238:286,1,148.50000453186,2|0,1:2|0:0,0:0:0:0:
224,295,47667,2,0,P|276:321|337:303,1,99.0000030212403,2|8,1:2|0:2,0:0:0:0:
428,366,47955,1,8,0:2:0:0:
428,366,48027,1,8,0:2:0:0:
428,366,48099,6,0,B|414:293|414:293|445:226,1,148.50000453186,4|0,1:2|0:0,0:0:0:0:
460,214,48388,2,0,L|355:199,1,99.0000030212403,10|0,0:2|0:0,0:0:0:0:
263,32,48676,2,0,P|312:17|367:102,1,148.50000453186,2|0,1:2|0:0,0:0:0:0:
383,97,48965,2,0,L|278:112,1,99.0000030212403,10|0,0:2|0:0,0:0:0:0:
106,110,49253,6,0,L|121:211,1,99.0000030212403,2|0,1:2|1:2,0:0:0:0:
96,312,49542,1,10,0:2:0:0:
22,181,49686,2,0,L|7:282,1,99.0000030212403,2|0,1:2|0:0,0:0:0:0:
198,379,49974,2,0,L|183:281,1,99.0000030212403,2|8,1:2|0:2,0:0:0:0:
356,135,50263,6,0,B|410:101|410:101|389:251,1,198.000006042481,6|2,1:2|1:2,0:0:0:0:
298,353,50695,1,10,0:2:0:0:
451,303,50840,1,2,0:2:0:0:
299,204,50984,2,0,P|243:189|193:202,1,99.0000030212403,2|0,1:2|0:0,0:0:0:0:
64,225,51272,2,0,P|104:184|118:134,1,99.0000030212403,10|0,0:2|0:0,0:0:0:0:
42,7,51561,5,2,1:2:0:0:
207,99,51705,1,0,0:0:0:0:
24,142,51849,1,10,0:2:0:0:
164,0,51994,2,0,L|265:14,1,99.0000030212403,10|4,0:3|0:3,0:0:0:0:
338,132,52282,2,0,L|400:142,2,49.5000015106202,8|8|8,0:2|0:2|0:2,0:0:0:0:
208,197,52570,1,8,0:2:0:0:
208,197,52643,1,8,0:2:0:0:
208,197,52715,6,0,P|253:242|247:331,1,148.50000453186,6|0,1:2|0:0,0:0:0:0:
239,338,53003,2,0,L|344:352,1,99.0000030212403,10|0,0:2|1:0,0:0:0:0:
479,246,53292,2,0,L|374:260,1,99.0000030212403,2|0,0:2|1:0,0:0:0:0:
262,120,53580,1,10,0:2:0:0:
365,246,53724,1,2,0:2:0:0:
394,89,53869,5,2,1:2:0:0:
280,209,54013,2,0,L|170:193,1,99.0000030212403,0|10,0:0|0:2,0:0:0:0:
37,99,54301,2,0,P|91:93|143:129,1,99.0000030212403,2|0,1:2|0:0,0:0:0:0:
106,244,54590,2,0,P|52:249|0:213,1,99.0000030212403,2|8,1:2|0:2,0:0:0:0:
182,194,54878,1,0,1:0:0:0:
182,194,54950,1,0,1:0:0:0:
182,194,55022,6,0,B|217:262|217:262|194:349,1,148.50000453186,2|0,1:2|0:0,0:0:0:0:
185,345,55311,2,0,P|235:368|288:357,1,99.0000030212403,10|0,0:2|1:0,0:0:0:0:
416,239,55599,2,0,P|366:262|313:251,1,99.0000030212403,2|0,0:2|1:0,0:0:0:0:
293,90,55888,2,0,P|337:121|354:173,1,99.0000030212403,10|0,0:2|1:2,0:0:0:0:
502,318,56176,6,0,L|513:218,1,99.0000030212403,2|0,1:2|0:0,0:0:0:0:
480,105,56465,1,10,0:2:0:0:
416,239,56609,2,0,P|366:262|282:229,1,148.50000453186,2|0,1:2|0:0,0:0:0:0:
294,216,56897,2,0,L|282:117,1,99.0000030212403,2|8,1:2|0:2,0:0:0:0:
171,25,57186,1,8,0:2:0:0:
171,25,57258,1,8,0:2:0:0:
171,25,57330,6,0,L|190:185,1,148.50000453186,4|0,1:2|0:0,0:0:0:0:
177,185,57619,2,0,P|125:165|76:173,1,99.0000030212403,10|0,0:2|0:0,0:0:0:0:
41,299,57907,2,0,B|114:289|114:289|156:315|156:315|238:302,1,198.000006042481,2|8,1:2|0:2,0:0:0:0:
339,235,58340,1,0,1:0:0:0:
339,235,58412,1,0,1:0:0:0:
339,235,58484,6,0,L|352:340,1,99.0000030212403,0|0,1:0|0:0,0:0:0:0:
457,261,58772,1,10,0:2:0:0:
358,135,58917,1,8,0:3:0:0:
358,135,58989,1,8,0:3:0:0:
358,135,59061,2,0,P|310:136|258:172,2,99.0000030212403,6|0|8,0:3|1:0|0:2,0:0:0:0:
476,168,59494,6,0,L|456:6,1,148.50000453186,6|0,1:2|0:0,0:0:0:0:
467,5,59782,1,2,1:2:0:0:
356,45,59926,1,10,0:2:0:0:
227,2,60070,6,0,B|176:29|176:29|204:125,1,148.50000453186,6|0,1:2|0:0,0:0:0:0:
219,130,60359,2,0,L|212:185,3,49.5000015106202,10|8|8|8,0:2|0:2|0:2|0:2,0:0:0:0:
110,248,60647,6,0,P|174:257|100:313,1,198.000006042481,6|8,1:2|0:3,0:0:0:0:
100,339,61008,1,8,0:3:0:0:
100,339,61080,2,0,B|150:364|201:329|186:322|237:294|296:317,1,198.000006042481,6|10,1:3|0:2,0:0:0:0:
304,329,61441,1,8,0:2:0:0:
304,329,61513,1,10,0:2:0:0:
469,174,61945,6,0,L|493:385,2,198.000006042481,6|10|2,1:2|0:2|1:2,0:0:0:0:
416,72,62667,1,0,1:2:0:0:
416,72,62739,1,0,1:2:0:0:
416,72,62811,2,0,P|380:96|342:99,1,80.9999975280763,8|0,0:2|0:0,0:0:0:0:
208,10,63099,5,2,1:2:0:0:
193,98,63244,1,2,0:2:0:0:
178,186,63388,1,10,0:2:0:0:
270,158,63532,2,0,L|291:327,1,161.999995056153,2|2,0:2|1:2,0:0:0:0:
217,372,63965,2,0,P|181:347|128:341,1,80.9999975280763,10|2,0:2|0:2,0:0:0:0:
25,224,64253,6,0,L|50:389,2,161.999995056153,6|10|2,1:2|0:2|1:2,0:0:0:0:
81,138,64974,1,0,1:2:0:0:
81,138,65046,1,0,1:2:0:0:
81,138,65119,2,0,L|172:150,1,80.9999975280763,10|0,0:2|0:0,0:0:0:0:
246,92,65407,6,0,L|239:42,3,40.4999987640381,2|0|2|0,1:2|1:0|1:2|1:0,0:0:0:0:
323,159,65695,1,10,0:2:0:0:
323,159,65768,1,0,1:0:0:0:
323,159,65840,2,0,L|316:210,3,40.4999987640381,2|0|14|0,1:2|1:0|0:2|1:0,0:0:0:0:
386,87,66128,1,2,1:2:0:0:
386,87,66201,1,0,1:0:0:0:
386,87,66273,2,0,L|379:37,3,40.4999987640381,10|8|8|8,0:2|0:2|0:2|0:2,0:0:0:0:
458,161,66561,6,0,L|434:326,2,161.999995056153,14|14|14,1:2|1:2|1:2,0:0:0:0:
386,87,67282,1,0,1:0:0:0:
386,87,67354,1,0,1:0:0:0:
386,87,67426,2,0,P|343:107|306:106,1,80.9999975280763,10|0,0:2|0:0,0:0:0:0:
128,87,67715,5,6,1:2:0:0:
182,15,67859,1,2,1:2:0:0:
215,98,68003,1,8,0:2:0:0:
95,4,68147,2,0,P|54:29|51:137,1,161.999995056153,2|2,1:2|1:2,0:0:0:0:
160,173,68580,2,0,L|147:265,1,80.9999975280763,10|8,0:2|0:2,0:0:0:0:
176,355,68869,5,6,1:2:0:0:
259,299,69013,2,0,L|274:395,1,80.9999975280763,0|10,1:0|0:2,0:0:0:0:
350,231,69301,5,0,1:0:0:0:
242,207,69445,1,2,1:2:0:0:
359,325,69590,2,0,L|447:312,1,80.9999975280763,0|10,1:0|0:2,0:0:0:0:
452,111,69878,5,0,1:0:0:0:
350,231,70022,1,2,1:2:0:0:
512,265,70167,2,0,L|497:177,1,80.9999975280763,0|12,1:0|0:2,0:0:0:0:
349,92,70455,1,0,1:0:0:0:
349,92,70527,1,0,0:0:0:0:
349,92,70599,6,0,L|341:136,3,40.4999987640381,12|8|8|8,1:2|0:2|0:2|0:2,0:0:0:0:
245,39,70888,2,0,L|237:-5,3,40.4999987640381,10|8|8|8,0:2|0:2|0:3|0:3,0:0:0:0:
147,137,71176,6,0,P|83:152|6:205,1,148.50000453186,14|0,1:2|0:0,0:0:0:0:
2,211,71465,2,0,P|46:258|131:299,1,148.50000453186,10|0,1:2|0:0,0:0:0:0:
139,300,71753,2,0,P|158:237|150:143,1,148.50000453186,14|0,1:2|0:0,0:0:0:0:
147,137,72042,1,8,0:2:0:0:
251,212,72186,1,0,1:0:0:0:
360,141,72330,5,2,1:2:0:0:
259,23,72474,2,0,L|271:124,1,99.0000030212403,2|8,1:2|0:2,0:0:0:0:
412,55,72763,2,0,B|471:96|471:96|440:242,1,198.000006042481,2|2,1:2|1:2,0:0:0:0:
413,384,73195,1,10,0:2:0:0:
346,231,73340,1,2,1:2:0:0:
475,325,73484,6,0,P|413:299|328:351,1,148.50000453186,6|0,1:2|0:0,0:0:0:0:
351,343,73772,2,0,P|289:369|204:317,1,148.50000453186,10|0,0:2|0:0,0:0:0:0:
226,324,74061,2,0,P|164:298|79:350,1,148.50000453186,2|0,1:2|0:0,0:0:0:0:
78,343,74349,2,0,L|67:245,1,99.0000030212403,10|0,0:2|1:0,0:0:0:0:
48,132,74638,6,0,L|-4:142,3,49.5000015106202,14|8|2|0,1:2|0:2|1:2|1:2,0:0:0:0:
124,49,74926,2,0,L|176:59,3,49.5000015106202,8|8|2|0,0:2|0:2|1:2|1:0,0:0:0:0:
232,165,75215,5,8,0:2:0:0:
250,172,75287,1,8,0:2:0:0:
269,175,75359,1,10,0:2:0:0:
288,174,75431,1,8,0:2:0:0:
306,168,75503,2,0,L|313:115,3,49.5000015106202,10|8|10|8,0:2|0:2|0:2|0:2,0:0:0:0:
433,205,75792,6,0,L|416:353,1,148.50000453186,6|0,1:2|0:0,0:0:0:0:
400,363,76080,2,0,B|328:384|328:384|258:350,1,148.50000453186,10|0,0:2|0:0,0:0:0:0:
249,339,76369,2,0,L|266:191,1,148.50000453186,6|0,1:2|0:0,0:0:0:0:
257,176,76657,1,8,0:2:0:0:
337,293,76801,1,0,1:0:0:0:
171,214,76945,5,2,1:2:0:0:
351,153,77090,2,0,P|367:105|357:55,1,99.0000030212403,2|8,1:2|0:2,0:0:0:0:
240,0,77378,2,0,B|183:47|183:47|37:17,1,198.000006042481,2|2,1:2|1:2,0:0:0:0:
0,161,77811,2,0,P|45:139|100:144,1,99.0000030212403,10|0,0:2|1:0,0:0:0:0:
45,361,78099,6,0,P|20:306|76:236,1,148.50000453186,6|0,1:2|0:0,0:0:0:0:
81,249,78388,2,0,B|141:255|141:255|162:272|162:272|240:280,1,148.50000453186,10|0,0:2|0:0,0:0:0:0:
236,291,78676,2,0,P|280:235|257:169,1,148.50000453186,2|0,1:2|0:0,0:0:0:0:
242,175,78965,1,10,1:2:0:0:
323,64,79109,1,0,1:0:0:0:
323,64,79181,1,0,0:0:0:0:
323,64,79253,6,0,L|387:74,3,49.5000015106202,10|0|2|0,0:2|0:0|1:2|0:0,0:0:0:0:
481,149,79542,2,0,L|417:159,3,49.5000015106202,8|0|2|0,0:2|0:0|1:2|1:0,0:0:0:0:
316,236,79830,6,0,L|327:297,3,49.5000015106202,8|8|8|8,0:2|0:2|0:2|0:2,0:0:0:0:
443,303,80119,2,0,L|432:364,3,49.5000015106202,8|8|8|8,0:2|0:2|0:2|0:2,0:0:0:0:
278,362,80407,5,0,1:0:0:0:
262,349,80479,1,0,1:0:0:0:
243,341,80551,1,8,0:2:0:0:
223,338,80623,1,8,0:2:0:0:
203,341,80695,2,0,L|150:332,3,49.5000015106202,8|8|8|8,0:2|0:2|0:2|0:2,0:0:0:0:
30,254,80984,6,0,L|83:245,3,49.5000015106202,8|8|8|8,0:2|0:2|0:2|0:2,0:0:0:0:
203,175,81272,2,0,L|150:166,1,49.5000015106202,8|8,0:2|0:2,0:0:0:0:
89,90,81417,2,0,L|137:81,1,49.5000015106202,8|8,0:2|0:2,0:0:0:0:
202,17,81561,5,6,1:2:0:0:
297,77,82138,1,2,0:2:0:0:
484,169,82715,5,6,0:2:0:0:
398,236,83292,1,0,0:0:0:0:
183,279,83869,5,6,0:2:0:0:
278,353,84446,1,2,0:2:0:0:
498,290,85022,6,0,L|475:92,1,188.999994232178,6|0,0:2|0:0,0:0:0:0:
380,78,86176,6,0,L|385:33,3,45,12|8|0|0,0:2|0:3|1:0|1:0,0:0:0:0:
306,135,86465,2,0,L|261:129,3,45,8|12|0|0,0:2|0:3|1:0|1:0,0:0:0:0:
363,209,86753,2,0,L|357:253,3,45,8|8|0|0,0:2|0:3|1:0|1:0,0:0:0:0:
437,152,87042,1,0,1:0:0:0:
454,154,87114,1,4,1:3:0:0:
471,157,87186,1,8,0:2:0:0:
488,160,87258,1,8,0:2:0:0:
256,192,87330,12,0,89061,0:0:0:0:
