osu file format v14

[General]
AudioFilename: audio.mp3
AudioLeadIn: 0
PreviewTime: 43412
Countdown: 0
SampleSet: Soft
StackLeniency: 0.2
Mode: 0
LetterboxInBreaks: 0
WidescreenStoryboard: 1

[Editor]
DistanceSpacing: 2
BeatDivisor: 4
GridSize: 4
TimelineZoom: 2.7

[Metadata]
Title:L.L.L. (TV Size)
TitleUnicode:L.L.L. (TV Size)
Artist:MYTH & ROID
ArtistUnicode:MYTH & ROID
Creator:Kuki1537
Version:BROWIEC'S EXTREME
Source:オーバーロード
Tags:overlord ending ed albedo j-rock jrock j rock anime japanese female vocal ミスアンドロイド season 1 s1 lll nyantiaz browiec xenon- xehn xen skyflame english and
BeatmapID:2842861
BeatmapSetID:1361680

[Difficulty]
HPDrainRate:5.6
CircleSize:4
OverallDifficulty:9.3
ApproachRate:9.5
SliderMultiplier:2
SliderTickRate:1

[Events]
//Background and Video events
0,0,"albedo.jpg",0,0
Video,840,"vid.avi"
//Break Periods
//Storyboard Layer 0 (Background)
//Storyboard Layer 1 (Fail)
//Storyboard Layer 2 (Pass)
//Storyboard Layer 3 (Foreground)
//Storyboard Layer 4 (Overlay)
//Storyboard Sound Samples

[TimingPoints]
1946,288.461538461538,4,2,1,70,1,0
1946,-166.666666666667,4,2,1,70,0,0
2450,-166.666666666667,4,2,1,5,0,0
2522,-500,4,2,1,70,0,0
2955,-500,4,2,1,5,0,0
3099,-166.666666666667,4,2,1,70,0,0
3604,-166.666666666667,4,2,1,5,0,0
3676,-500,4,2,1,70,0,0
4109,-500,4,2,1,5,0,0
4253,-105.263157894737,4,2,1,70,0,0
11248,-105.263157894737,4,2,1,5,0,0
11320,-105.263157894737,4,2,1,70,0,0
11825,-105.263157894737,4,2,1,5,0,0
11897,-105.263157894737,4,2,1,70,0,0
13051,-263.157894736842,4,2,1,70,0,0
13412,-263.157894736842,4,2,1,5,0,0
13484,-100,4,2,1,70,0,0
13700,-100,4,2,1,5,0,0
13772,-83.3333333333333,4,2,1,70,0,0
13989,-83.3333333333333,4,2,1,5,0,0
14061,-66.6666666666667,4,2,1,70,0,0
14494,-105.263157894737,4,2,1,70,0,0
17739,-105.263157894737,4,2,2,70,0,0
17811,-105.263157894737,4,2,1,70,0,0
18099,-100,4,2,1,70,0,0
18316,-100,4,2,1,5,0,0
18388,-83.3333333333333,4,2,1,70,0,0
18604,-83.3333333333333,4,2,1,5,0,0
18676,-66.6666666666667,4,2,1,70,0,0
19109,-105.263157894737,4,2,1,70,0,0
21128,-90.9090909090909,4,2,1,70,0,0
21705,-80,4,2,1,70,0,0
22715,-100,4,2,1,70,0,0
22931,-100,4,2,1,5,0,0
23003,-83.3333333333333,4,2,1,70,0,0
23220,-83.3333333333333,4,2,1,5,0,0
23292,-66.6666666666667,4,2,1,70,0,0
23724,-105.263157894737,4,2,1,70,0,0
26537,-105.263157894737,4,2,2,70,0,0
26609,-105.263157894737,4,2,1,70,0,0
26897,-105.263157894737,4,2,2,70,0,0
27042,-105.263157894737,4,2,1,70,0,0
27330,-100,4,2,1,70,0,0
27546,-100,4,2,1,5,0,0
27619,-83.3333333333333,4,2,1,70,0,0
27835,-83.3333333333333,4,2,1,5,0,0
27907,-66.6666666666667,4,2,1,70,0,0
28340,-105.263157894737,4,2,1,70,0,0
30503,-105.263157894737,4,2,2,70,0,0
30792,-500,4,2,1,70,0,0
38292,-105.263157894737,4,2,1,70,0,0
38869,-100,4,2,1,70,0,0
39085,-100,4,2,1,5,0,0
39157,-100,4,2,1,70,0,0
40311,-100,4,2,2,70,0,0
40455,-100,4,2,1,70,0,0
40671,-100,4,2,1,5,0,0
40744,-133.333333333333,4,2,1,70,0,0
43484,-83.3333333333333,4,2,1,70,0,1
43700,-83.3333333333333,4,2,1,5,0,1
43772,-83.3333333333333,4,2,1,70,0,1
46008,-83.3333333333333,4,2,1,5,0,1
46080,-83.3333333333333,4,2,1,70,0,1
47162,-83.3333333333333,4,2,1,5,0,1
47234,-83.3333333333333,4,2,1,70,0,1
47883,-83.3333333333333,4,2,1,5,0,1
47955,-100,4,2,1,70,0,1
48316,-100,4,2,1,5,0,1
48388,-100,4,2,1,70,0,1
48676,-83.3333333333333,4,2,1,70,0,1
48965,-100,4,2,1,70,0,1
49470,-100,4,2,1,5,0,1
49542,-100,4,2,1,70,0,1
50479,-100,4,2,1,5,0,1
50551,-100,4,2,1,70,0,1
52138,-100,4,2,2,70,0,1
52282,-100,4,2,1,70,0,1
52715,-83.3333333333333,4,2,1,70,0,1
52931,-83.3333333333333,4,2,1,5,0,1
53003,-83.3333333333333,4,2,1,70,0,1
55239,-83.3333333333333,4,2,1,5,0,1
55311,-83.3333333333333,4,2,1,70,0,1
57114,-83.3333333333333,4,2,1,5,0,1
57186,-100,4,2,1,70,0,1
57835,-100,4,2,1,5,0,1
57907,-100,4,2,1,70,0,1
59061,-100,4,2,2,70,0,1
59349,-100,4,2,1,70,0,1
59494,-83.3333333333333,4,2,1,70,0,1
59710,-83.3333333333333,4,2,1,5,0,1
59782,-83.3333333333333,4,2,1,70,0,1
60287,-83.3333333333333,4,2,1,5,0,1
60359,-83.3333333333333,4,2,1,70,0,1
60864,-83.3333333333333,4,2,1,5,0,1
60936,-83.3333333333333,4,2,1,70,0,1
61873,-83.3333333333333,4,2,1,5,0,1
61945,-111.111111111111,4,2,1,70,0,0
63027,-111.111111111111,4,2,1,5,0,0
63099,-111.111111111111,4,2,1,70,0,0
63748,-111.111111111111,4,2,1,5,0,0
63820,-111.111111111111,4,2,1,70,0,0
64325,-111.111111111111,4,2,1,5,0,0
64397,-111.111111111111,4,2,1,70,0,0
64614,-111.111111111111,4,2,1,5,0,0
64686,-111.111111111111,4,2,1,70,0,0
64902,-111.111111111111,4,2,1,5,0,0
64974,-111.111111111111,4,2,1,70,0,0
65335,-111.111111111111,4,2,1,5,0,0
65407,-111.111111111111,4,2,1,70,0,0
66561,-100,4,2,1,70,0,0
66777,-100,4,2,1,5,0,0
66849,-100,4,2,1,70,0,0
67065,-100,4,2,1,5,0,0
67138,-100,4,2,1,70,0,0
67354,-100,4,2,1,5,0,0
67426,-250,4,2,1,70,0,0
67643,-250,4,2,1,5,0,0
67715,-100,4,2,1,70,0,0
69373,-100,4,2,1,5,0,0
69445,-100,4,2,1,70,0,0
71176,-71.4285714285714,4,2,1,70,0,1
71393,-71.4285714285714,4,2,1,5,0,1
71465,-71.4285714285714,4,2,1,70,0,1
71682,-71.4285714285714,4,2,1,5,0,1
71753,-71.4285714285714,4,2,1,70,0,1
71970,-71.4285714285714,4,2,1,5,0,1
72042,-100,4,2,1,70,0,1
72330,-71.4285714285714,4,2,1,70,0,1
73484,-71.4285714285714,4,2,1,70,0,1
73701,-71.4285714285714,4,2,1,5,0,1
73772,-71.4285714285714,4,2,1,70,0,1
73989,-71.4285714285714,4,2,1,5,0,1
74061,-71.4285714285714,4,2,1,70,0,1
74278,-71.4285714285714,4,2,1,5,0,1
74349,-100,4,2,1,70,0,1
74638,-71.4285714285714,4,2,1,70,0,1
75792,-71.4285714285714,4,2,1,70,0,1
76009,-71.4285714285714,4,2,1,5,0,1
76080,-71.4285714285714,4,2,1,70,0,1
76297,-71.4285714285714,4,2,1,5,0,1
76369,-71.4285714285714,4,2,1,70,0,1
76586,-71.4285714285714,4,2,1,5,0,1
76657,-100,4,2,1,70,0,1
76945,-71.4285714285714,4,2,1,70,0,1
78099,-71.4285714285714,4,2,1,70,0,1
78316,-71.4285714285714,4,2,1,5,0,1
78388,-71.4285714285714,4,2,1,70,0,1
78605,-71.4285714285714,4,2,1,5,0,1
78676,-71.4285714285714,4,2,1,70,0,1
81561,-200,4,2,1,70,0,0
82066,-200,4,2,1,5,0,0
82138,-500,4,2,1,70,0,0
82570,-500,4,2,1,5,0,0
82715,-200,4,2,1,70,0,0
83220,-200,4,2,1,5,0,0
83292,-500,4,2,1,70,0,0
83724,-500,4,2,1,5,0,0
83869,-200,4,2,1,70,0,0
84373,-200,4,2,1,5,0,0
84445,-500,4,2,1,70,0,0
84878,-500,4,2,1,5,0,0
85022,-285.714285714286,4,2,1,70,0,0
86032,-285.714285714286,4,2,1,5,0,0
86176,-71.4285714285714,4,2,1,70,0,0
86248,-71.4285714285714,4,2,2,70,0,0
86465,-71.4285714285714,4,2,1,70,0,0
86537,-71.4285714285714,4,2,3,70,0,0
86609,-71.4285714285714,4,2,1,70,0,0
86825,-71.4285714285714,4,2,2,70,0,0
87186,-71.4285714285714,4,2,1,70,0,0
89061,-71.4285714285714,4,2,1,5,0,0

[Colours]
Combo1 : 189,185,179
Combo2 : 190,170,129
Combo3 : 179,139,113
Combo4 : 114,102,80

[HitObjects]
376,48,1946,6,0,B|436:88|436:88|384:220,1,209.999993591309,6|0,1:2|0:0,0:0:0:0:
412,296,2522,6,0,B|384:304|384:304|352:296,1,59.9999981689454,2|0,0:2|0:0,0:0:0:0:
124,104,3099,6,0,B|195:95|195:95|247:125|247:125|326:115,1,209.999993591309,6|0,1:2|0:0,0:0:0:0:
328,28,3676,6,0,L|268:35,1,60
45,57,4253,6,0,P|80:64|123:104,1,94.9999974632264,6|0,1:2|0:0,0:0:0:0:
244,340,4542,1,10,0:2:0:0:
332,112,4686,1,2,1:2:0:0:
172,288,4830,1,0,0:0:0:0:
164,20,4974,1,2,1:2:0:0:
310,276,5119,2,0,P|343:287|401:274,1,94.9999974632264,10|2,0:2|0:2,0:0:0:0:
368,0,5407,5,2,0:2:0:0:
236,224,5551,1,2,1:2:0:0:
472,132,5695,1,10,0:2:0:0:
212,16,5840,2,0,L|223:111,1,94.9999974632264,2|0,1:2|0:0,0:0:0:0:
432,312,6128,2,0,L|443:216,1,94.9999974632264,10|0,0:2|1:0,0:0:0:0:
180,192,6417,1,10,0:2:0:0:
180,192,6489,1,8,0:2:0:0:
180,192,6561,6,0,P|212:203|271:191,1,94.9999974632264,6|2,1:2|0:2,0:0:0:0:
444,24,6849,2,0,P|411:12|352:24,1,94.9999974632264,10|2,0:2|1:2,0:0:0:0:
312,288,7138,1,0,0:0:0:0:
488,112,7282,1,2,1:2:0:0:
404,368,7426,2,0,L|308:379,1,94.9999974632264,10|2,0:2|0:2,0:0:0:0:
144,112,7715,5,2,1:2:0:0:
400,248,7859,1,0,0:0:0:0:
136,324,8003,1,10,0:2:0:0:
324,96,8147,2,0,P|336:141|323:186,1,94.9999974632264,2|4,0:2|1:2,0:0:0:0:
52,268,8436,1,2,1:2:0:0:
31,225,8508,1,0,1:0:0:0:
41,180,8580,1,10,0:2:0:0:
77,150,8652,1,8,0:2:0:0:
124,149,8724,1,8,0:2:0:0:
161,177,8796,1,8,0:2:0:0:
174,222,8869,6,0,L|163:318,1,94.9999974632264,6|0,1:2|0:0,0:0:0:0:
372,384,9157,2,0,L|361:289,1,94.9999974632264,8|0,0:2|0:0,0:0:0:0:
160,204,9445,2,0,L|149:300,1,94.9999974632264,2|0,1:2|0:0,0:0:0:0:
358,366,9733,2,0,L|347:271,1,94.9999974632264,8|0,0:2|0:0,0:0:0:0:
312,40,10022,1,2,1:2:0:0:
256,224,10167,1,0,0:0:0:0:
296,24,10311,1,8,0:2:0:0:
420,208,10455,2,0,P|465:221|510:209,1,94.9999974632264,0|2,0:0|1:2,0:0:0:0:
408,8,10744,1,0,1:2:0:0:
336,176,10888,1,8,0:2:0:0:
208,0,11032,6,0,B|202:47|202:47|221:86|221:86|215:137,1,142.49999619484,6|0,1:2|0:0,0:0:0:0:
208,232,11320,1,0,1:0:0:0:
32,76,11465,1,8,0:2:0:0:
147,300,11609,6,0,P|203:324|283:288,1,142.49999619484,2|0,1:2|0:0,0:0:0:0:
340,224,11897,1,8,0:2:0:0:
381,202,11969,1,8,0:2:0:0:
428,203,12041,1,8,0:2:0:0:
468,228,12113,1,8,0:2:0:0:
490,270,12186,6,0,L|479:366,1,94.9999974632264,6|0,1:2|0:0,0:0:0:0:
296,316,12474,1,8,0:2:0:0:
296,316,12546,1,8,0:2:0:0:
296,316,12619,2,0,B|340:328|340:328|388:316,1,94.9999974632264,2|0,1:2|0:0,0:0:0:0:
436,88,12907,1,12,0:2:0:0:
228,240,13051,6,0,B|184:252|184:252|136:240,1,94.9999974632264,6|0,1:2|0:0,0:0:0:0:
28,136,13484,6,0,P|60:100|112:168,1,150,14|0,1:2|0:0,0:0:0:0:
52,212,13772,6,0,P|8:160|80:80,1,179.999994506836,14|0,1:2|0:0,0:0:0:0:
160,144,14061,6,0,P|120:220|-4:112,1,300.000011444092,14|8,1:2|1:2,0:0:0:0:
248,16,14494,1,2,0:2:0:0:
236,216,14638,5,2,1:2:0:0:
152,32,14782,1,2,0:2:0:0:
220,232,14926,1,10,0:2:0:0:
336,52,15070,2,0,L|325:148,1,94.9999974632264,2|0,0:2|1:0,0:0:0:0:
272,336,15359,1,0,0:0:0:0:
156,160,15503,2,0,P|188:126|233:114,1,94.9999974632264,8|0,0:2|0:0,0:0:0:0:
392,288,15792,5,2,1:2:0:0:
180,320,15936,1,2,0:2:0:0:
408,304,16080,1,10,0:2:0:0:
240,208,16224,1,2,1:2:0:0:
360,384,16369,1,2,1:2:0:0:
420,192,16513,1,2,1:2:0:0:
256,336,16657,2,0,P|211:348|166:337,1,94.9999974632264,10|2,0:2|1:2,0:0:0:0:
192,116,16945,5,10,0:2:0:0:
195,139,17017,1,8,0:2:0:0:
198,163,17089,1,8,0:2:0:0:
201,186,17161,1,8,0:2:0:0:
204,210,17234,2,0,L|209:258,1,47.4999987316132,10|8,0:3|0:3,0:0:0:0:
420,192,17378,5,10,0:2:0:0:
406,172,17450,1,8,0:2:0:0:
387,157,17522,1,8,0:3:0:0:
365,148,17594,1,8,0:3:0:0:
342,145,17667,2,0,L|294:150,1,47.4999987316132,4|4,0:3|0:3,0:0:0:0:
256,336,17811,5,8,0:2:0:0:
279,333,17883,1,8,0:2:0:0:
303,330,17956,2,0,L|351:324,1,47.4999987316132,0|0,1:0|1:0,0:0:0:0:
198,163,18099,6,0,B|122:143|134:203|54:187,1,150,14|0,1:2|0:0,0:0:0:0:
208,74,18388,6,0,P|260:98|272:214,1,179.999994506836,14|0,1:2|0:0,0:0:0:0:
232,360,18676,6,0,B|190:284|268:226|268:226|361:267|332:355,1,300.000011444092,14|8,1:2|0:2,0:0:0:0:
168,152,19109,5,2,1:2:0:0:
368,172,19253,1,2,1:2:0:0:
152,136,19397,1,2,0:2:0:0:
384,188,19542,1,10,0:2:0:0:
268,40,19686,2,0,L|257:136,1,94.9999974632264,2|0,1:2|1:0,0:0:0:0:
176,288,19974,1,0,0:0:0:0:
92,96,20119,2,0,L|103:192,1,94.9999974632264,8|0,0:2|1:0,0:0:0:0:
216,376,20407,5,2,1:2:0:0:
288,192,20551,2,0,P|243:180|198:191,1,94.9999974632264,2|8,1:2|0:2,0:0:0:0:
128,380,20840,1,2,0:2:0:0:
316,284,20984,5,2,1:2:0:0:
112,144,21128,2,0,P|97:200|116:252,1,110.000003356934,2|8,1:2|0:2,0:0:0:0:
288,372,21417,1,0,1:0:0:0:
264,112,21561,5,2,1:2:0:0:
56,324,21705,2,0,P|100:344|176:320,1,125,2|8,0:2|0:2,0:0:0:0:
348,144,21994,1,2,1:2:0:0:
48,228,22138,5,10,1:2:0:0:
432,352,22426,1,10,1:2:0:0:
192,36,22715,6,0,B|236:5|236:5|224:100,1,150,14|0,1:2|0:0,0:0:0:0:
140,184,23003,6,0,B|188:180|188:180|224:196|224:196|260:180|260:180|316:184,1,179.999994506836,14|0,1:2|0:0,0:0:0:0:
388,120,23292,6,0,B|332:98|332:98|355:281|355:281|403:247,1,300.000011444092,14|8,1:2|1:2,0:0:0:0:
280,340,23724,5,0,1:2:0:0:
492,276,23869,1,2,0:2:0:0:
264,356,24013,1,2,1:2:0:0:
492,384,24157,1,10,0:2:0:0:
344,184,24301,2,0,L|355:280,1,94.9999974632264,2|0,0:2|1:0,0:0:0:0:
232,140,24590,1,0,1:0:0:0:
452,104,24734,2,0,L|441:200,1,94.9999974632264,8|0,0:2|0:0,0:0:0:0:
140,180,25022,5,2,1:2:0:0:
336,96,25167,1,2,1:2:0:0:
84,112,25311,1,10,0:2:0:0:
312,184,25455,1,2,0:2:0:0:
96,26,25599,1,2,1:2:0:0:
200,240,25744,1,2,1:2:0:0:
272,4,25888,1,10,0:2:0:0:
184,224,26032,1,2,0:2:0:0:
380,116,26176,5,10,0:2:0:0:
357,113,26248,1,8,0:2:0:0:
333,110,26320,1,0,1:0:0:0:
310,107,26392,1,8,0:3:0:0:
286,104,26465,2,0,L|238:99,1,47.4999987316132,10|4,0:3|0:3,0:0:0:0:
90,236,26609,5,10,0:2:0:0:
113,233,26681,1,8,0:2:0:0:
137,230,26753,1,8,0:3:0:0:
160,227,26825,1,8,0:3:0:0:
184,224,26898,2,0,L|232:219,1,47.4999987316132,4|4,0:3|0:3,0:0:0:0:
364,332,27042,5,8,0:3:0:0:
341,329,27114,1,8,0:3:0:0:
317,326,27187,2,0,L|269:320,1,47.4999987316132,2|0,1:2|1:0,0:0:0:0:
357,113,27330,6,0,P|389:149|441:81,1,150,14|0,1:2|0:0,0:0:0:0:
381,37,27619,6,0,P|337:89|409:169,1,179.999994506836,14|0,1:2|0:0,0:0:0:0:
489,105,27907,6,0,P|449:29|325:137,1,300.000011444092,14|8,1:2|0:2,0:0:0:0:
368,344,28340,1,2,1:2:0:0:
416,168,28484,1,2,1:2:0:0:
352,360,28628,1,2,1:2:0:0:
236,180,28772,1,8,0:2:0:0:
468,272,28917,2,0,L|372:261,1,94.9999974632264,2|0,0:2|1:0,0:0:0:0:
140,252,29205,1,0,1:0:0:0:
288,92,29349,2,0,P|320:124|333:169,1,94.9999974632264,8|0,0:2|1:0,0:0:0:0:
180,360,29638,6,0,B|148:316|160:272|160:272|212:248|212:188,1,189.999994926453,6|8,1:2|0:2,0:0:0:0:
88,24,30070,1,10,0:2:0:0:
88,24,30143,1,8,0:2:0:0:
88,24,30215,1,10,0:2:0:0:
344,128,30359,1,8,0:3:0:0:
64,192,30503,1,6,0:3:0:0:
328,112,30647,1,0,1:0:0:0:
176,48,30792,6,0,B|167:77|145:96|145:96|247:83,1,160,6|0,1:2|1:0,0:0:0:0:
360,239,32090,5,14,0:2:0:0:
360,46,32234,1,10,0:2:0:0:
247,202,32378,1,10,0:2:0:0:
429,142,32522,1,14,0:2:0:0:
445,138,32955,5,14,0:2:0:0:
226,210,33099,1,10,0:2:0:0:
362,23,33243,1,10,0:2:0:0:
362,255,33387,1,14,0:2:0:0:
376,272,33676,6,0,L|415:267,1,40,2|2,3:2|3:2,0:0:0:0:
415,266,34397,5,14,0:2:0:0:
200,264,34541,1,10,0:2:0:0:
373,141,34685,1,10,0:2:0:0:
307,341,34829,1,14,0:2:0:0:
302,359,35262,5,14,0:2:0:0:
382,119,35406,1,10,0:2:0:0:
176,269,35550,1,10,0:2:0:0:
430,269,35694,1,14,0:2:0:0:
416,284,35984,6,0,L|377:279,1,40,2|2,3:2|3:2,0:0:0:0:
376,278,36706,5,14,0:2:0:0:
176,110,36850,1,10,0:2:0:0:
241,361,36994,1,10,0:2:0:0:
333,125,37138,1,14,0:2:0:0:
345,100,37571,5,14,0:2:0:0:
234,382,37715,1,10,0:2:0:0:
164,84,37859,1,10,0:2:0:0:
394,282,38003,1,14,0:2:0:0:
376,296,38292,5,8,0:2:0:0:
353,293,38364,1,8,0:2:0:0:
329,290,38436,1,8,0:2:0:0:
306,287,38508,1,8,0:2:0:0:
272,260,38580,5,10,0:2:0:0:
249,263,38652,1,8,0:2:0:0:
224,268,38724,2,0,L|176:274,1,47.4999987316132,8|0,0:3|0:0,0:0:0:0:
96,384,38869,6,0,B|102:332|102:332|78:297|78:297|85:241,1,150,14|0,0:2|0:0,0:0:0:0:
0,152,39157,6,0,L|100:141,1,100,8|0,0:2|1:0,0:0:0:0:
232,48,39373,5,0,1:0:0:0:
232,48,39445,2,0,P|187:36|136:47,1,100,10|0,0:2|1:0,0:0:0:0:
240,224,39662,5,0,1:0:0:0:
240,224,39734,2,0,P|272:191|284:139,1,100,8|0,0:2|1:0,0:0:0:0:
94,141,39950,5,0,1:0:0:0:
94,141,40022,2,0,L|100:192,1,50,14|0,0:2|0:0,0:0:0:0:
184,360,40167,5,8,0:3:0:0:
184,360,40239,1,8,0:3:0:0:
184,360,40311,2,0,L|190:308,1,50,6|4,0:3|0:3,0:0:0:0:
285,144,40455,6,0,B|353:120|353:120|425:148,1,150,6|0,1:2|0:0,0:0:0:0:
252,71,40744,6,0,B|354:35|354:35|462:77,1,225.000008583069,14|0,1:2|0:0,0:0:0:0:
256,192,41248,12,0,43195,0:0:0:0:
432,116,43484,6,0,P|448:80|336:72,1,179.999994506836,6|0,1:2|0:0,0:0:0:0:
224,136,43772,2,0,P|268:120|340:140,1,119.999996337891,10|0,0:2|1:0,0:0:0:0:
228,364,44061,1,2,0:2:0:0:
128,152,44205,1,2,1:2:0:0:
376,232,44349,2,0,P|367:278|314:330,1,119.999996337891,10|0,0:2|1:2,0:0:0:0:
56,212,44638,5,2,1:2:0:0:
336,137,44782,1,2,0:2:0:0:
40,228,44926,1,8,0:2:0:0:
256,32,45070,2,0,L|241:151,1,119.999996337891,2|0,1:2|0:0,0:0:0:0:
152,368,45359,1,2,1:2:0:0:
40,100,45503,2,0,P|84:84|156:104,1,119.999996337891,8|0,0:2|0:0,0:0:0:0:
400,284,45792,6,0,B|340:276|340:276|295:311|295:311|232:303,1,179.999994506836,2|0,1:2|0:0,0:0:0:0:
144,200,46080,2,0,L|263:214,1,119.999996337891,10|0,0:2|1:0,0:0:0:0:
492,32,46369,1,2,0:2:0:0:
236,120,46513,1,0,1:0:0:0:
496,264,46657,2,0,L|481:144,1,119.999996337891,10|0,0:2|1:0,0:0:0:0:
210,35,46945,6,0,B|170:95|210:159|210:159|219:133|247:109,1,179.999994506836,2|0,1:2|0:0,0:0:0:0:
316,44,47234,1,10,0:2:0:0:
156,240,47378,2,0,P|200:256|272:236,1,119.999996337891,2|0,1:2|0:0,0:0:0:0:
488,120,47667,2,0,B|512:80|484:32|484:32|424:32|400:80,1,179.999994506836,2|0,1:2|0:0,0:0:0:0:
384,164,47955,1,8,0:2:0:0:
384,164,48027,1,8,0:2:0:0:
384,164,48099,6,0,B|312:192|320:128|240:152,1,150,4|0,1:2|0:0,0:0:0:0:
186,285,48388,2,0,P|234:273|268:236,1,100,10|0,0:2|0:0,0:0:0:0:
140,84,48676,2,0,L|154:203,1,119.999996337891,2|0,1:2|0:0,0:0:0:0:
4,328,48965,2,0,L|16:228,1,100,10|0,0:2|0:0,0:0:0:0:
208,8,49253,6,0,P|264:-4|276:88,1,150,2|0,1:2|0:0,0:0:0:0:
240,151,49542,1,10,0:2:0:0:
436,168,49686,2,0,L|336:155,1,100,2|0,1:2|0:0,0:0:0:0:
200,316,49974,2,0,L|299:303,1,100,2|8,1:2|0:2,0:0:0:0:
100,92,50263,6,0,B|52:120|52:120|80:220,1,150,6|0,1:2|0:0,0:0:0:0:
108,304,50551,1,2,1:2:0:0:
296,192,50695,1,10,0:2:0:0:
100,92,50840,1,2,0:2:0:0:
296,284,50984,2,0,P|344:272|378:234,1,100,2|0,1:2|0:0,0:0:0:0:
216,144,51272,2,0,P|202:191|217:239,1,100,10|0,0:2|0:0,0:0:0:0:
472,88,51561,6,0,B|400:96|400:96|356:65|356:65|281:75,1,200,2|10,1:2|0:2,0:0:0:0:
96,192,51994,1,10,0:3:0:0:
332,164,52138,1,4,0:3:0:0:
132,44,52282,1,8,0:2:0:0:
132,44,52354,1,8,0:2:0:0:
132,44,52426,1,8,0:2:0:0:
228,264,52570,5,8,0:2:0:0:
231,241,52642,1,8,0:2:0:0:
234,218,52715,2,0,B|248:102|248:102|228:132|198:145,1,179.999994506836,6|0,1:2|0:0,0:0:0:0:
336,116,53003,2,0,L|321:235,1,119.999996337891,10|0,0:2|1:0,0:0:0:0:
216,4,53292,1,2,0:2:0:0:
432,168,53436,1,0,1:0:0:0:
200,20,53580,1,10,0:2:0:0:
448,152,53724,1,2,0:2:0:0:
156,208,53869,5,2,1:2:0:0:
352,12,54013,2,0,P|396:-4|468:16,1,119.999996337891,0|10,0:0|0:2,0:0:0:0:
512,264,54301,2,0,P|468:280|396:260,1,119.999996337891,2|0,1:2|0:0,0:0:0:0:
208,64,54590,1,2,1:2:0:0:
288,340,54734,2,0,L|303:221,1,119.999996337891,8|0,0:2|0:0,0:0:0:0:
80,8,55022,6,0,B|24:44|24:44|56:156,1,179.999994506836,2|0,1:2|0:0,0:0:0:0:
232,140,55311,2,0,P|201:104|129:85,1,119.999996337891,10|0,0:2|1:0,0:0:0:0:
20,312,55599,1,2,0:2:0:0:
276,216,55744,1,0,1:0:0:0:
104,384,55888,2,0,L|119:265,1,119.999996337891,10|0,0:2|1:2,0:0:0:0:
55,153,56104,5,2,1:2:0:0:
47,133,56176,2,0,B|135:97|131:177|223:141,1,179.999994506836,2|0,1:2|0:0,0:0:0:0:
284,56,56465,1,10,0:2:0:0:
356,312,56609,2,0,P|313:271|301:213,1,119.999996337891,2|0,1:2|0:0,0:0:0:0:
492,132,56897,2,0,P|504:172|396:220,1,179.999994506836,2|0,1:2|0:0,0:0:0:0:
364,132,57186,1,8,0:2:0:0:
364,132,57258,1,8,0:2:0:0:
364,132,57330,6,0,L|377:32,1,100,4|0,1:2|0:0,0:0:0:0:
180,0,57619,2,0,L|198:150,1,150,10|0,0:2|0:0,0:0:0:0:
248,232,57907,2,0,P|200:246|153:232,1,100,2|0,1:2|1:0,0:0:0:0:
12,152,58195,2,0,P|59:137|106:151,1,100,8|0,0:2|1:0,0:0:0:0:
84,380,58484,6,0,L|71:280,1,100,0|0,1:0|0:0,0:0:0:0:
260,132,58772,2,0,L|247:232,1,100,10|8,0:2|0:3,0:0:0:0:
228,328,58989,1,8,0:3:0:0:
228,328,59061,1,6,0:3:0:0:
352,188,59205,1,0,1:0:0:0:
144,212,59349,1,8,0:2:0:0:
332,356,59494,6,0,B|396:384|456:348|456:348|424:352|396:336,1,179.999994506836,6|0,1:2|0:0,0:0:0:0:
440,256,59782,1,2,1:2:0:0:
228,328,59926,1,10,0:2:0:0:
400,96,60070,6,0,B|453:54|453:54|439:165,1,179.999994506836,6|0,1:2|0:0,0:0:0:0:
360,216,60359,1,10,0:2:0:0:
310,209,60431,1,8,0:2:0:0:
260,203,60503,1,8,0:2:0:0:
211,197,60575,1,8,0:2:0:0:
161,191,60647,6,0,B|72:168|88:248|-12:224,1,179.999994506836,6|0,1:2|0:0,0:0:0:0:
12,44,60936,1,8,0:3:0:0:
12,44,61008,1,8,0:3:0:0:
12,44,61080,2,0,P|69:56|110:99,1,119.999996337891,6|0,1:3|0:0,0:0:0:0:
247,305,61369,5,10,0:2:0:0:
254,256,61441,1,8,0:2:0:0:
260,203,61513,2,0,B|284:143|348:143|348:143|352:131|352:131|460:147|456:248,1,299.999990844727,10|0,0:2|0:0,0:0:0:0:
372,327,61945,6,0,L|360:235,1,89.9999972534181,6|0,1:2|0:0,0:0:0:0:
176,128,62234,2,0,L|164:219,1,89.9999972534181,10|0,0:2|0:0,0:0:0:0:
352,140,62522,1,2,1:2:0:0:
244,308,62667,1,0,1:2:0:0:
368,124,62811,2,0,P|388:80|312:56,1,134.999995880127,8|0,0:2|0:0,0:0:0:0:
264,124,63099,5,2,1:2:0:0:
440,184,63244,1,2,0:2:0:0:
248,140,63388,1,10,0:2:0:0:
372,291,63532,2,0,B|300:271|316:327|240:307,1,134.999995880127,2|0,0:2|0:0,0:0:0:0:
152,256,63820,1,2,1:2:0:0:
336,200,63965,1,10,0:2:0:0:
160,344,64109,1,2,0:2:0:0:
248,140,64253,6,0,L|242:183,1,44.999998626709,6|0,1:2|0:0,0:0:0:0:
377,335,64542,6,0,L|371:291,1,44.999998626709,10|0,0:2|0:0,0:0:0:0:
340,60,64830,6,0,L|334:103,1,44.999998626709,2|0,1:2|0:0,0:0:0:0:
164,260,65119,6,0,L|147:125,1,134.999995880127,10|0,0:2|0:0,0:0:0:0:
56,48,65407,6,0,L|99:42,3,44.999998626709,2|0|2|0,1:2|1:0|1:2|1:0,0:0:0:0:
184,8,65695,2,0,L|227:13,3,44.999998626709,10|0|2|0,0:2|1:0|1:2|1:0,0:0:0:0:
304,72,65984,5,14,0:2:0:0:
331,107,66056,1,0,1:0:0:0:
338,150,66128,1,2,1:2:0:0:
322,192,66200,1,0,1:0:0:0:
287,220,66272,5,10,0:2:0:0:
259,255,66345,1,8,0:2:0:0:
252,298,66417,1,8,0:2:0:0:
268,340,66489,1,8,0:2:0:0:
303,368,66561,6,0,P|364:360|404:280,1,150,14|0,1:2|0:0,0:0:0:0:
476,200,66849,6,0,B|436:212|408:180|408:180|376:208|336:200,1,150,14|0,1:2|0:0,0:0:0:0:
256,76,67138,6,0,B|288:36|288:36|348:56|348:120,1,150,14|0,1:2|0:0,0:0:0:0:
255,168,67426,6,0,L|196:176,1,60,10|0,0:2|0:0,0:0:0:0:
104,128,67715,5,6,1:2:0:0:
236,300,67859,1,2,1:2:0:0:
256,76,68003,1,8,0:2:0:0:
104,268,68147,2,0,P|89:315|104:362,1,100,2|0,1:2|0:0,0:0:0:0:
336,272,68436,1,2,1:2:0:0:
112,168,68580,1,10,0:2:0:0:
352,288,68724,1,8,0:2:0:0:
224,72,68869,6,0,L|211:171,1,100,6|0,1:2|1:0,0:0:0:0:
316,368,69157,2,0,P|372:376|440:308,1,150,10|0,0:2|0:0,0:0:0:0:
352,193,69445,2,0,P|366:240|351:287,1,100,2|0,1:2|1:0,0:0:0:0:
160,380,69734,2,0,P|145:333|159:285,1,100,10|0,0:2|1:0,0:0:0:0:
320,104,70022,5,2,1:2:0:0:
244,288,70167,1,0,1:0:0:0:
176,88,70311,1,12,0:2:0:0:
260,272,70455,1,0,1:0:0:0:
336,88,70599,2,0,P|382:73|430:87,1,100,12|8,1:2|0:2,0:0:0:0:
472,176,70816,1,8,0:2:0:0:
464,192,70888,5,10,0:2:0:0:
430,227,70960,1,8,0:2:0:0:
382,239,71032,1,8,0:3:0:0:
335,223,71104,1,8,0:3:0:0:
305,184,71176,6,0,B|200:136|216:240|104:200,1,209.999993591309,14|0,1:2|0:0,0:0:0:0:
48,44,71465,6,0,B|96:-4|96:-4|164:32|148:128,1,209.999993591309,10|0,1:2|0:0,0:0:0:0:
124,308,71753,6,0,P|181:353|249:241,1,209.999993591309,14|0,1:2|0:0,0:0:0:0:
280,92,72042,6,0,P|243:131|232:175,1,100,8|0,0:2|1:0,0:0:0:0:
444,352,72330,5,2,1:2:0:0:
376,80,72474,1,2,1:2:0:0:
220,328,72619,1,8,0:2:0:0:
496,200,72763,2,0,L|357:182,1,139.999995727539,2|0,1:2|0:0,0:0:0:0:
124,216,73051,1,2,1:2:0:0:
388,64,73195,1,10,0:2:0:0:
108,232,73340,1,2,1:2:0:0:
248,0,73484,6,0,B|312:48|312:48|252:184,1,209.999993591309,6|0,1:2|0:0,0:0:0:0:
412,240,73772,6,0,B|340:231|340:231|288:265|288:265|212:255,1,209.999993591309,10|0,0:2|0:0,0:0:0:0:
15,196,74061,6,0,B|153:178|153:178|97:242,1,209.999993591309,2|0,1:2|0:0,0:0:0:0:
48,384,74349,6,0,L|35:284,1,100,10|0,0:2|1:0,0:0:0:0:
88,88,74638,5,14,1:2:0:0:
133,57,74710,1,8,0:2:0:0:
187,53,74782,1,2,1:2:0:0:
236,76,74854,1,0,1:2:0:0:
269,119,74926,1,8,0:2:0:0:
301,162,74998,1,8,0:2:0:0:
350,185,75070,1,2,1:2:0:0:
404,181,75142,1,0,1:0:0:0:
450,150,75215,2,0,L|458:78,1,69.9999978637696,8|8,0:2|0:2,0:0:0:0:
228,6,75359,2,0,L|236:77,1,69.9999978637696,10|8,0:2|0:2,0:0:0:0:
235,313,75503,5,10,0:2:0:0:
179,330,75575,1,8,0:2:0:0:
129,301,75647,1,10,0:2:0:0:
117,244,75719,1,8,0:2:0:0:
152,198,75792,6,0,B|196:170|244:194|244:194|260:182|260:182|304:206|352:183,1,209.999993591309,6|0,1:2|0:0,0:0:0:0:
448,76,76080,6,0,B|455:24|387:0|387:0|333:46|362:97,1,209.999993591309,10|0,0:2|0:0,0:0:0:0:
356,316,76369,6,0,B|408:352|408:352|476:300|436:216,1,209.999993591309,6|0,1:2|0:0,0:0:0:0:
250,197,76657,6,0,L|350:184,1,100,8|0,0:2|1:0,0:0:0:0:
104,32,76945,5,2,1:2:0:0:
224,308,77090,1,2,1:2:0:0:
328,32,77234,1,8,0:2:0:0:
56,208,77378,2,0,P|36:268|68:340,1,139.999995727539,2|0,1:2|0:0,0:0:0:0:
352,216,77667,1,2,1:2:0:0:
48,108,77811,1,10,0:2:0:0:
168,384,77955,1,0,1:0:0:0:
336,120,78099,6,0,B|412:80|480:136|480:136|420:168,1,209.999993591309,6|0,1:2|0:0,0:0:0:0:
332,379,78388,6,0,B|400:335|400:335|348:207,1,209.999993591309,10|0,0:2|0:0,0:0:0:0:
256,76,78676,5,2,1:2:0:0:
156,296,78820,1,0,1:0:0:0:
272,60,78965,1,10,1:2:0:0:
140,312,79109,1,0,1:0:0:0:
32,27,79253,5,10,0:2:0:0:
66,22,79325,1,0,0:0:0:0:
101,18,79397,1,2,1:2:0:0:
136,14,79469,1,0,0:0:0:0:
168,47,79542,5,8,0:2:0:0:
202,52,79614,1,0,0:0:0:0:
237,56,79686,1,2,1:2:0:0:
272,60,79758,1,0,1:0:0:0:
308,32,79830,6,0,L|379:23,3,69.9999978637696,8|8|8|8,0:2|0:2|0:2|0:2,0:0:0:0:
488,128,80119,2,0,L|416:119,3,69.9999978637696,8|8|8|8,0:2|0:2|0:2|0:2,0:0:0:0:
284,160,80407,5,0,1:0:0:0:
222,178,80479,1,0,1:0:0:0:
182,228,80551,1,8,0:2:0:0:
175,292,80623,1,8,0:2:0:0:
204,349,80695,1,8,0:2:0:0:
260,380,80767,1,8,0:2:0:0:
324,376,80839,1,8,0:2:0:0:
375,337,80911,1,8,0:2:0:0:
396,276,80983,5,8,0:2:0:0:
323,264,81056,1,8,0:2:0:0:
253,290,81128,1,8,0:2:0:0:
204,349,81200,1,8,0:2:0:0:
136,376,81273,1,8,0:2:0:0:
69,347,81345,1,8,0:2:0:0:
43,279,81417,1,8,0:2:0:0:
72,212,81489,1,8,0:2:0:0:
141,187,81561,6,0,L|315:208,1,175,6|0,1:2|0:0,0:0:0:0:
300,120,82138,6,0,L|240:112,1,60,2|0,0:2|0:0,0:0:0:0:
176,288,82715,6,0,L|1:309,1,175,6|0,0:2|0:0,0:0:0:0:
17,221,83292,6,0,L|76:213,1,60
264,372,83869,6,0,L|285:197,1,175,6|0,0:2|0:0,0:0:0:0:
197,213,84446,6,0,L|189:272,1,60,2|0,0:2|0:0,0:0:0:0:
8,148,85022,6,0,B|174:127|174:127|132:140|116:178,1,244.999992523194,6|0,0:2|0:0,0:0:0:0:
184,312,86176,5,12,0:2:0:0:
231,347,86248,5,8,0:3:0:0:
290,365,86320,5,0,1:0:0:0:
350,359,86392,5,0,1:0:0:0:
404,333,86464,5,8,0:2:0:0:
446,290,86536,5,12,0:3:0:0:
470,234,86608,5,0,1:0:0:0:
472,173,86680,5,0,1:0:0:0:
452,116,86752,5,8,0:2:0:0:
414,70,86825,5,8,0:3:0:0:
361,40,86897,5,0,1:0:0:0:
301,32,86969,5,0,1:0:0:0:
242,44,87041,5,0,1:0:0:0:
191,77,87113,5,4,1:3:0:0:
156,125,87185,5,8,0:2:0:0:
140,184,87257,5,8,0:2:0:0:
256,192,87330,12,0,89061,0:0:0:0:
