osu file format v14

[General]
AudioFilename: audio.mp3
AudioLeadIn: 0
PreviewTime: 42144
Countdown: 0
SampleSet: Soft
StackLeniency: 0.7
Mode: 0
LetterboxInBreaks: 0
EpilepsyWarning: 1
WidescreenStoryboard: 1

[Editor]
DistanceSpacing: 1.1
BeatDivisor: 4
GridSize: 4
TimelineZoom: 1.3

[Metadata]
Title:L.L.L.
TitleUnicode:L.L.L.
Artist:MYTH & ROID
ArtistUnicode:MYTH & ROID
Creator:My Angel RangE
Version:Normal
Source:オーバーロード
Tags:overlord ending ed albedo madhouse tv size ミスアンドロイド guineaq left yukida wajinshu Oread Moa
BeatmapID:1104246
BeatmapSetID:519842

[Difficulty]
HPDrainRate:4.5
CircleSize:3.5
OverallDifficulty:4
ApproachRate:5
SliderMultiplier:0.899999999999999
SliderTickRate:1

[Events]
//Background and Video events
0,0,"leftBG.jpg",0,0
//Break Periods
//Storyboard Layer 0 (Background)
Sprite,Background,Centre,"leftBG.jpg",320,240 S,0,0,,0.625 F,0,678,2986,1,0.3 F,0,2986,40053,1 F,0,40053,42216,1,0
//Storyboard Layer 1 (Fail)
//Storyboard Layer 2 (Pass)
//Storyboard Layer 3 (Foreground)
Sprite,Foreground,Centre,"leftBG2.jpg",320,240 S,0,42216,,0.7 F,0,42216,80293,1 M,0,42216,86062,284,220,352,272 F,0,80293,86062,1,0
Sprite,Foreground,Centre,"SB\white.jpg",320,240 S,0,2913,,5 F,0,2913,2985,0,1 F,0,2985,4139,1,0 P,0,2985,4139,A F,0,42144,42216,0,1 F,0,42216,43082,1,0 F,0,69836,69909,0,1 P,0,69836,70485,A F,0,69909,70485,1,0
Sprite,Foreground,Centre,"SB\spotlight.png",320,240 M,0,42216,,176,182 F,0,42216,42916,0.9,0.3 S,0,42216,42916,1.4,0.9 P,0,42216,42916,A
Sprite,Foreground,Centre,"SB\dot.png",320,240 M,0,42216,42916,176,182,224,181 F,0,42216,42916,0.9,0.6 S,0,42216,42916,0.25,0.1 P,0,42216,42916,A
Sprite,Foreground,Centre,"SB\dot.png",320,240 M,0,42221,42921,176,182,202,229 F,0,42221,42921,0.9,0.6 S,0,42221,42921,0.25,0.1 P,0,42221,42921,A
Sprite,Foreground,Centre,"SB\dot.png",320,240 M,0,42226,42926,176,182,150,196 F,0,42226,42926,0.9,0.6 S,0,42226,42926,0.25,0.1 P,0,42226,42926,A
Sprite,Foreground,Centre,"SB\dot.png",320,240 M,0,42231,42931,176,182,199,181 F,0,42231,42931,0.9,0.6 S,0,42231,42931,0.25,0.1 P,0,42231,42931,A
Sprite,Foreground,Centre,"SB\dot.png",320,240 M,0,42236,42936,176,182,139,205 F,0,42236,42936,0.9,0.6 S,0,42236,42936,0.25,0.1 P,0,42236,42936,A
Sprite,Foreground,Centre,"SB\dot.png",320,240 M,0,42241,42941,176,182,165,189 F,0,42241,42941,0.9,0.6 S,0,42241,42941,0.25,0.1 P,0,42241,42941,A
Sprite,Foreground,Centre,"SB\dot.png",320,240 M,0,42246,42946,176,182,224,172 F,0,42246,42946,0.9,0.6 S,0,42246,42946,0.25,0.1 P,0,42246,42946,A
Sprite,Foreground,Centre,"SB\dot.png",320,240 M,0,42251,42951,176,182,171,164 F,0,42251,42951,0.9,0.6 S,0,42251,42951,0.25,0.1 P,0,42251,42951,A
Sprite,Foreground,Centre,"SB\dot.png",320,240 M,0,42256,42956,176,182,185,227 F,0,42256,42956,0.9,0.6 S,0,42256,42956,0.25,0.1 P,0,42256,42956,A
Sprite,Foreground,Centre,"SB\dot.png",320,240 M,0,42261,42961,176,182,208,186 F,0,42261,42961,0.9,0.6 S,0,42261,42961,0.25,0.1 P,0,42261,42961,A
Sprite,Foreground,Centre,"SB\spotlight.png",320,240 M,0,43082,,246,391 F,0,43082,43782,0.9,0.3 S,0,43082,43782,1.4,0.9 P,0,43082,43782,A
Sprite,Foreground,Centre,"SB\dot.png",320,240 M,0,43082,43782,246,391,272,353 F,0,43082,43782,0.9,0.6 S,0,43082,43782,0.25,0.1 P,0,43082,43782,A
Sprite,Foreground,Centre,"SB\dot.png",320,240 M,0,43087,43787,246,391,260,342 F,0,43087,43787,0.9,0.6 S,0,43087,43787,0.25,0.1 P,0,43087,43787,A
Sprite,Foreground,Centre,"SB\dot.png",320,240 M,0,43092,43792,246,391,217,418 F,0,43092,43792,0.9,0.6 S,0,43092,43792,0.25,0.1 P,0,43092,43792,A
Sprite,Foreground,Centre,"SB\dot.png",320,240 M,0,43097,43797,246,391,212,431 F,0,43097,43797,0.9,0.6 S,0,43097,43797,0.25,0.1 P,0,43097,43797,A
Sprite,Foreground,Centre,"SB\dot.png",320,240 M,0,43102,43802,246,391,207,359 F,0,43102,43802,0.9,0.6 S,0,43102,43802,0.25,0.1 P,0,43102,43802,A
Sprite,Foreground,Centre,"SB\dot.png",320,240 M,0,43107,43807,246,391,259,380 F,0,43107,43807,0.9,0.6 S,0,43107,43807,0.25,0.1 P,0,43107,43807,A
Sprite,Foreground,Centre,"SB\dot.png",320,240 M,0,43112,43812,246,391,233,407 F,0,43112,43812,0.9,0.6 S,0,43112,43812,0.25,0.1 P,0,43112,43812,A
Sprite,Foreground,Centre,"SB\dot.png",320,240 M,0,43117,43817,246,391,199,432 F,0,43117,43817,0.9,0.6 S,0,43117,43817,0.25,0.1 P,0,43117,43817,A
Sprite,Foreground,Centre,"SB\dot.png",320,240 M,0,43122,43822,246,391,230,440 F,0,43122,43822,0.9,0.6 S,0,43122,43822,0.25,0.1 P,0,43122,43822,A
Sprite,Foreground,Centre,"SB\dot.png",320,240 M,0,43127,43827,246,391,274,348 F,0,43127,43827,0.9,0.6 S,0,43127,43827,0.25,0.1 P,0,43127,43827,A
Sprite,Foreground,Centre,"SB\spotlight.png",320,240 M,0,43370,,318,342 F,0,43370,44070,0.9,0.3 S,0,43370,44070,1.4,0.9 P,0,43370,44070,A
Sprite,Foreground,Centre,"SB\dot.png",320,240 M,0,43370,44070,318,342,274,337 F,0,43370,44070,0.9,0.6 S,0,43370,44070,0.25,0.1 P,0,43370,44070,A
Sprite,Foreground,Centre,"SB\dot.png",320,240 M,0,43375,44075,318,342,322,354 F,0,43375,44075,0.9,0.6 S,0,43375,44075,0.25,0.1 P,0,43375,44075,A
Sprite,Foreground,Centre,"SB\dot.png",320,240 M,0,43380,44080,318,342,283,364 F,0,43380,44080,0.9,0.6 S,0,43380,44080,0.25,0.1 P,0,43380,44080,A
Sprite,Foreground,Centre,"SB\dot.png",320,240 M,0,43385,44085,318,342,345,337 F,0,43385,44085,0.9,0.6 S,0,43385,44085,0.25,0.1 P,0,43385,44085,A
Sprite,Foreground,Centre,"SB\dot.png",320,240 M,0,43390,44090,318,342,329,377 F,0,43390,44090,0.9,0.6 S,0,43390,44090,0.25,0.1 P,0,43390,44090,A
Sprite,Foreground,Centre,"SB\dot.png",320,240 M,0,43395,44095,318,342,367,314 F,0,43395,44095,0.9,0.6 S,0,43395,44095,0.25,0.1 P,0,43395,44095,A
Sprite,Foreground,Centre,"SB\dot.png",320,240 M,0,43400,44100,318,342,300,340 F,0,43400,44100,0.9,0.6 S,0,43400,44100,0.25,0.1 P,0,43400,44100,A
Sprite,Foreground,Centre,"SB\dot.png",320,240 M,0,43405,44105,318,342,281,377 F,0,43405,44105,0.9,0.6 S,0,43405,44105,0.25,0.1 P,0,43405,44105,A
Sprite,Foreground,Centre,"SB\dot.png",320,240 M,0,43410,44110,318,342,354,366 F,0,43410,44110,0.9,0.6 S,0,43410,44110,0.25,0.1 P,0,43410,44110,A
Sprite,Foreground,Centre,"SB\dot.png",320,240 M,0,43415,44115,318,342,344,339 F,0,43415,44115,0.9,0.6 S,0,43415,44115,0.25,0.1 P,0,43415,44115,A
Sprite,Foreground,Centre,"SB\spotlight.png",320,240 M,0,44524,,248,287 F,0,44524,45224,0.9,0.3 S,0,44524,45224,1.4,0.9 P,0,44524,45224,A
Sprite,Foreground,Centre,"SB\dot.png",320,240 M,0,44524,45224,248,287,246,320 F,0,44524,45224,0.9,0.6 S,0,44524,45224,0.25,0.1 P,0,44524,45224,A
Sprite,Foreground,Centre,"SB\dot.png",320,240 M,0,44529,45229,248,287,235,332 F,0,44529,45229,0.9,0.6 S,0,44529,45229,0.25,0.1 P,0,44529,45229,A
Sprite,Foreground,Centre,"SB\dot.png",320,240 M,0,44534,45234,248,287,207,337 F,0,44534,45234,0.9,0.6 S,0,44534,45234,0.25,0.1 P,0,44534,45234,A
Sprite,Foreground,Centre,"SB\dot.png",320,240 M,0,44539,45239,248,287,218,269 F,0,44539,45239,0.9,0.6 S,0,44539,45239,0.25,0.1 P,0,44539,45239,A
Sprite,Foreground,Centre,"SB\dot.png",320,240 M,0,44544,45244,248,287,235,291 F,0,44544,45244,0.9,0.6 S,0,44544,45244,0.25,0.1 P,0,44544,45244,A
Sprite,Foreground,Centre,"SB\dot.png",320,240 M,0,44549,45249,248,287,297,298 F,0,44549,45249,0.9,0.6 S,0,44549,45249,0.25,0.1 P,0,44549,45249,A
Sprite,Foreground,Centre,"SB\dot.png",320,240 M,0,44554,45254,248,287,214,311 F,0,44554,45254,0.9,0.6 S,0,44554,45254,0.25,0.1 P,0,44554,45254,A
Sprite,Foreground,Centre,"SB\dot.png",320,240 M,0,44559,45259,248,287,245,267 F,0,44559,45259,0.9,0.6 S,0,44559,45259,0.25,0.1 P,0,44559,45259,A
Sprite,Foreground,Centre,"SB\dot.png",320,240 M,0,44564,45264,248,287,256,239 F,0,44564,45264,0.9,0.6 S,0,44564,45264,0.25,0.1 P,0,44564,45264,A
Sprite,Foreground,Centre,"SB\dot.png",320,240 M,0,44569,45269,248,287,284,286 F,0,44569,45269,0.9,0.6 S,0,44569,45269,0.25,0.1 P,0,44569,45269,A
Sprite,Foreground,Centre,"SB\spotlight.png",320,240 M,0,45101,,141,200 F,0,45101,45801,0.9,0.3 S,0,45101,45801,1.4,0.9 P,0,45101,45801,A
Sprite,Foreground,Centre,"SB\dot.png",320,240 M,0,45101,45801,141,200,91,221 F,0,45101,45801,0.9,0.6 S,0,45101,45801,0.25,0.1 P,0,45101,45801,A
Sprite,Foreground,Centre,"SB\dot.png",320,240 M,0,45106,45806,141,200,119,177 F,0,45106,45806,0.9,0.6 S,0,45106,45806,0.25,0.1 P,0,45106,45806,A
Sprite,Foreground,Centre,"SB\dot.png",320,240 M,0,45111,45811,141,200,111,191 F,0,45111,45811,0.9,0.6 S,0,45111,45811,0.25,0.1 P,0,45111,45811,A
Sprite,Foreground,Centre,"SB\dot.png",320,240 M,0,45116,45816,141,200,97,239 F,0,45116,45816,0.9,0.6 S,0,45116,45816,0.25,0.1 P,0,45116,45816,A
Sprite,Foreground,Centre,"SB\dot.png",320,240 M,0,45121,45821,141,200,144,168 F,0,45121,45821,0.9,0.6 S,0,45121,45821,0.25,0.1 P,0,45121,45821,A
Sprite,Foreground,Centre,"SB\dot.png",320,240 M,0,45126,45826,141,200,96,210 F,0,45126,45826,0.9,0.6 S,0,45126,45826,0.25,0.1 P,0,45126,45826,A
Sprite,Foreground,Centre,"SB\dot.png",320,240 M,0,45131,45831,141,200,114,180 F,0,45131,45831,0.9,0.6 S,0,45131,45831,0.25,0.1 P,0,45131,45831,A
Sprite,Foreground,Centre,"SB\dot.png",320,240 M,0,45136,45836,141,200,151,173 F,0,45136,45836,0.9,0.6 S,0,45136,45836,0.25,0.1 P,0,45136,45836,A
Sprite,Foreground,Centre,"SB\dot.png",320,240 M,0,45141,45841,141,200,98,210 F,0,45141,45841,0.9,0.6 S,0,45141,45841,0.25,0.1 P,0,45141,45841,A
Sprite,Foreground,Centre,"SB\dot.png",320,240 M,0,45146,45846,141,200,143,165 F,0,45146,45846,0.9,0.6 S,0,45146,45846,0.25,0.1 P,0,45146,45846,A
Sprite,Foreground,Centre,"SB\spotlight.png",320,240 M,0,45678,,303,171 F,0,45678,46378,0.9,0.3 S,0,45678,46378,1.4,0.9 P,0,45678,46378,A
Sprite,Foreground,Centre,"SB\dot.png",320,240 M,0,45678,46378,303,171,305,166 F,0,45678,46378,0.9,0.6 S,0,45678,46378,0.25,0.1 P,0,45678,46378,A
Sprite,Foreground,Centre,"SB\dot.png",320,240 M,0,45683,46383,303,171,261,128 F,0,45683,46383,0.9,0.6 S,0,45683,46383,0.25,0.1 P,0,45683,46383,A
Sprite,Foreground,Centre,"SB\dot.png",320,240 M,0,45688,46388,303,171,340,159 F,0,45688,46388,0.9,0.6 S,0,45688,46388,0.25,0.1 P,0,45688,46388,A
Sprite,Foreground,Centre,"SB\dot.png",320,240 M,0,45693,46393,303,171,258,179 F,0,45693,46393,0.9,0.6 S,0,45693,46393,0.25,0.1 P,0,45693,46393,A
Sprite,Foreground,Centre,"SB\dot.png",320,240 M,0,45698,46398,303,171,253,204 F,0,45698,46398,0.9,0.6 S,0,45698,46398,0.25,0.1 P,0,45698,46398,A
Sprite,Foreground,Centre,"SB\dot.png",320,240 M,0,45703,46403,303,171,280,204 F,0,45703,46403,0.9,0.6 S,0,45703,46403,0.25,0.1 P,0,45703,46403,A
Sprite,Foreground,Centre,"SB\dot.png",320,240 M,0,45708,46408,303,171,342,147 F,0,45708,46408,0.9,0.6 S,0,45708,46408,0.25,0.1 P,0,45708,46408,A
Sprite,Foreground,Centre,"SB\dot.png",320,240 M,0,45713,46413,303,171,300,199 F,0,45713,46413,0.9,0.6 S,0,45713,46413,0.25,0.1 P,0,45713,46413,A
Sprite,Foreground,Centre,"SB\dot.png",320,240 M,0,45718,46418,303,171,308,131 F,0,45718,46418,0.9,0.6 S,0,45718,46418,0.25,0.1 P,0,45718,46418,A
Sprite,Foreground,Centre,"SB\dot.png",320,240 M,0,45723,46423,303,171,328,189 F,0,45723,46423,0.9,0.6 S,0,45723,46423,0.25,0.1 P,0,45723,46423,A
Sprite,Foreground,Centre,"SB\spotlight.png",320,240 M,0,46399,,485,230 F,0,46399,47099,0.9,0.3 S,0,46399,47099,1.4,0.9 P,0,46399,47099,A
Sprite,Foreground,Centre,"SB\dot.png",320,240 M,0,46399,47099,485,230,529,211 F,0,46399,47099,0.9,0.6 S,0,46399,47099,0.25,0.1 P,0,46399,47099,A
Sprite,Foreground,Centre,"SB\dot.png",320,240 M,0,46404,47104,485,230,514,199 F,0,46404,47104,0.9,0.6 S,0,46404,47104,0.25,0.1 P,0,46404,47104,A
Sprite,Foreground,Centre,"SB\dot.png",320,240 M,0,46409,47109,485,230,484,218 F,0,46409,47109,0.9,0.6 S,0,46409,47109,0.25,0.1 P,0,46409,47109,A
Sprite,Foreground,Centre,"SB\dot.png",320,240 M,0,46414,47114,485,230,473,267 F,0,46414,47114,0.9,0.6 S,0,46414,47114,0.25,0.1 P,0,46414,47114,A
Sprite,Foreground,Centre,"SB\dot.png",320,240 M,0,46419,47119,485,230,449,203 F,0,46419,47119,0.9,0.6 S,0,46419,47119,0.25,0.1 P,0,46419,47119,A
Sprite,Foreground,Centre,"SB\dot.png",320,240 M,0,46424,47124,485,230,458,279 F,0,46424,47124,0.9,0.6 S,0,46424,47124,0.25,0.1 P,0,46424,47124,A
Sprite,Foreground,Centre,"SB\dot.png",320,240 M,0,46429,47129,485,230,485,250 F,0,46429,47129,0.9,0.6 S,0,46429,47129,0.25,0.1 P,0,46429,47129,A
Sprite,Foreground,Centre,"SB\dot.png",320,240 M,0,46434,47134,485,230,533,236 F,0,46434,47134,0.9,0.6 S,0,46434,47134,0.25,0.1 P,0,46434,47134,A
Sprite,Foreground,Centre,"SB\dot.png",320,240 M,0,46439,47139,485,230,498,201 F,0,46439,47139,0.9,0.6 S,0,46439,47139,0.25,0.1 P,0,46439,47139,A
Sprite,Foreground,Centre,"SB\dot.png",320,240 M,0,46444,47144,485,230,475,262 F,0,46444,47144,0.9,0.6 S,0,46444,47144,0.25,0.1 P,0,46444,47144,A
Sprite,Foreground,Centre,"SB\spotlight.png",320,240 M,0,47120,,423,404 F,0,47120,47820,0.9,0.3 S,0,47120,47820,1.4,0.9 P,0,47120,47820,A
Sprite,Foreground,Centre,"SB\dot.png",320,240 M,0,47120,47820,423,404,408,403 F,0,47120,47820,0.9,0.6 S,0,47120,47820,0.25,0.1 P,0,47120,47820,A
Sprite,Foreground,Centre,"SB\dot.png",320,240 M,0,47125,47825,423,404,461,424 F,0,47125,47825,0.9,0.6 S,0,47125,47825,0.25,0.1 P,0,47125,47825,A
Sprite,Foreground,Centre,"SB\dot.png",320,240 M,0,47130,47830,423,404,464,376 F,0,47130,47830,0.9,0.6 S,0,47130,47830,0.25,0.1 P,0,47130,47830,A
Sprite,Foreground,Centre,"SB\dot.png",320,240 M,0,47135,47835,423,404,444,451 F,0,47135,47835,0.9,0.6 S,0,47135,47835,0.25,0.1 P,0,47135,47835,A
Sprite,Foreground,Centre,"SB\dot.png",320,240 M,0,47140,47840,423,404,457,437 F,0,47140,47840,0.9,0.6 S,0,47140,47840,0.25,0.1 P,0,47140,47840,A
Sprite,Foreground,Centre,"SB\dot.png",320,240 M,0,47145,47845,423,404,442,451 F,0,47145,47845,0.9,0.6 S,0,47145,47845,0.25,0.1 P,0,47145,47845,A
Sprite,Foreground,Centre,"SB\dot.png",320,240 M,0,47150,47850,423,404,458,438 F,0,47150,47850,0.9,0.6 S,0,47150,47850,0.25,0.1 P,0,47150,47850,A
Sprite,Foreground,Centre,"SB\dot.png",320,240 M,0,47155,47855,423,404,395,374 F,0,47155,47855,0.9,0.6 S,0,47155,47855,0.25,0.1 P,0,47155,47855,A
Sprite,Foreground,Centre,"SB\dot.png",320,240 M,0,47160,47860,423,404,439,443 F,0,47160,47860,0.9,0.6 S,0,47160,47860,0.25,0.1 P,0,47160,47860,A
Sprite,Foreground,Centre,"SB\dot.png",320,240 M,0,47165,47865,423,404,431,402 F,0,47165,47865,0.9,0.6 S,0,47165,47865,0.25,0.1 P,0,47165,47865,A
Sprite,Foreground,Centre,"SB\spotlight.png",320,240 M,0,47409,,337,381 F,0,47409,48109,0.9,0.3 S,0,47409,48109,1.4,0.9 P,0,47409,48109,A
Sprite,Foreground,Centre,"SB\dot.png",320,240 M,0,47409,48109,337,381,287,350 F,0,47409,48109,0.9,0.6 S,0,47409,48109,0.25,0.1 P,0,47409,48109,A
Sprite,Foreground,Centre,"SB\dot.png",320,240 M,0,47414,48114,337,381,331,408 F,0,47414,48114,0.9,0.6 S,0,47414,48114,0.25,0.1 P,0,47414,48114,A
Sprite,Foreground,Centre,"SB\dot.png",320,240 M,0,47419,48119,337,381,347,360 F,0,47419,48119,0.9,0.6 S,0,47419,48119,0.25,0.1 P,0,47419,48119,A
Sprite,Foreground,Centre,"SB\dot.png",320,240 M,0,47424,48124,337,381,320,350 F,0,47424,48124,0.9,0.6 S,0,47424,48124,0.25,0.1 P,0,47424,48124,A
Sprite,Foreground,Centre,"SB\dot.png",320,240 M,0,47429,48129,337,381,315,422 F,0,47429,48129,0.9,0.6 S,0,47429,48129,0.25,0.1 P,0,47429,48129,A
Sprite,Foreground,Centre,"SB\dot.png",320,240 M,0,47434,48134,337,381,301,364 F,0,47434,48134,0.9,0.6 S,0,47434,48134,0.25,0.1 P,0,47434,48134,A
Sprite,Foreground,Centre,"SB\dot.png",320,240 M,0,47439,48139,337,381,357,424 F,0,47439,48139,0.9,0.6 S,0,47439,48139,0.25,0.1 P,0,47439,48139,A
Sprite,Foreground,Centre,"SB\dot.png",320,240 M,0,47444,48144,337,381,320,375 F,0,47444,48144,0.9,0.6 S,0,47444,48144,0.25,0.1 P,0,47444,48144,A
Sprite,Foreground,Centre,"SB\dot.png",320,240 M,0,47449,48149,337,381,330,340 F,0,47449,48149,0.9,0.6 S,0,47449,48149,0.25,0.1 P,0,47449,48149,A
Sprite,Foreground,Centre,"SB\dot.png",320,240 M,0,47454,48154,337,381,315,358 F,0,47454,48154,0.9,0.6 S,0,47454,48154,0.25,0.1 P,0,47454,48154,A
Sprite,Foreground,Centre,"SB\spotlight.png",320,240 M,0,47985,,315,295 F,0,47985,48685,0.9,0.3 S,0,47985,48685,1.4,0.9 P,0,47985,48685,A
Sprite,Foreground,Centre,"SB\dot.png",320,240 M,0,47985,48685,315,295,333,286 F,0,47985,48685,0.9,0.6 S,0,47985,48685,0.25,0.1 P,0,47985,48685,A
Sprite,Foreground,Centre,"SB\dot.png",320,240 M,0,47990,48690,315,295,268,277 F,0,47990,48690,0.9,0.6 S,0,47990,48690,0.25,0.1 P,0,47990,48690,A
Sprite,Foreground,Centre,"SB\dot.png",320,240 M,0,47995,48695,315,295,320,272 F,0,47995,48695,0.9,0.6 S,0,47995,48695,0.25,0.1 P,0,47995,48695,A
Sprite,Foreground,Centre,"SB\dot.png",320,240 M,0,48000,48700,315,295,278,311 F,0,48000,48700,0.9,0.6 S,0,48000,48700,0.25,0.1 P,0,48000,48700,A
Sprite,Foreground,Centre,"SB\dot.png",320,240 M,0,48005,48705,315,295,312,323 F,0,48005,48705,0.9,0.6 S,0,48005,48705,0.25,0.1 P,0,48005,48705,A
Sprite,Foreground,Centre,"SB\dot.png",320,240 M,0,48010,48710,315,295,356,319 F,0,48010,48710,0.9,0.6 S,0,48010,48710,0.25,0.1 P,0,48010,48710,A
Sprite,Foreground,Centre,"SB\dot.png",320,240 M,0,48015,48715,315,295,329,338 F,0,48015,48715,0.9,0.6 S,0,48015,48715,0.25,0.1 P,0,48015,48715,A
Sprite,Foreground,Centre,"SB\dot.png",320,240 M,0,48020,48720,315,295,347,261 F,0,48020,48720,0.9,0.6 S,0,48020,48720,0.25,0.1 P,0,48020,48720,A
Sprite,Foreground,Centre,"SB\dot.png",320,240 M,0,48025,48725,315,295,269,256 F,0,48025,48725,0.9,0.6 S,0,48025,48725,0.25,0.1 P,0,48025,48725,A
Sprite,Foreground,Centre,"SB\dot.png",320,240 M,0,48030,48730,315,295,275,307 F,0,48030,48730,0.9,0.6 S,0,48030,48730,0.25,0.1 P,0,48030,48730,A
Sprite,Foreground,Centre,"SB\spotlight.png",320,240 M,0,48707,,249,113 F,0,48707,49407,0.9,0.3 S,0,48707,49407,1.4,0.9 P,0,48707,49407,A
Sprite,Foreground,Centre,"SB\dot.png",320,240 M,0,48707,49407,249,113,289,115 F,0,48707,49407,0.9,0.6 S,0,48707,49407,0.25,0.1 P,0,48707,49407,A
Sprite,Foreground,Centre,"SB\dot.png",320,240 M,0,48712,49412,249,113,268,156 F,0,48712,49412,0.9,0.6 S,0,48712,49412,0.25,0.1 P,0,48712,49412,A
Sprite,Foreground,Centre,"SB\dot.png",320,240 M,0,48717,49417,249,113,267,99 F,0,48717,49417,0.9,0.6 S,0,48717,49417,0.25,0.1 P,0,48717,49417,A
Sprite,Foreground,Centre,"SB\dot.png",320,240 M,0,48722,49422,249,113,225,156 F,0,48722,49422,0.9,0.6 S,0,48722,49422,0.25,0.1 P,0,48722,49422,A
Sprite,Foreground,Centre,"SB\dot.png",320,240 M,0,48727,49427,249,113,250,142 F,0,48727,49427,0.9,0.6 S,0,48727,49427,0.25,0.1 P,0,48727,49427,A
Sprite,Foreground,Centre,"SB\dot.png",320,240 M,0,48732,49432,249,113,276,119 F,0,48732,49432,0.9,0.6 S,0,48732,49432,0.25,0.1 P,0,48732,49432,A
Sprite,Foreground,Centre,"SB\dot.png",320,240 M,0,48737,49437,249,113,259,94 F,0,48737,49437,0.9,0.6 S,0,48737,49437,0.25,0.1 P,0,48737,49437,A
Sprite,Foreground,Centre,"SB\dot.png",320,240 M,0,48742,49442,249,113,280,122 F,0,48742,49442,0.9,0.6 S,0,48742,49442,0.25,0.1 P,0,48742,49442,A
Sprite,Foreground,Centre,"SB\dot.png",320,240 M,0,48747,49447,249,113,214,74 F,0,48747,49447,0.9,0.6 S,0,48747,49447,0.25,0.1 P,0,48747,49447,A
Sprite,Foreground,Centre,"SB\dot.png",320,240 M,0,48752,49452,249,113,221,96 F,0,48752,49452,0.9,0.6 S,0,48752,49452,0.25,0.1 P,0,48752,49452,A
Sprite,Foreground,Centre,"SB\spotlight.png",320,240 M,0,48995,,190,178 F,0,48995,49695,0.9,0.3 S,0,48995,49695,1.4,0.9 P,0,48995,49695,A
Sprite,Foreground,Centre,"SB\dot.png",320,240 M,0,48995,49695,190,178,156,195 F,0,48995,49695,0.9,0.6 S,0,48995,49695,0.25,0.1 P,0,48995,49695,A
Sprite,Foreground,Centre,"SB\dot.png",320,240 M,0,49000,49700,190,178,213,178 F,0,49000,49700,0.9,0.6 S,0,49000,49700,0.25,0.1 P,0,49000,49700,A
Sprite,Foreground,Centre,"SB\dot.png",320,240 M,0,49005,49705,190,178,240,168 F,0,49005,49705,0.9,0.6 S,0,49005,49705,0.25,0.1 P,0,49005,49705,A
Sprite,Foreground,Centre,"SB\dot.png",320,240 M,0,49010,49710,190,178,210,206 F,0,49010,49710,0.9,0.6 S,0,49010,49710,0.25,0.1 P,0,49010,49710,A
Sprite,Foreground,Centre,"SB\dot.png",320,240 M,0,49015,49715,190,178,150,145 F,0,49015,49715,0.9,0.6 S,0,49015,49715,0.25,0.1 P,0,49015,49715,A
Sprite,Foreground,Centre,"SB\dot.png",320,240 M,0,49020,49720,190,178,180,160 F,0,49020,49720,0.9,0.6 S,0,49020,49720,0.25,0.1 P,0,49020,49720,A
Sprite,Foreground,Centre,"SB\dot.png",320,240 M,0,49025,49725,190,178,239,195 F,0,49025,49725,0.9,0.6 S,0,49025,49725,0.25,0.1 P,0,49025,49725,A
Sprite,Foreground,Centre,"SB\dot.png",320,240 M,0,49030,49730,190,178,177,143 F,0,49030,49730,0.9,0.6 S,0,49030,49730,0.25,0.1 P,0,49030,49730,A
Sprite,Foreground,Centre,"SB\dot.png",320,240 M,0,49035,49735,190,178,212,138 F,0,49035,49735,0.9,0.6 S,0,49035,49735,0.25,0.1 P,0,49035,49735,A
Sprite,Foreground,Centre,"SB\dot.png",320,240 M,0,49040,49740,190,178,204,147 F,0,49040,49740,0.9,0.6 S,0,49040,49740,0.25,0.1 P,0,49040,49740,A
Sprite,Foreground,Centre,"SB\spotlight.png",320,240 M,0,49716,,235,368 F,0,49716,50416,0.9,0.3 S,0,49716,50416,1.4,0.9 P,0,49716,50416,A
Sprite,Foreground,Centre,"SB\dot.png",320,240 M,0,49716,50416,235,368,185,339 F,0,49716,50416,0.9,0.6 S,0,49716,50416,0.25,0.1 P,0,49716,50416,A
Sprite,Foreground,Centre,"SB\dot.png",320,240 M,0,49721,50421,235,368,200,387 F,0,49721,50421,0.9,0.6 S,0,49721,50421,0.25,0.1 P,0,49721,50421,A
Sprite,Foreground,Centre,"SB\dot.png",320,240 M,0,49726,50426,235,368,185,352 F,0,49726,50426,0.9,0.6 S,0,49726,50426,0.25,0.1 P,0,49726,50426,A
Sprite,Foreground,Centre,"SB\dot.png",320,240 M,0,49731,50431,235,368,198,350 F,0,49731,50431,0.9,0.6 S,0,49731,50431,0.25,0.1 P,0,49731,50431,A
Sprite,Foreground,Centre,"SB\dot.png",320,240 M,0,49736,50436,235,368,197,341 F,0,49736,50436,0.9,0.6 S,0,49736,50436,0.25,0.1 P,0,49736,50436,A
Sprite,Foreground,Centre,"SB\dot.png",320,240 M,0,49741,50441,235,368,185,412 F,0,49741,50441,0.9,0.6 S,0,49741,50441,0.25,0.1 P,0,49741,50441,A
Sprite,Foreground,Centre,"SB\dot.png",320,240 M,0,49746,50446,235,368,274,396 F,0,49746,50446,0.9,0.6 S,0,49746,50446,0.25,0.1 P,0,49746,50446,A
Sprite,Foreground,Centre,"SB\dot.png",320,240 M,0,49751,50451,235,368,231,340 F,0,49751,50451,0.9,0.6 S,0,49751,50451,0.25,0.1 P,0,49751,50451,A
Sprite,Foreground,Centre,"SB\dot.png",320,240 M,0,49756,50456,235,368,265,336 F,0,49756,50456,0.9,0.6 S,0,49756,50456,0.25,0.1 P,0,49756,50456,A
Sprite,Foreground,Centre,"SB\dot.png",320,240 M,0,49761,50461,235,368,279,346 F,0,49761,50461,0.9,0.6 S,0,49761,50461,0.25,0.1 P,0,49761,50461,A
Sprite,Foreground,Centre,"SB\spotlight.png",320,240 M,0,50293,,389,329 F,0,50293,50993,0.9,0.3 S,0,50293,50993,1.4,0.9 P,0,50293,50993,A
Sprite,Foreground,Centre,"SB\dot.png",320,240 M,0,50293,50993,389,329,405,328 F,0,50293,50993,0.9,0.6 S,0,50293,50993,0.25,0.1 P,0,50293,50993,A
Sprite,Foreground,Centre,"SB\dot.png",320,240 M,0,50298,50998,389,329,421,313 F,0,50298,50998,0.9,0.6 S,0,50298,50998,0.25,0.1 P,0,50298,50998,A
Sprite,Foreground,Centre,"SB\dot.png",320,240 M,0,50303,51003,389,329,377,324 F,0,50303,51003,0.9,0.6 S,0,50303,51003,0.25,0.1 P,0,50303,51003,A
Sprite,Foreground,Centre,"SB\dot.png",320,240 M,0,50308,51008,389,329,396,373 F,0,50308,51008,0.9,0.6 S,0,50308,51008,0.25,0.1 P,0,50308,51008,A
Sprite,Foreground,Centre,"SB\dot.png",320,240 M,0,50313,51013,389,329,433,344 F,0,50313,51013,0.9,0.6 S,0,50313,51013,0.25,0.1 P,0,50313,51013,A
Sprite,Foreground,Centre,"SB\dot.png",320,240 M,0,50318,51018,389,329,427,283 F,0,50318,51018,0.9,0.6 S,0,50318,51018,0.25,0.1 P,0,50318,51018,A
Sprite,Foreground,Centre,"SB\dot.png",320,240 M,0,50323,51023,389,329,387,282 F,0,50323,51023,0.9,0.6 S,0,50323,51023,0.25,0.1 P,0,50323,51023,A
Sprite,Foreground,Centre,"SB\dot.png",320,240 M,0,50328,51028,389,329,371,374 F,0,50328,51028,0.9,0.6 S,0,50328,51028,0.25,0.1 P,0,50328,51028,A
Sprite,Foreground,Centre,"SB\dot.png",320,240 M,0,50333,51033,389,329,390,282 F,0,50333,51033,0.9,0.6 S,0,50333,51033,0.25,0.1 P,0,50333,51033,A
Sprite,Foreground,Centre,"SB\dot.png",320,240 M,0,50338,51038,389,329,389,344 F,0,50338,51038,0.9,0.6 S,0,50338,51038,0.25,0.1 P,0,50338,51038,A
Sprite,Foreground,Centre,"SB\spotlight.png",320,240 M,0,51159,,319,114 F,0,51159,51859,0.9,0.3 S,0,51159,51859,1.4,0.9 P,0,51159,51859,A
Sprite,Foreground,Centre,"SB\dot.png",320,240 M,0,51159,51859,319,114,295,101 F,0,51159,51859,0.9,0.6 S,0,51159,51859,0.25,0.1 P,0,51159,51859,A
Sprite,Foreground,Centre,"SB\dot.png",320,240 M,0,51164,51864,319,114,335,152 F,0,51164,51864,0.9,0.6 S,0,51164,51864,0.25,0.1 P,0,51164,51864,A
Sprite,Foreground,Centre,"SB\dot.png",320,240 M,0,51169,51869,319,114,285,110 F,0,51169,51869,0.9,0.6 S,0,51169,51869,0.25,0.1 P,0,51169,51869,A
Sprite,Foreground,Centre,"SB\dot.png",320,240 M,0,51174,51874,319,114,312,85 F,0,51174,51874,0.9,0.6 S,0,51174,51874,0.25,0.1 P,0,51174,51874,A
Sprite,Foreground,Centre,"SB\dot.png",320,240 M,0,51179,51879,319,114,290,78 F,0,51179,51879,0.9,0.6 S,0,51179,51879,0.25,0.1 P,0,51179,51879,A
Sprite,Foreground,Centre,"SB\dot.png",320,240 M,0,51184,51884,319,114,305,118 F,0,51184,51884,0.9,0.6 S,0,51184,51884,0.25,0.1 P,0,51184,51884,A
Sprite,Foreground,Centre,"SB\dot.png",320,240 M,0,51189,51889,319,114,286,100 F,0,51189,51889,0.9,0.6 S,0,51189,51889,0.25,0.1 P,0,51189,51889,A
Sprite,Foreground,Centre,"SB\dot.png",320,240 M,0,51194,51894,319,114,322,116 F,0,51194,51894,0.9,0.6 S,0,51194,51894,0.25,0.1 P,0,51194,51894,A
Sprite,Foreground,Centre,"SB\dot.png",320,240 M,0,51199,51899,319,114,308,145 F,0,51199,51899,0.9,0.6 S,0,51199,51899,0.25,0.1 P,0,51199,51899,A
Sprite,Foreground,Centre,"SB\dot.png",320,240 M,0,51204,51904,319,114,299,120 F,0,51204,51904,0.9,0.6 S,0,51204,51904,0.25,0.1 P,0,51204,51904,A
Sprite,Foreground,Centre,"SB\spotlight.png",320,240 M,0,51447,,246,162 F,0,51447,52147,0.9,0.3 S,0,51447,52147,1.4,0.9 P,0,51447,52147,A
Sprite,Foreground,Centre,"SB\dot.png",320,240 M,0,51447,52147,246,162,274,132 F,0,51447,52147,0.9,0.6 S,0,51447,52147,0.25,0.1 P,0,51447,52147,A
Sprite,Foreground,Centre,"SB\dot.png",320,240 M,0,51452,52152,246,162,234,159 F,0,51452,52152,0.9,0.6 S,0,51452,52152,0.25,0.1 P,0,51452,52152,A
Sprite,Foreground,Centre,"SB\dot.png",320,240 M,0,51457,52157,246,162,232,209 F,0,51457,52157,0.9,0.6 S,0,51457,52157,0.25,0.1 P,0,51457,52157,A
Sprite,Foreground,Centre,"SB\dot.png",320,240 M,0,51462,52162,246,162,242,198 F,0,51462,52162,0.9,0.6 S,0,51462,52162,0.25,0.1 P,0,51462,52162,A
Sprite,Foreground,Centre,"SB\dot.png",320,240 M,0,51467,52167,246,162,241,163 F,0,51467,52167,0.9,0.6 S,0,51467,52167,0.25,0.1 P,0,51467,52167,A
Sprite,Foreground,Centre,"SB\dot.png",320,240 M,0,51472,52172,246,162,267,188 F,0,51472,52172,0.9,0.6 S,0,51472,52172,0.25,0.1 P,0,51472,52172,A
Sprite,Foreground,Centre,"SB\dot.png",320,240 M,0,51477,52177,246,162,265,140 F,0,51477,52177,0.9,0.6 S,0,51477,52177,0.25,0.1 P,0,51477,52177,A
Sprite,Foreground,Centre,"SB\dot.png",320,240 M,0,51482,52182,246,162,197,140 F,0,51482,52182,0.9,0.6 S,0,51482,52182,0.25,0.1 P,0,51482,52182,A
Sprite,Foreground,Centre,"SB\dot.png",320,240 M,0,51487,52187,246,162,280,207 F,0,51487,52187,0.9,0.6 S,0,51487,52187,0.25,0.1 P,0,51487,52187,A
Sprite,Foreground,Centre,"SB\dot.png",320,240 M,0,51492,52192,246,162,214,204 F,0,51492,52192,0.9,0.6 S,0,51492,52192,0.25,0.1 P,0,51492,52192,A
Sprite,Foreground,Centre,"SB\spotlight.png",320,240 M,0,52024,,143,249 F,0,52024,52724,0.9,0.3 S,0,52024,52724,1.4,0.9 P,0,52024,52724,A
Sprite,Foreground,Centre,"SB\dot.png",320,240 M,0,52024,52724,143,249,94,235 F,0,52024,52724,0.9,0.6 S,0,52024,52724,0.25,0.1 P,0,52024,52724,A
Sprite,Foreground,Centre,"SB\dot.png",320,240 M,0,52029,52729,143,249,165,278 F,0,52029,52729,0.9,0.6 S,0,52029,52729,0.25,0.1 P,0,52029,52729,A
Sprite,Foreground,Centre,"SB\dot.png",320,240 M,0,52034,52734,143,249,122,233 F,0,52034,52734,0.9,0.6 S,0,52034,52734,0.25,0.1 P,0,52034,52734,A
Sprite,Foreground,Centre,"SB\dot.png",320,240 M,0,52039,52739,143,249,181,210 F,0,52039,52739,0.9,0.6 S,0,52039,52739,0.25,0.1 P,0,52039,52739,A
Sprite,Foreground,Centre,"SB\dot.png",320,240 M,0,52044,52744,143,249,143,280 F,0,52044,52744,0.9,0.6 S,0,52044,52744,0.25,0.1 P,0,52044,52744,A
Sprite,Foreground,Centre,"SB\dot.png",320,240 M,0,52049,52749,143,249,149,270 F,0,52049,52749,0.9,0.6 S,0,52049,52749,0.25,0.1 P,0,52049,52749,A
Sprite,Foreground,Centre,"SB\dot.png",320,240 M,0,52054,52754,143,249,167,293 F,0,52054,52754,0.9,0.6 S,0,52054,52754,0.25,0.1 P,0,52054,52754,A
Sprite,Foreground,Centre,"SB\dot.png",320,240 M,0,52059,52759,143,249,181,205 F,0,52059,52759,0.9,0.6 S,0,52059,52759,0.25,0.1 P,0,52059,52759,A
Sprite,Foreground,Centre,"SB\dot.png",320,240 M,0,52064,52764,143,249,192,217 F,0,52064,52764,0.9,0.6 S,0,52064,52764,0.25,0.1 P,0,52064,52764,A
Sprite,Foreground,Centre,"SB\dot.png",320,240 M,0,52069,52769,143,249,145,219 F,0,52069,52769,0.9,0.6 S,0,52069,52769,0.25,0.1 P,0,52069,52769,A
Sprite,Foreground,Centre,"SB\spotlight.png",320,240 M,0,52601,,296,295 F,0,52601,53301,0.9,0.3 S,0,52601,53301,1.4,0.9 P,0,52601,53301,A
Sprite,Foreground,Centre,"SB\dot.png",320,240 M,0,52601,53301,296,295,246,303 F,0,52601,53301,0.9,0.6 S,0,52601,53301,0.25,0.1 P,0,52601,53301,A
Sprite,Foreground,Centre,"SB\dot.png",320,240 M,0,52606,53306,296,295,322,316 F,0,52606,53306,0.9,0.6 S,0,52606,53306,0.25,0.1 P,0,52606,53306,A
Sprite,Foreground,Centre,"SB\dot.png",320,240 M,0,52611,53311,296,295,289,305 F,0,52611,53311,0.9,0.6 S,0,52611,53311,0.25,0.1 P,0,52611,53311,A
Sprite,Foreground,Centre,"SB\dot.png",320,240 M,0,52616,53316,296,295,331,335 F,0,52616,53316,0.9,0.6 S,0,52616,53316,0.25,0.1 P,0,52616,53316,A
Sprite,Foreground,Centre,"SB\dot.png",320,240 M,0,52621,53321,296,295,281,269 F,0,52621,53321,0.9,0.6 S,0,52621,53321,0.25,0.1 P,0,52621,53321,A
Sprite,Foreground,Centre,"SB\dot.png",320,240 M,0,52626,53326,296,295,314,290 F,0,52626,53326,0.9,0.6 S,0,52626,53326,0.25,0.1 P,0,52626,53326,A
Sprite,Foreground,Centre,"SB\dot.png",320,240 M,0,52631,53331,296,295,309,283 F,0,52631,53331,0.9,0.6 S,0,52631,53331,0.25,0.1 P,0,52631,53331,A
Sprite,Foreground,Centre,"SB\dot.png",320,240 M,0,52636,53336,296,295,301,287 F,0,52636,53336,0.9,0.6 S,0,52636,53336,0.25,0.1 P,0,52636,53336,A
Sprite,Foreground,Centre,"SB\dot.png",320,240 M,0,52641,53341,296,295,294,305 F,0,52641,53341,0.9,0.6 S,0,52641,53341,0.25,0.1 P,0,52641,53341,A
Sprite,Foreground,Centre,"SB\dot.png",320,240 M,0,52646,53346,296,295,264,246 F,0,52646,53346,0.9,0.6 S,0,52646,53346,0.25,0.1 P,0,52646,53346,A
Sprite,Foreground,Centre,"SB\spotlight.png",320,240 M,0,53755,,366,241 F,0,53755,54455,0.9,0.3 S,0,53755,54455,1.4,0.9 P,0,53755,54455,A
Sprite,Foreground,Centre,"SB\dot.png",320,240 M,0,53755,54455,366,241,324,225 F,0,53755,54455,0.9,0.6 S,0,53755,54455,0.25,0.1 P,0,53755,54455,A
Sprite,Foreground,Centre,"SB\dot.png",320,240 M,0,53760,54460,366,241,351,256 F,0,53760,54460,0.9,0.6 S,0,53760,54460,0.25,0.1 P,0,53760,54460,A
Sprite,Foreground,Centre,"SB\dot.png",320,240 M,0,53765,54465,366,241,412,191 F,0,53765,54465,0.9,0.6 S,0,53765,54465,0.25,0.1 P,0,53765,54465,A
Sprite,Foreground,Centre,"SB\dot.png",320,240 M,0,53770,54470,366,241,318,266 F,0,53770,54470,0.9,0.6 S,0,53770,54470,0.25,0.1 P,0,53770,54470,A
Sprite,Foreground,Centre,"SB\dot.png",320,240 M,0,53775,54475,366,241,356,287 F,0,53775,54475,0.9,0.6 S,0,53775,54475,0.25,0.1 P,0,53775,54475,A
Sprite,Foreground,Centre,"SB\dot.png",320,240 M,0,53780,54480,366,241,345,256 F,0,53780,54480,0.9,0.6 S,0,53780,54480,0.25,0.1 P,0,53780,54480,A
Sprite,Foreground,Centre,"SB\dot.png",320,240 M,0,53785,54485,366,241,358,290 F,0,53785,54485,0.9,0.6 S,0,53785,54485,0.25,0.1 P,0,53785,54485,A
Sprite,Foreground,Centre,"SB\dot.png",320,240 M,0,53790,54490,366,241,408,234 F,0,53790,54490,0.9,0.6 S,0,53790,54490,0.25,0.1 P,0,53790,54490,A
Sprite,Foreground,Centre,"SB\dot.png",320,240 M,0,53795,54495,366,241,376,192 F,0,53795,54495,0.9,0.6 S,0,53795,54495,0.25,0.1 P,0,53795,54495,A
Sprite,Foreground,Centre,"SB\dot.png",320,240 M,0,53800,54500,366,241,351,260 F,0,53800,54500,0.9,0.6 S,0,53800,54500,0.25,0.1 P,0,53800,54500,A
Sprite,Foreground,Centre,"SB\spotlight.png",320,240 M,0,54332,,472,154 F,0,54332,55032,0.9,0.3 S,0,54332,55032,1.4,0.9 P,0,54332,55032,A
Sprite,Foreground,Centre,"SB\dot.png",320,240 M,0,54332,55032,472,154,471,202 F,0,54332,55032,0.9,0.6 S,0,54332,55032,0.25,0.1 P,0,54332,55032,A
Sprite,Foreground,Centre,"SB\dot.png",320,240 M,0,54337,55037,472,154,499,130 F,0,54337,55037,0.9,0.6 S,0,54337,55037,0.25,0.1 P,0,54337,55037,A
Sprite,Foreground,Centre,"SB\dot.png",320,240 M,0,54342,55042,472,154,434,114 F,0,54342,55042,0.9,0.6 S,0,54342,55042,0.25,0.1 P,0,54342,55042,A
Sprite,Foreground,Centre,"SB\dot.png",320,240 M,0,54347,55047,472,154,429,140 F,0,54347,55047,0.9,0.6 S,0,54347,55047,0.25,0.1 P,0,54347,55047,A
Sprite,Foreground,Centre,"SB\dot.png",320,240 M,0,54352,55052,472,154,461,150 F,0,54352,55052,0.9,0.6 S,0,54352,55052,0.25,0.1 P,0,54352,55052,A
Sprite,Foreground,Centre,"SB\dot.png",320,240 M,0,54357,55057,472,154,480,143 F,0,54357,55057,0.9,0.6 S,0,54357,55057,0.25,0.1 P,0,54357,55057,A
Sprite,Foreground,Centre,"SB\dot.png",320,240 M,0,54362,55062,472,154,422,154 F,0,54362,55062,0.9,0.6 S,0,54362,55062,0.25,0.1 P,0,54362,55062,A
Sprite,Foreground,Centre,"SB\dot.png",320,240 M,0,54367,55067,472,154,433,171 F,0,54367,55067,0.9,0.6 S,0,54367,55067,0.25,0.1 P,0,54367,55067,A
Sprite,Foreground,Centre,"SB\dot.png",320,240 M,0,54372,55072,472,154,445,115 F,0,54372,55072,0.9,0.6 S,0,54372,55072,0.25,0.1 P,0,54372,55072,A
Sprite,Foreground,Centre,"SB\dot.png",320,240 M,0,54377,55077,472,154,498,147 F,0,54377,55077,0.9,0.6 S,0,54377,55077,0.25,0.1 P,0,54377,55077,A
Sprite,Foreground,Centre,"SB\spotlight.png",320,240 M,0,54909,,312,117 F,0,54909,55609,0.9,0.3 S,0,54909,55609,1.4,0.9 P,0,54909,55609,A
Sprite,Foreground,Centre,"SB\dot.png",320,240 M,0,54909,55609,312,117,320,76 F,0,54909,55609,0.9,0.6 S,0,54909,55609,0.25,0.1 P,0,54909,55609,A
Sprite,Foreground,Centre,"SB\dot.png",320,240 M,0,54914,55614,312,117,312,107 F,0,54914,55614,0.9,0.6 S,0,54914,55614,0.25,0.1 P,0,54914,55614,A
Sprite,Foreground,Centre,"SB\dot.png",320,240 M,0,54919,55619,312,117,357,70 F,0,54919,55619,0.9,0.6 S,0,54919,55619,0.25,0.1 P,0,54919,55619,A
Sprite,Foreground,Centre,"SB\dot.png",320,240 M,0,54924,55624,312,117,264,132 F,0,54924,55624,0.9,0.6 S,0,54924,55624,0.25,0.1 P,0,54924,55624,A
Sprite,Foreground,Centre,"SB\dot.png",320,240 M,0,54929,55629,312,117,309,78 F,0,54929,55629,0.9,0.6 S,0,54929,55629,0.25,0.1 P,0,54929,55629,A
Sprite,Foreground,Centre,"SB\dot.png",320,240 M,0,54934,55634,312,117,344,114 F,0,54934,55634,0.9,0.6 S,0,54934,55634,0.25,0.1 P,0,54934,55634,A
Sprite,Foreground,Centre,"SB\dot.png",320,240 M,0,54939,55639,312,117,286,116 F,0,54939,55639,0.9,0.6 S,0,54939,55639,0.25,0.1 P,0,54939,55639,A
Sprite,Foreground,Centre,"SB\dot.png",320,240 M,0,54944,55644,312,117,315,78 F,0,54944,55644,0.9,0.6 S,0,54944,55644,0.25,0.1 P,0,54944,55644,A
Sprite,Foreground,Centre,"SB\dot.png",320,240 M,0,54949,55649,312,117,320,75 F,0,54949,55649,0.9,0.6 S,0,54949,55649,0.25,0.1 P,0,54949,55649,A
Sprite,Foreground,Centre,"SB\dot.png",320,240 M,0,54954,55654,312,117,314,152 F,0,54954,55654,0.9,0.6 S,0,54954,55654,0.25,0.1 P,0,54954,55654,A
Sprite,Foreground,Centre,"SB\spotlight.png",320,240 M,0,55630,,256,185 F,0,55630,56330,0.9,0.3 S,0,55630,56330,1.4,0.9 P,0,55630,56330,A
Sprite,Foreground,Centre,"SB\dot.png",320,240 M,0,55630,56330,256,185,300,202 F,0,55630,56330,0.9,0.6 S,0,55630,56330,0.25,0.1 P,0,55630,56330,A
Sprite,Foreground,Centre,"SB\dot.png",320,240 M,0,55635,56335,256,185,242,229 F,0,55635,56335,0.9,0.6 S,0,55635,56335,0.25,0.1 P,0,55635,56335,A
Sprite,Foreground,Centre,"SB\dot.png",320,240 M,0,55640,56340,256,185,243,226 F,0,55640,56340,0.9,0.6 S,0,55640,56340,0.25,0.1 P,0,55640,56340,A
Sprite,Foreground,Centre,"SB\dot.png",320,240 M,0,55645,56345,256,185,270,228 F,0,55645,56345,0.9,0.6 S,0,55645,56345,0.25,0.1 P,0,55645,56345,A
Sprite,Foreground,Centre,"SB\dot.png",320,240 M,0,55650,56350,256,185,293,159 F,0,55650,56350,0.9,0.6 S,0,55650,56350,0.25,0.1 P,0,55650,56350,A
Sprite,Foreground,Centre,"SB\dot.png",320,240 M,0,55655,56355,256,185,226,183 F,0,55655,56355,0.9,0.6 S,0,55655,56355,0.25,0.1 P,0,55655,56355,A
Sprite,Foreground,Centre,"SB\dot.png",320,240 M,0,55660,56360,256,185,232,228 F,0,55660,56360,0.9,0.6 S,0,55660,56360,0.25,0.1 P,0,55660,56360,A
Sprite,Foreground,Centre,"SB\dot.png",320,240 M,0,55665,56365,256,185,217,174 F,0,55665,56365,0.9,0.6 S,0,55665,56365,0.25,0.1 P,0,55665,56365,A
Sprite,Foreground,Centre,"SB\dot.png",320,240 M,0,55670,56370,256,185,254,171 F,0,55670,56370,0.9,0.6 S,0,55670,56370,0.25,0.1 P,0,55670,56370,A
Sprite,Foreground,Centre,"SB\dot.png",320,240 M,0,55675,56375,256,185,237,144 F,0,55675,56375,0.9,0.6 S,0,55675,56375,0.25,0.1 P,0,55675,56375,A
Sprite,Foreground,Centre,"SB\spotlight.png",320,240 M,0,56351,,278,269 F,0,56351,57051,0.9,0.3 S,0,56351,57051,1.4,0.9 P,0,56351,57051,A
Sprite,Foreground,Centre,"SB\dot.png",320,240 M,0,56351,57051,278,269,236,261 F,0,56351,57051,0.9,0.6 S,0,56351,57051,0.25,0.1 P,0,56351,57051,A
Sprite,Foreground,Centre,"SB\dot.png",320,240 M,0,56356,57056,278,269,317,247 F,0,56356,57056,0.9,0.6 S,0,56356,57056,0.25,0.1 P,0,56356,57056,A
Sprite,Foreground,Centre,"SB\dot.png",320,240 M,0,56361,57061,278,269,292,230 F,0,56361,57061,0.9,0.6 S,0,56361,57061,0.25,0.1 P,0,56361,57061,A
Sprite,Foreground,Centre,"SB\dot.png",320,240 M,0,56366,57066,278,269,243,271 F,0,56366,57066,0.9,0.6 S,0,56366,57066,0.25,0.1 P,0,56366,57066,A
Sprite,Foreground,Centre,"SB\dot.png",320,240 M,0,56371,57071,278,269,326,319 F,0,56371,57071,0.9,0.6 S,0,56371,57071,0.25,0.1 P,0,56371,57071,A
Sprite,Foreground,Centre,"SB\dot.png",320,240 M,0,56376,57076,278,269,236,233 F,0,56376,57076,0.9,0.6 S,0,56376,57076,0.25,0.1 P,0,56376,57076,A
Sprite,Foreground,Centre,"SB\dot.png",320,240 M,0,56381,57081,278,269,287,310 F,0,56381,57081,0.9,0.6 S,0,56381,57081,0.25,0.1 P,0,56381,57081,A
Sprite,Foreground,Centre,"SB\dot.png",320,240 M,0,56386,57086,278,269,277,311 F,0,56386,57086,0.9,0.6 S,0,56386,57086,0.25,0.1 P,0,56386,57086,A
Sprite,Foreground,Centre,"SB\dot.png",320,240 M,0,56391,57091,278,269,302,275 F,0,56391,57091,0.9,0.6 S,0,56391,57091,0.25,0.1 P,0,56391,57091,A
Sprite,Foreground,Centre,"SB\dot.png",320,240 M,0,56396,57096,278,269,230,223 F,0,56396,57096,0.9,0.6 S,0,56396,57096,0.25,0.1 P,0,56396,57096,A
Sprite,Foreground,Centre,"SB\spotlight.png",320,240 M,0,56928,,395,343 F,0,56928,57628,0.9,0.3 S,0,56928,57628,1.4,0.9 P,0,56928,57628,A
Sprite,Foreground,Centre,"SB\dot.png",320,240 M,0,56928,57628,395,343,384,303 F,0,56928,57628,0.9,0.6 S,0,56928,57628,0.25,0.1 P,0,56928,57628,A
Sprite,Foreground,Centre,"SB\dot.png",320,240 M,0,56933,57633,395,343,423,315 F,0,56933,57633,0.9,0.6 S,0,56933,57633,0.25,0.1 P,0,56933,57633,A
Sprite,Foreground,Centre,"SB\dot.png",320,240 M,0,56938,57638,395,343,436,327 F,0,56938,57638,0.9,0.6 S,0,56938,57638,0.25,0.1 P,0,56938,57638,A
Sprite,Foreground,Centre,"SB\dot.png",320,240 M,0,56943,57643,395,343,365,324 F,0,56943,57643,0.9,0.6 S,0,56943,57643,0.25,0.1 P,0,56943,57643,A
Sprite,Foreground,Centre,"SB\dot.png",320,240 M,0,56948,57648,395,343,382,306 F,0,56948,57648,0.9,0.6 S,0,56948,57648,0.25,0.1 P,0,56948,57648,A
Sprite,Foreground,Centre,"SB\dot.png",320,240 M,0,56953,57653,395,343,409,314 F,0,56953,57653,0.9,0.6 S,0,56953,57653,0.25,0.1 P,0,56953,57653,A
Sprite,Foreground,Centre,"SB\dot.png",320,240 M,0,56958,57658,395,343,422,336 F,0,56958,57658,0.9,0.6 S,0,56958,57658,0.25,0.1 P,0,56958,57658,A
Sprite,Foreground,Centre,"SB\dot.png",320,240 M,0,56963,57663,395,343,422,344 F,0,56963,57663,0.9,0.6 S,0,56963,57663,0.25,0.1 P,0,56963,57663,A
Sprite,Foreground,Centre,"SB\dot.png",320,240 M,0,56968,57668,395,343,423,301 F,0,56968,57668,0.9,0.6 S,0,56968,57668,0.25,0.1 P,0,56968,57668,A
Sprite,Foreground,Centre,"SB\dot.png",320,240 M,0,56973,57673,395,343,375,319 F,0,56973,57673,0.9,0.6 S,0,56973,57673,0.25,0.1 P,0,56973,57673,A
Sprite,Foreground,Centre,"SB\spotlight.png",320,240 M,0,57505,,334,188 F,0,57505,58205,0.9,0.3 S,0,57505,58205,1.4,0.9 P,0,57505,58205,A
Sprite,Foreground,Centre,"SB\dot.png",320,240 M,0,57505,58205,334,188,359,150 F,0,57505,58205,0.9,0.6 S,0,57505,58205,0.25,0.1 P,0,57505,58205,A
Sprite,Foreground,Centre,"SB\dot.png",320,240 M,0,57510,58210,334,188,379,226 F,0,57510,58210,0.9,0.6 S,0,57510,58210,0.25,0.1 P,0,57510,58210,A
Sprite,Foreground,Centre,"SB\dot.png",320,240 M,0,57515,58215,334,188,299,144 F,0,57515,58215,0.9,0.6 S,0,57515,58215,0.25,0.1 P,0,57515,58215,A
Sprite,Foreground,Centre,"SB\dot.png",320,240 M,0,57520,58220,334,188,373,173 F,0,57520,58220,0.9,0.6 S,0,57520,58220,0.25,0.1 P,0,57520,58220,A
Sprite,Foreground,Centre,"SB\dot.png",320,240 M,0,57525,58225,334,188,328,158 F,0,57525,58225,0.9,0.6 S,0,57525,58225,0.25,0.1 P,0,57525,58225,A
Sprite,Foreground,Centre,"SB\dot.png",320,240 M,0,57530,58230,334,188,350,231 F,0,57530,58230,0.9,0.6 S,0,57530,58230,0.25,0.1 P,0,57530,58230,A
Sprite,Foreground,Centre,"SB\dot.png",320,240 M,0,57535,58235,334,188,318,165 F,0,57535,58235,0.9,0.6 S,0,57535,58235,0.25,0.1 P,0,57535,58235,A
Sprite,Foreground,Centre,"SB\dot.png",320,240 M,0,57540,58240,334,188,354,236 F,0,57540,58240,0.9,0.6 S,0,57540,58240,0.25,0.1 P,0,57540,58240,A
Sprite,Foreground,Centre,"SB\dot.png",320,240 M,0,57545,58245,334,188,349,205 F,0,57545,58245,0.9,0.6 S,0,57545,58245,0.25,0.1 P,0,57545,58245,A
Sprite,Foreground,Centre,"SB\dot.png",320,240 M,0,57550,58250,334,188,321,168 F,0,57550,58250,0.9,0.6 S,0,57550,58250,0.25,0.1 P,0,57550,58250,A
Sprite,Foreground,Centre,"SB\spotlight.png",320,240 M,0,58226,,165,256 F,0,58226,58926,0.9,0.3 S,0,58226,58926,1.4,0.9 P,0,58226,58926,A
Sprite,Foreground,Centre,"SB\dot.png",320,240 M,0,58226,58926,165,256,206,291 F,0,58226,58926,0.9,0.6 S,0,58226,58926,0.25,0.1 P,0,58226,58926,A
Sprite,Foreground,Centre,"SB\dot.png",320,240 M,0,58231,58931,165,256,129,290 F,0,58231,58931,0.9,0.6 S,0,58231,58931,0.25,0.1 P,0,58231,58931,A
Sprite,Foreground,Centre,"SB\dot.png",320,240 M,0,58236,58936,165,256,151,293 F,0,58236,58936,0.9,0.6 S,0,58236,58936,0.25,0.1 P,0,58236,58936,A
Sprite,Foreground,Centre,"SB\dot.png",320,240 M,0,58241,58941,165,256,152,222 F,0,58241,58941,0.9,0.6 S,0,58241,58941,0.25,0.1 P,0,58241,58941,A
Sprite,Foreground,Centre,"SB\dot.png",320,240 M,0,58246,58946,165,256,129,305 F,0,58246,58946,0.9,0.6 S,0,58246,58946,0.25,0.1 P,0,58246,58946,A
Sprite,Foreground,Centre,"SB\dot.png",320,240 M,0,58251,58951,165,256,128,272 F,0,58251,58951,0.9,0.6 S,0,58251,58951,0.25,0.1 P,0,58251,58951,A
Sprite,Foreground,Centre,"SB\dot.png",320,240 M,0,58256,58956,165,256,140,282 F,0,58256,58956,0.9,0.6 S,0,58256,58956,0.25,0.1 P,0,58256,58956,A
Sprite,Foreground,Centre,"SB\dot.png",320,240 M,0,58261,58961,165,256,144,233 F,0,58261,58961,0.9,0.6 S,0,58261,58961,0.25,0.1 P,0,58261,58961,A
Sprite,Foreground,Centre,"SB\dot.png",320,240 M,0,58266,58966,165,256,130,297 F,0,58266,58966,0.9,0.6 S,0,58266,58966,0.25,0.1 P,0,58266,58966,A
Sprite,Foreground,Centre,"SB\dot.png",320,240 M,0,58271,58971,165,256,121,291 F,0,58271,58971,0.9,0.6 S,0,58271,58971,0.25,0.1 P,0,58271,58971,A
Sprite,Foreground,Centre,"SB\spotlight.png",320,240 M,0,59380,,220,188 F,0,59380,60080,0.9,0.3 S,0,59380,60080,1.4,0.9 P,0,59380,60080,A
Sprite,Foreground,Centre,"SB\dot.png",320,240 M,0,59380,60080,220,188,215,224 F,0,59380,60080,0.9,0.6 S,0,59380,60080,0.25,0.1 P,0,59380,60080,A
Sprite,Foreground,Centre,"SB\dot.png",320,240 M,0,59385,60085,220,188,258,155 F,0,59385,60085,0.9,0.6 S,0,59385,60085,0.25,0.1 P,0,59385,60085,A
Sprite,Foreground,Centre,"SB\dot.png",320,240 M,0,59390,60090,220,188,218,209 F,0,59390,60090,0.9,0.6 S,0,59390,60090,0.25,0.1 P,0,59390,60090,A
Sprite,Foreground,Centre,"SB\dot.png",320,240 M,0,59395,60095,220,188,258,188 F,0,59395,60095,0.9,0.6 S,0,59395,60095,0.25,0.1 P,0,59395,60095,A
Sprite,Foreground,Centre,"SB\dot.png",320,240 M,0,59400,60100,220,188,244,217 F,0,59400,60100,0.9,0.6 S,0,59400,60100,0.25,0.1 P,0,59400,60100,A
Sprite,Foreground,Centre,"SB\dot.png",320,240 M,0,59405,60105,220,188,257,149 F,0,59405,60105,0.9,0.6 S,0,59405,60105,0.25,0.1 P,0,59405,60105,A
Sprite,Foreground,Centre,"SB\dot.png",320,240 M,0,59410,60110,220,188,241,238 F,0,59410,60110,0.9,0.6 S,0,59410,60110,0.25,0.1 P,0,59410,60110,A
Sprite,Foreground,Centre,"SB\dot.png",320,240 M,0,59415,60115,220,188,206,229 F,0,59415,60115,0.9,0.6 S,0,59415,60115,0.25,0.1 P,0,59415,60115,A
Sprite,Foreground,Centre,"SB\dot.png",320,240 M,0,59420,60120,220,188,269,149 F,0,59420,60120,0.9,0.6 S,0,59420,60120,0.25,0.1 P,0,59420,60120,A
Sprite,Foreground,Centre,"SB\dot.png",320,240 M,0,59425,60125,220,188,221,167 F,0,59425,60125,0.9,0.6 S,0,59425,60125,0.25,0.1 P,0,59425,60125,A
Sprite,Foreground,Centre,"SB\spotlight.png",320,240 M,0,60678,,253,315 F,0,60678,61378,0.9,0.3 S,0,60678,61378,1.4,0.9 P,0,60678,61378,A
Sprite,Foreground,Centre,"SB\dot.png",320,240 M,0,60678,61378,253,315,272,338 F,0,60678,61378,0.9,0.6 S,0,60678,61378,0.25,0.1 P,0,60678,61378,A
Sprite,Foreground,Centre,"SB\dot.png",320,240 M,0,60683,61383,253,315,224,310 F,0,60683,61383,0.9,0.6 S,0,60683,61383,0.25,0.1 P,0,60683,61383,A
Sprite,Foreground,Centre,"SB\dot.png",320,240 M,0,60688,61388,253,315,209,365 F,0,60688,61388,0.9,0.6 S,0,60688,61388,0.25,0.1 P,0,60688,61388,A
Sprite,Foreground,Centre,"SB\dot.png",320,240 M,0,60693,61393,253,315,270,323 F,0,60693,61393,0.9,0.6 S,0,60693,61393,0.25,0.1 P,0,60693,61393,A
Sprite,Foreground,Centre,"SB\dot.png",320,240 M,0,60698,61398,253,315,302,308 F,0,60698,61398,0.9,0.6 S,0,60698,61398,0.25,0.1 P,0,60698,61398,A
Sprite,Foreground,Centre,"SB\dot.png",320,240 M,0,60703,61403,253,315,286,339 F,0,60703,61403,0.9,0.6 S,0,60703,61403,0.25,0.1 P,0,60703,61403,A
Sprite,Foreground,Centre,"SB\dot.png",320,240 M,0,60708,61408,253,315,263,317 F,0,60708,61408,0.9,0.6 S,0,60708,61408,0.25,0.1 P,0,60708,61408,A
Sprite,Foreground,Centre,"SB\dot.png",320,240 M,0,60713,61413,253,315,289,269 F,0,60713,61413,0.9,0.6 S,0,60713,61413,0.25,0.1 P,0,60713,61413,A
Sprite,Foreground,Centre,"SB\dot.png",320,240 M,0,60718,61418,253,315,300,362 F,0,60718,61418,0.9,0.6 S,0,60718,61418,0.25,0.1 P,0,60718,61418,A
Sprite,Foreground,Centre,"SB\dot.png",320,240 M,0,60723,61423,253,315,239,330 F,0,60723,61423,0.9,0.6 S,0,60723,61423,0.25,0.1 P,0,60723,61423,A
Sprite,Foreground,Centre,"SB\spotlight.png",320,240 M,0,61543,,291,235 F,0,61543,62243,0.9,0.3 S,0,61543,62243,1.4,0.9 P,0,61543,62243,A
Sprite,Foreground,Centre,"SB\dot.png",320,240 M,0,61543,62243,291,235,341,273 F,0,61543,62243,0.9,0.6 S,0,61543,62243,0.25,0.1 P,0,61543,62243,A
Sprite,Foreground,Centre,"SB\dot.png",320,240 M,0,61548,62248,291,235,283,220 F,0,61548,62248,0.9,0.6 S,0,61548,62248,0.25,0.1 P,0,61548,62248,A
Sprite,Foreground,Centre,"SB\dot.png",320,240 M,0,61553,62253,291,235,253,187 F,0,61553,62253,0.9,0.6 S,0,61553,62253,0.25,0.1 P,0,61553,62253,A
Sprite,Foreground,Centre,"SB\dot.png",320,240 M,0,61558,62258,291,235,336,211 F,0,61558,62258,0.9,0.6 S,0,61558,62258,0.25,0.1 P,0,61558,62258,A
Sprite,Foreground,Centre,"SB\dot.png",320,240 M,0,61563,62263,291,235,281,224 F,0,61563,62263,0.9,0.6 S,0,61563,62263,0.25,0.1 P,0,61563,62263,A
Sprite,Foreground,Centre,"SB\dot.png",320,240 M,0,61568,62268,291,235,269,189 F,0,61568,62268,0.9,0.6 S,0,61568,62268,0.25,0.1 P,0,61568,62268,A
Sprite,Foreground,Centre,"SB\dot.png",320,240 M,0,61573,62273,291,235,281,263 F,0,61573,62273,0.9,0.6 S,0,61573,62273,0.25,0.1 P,0,61573,62273,A
Sprite,Foreground,Centre,"SB\dot.png",320,240 M,0,61578,62278,291,235,257,257 F,0,61578,62278,0.9,0.6 S,0,61578,62278,0.25,0.1 P,0,61578,62278,A
Sprite,Foreground,Centre,"SB\dot.png",320,240 M,0,61583,62283,291,235,305,227 F,0,61583,62283,0.9,0.6 S,0,61583,62283,0.25,0.1 P,0,61583,62283,A
Sprite,Foreground,Centre,"SB\dot.png",320,240 M,0,61588,62288,291,235,252,233 F,0,61588,62288,0.9,0.6 S,0,61588,62288,0.25,0.1 P,0,61588,62288,A
Sprite,Foreground,Centre,"SB\spotlight.png",320,240 M,0,61832,,379,236 F,0,61832,62532,0.9,0.3 S,0,61832,62532,1.4,0.9 P,0,61832,62532,A
Sprite,Foreground,Centre,"SB\dot.png",320,240 M,0,61832,62532,379,236,333,216 F,0,61832,62532,0.9,0.6 S,0,61832,62532,0.25,0.1 P,0,61832,62532,A
Sprite,Foreground,Centre,"SB\dot.png",320,240 M,0,61837,62537,379,236,380,216 F,0,61837,62537,0.9,0.6 S,0,61837,62537,0.25,0.1 P,0,61837,62537,A
Sprite,Foreground,Centre,"SB\dot.png",320,240 M,0,61842,62542,379,236,426,198 F,0,61842,62542,0.9,0.6 S,0,61842,62542,0.25,0.1 P,0,61842,62542,A
Sprite,Foreground,Centre,"SB\dot.png",320,240 M,0,61847,62547,379,236,380,205 F,0,61847,62547,0.9,0.6 S,0,61847,62547,0.25,0.1 P,0,61847,62547,A
Sprite,Foreground,Centre,"SB\dot.png",320,240 M,0,61852,62552,379,236,342,217 F,0,61852,62552,0.9,0.6 S,0,61852,62552,0.25,0.1 P,0,61852,62552,A
Sprite,Foreground,Centre,"SB\dot.png",320,240 M,0,61857,62557,379,236,423,187 F,0,61857,62557,0.9,0.6 S,0,61857,62557,0.25,0.1 P,0,61857,62557,A
Sprite,Foreground,Centre,"SB\dot.png",320,240 M,0,61862,62562,379,236,404,272 F,0,61862,62562,0.9,0.6 S,0,61862,62562,0.25,0.1 P,0,61862,62562,A
Sprite,Foreground,Centre,"SB\dot.png",320,240 M,0,61867,62567,379,236,358,267 F,0,61867,62567,0.9,0.6 S,0,61867,62567,0.25,0.1 P,0,61867,62567,A
Sprite,Foreground,Centre,"SB\dot.png",320,240 M,0,61872,62572,379,236,359,272 F,0,61872,62572,0.9,0.6 S,0,61872,62572,0.25,0.1 P,0,61872,62572,A
Sprite,Foreground,Centre,"SB\dot.png",320,240 M,0,61877,62577,379,236,362,189 F,0,61877,62577,0.9,0.6 S,0,61877,62577,0.25,0.1 P,0,61877,62577,A
Sprite,Foreground,Centre,"SB\spotlight.png",320,240 M,0,62985,,335,159 F,0,62985,63685,0.9,0.3 S,0,62985,63685,1.4,0.9 P,0,62985,63685,A
Sprite,Foreground,Centre,"SB\dot.png",320,240 M,0,62985,63685,335,159,290,149 F,0,62985,63685,0.9,0.6 S,0,62985,63685,0.25,0.1 P,0,62985,63685,A
Sprite,Foreground,Centre,"SB\dot.png",320,240 M,0,62990,63690,335,159,302,169 F,0,62990,63690,0.9,0.6 S,0,62990,63690,0.25,0.1 P,0,62990,63690,A
Sprite,Foreground,Centre,"SB\dot.png",320,240 M,0,62995,63695,335,159,299,187 F,0,62995,63695,0.9,0.6 S,0,62995,63695,0.25,0.1 P,0,62995,63695,A
Sprite,Foreground,Centre,"SB\dot.png",320,240 M,0,63000,63700,335,159,319,191 F,0,63000,63700,0.9,0.6 S,0,63000,63700,0.25,0.1 P,0,63000,63700,A
Sprite,Foreground,Centre,"SB\dot.png",320,240 M,0,63005,63705,335,159,321,123 F,0,63005,63705,0.9,0.6 S,0,63005,63705,0.25,0.1 P,0,63005,63705,A
Sprite,Foreground,Centre,"SB\dot.png",320,240 M,0,63010,63710,335,159,325,164 F,0,63010,63710,0.9,0.6 S,0,63010,63710,0.25,0.1 P,0,63010,63710,A
Sprite,Foreground,Centre,"SB\dot.png",320,240 M,0,63015,63715,335,159,371,198 F,0,63015,63715,0.9,0.6 S,0,63015,63715,0.25,0.1 P,0,63015,63715,A
Sprite,Foreground,Centre,"SB\dot.png",320,240 M,0,63020,63720,335,159,346,178 F,0,63020,63720,0.9,0.6 S,0,63020,63720,0.25,0.1 P,0,63020,63720,A
Sprite,Foreground,Centre,"SB\dot.png",320,240 M,0,63025,63725,335,159,321,121 F,0,63025,63725,0.9,0.6 S,0,63025,63725,0.25,0.1 P,0,63025,63725,A
Sprite,Foreground,Centre,"SB\dot.png",320,240 M,0,63030,63730,335,159,323,209 F,0,63030,63730,0.9,0.6 S,0,63030,63730,0.25,0.1 P,0,63030,63730,A
Sprite,Foreground,Centre,"SB\spotlight.png",320,240 M,0,63851,,379,236 F,0,63851,64551,0.9,0.3 S,0,63851,64551,1.4,0.9 P,0,63851,64551,A
Sprite,Foreground,Centre,"SB\dot.png",320,240 M,0,63851,64551,379,236,380,262 F,0,63851,64551,0.9,0.6 S,0,63851,64551,0.25,0.1 P,0,63851,64551,A
Sprite,Foreground,Centre,"SB\dot.png",320,240 M,0,63856,64556,379,236,341,194 F,0,63856,64556,0.9,0.6 S,0,63856,64556,0.25,0.1 P,0,63856,64556,A
Sprite,Foreground,Centre,"SB\dot.png",320,240 M,0,63861,64561,379,236,374,213 F,0,63861,64561,0.9,0.6 S,0,63861,64561,0.25,0.1 P,0,63861,64561,A
Sprite,Foreground,Centre,"SB\dot.png",320,240 M,0,63866,64566,379,236,358,240 F,0,63866,64566,0.9,0.6 S,0,63866,64566,0.25,0.1 P,0,63866,64566,A
Sprite,Foreground,Centre,"SB\dot.png",320,240 M,0,63871,64571,379,236,377,221 F,0,63871,64571,0.9,0.6 S,0,63871,64571,0.25,0.1 P,0,63871,64571,A
Sprite,Foreground,Centre,"SB\dot.png",320,240 M,0,63876,64576,379,236,370,265 F,0,63876,64576,0.9,0.6 S,0,63876,64576,0.25,0.1 P,0,63876,64576,A
Sprite,Foreground,Centre,"SB\dot.png",320,240 M,0,63881,64581,379,236,338,193 F,0,63881,64581,0.9,0.6 S,0,63881,64581,0.25,0.1 P,0,63881,64581,A
Sprite,Foreground,Centre,"SB\dot.png",320,240 M,0,63886,64586,379,236,371,250 F,0,63886,64586,0.9,0.6 S,0,63886,64586,0.25,0.1 P,0,63886,64586,A
Sprite,Foreground,Centre,"SB\dot.png",320,240 M,0,63891,64591,379,236,341,278 F,0,63891,64591,0.9,0.6 S,0,63891,64591,0.25,0.1 P,0,63891,64591,A
Sprite,Foreground,Centre,"SB\dot.png",320,240 M,0,63896,64596,379,236,345,205 F,0,63896,64596,0.9,0.6 S,0,63896,64596,0.25,0.1 P,0,63896,64596,A
Sprite,Foreground,Centre,"SB\spotlight.png",320,240 M,0,64139,,291,235 F,0,64139,64839,0.9,0.3 S,0,64139,64839,1.4,0.9 P,0,64139,64839,A
Sprite,Foreground,Centre,"SB\dot.png",320,240 M,0,64139,64839,291,235,320,255 F,0,64139,64839,0.9,0.6 S,0,64139,64839,0.25,0.1 P,0,64139,64839,A
Sprite,Foreground,Centre,"SB\dot.png",320,240 M,0,64144,64844,291,235,325,285 F,0,64144,64844,0.9,0.6 S,0,64144,64844,0.25,0.1 P,0,64144,64844,A
Sprite,Foreground,Centre,"SB\dot.png",320,240 M,0,64149,64849,291,235,332,224 F,0,64149,64849,0.9,0.6 S,0,64149,64849,0.25,0.1 P,0,64149,64849,A
Sprite,Foreground,Centre,"SB\dot.png",320,240 M,0,64154,64854,291,235,257,272 F,0,64154,64854,0.9,0.6 S,0,64154,64854,0.25,0.1 P,0,64154,64854,A
Sprite,Foreground,Centre,"SB\dot.png",320,240 M,0,64159,64859,291,235,266,246 F,0,64159,64859,0.9,0.6 S,0,64159,64859,0.25,0.1 P,0,64159,64859,A
Sprite,Foreground,Centre,"SB\dot.png",320,240 M,0,64164,64864,291,235,286,203 F,0,64164,64864,0.9,0.6 S,0,64164,64864,0.25,0.1 P,0,64164,64864,A
Sprite,Foreground,Centre,"SB\dot.png",320,240 M,0,64169,64869,291,235,289,218 F,0,64169,64869,0.9,0.6 S,0,64169,64869,0.25,0.1 P,0,64169,64869,A
Sprite,Foreground,Centre,"SB\dot.png",320,240 M,0,64174,64874,291,235,294,214 F,0,64174,64874,0.9,0.6 S,0,64174,64874,0.25,0.1 P,0,64174,64874,A
Sprite,Foreground,Centre,"SB\dot.png",320,240 M,0,64179,64879,291,235,268,193 F,0,64179,64879,0.9,0.6 S,0,64179,64879,0.25,0.1 P,0,64179,64879,A
Sprite,Foreground,Centre,"SB\dot.png",320,240 M,0,64184,64884,291,235,255,273 F,0,64184,64884,0.9,0.6 S,0,64184,64884,0.25,0.1 P,0,64184,64884,A
Sprite,Foreground,Centre,"SB\spotlight.png",320,240 M,0,65293,,333,312 F,0,65293,65993,0.9,0.3 S,0,65293,65993,1.4,0.9 P,0,65293,65993,A
Sprite,Foreground,Centre,"SB\dot.png",320,240 M,0,65293,65993,333,312,332,342 F,0,65293,65993,0.9,0.6 S,0,65293,65993,0.25,0.1 P,0,65293,65993,A
Sprite,Foreground,Centre,"SB\dot.png",320,240 M,0,65298,65998,333,312,316,262 F,0,65298,65998,0.9,0.6 S,0,65298,65998,0.25,0.1 P,0,65298,65998,A
Sprite,Foreground,Centre,"SB\dot.png",320,240 M,0,65303,66003,333,312,356,324 F,0,65303,66003,0.9,0.6 S,0,65303,66003,0.25,0.1 P,0,65303,66003,A
Sprite,Foreground,Centre,"SB\dot.png",320,240 M,0,65308,66008,333,312,329,340 F,0,65308,66008,0.9,0.6 S,0,65308,66008,0.25,0.1 P,0,65308,66008,A
Sprite,Foreground,Centre,"SB\dot.png",320,240 M,0,65313,66013,333,312,329,359 F,0,65313,66013,0.9,0.6 S,0,65313,66013,0.25,0.1 P,0,65313,66013,A
Sprite,Foreground,Centre,"SB\dot.png",320,240 M,0,65318,66018,333,312,339,306 F,0,65318,66018,0.9,0.6 S,0,65318,66018,0.25,0.1 P,0,65318,66018,A
Sprite,Foreground,Centre,"SB\dot.png",320,240 M,0,65323,66023,333,312,380,281 F,0,65323,66023,0.9,0.6 S,0,65323,66023,0.25,0.1 P,0,65323,66023,A
Sprite,Foreground,Centre,"SB\dot.png",320,240 M,0,65328,66028,333,312,304,344 F,0,65328,66028,0.9,0.6 S,0,65328,66028,0.25,0.1 P,0,65328,66028,A
Sprite,Foreground,Centre,"SB\dot.png",320,240 M,0,65333,66033,333,312,376,275 F,0,65333,66033,0.9,0.6 S,0,65333,66033,0.25,0.1 P,0,65333,66033,A
Sprite,Foreground,Centre,"SB\dot.png",320,240 M,0,65338,66038,333,312,301,268 F,0,65338,66038,0.9,0.6 S,0,65338,66038,0.25,0.1 P,0,65338,66038,A
Sprite,Foreground,Centre,"SB\spotlight.png",320,240 M,0,66159,,379,236 F,0,66159,66859,0.9,0.3 S,0,66159,66859,1.4,0.9 P,0,66159,66859,A
Sprite,Foreground,Centre,"SB\dot.png",320,240 M,0,66159,66859,379,236,340,229 F,0,66159,66859,0.9,0.6 S,0,66159,66859,0.25,0.1 P,0,66159,66859,A
Sprite,Foreground,Centre,"SB\dot.png",320,240 M,0,66164,66864,379,236,357,274 F,0,66164,66864,0.9,0.6 S,0,66164,66864,0.25,0.1 P,0,66164,66864,A
Sprite,Foreground,Centre,"SB\dot.png",320,240 M,0,66169,66869,379,236,419,209 F,0,66169,66869,0.9,0.6 S,0,66169,66869,0.25,0.1 P,0,66169,66869,A
Sprite,Foreground,Centre,"SB\dot.png",320,240 M,0,66174,66874,379,236,359,262 F,0,66174,66874,0.9,0.6 S,0,66174,66874,0.25,0.1 P,0,66174,66874,A
Sprite,Foreground,Centre,"SB\dot.png",320,240 M,0,66179,66879,379,236,384,198 F,0,66179,66879,0.9,0.6 S,0,66179,66879,0.25,0.1 P,0,66179,66879,A
Sprite,Foreground,Centre,"SB\dot.png",320,240 M,0,66184,66884,379,236,365,190 F,0,66184,66884,0.9,0.6 S,0,66184,66884,0.25,0.1 P,0,66184,66884,A
Sprite,Foreground,Centre,"SB\dot.png",320,240 M,0,66189,66889,379,236,407,215 F,0,66189,66889,0.9,0.6 S,0,66189,66889,0.25,0.1 P,0,66189,66889,A
Sprite,Foreground,Centre,"SB\dot.png",320,240 M,0,66194,66894,379,236,399,285 F,0,66194,66894,0.9,0.6 S,0,66194,66894,0.25,0.1 P,0,66194,66894,A
Sprite,Foreground,Centre,"SB\dot.png",320,240 M,0,66199,66899,379,236,365,269 F,0,66199,66899,0.9,0.6 S,0,66199,66899,0.25,0.1 P,0,66199,66899,A
Sprite,Foreground,Centre,"SB\dot.png",320,240 M,0,66204,66904,379,236,356,214 F,0,66204,66904,0.9,0.6 S,0,66204,66904,0.25,0.1 P,0,66204,66904,A
Sprite,Foreground,Centre,"SB\spotlight.png",320,240 M,0,66447,,446,292 F,0,66447,67147,0.9,0.3 S,0,66447,67147,1.4,0.9 P,0,66447,67147,A
Sprite,Foreground,Centre,"SB\dot.png",320,240 M,0,66447,67147,446,292,489,281 F,0,66447,67147,0.9,0.6 S,0,66447,67147,0.25,0.1 P,0,66447,67147,A
Sprite,Foreground,Centre,"SB\dot.png",320,240 M,0,66452,67152,446,292,437,270 F,0,66452,67152,0.9,0.6 S,0,66452,67152,0.25,0.1 P,0,66452,67152,A
Sprite,Foreground,Centre,"SB\dot.png",320,240 M,0,66457,67157,446,292,400,242 F,0,66457,67157,0.9,0.6 S,0,66457,67157,0.25,0.1 P,0,66457,67157,A
Sprite,Foreground,Centre,"SB\dot.png",320,240 M,0,66462,67162,446,292,418,271 F,0,66462,67162,0.9,0.6 S,0,66462,67162,0.25,0.1 P,0,66462,67162,A
Sprite,Foreground,Centre,"SB\dot.png",320,240 M,0,66467,67167,446,292,408,314 F,0,66467,67167,0.9,0.6 S,0,66467,67167,0.25,0.1 P,0,66467,67167,A
Sprite,Foreground,Centre,"SB\dot.png",320,240 M,0,66472,67172,446,292,433,256 F,0,66472,67172,0.9,0.6 S,0,66472,67172,0.25,0.1 P,0,66472,67172,A
Sprite,Foreground,Centre,"SB\dot.png",320,240 M,0,66477,67177,446,292,487,250 F,0,66477,67177,0.9,0.6 S,0,66477,67177,0.25,0.1 P,0,66477,67177,A
Sprite,Foreground,Centre,"SB\dot.png",320,240 M,0,66482,67182,446,292,472,248 F,0,66482,67182,0.9,0.6 S,0,66482,67182,0.25,0.1 P,0,66482,67182,A
Sprite,Foreground,Centre,"SB\dot.png",320,240 M,0,66487,67187,446,292,447,287 F,0,66487,67187,0.9,0.6 S,0,66487,67187,0.25,0.1 P,0,66487,67187,A
Sprite,Foreground,Centre,"SB\dot.png",320,240 M,0,66492,67192,446,292,406,292 F,0,66492,67192,0.9,0.6 S,0,66492,67192,0.25,0.1 P,0,66492,67192,A
Sprite,Foreground,Centre,"SB\spotlight.png",320,240 M,0,67601,,379,236 F,0,67601,68301,0.9,0.3 S,0,67601,68301,1.4,0.9 P,0,67601,68301,A
Sprite,Foreground,Centre,"SB\dot.png",320,240 M,0,67601,68301,379,236,361,256 F,0,67601,68301,0.9,0.6 S,0,67601,68301,0.25,0.1 P,0,67601,68301,A
Sprite,Foreground,Centre,"SB\dot.png",320,240 M,0,67606,68306,379,236,351,219 F,0,67606,68306,0.9,0.6 S,0,67606,68306,0.25,0.1 P,0,67606,68306,A
Sprite,Foreground,Centre,"SB\dot.png",320,240 M,0,67611,68311,379,236,389,238 F,0,67611,68311,0.9,0.6 S,0,67611,68311,0.25,0.1 P,0,67611,68311,A
Sprite,Foreground,Centre,"SB\dot.png",320,240 M,0,67616,68316,379,236,396,254 F,0,67616,68316,0.9,0.6 S,0,67616,68316,0.25,0.1 P,0,67616,68316,A
Sprite,Foreground,Centre,"SB\dot.png",320,240 M,0,67621,68321,379,236,378,209 F,0,67621,68321,0.9,0.6 S,0,67621,68321,0.25,0.1 P,0,67621,68321,A
Sprite,Foreground,Centre,"SB\dot.png",320,240 M,0,67626,68326,379,236,374,196 F,0,67626,68326,0.9,0.6 S,0,67626,68326,0.25,0.1 P,0,67626,68326,A
Sprite,Foreground,Centre,"SB\dot.png",320,240 M,0,67631,68331,379,236,416,276 F,0,67631,68331,0.9,0.6 S,0,67631,68331,0.25,0.1 P,0,67631,68331,A
Sprite,Foreground,Centre,"SB\dot.png",320,240 M,0,67636,68336,379,236,342,258 F,0,67636,68336,0.9,0.6 S,0,67636,68336,0.25,0.1 P,0,67636,68336,A
Sprite,Foreground,Centre,"SB\dot.png",320,240 M,0,67641,68341,379,236,330,186 F,0,67641,68341,0.9,0.6 S,0,67641,68341,0.25,0.1 P,0,67641,68341,A
Sprite,Foreground,Centre,"SB\dot.png",320,240 M,0,67646,68346,379,236,413,276 F,0,67646,68346,0.9,0.6 S,0,67646,68346,0.25,0.1 P,0,67646,68346,A
Sprite,Foreground,Centre,"SB\spotlight.png",320,240 M,0,68755,,103,359 F,0,68755,69455,0.9,0.3 S,0,68755,69455,1.4,0.9 P,0,68755,69455,A
Sprite,Foreground,Centre,"SB\dot.png",320,240 M,0,68755,69455,103,359,53,310 F,0,68755,69455,0.9,0.6 S,0,68755,69455,0.25,0.1 P,0,68755,69455,A
Sprite,Foreground,Centre,"SB\dot.png",320,240 M,0,68760,69460,103,359,117,393 F,0,68760,69460,0.9,0.6 S,0,68760,69460,0.25,0.1 P,0,68760,69460,A
Sprite,Foreground,Centre,"SB\dot.png",320,240 M,0,68765,69465,103,359,129,331 F,0,68765,69465,0.9,0.6 S,0,68765,69465,0.25,0.1 P,0,68765,69465,A
Sprite,Foreground,Centre,"SB\dot.png",320,240 M,0,68770,69470,103,359,66,379 F,0,68770,69470,0.9,0.6 S,0,68770,69470,0.25,0.1 P,0,68770,69470,A
Sprite,Foreground,Centre,"SB\dot.png",320,240 M,0,68775,69475,103,359,106,373 F,0,68775,69475,0.9,0.6 S,0,68775,69475,0.25,0.1 P,0,68775,69475,A
Sprite,Foreground,Centre,"SB\dot.png",320,240 M,0,68780,69480,103,359,100,400 F,0,68780,69480,0.9,0.6 S,0,68780,69480,0.25,0.1 P,0,68780,69480,A
Sprite,Foreground,Centre,"SB\dot.png",320,240 M,0,68785,69485,103,359,125,386 F,0,68785,69485,0.9,0.6 S,0,68785,69485,0.25,0.1 P,0,68785,69485,A
Sprite,Foreground,Centre,"SB\dot.png",320,240 M,0,68790,69490,103,359,150,331 F,0,68790,69490,0.9,0.6 S,0,68790,69490,0.25,0.1 P,0,68790,69490,A
Sprite,Foreground,Centre,"SB\dot.png",320,240 M,0,68795,69495,103,359,69,316 F,0,68795,69495,0.9,0.6 S,0,68795,69495,0.25,0.1 P,0,68795,69495,A
Sprite,Foreground,Centre,"SB\dot.png",320,240 M,0,68800,69500,103,359,122,361 F,0,68800,69500,0.9,0.6 S,0,68800,69500,0.25,0.1 P,0,68800,69500,A
Sprite,Foreground,Centre,"SB\spotlight.png",320,240 M,0,69620,,325,308 F,0,69620,70320,0.9,0.3 S,0,69620,70320,1.4,0.9 P,0,69620,70320,A
Sprite,Foreground,Centre,"SB\dot.png",320,240 M,0,69620,70320,325,308,309,313 F,0,69620,70320,0.9,0.6 S,0,69620,70320,0.25,0.1 P,0,69620,70320,A
Sprite,Foreground,Centre,"SB\dot.png",320,240 M,0,69625,70325,325,308,355,347 F,0,69625,70325,0.9,0.6 S,0,69625,70325,0.25,0.1 P,0,69625,70325,A
Sprite,Foreground,Centre,"SB\dot.png",320,240 M,0,69630,70330,325,308,301,285 F,0,69630,70330,0.9,0.6 S,0,69630,70330,0.25,0.1 P,0,69630,70330,A
Sprite,Foreground,Centre,"SB\dot.png",320,240 M,0,69635,70335,325,308,303,259 F,0,69635,70335,0.9,0.6 S,0,69635,70335,0.25,0.1 P,0,69635,70335,A
Sprite,Foreground,Centre,"SB\dot.png",320,240 M,0,69640,70340,325,308,370,261 F,0,69640,70340,0.9,0.6 S,0,69640,70340,0.25,0.1 P,0,69640,70340,A
Sprite,Foreground,Centre,"SB\dot.png",320,240 M,0,69645,70345,325,308,279,309 F,0,69645,70345,0.9,0.6 S,0,69645,70345,0.25,0.1 P,0,69645,70345,A
Sprite,Foreground,Centre,"SB\dot.png",320,240 M,0,69650,70350,325,308,337,279 F,0,69650,70350,0.9,0.6 S,0,69650,70350,0.25,0.1 P,0,69650,70350,A
Sprite,Foreground,Centre,"SB\dot.png",320,240 M,0,69655,70355,325,308,324,289 F,0,69655,70355,0.9,0.6 S,0,69655,70355,0.25,0.1 P,0,69655,70355,A
Sprite,Foreground,Centre,"SB\dot.png",320,240 M,0,69660,70360,325,308,281,297 F,0,69660,70360,0.9,0.6 S,0,69660,70360,0.25,0.1 P,0,69660,70360,A
Sprite,Foreground,Centre,"SB\dot.png",320,240 M,0,69665,70365,325,308,333,296 F,0,69665,70365,0.9,0.6 S,0,69665,70365,0.25,0.1 P,0,69665,70365,A
Sprite,Foreground,Centre,"SB\spotlight.png",320,240 M,0,69909,,271,238 F,0,69909,70609,0.9,0.3 S,0,69909,70609,1.4,0.9 P,0,69909,70609,A
Sprite,Foreground,Centre,"SB\dot.png",320,240 M,0,69909,70609,271,238,259,285 F,0,69909,70609,0.9,0.6 S,0,69909,70609,0.25,0.1 P,0,69909,70609,A
Sprite,Foreground,Centre,"SB\dot.png",320,240 M,0,69914,70614,271,238,235,274 F,0,69914,70614,0.9,0.6 S,0,69914,70614,0.25,0.1 P,0,69914,70614,A
Sprite,Foreground,Centre,"SB\dot.png",320,240 M,0,69919,70619,271,238,297,243 F,0,69919,70619,0.9,0.6 S,0,69919,70619,0.25,0.1 P,0,69919,70619,A
Sprite,Foreground,Centre,"SB\dot.png",320,240 M,0,69924,70624,271,238,259,197 F,0,69924,70624,0.9,0.6 S,0,69924,70624,0.25,0.1 P,0,69924,70624,A
Sprite,Foreground,Centre,"SB\dot.png",320,240 M,0,69929,70629,271,238,314,279 F,0,69929,70629,0.9,0.6 S,0,69929,70629,0.25,0.1 P,0,69929,70629,A
Sprite,Foreground,Centre,"SB\dot.png",320,240 M,0,69934,70634,271,238,277,283 F,0,69934,70634,0.9,0.6 S,0,69934,70634,0.25,0.1 P,0,69934,70634,A
Sprite,Foreground,Centre,"SB\dot.png",320,240 M,0,69939,70639,271,238,253,220 F,0,69939,70639,0.9,0.6 S,0,69939,70639,0.25,0.1 P,0,69939,70639,A
Sprite,Foreground,Centre,"SB\dot.png",320,240 M,0,69944,70644,271,238,276,234 F,0,69944,70644,0.9,0.6 S,0,69944,70644,0.25,0.1 P,0,69944,70644,A
Sprite,Foreground,Centre,"SB\dot.png",320,240 M,0,69949,70649,271,238,242,263 F,0,69949,70649,0.9,0.6 S,0,69949,70649,0.25,0.1 P,0,69949,70649,A
Sprite,Foreground,Centre,"SB\dot.png",320,240 M,0,69954,70654,271,238,278,236 F,0,69954,70654,0.9,0.6 S,0,69954,70654,0.25,0.1 P,0,69954,70654,A
Sprite,Foreground,Centre,"SB\spotlight.png",320,240 M,0,70485,,179,136 F,0,70485,71185,0.9,0.3 S,0,70485,71185,1.4,0.9 P,0,70485,71185,A
Sprite,Foreground,Centre,"SB\dot.png",320,240 M,0,70485,71185,179,136,224,98 F,0,70485,71185,0.9,0.6 S,0,70485,71185,0.25,0.1 P,0,70485,71185,A
Sprite,Foreground,Centre,"SB\dot.png",320,240 M,0,70490,71190,179,136,204,135 F,0,70490,71190,0.9,0.6 S,0,70490,71190,0.25,0.1 P,0,70490,71190,A
Sprite,Foreground,Centre,"SB\dot.png",320,240 M,0,70495,71195,179,136,189,182 F,0,70495,71195,0.9,0.6 S,0,70495,71195,0.25,0.1 P,0,70495,71195,A
Sprite,Foreground,Centre,"SB\dot.png",320,240 M,0,70500,71200,179,136,158,136 F,0,70500,71200,0.9,0.6 S,0,70500,71200,0.25,0.1 P,0,70500,71200,A
Sprite,Foreground,Centre,"SB\dot.png",320,240 M,0,70505,71205,179,136,157,152 F,0,70505,71205,0.9,0.6 S,0,70505,71205,0.25,0.1 P,0,70505,71205,A
Sprite,Foreground,Centre,"SB\dot.png",320,240 M,0,70510,71210,179,136,145,163 F,0,70510,71210,0.9,0.6 S,0,70510,71210,0.25,0.1 P,0,70510,71210,A
Sprite,Foreground,Centre,"SB\dot.png",320,240 M,0,70515,71215,179,136,179,116 F,0,70515,71215,0.9,0.6 S,0,70515,71215,0.25,0.1 P,0,70515,71215,A
Sprite,Foreground,Centre,"SB\dot.png",320,240 M,0,70520,71220,179,136,142,123 F,0,70520,71220,0.9,0.6 S,0,70520,71220,0.25,0.1 P,0,70520,71220,A
Sprite,Foreground,Centre,"SB\dot.png",320,240 M,0,70525,71225,179,136,169,181 F,0,70525,71225,0.9,0.6 S,0,70525,71225,0.25,0.1 P,0,70525,71225,A
Sprite,Foreground,Centre,"SB\dot.png",320,240 M,0,70530,71230,179,136,142,158 F,0,70530,71230,0.9,0.6 S,0,70530,71230,0.25,0.1 P,0,70530,71230,A
Sprite,Foreground,Centre,"SB\spotlight.png",320,240 M,0,71062,,271,238 F,0,71062,71762,0.9,0.3 S,0,71062,71762,1.4,0.9 P,0,71062,71762,A
Sprite,Foreground,Centre,"SB\dot.png",320,240 M,0,71062,71762,271,238,310,206 F,0,71062,71762,0.9,0.6 S,0,71062,71762,0.25,0.1 P,0,71062,71762,A
Sprite,Foreground,Centre,"SB\dot.png",320,240 M,0,71067,71767,271,238,229,191 F,0,71067,71767,0.9,0.6 S,0,71067,71767,0.25,0.1 P,0,71067,71767,A
Sprite,Foreground,Centre,"SB\dot.png",320,240 M,0,71072,71772,271,238,269,198 F,0,71072,71772,0.9,0.6 S,0,71072,71772,0.25,0.1 P,0,71072,71772,A
Sprite,Foreground,Centre,"SB\dot.png",320,240 M,0,71077,71777,271,238,240,218 F,0,71077,71777,0.9,0.6 S,0,71077,71777,0.25,0.1 P,0,71077,71777,A
Sprite,Foreground,Centre,"SB\dot.png",320,240 M,0,71082,71782,271,238,288,190 F,0,71082,71782,0.9,0.6 S,0,71082,71782,0.25,0.1 P,0,71082,71782,A
Sprite,Foreground,Centre,"SB\dot.png",320,240 M,0,71087,71787,271,238,230,220 F,0,71087,71787,0.9,0.6 S,0,71087,71787,0.25,0.1 P,0,71087,71787,A
Sprite,Foreground,Centre,"SB\dot.png",320,240 M,0,71092,71792,271,238,303,197 F,0,71092,71792,0.9,0.6 S,0,71092,71792,0.25,0.1 P,0,71092,71792,A
Sprite,Foreground,Centre,"SB\dot.png",320,240 M,0,71097,71797,271,238,265,213 F,0,71097,71797,0.9,0.6 S,0,71097,71797,0.25,0.1 P,0,71097,71797,A
Sprite,Foreground,Centre,"SB\dot.png",320,240 M,0,71102,71802,271,238,242,254 F,0,71102,71802,0.9,0.6 S,0,71102,71802,0.25,0.1 P,0,71102,71802,A
Sprite,Foreground,Centre,"SB\dot.png",320,240 M,0,71107,71807,271,238,246,269 F,0,71107,71807,0.9,0.6 S,0,71107,71807,0.25,0.1 P,0,71107,71807,A
Sprite,Foreground,Centre,"SB\spotlight.png",320,240 M,0,72216,,185,215 F,0,72216,72916,0.9,0.3 S,0,72216,72916,1.4,0.9 P,0,72216,72916,A
Sprite,Foreground,Centre,"SB\dot.png",320,240 M,0,72216,72916,185,215,161,254 F,0,72216,72916,0.9,0.6 S,0,72216,72916,0.25,0.1 P,0,72216,72916,A
Sprite,Foreground,Centre,"SB\dot.png",320,240 M,0,72221,72921,185,215,216,192 F,0,72221,72921,0.9,0.6 S,0,72221,72921,0.25,0.1 P,0,72221,72921,A
Sprite,Foreground,Centre,"SB\dot.png",320,240 M,0,72226,72926,185,215,210,245 F,0,72226,72926,0.9,0.6 S,0,72226,72926,0.25,0.1 P,0,72226,72926,A
Sprite,Foreground,Centre,"SB\dot.png",320,240 M,0,72231,72931,185,215,179,166 F,0,72231,72931,0.9,0.6 S,0,72231,72931,0.25,0.1 P,0,72231,72931,A
Sprite,Foreground,Centre,"SB\dot.png",320,240 M,0,72236,72936,185,215,153,182 F,0,72236,72936,0.9,0.6 S,0,72236,72936,0.25,0.1 P,0,72236,72936,A
Sprite,Foreground,Centre,"SB\dot.png",320,240 M,0,72241,72941,185,215,141,191 F,0,72241,72941,0.9,0.6 S,0,72241,72941,0.25,0.1 P,0,72241,72941,A
Sprite,Foreground,Centre,"SB\dot.png",320,240 M,0,72246,72946,185,215,197,251 F,0,72246,72946,0.9,0.6 S,0,72246,72946,0.25,0.1 P,0,72246,72946,A
Sprite,Foreground,Centre,"SB\dot.png",320,240 M,0,72251,72951,185,215,195,241 F,0,72251,72951,0.9,0.6 S,0,72251,72951,0.25,0.1 P,0,72251,72951,A
Sprite,Foreground,Centre,"SB\dot.png",320,240 M,0,72256,72956,185,215,139,237 F,0,72256,72956,0.9,0.6 S,0,72256,72956,0.25,0.1 P,0,72256,72956,A
Sprite,Foreground,Centre,"SB\dot.png",320,240 M,0,72261,72961,185,215,136,215 F,0,72261,72961,0.9,0.6 S,0,72261,72961,0.25,0.1 P,0,72261,72961,A
Sprite,Foreground,Centre,"SB\spotlight.png",320,240 M,0,72793,,248,354 F,0,72793,73493,0.9,0.3 S,0,72793,73493,1.4,0.9 P,0,72793,73493,A
Sprite,Foreground,Centre,"SB\dot.png",320,240 M,0,72793,73493,248,354,274,403 F,0,72793,73493,0.9,0.6 S,0,72793,73493,0.25,0.1 P,0,72793,73493,A
Sprite,Foreground,Centre,"SB\dot.png",320,240 M,0,72798,73498,248,354,282,330 F,0,72798,73498,0.9,0.6 S,0,72798,73498,0.25,0.1 P,0,72798,73498,A
Sprite,Foreground,Centre,"SB\dot.png",320,240 M,0,72803,73503,248,354,254,389 F,0,72803,73503,0.9,0.6 S,0,72803,73503,0.25,0.1 P,0,72803,73503,A
Sprite,Foreground,Centre,"SB\dot.png",320,240 M,0,72808,73508,248,354,293,345 F,0,72808,73508,0.9,0.6 S,0,72808,73508,0.25,0.1 P,0,72808,73508,A
Sprite,Foreground,Centre,"SB\dot.png",320,240 M,0,72813,73513,248,354,285,392 F,0,72813,73513,0.9,0.6 S,0,72813,73513,0.25,0.1 P,0,72813,73513,A
Sprite,Foreground,Centre,"SB\dot.png",320,240 M,0,72818,73518,248,354,213,379 F,0,72818,73518,0.9,0.6 S,0,72818,73518,0.25,0.1 P,0,72818,73518,A
Sprite,Foreground,Centre,"SB\dot.png",320,240 M,0,72823,73523,248,354,267,336 F,0,72823,73523,0.9,0.6 S,0,72823,73523,0.25,0.1 P,0,72823,73523,A
Sprite,Foreground,Centre,"SB\dot.png",320,240 M,0,72828,73528,248,354,243,304 F,0,72828,73528,0.9,0.6 S,0,72828,73528,0.25,0.1 P,0,72828,73528,A
Sprite,Foreground,Centre,"SB\dot.png",320,240 M,0,72833,73533,248,354,236,386 F,0,72833,73533,0.9,0.6 S,0,72833,73533,0.25,0.1 P,0,72833,73533,A
Sprite,Foreground,Centre,"SB\dot.png",320,240 M,0,72838,73538,248,354,227,372 F,0,72838,73538,0.9,0.6 S,0,72838,73538,0.25,0.1 P,0,72838,73538,A
Sprite,Foreground,Centre,"SB\spotlight.png",320,240 M,0,73370,,405,311 F,0,73370,74070,0.9,0.3 S,0,73370,74070,1.4,0.9 P,0,73370,74070,A
Sprite,Foreground,Centre,"SB\dot.png",320,240 M,0,73370,74070,405,311,421,279 F,0,73370,74070,0.9,0.6 S,0,73370,74070,0.25,0.1 P,0,73370,74070,A
Sprite,Foreground,Centre,"SB\dot.png",320,240 M,0,73375,74075,405,311,366,310 F,0,73375,74075,0.9,0.6 S,0,73375,74075,0.25,0.1 P,0,73375,74075,A
Sprite,Foreground,Centre,"SB\dot.png",320,240 M,0,73380,74080,405,311,452,344 F,0,73380,74080,0.9,0.6 S,0,73380,74080,0.25,0.1 P,0,73380,74080,A
Sprite,Foreground,Centre,"SB\dot.png",320,240 M,0,73385,74085,405,311,425,358 F,0,73385,74085,0.9,0.6 S,0,73385,74085,0.25,0.1 P,0,73385,74085,A
Sprite,Foreground,Centre,"SB\dot.png",320,240 M,0,73390,74090,405,311,404,330 F,0,73390,74090,0.9,0.6 S,0,73390,74090,0.25,0.1 P,0,73390,74090,A
Sprite,Foreground,Centre,"SB\dot.png",320,240 M,0,73395,74095,405,311,376,311 F,0,73395,74095,0.9,0.6 S,0,73395,74095,0.25,0.1 P,0,73395,74095,A
Sprite,Foreground,Centre,"SB\dot.png",320,240 M,0,73400,74100,405,311,420,337 F,0,73400,74100,0.9,0.6 S,0,73400,74100,0.25,0.1 P,0,73400,74100,A
Sprite,Foreground,Centre,"SB\dot.png",320,240 M,0,73405,74105,405,311,359,288 F,0,73405,74105,0.9,0.6 S,0,73405,74105,0.25,0.1 P,0,73405,74105,A
Sprite,Foreground,Centre,"SB\dot.png",320,240 M,0,73410,74110,405,311,360,316 F,0,73410,74110,0.9,0.6 S,0,73410,74110,0.25,0.1 P,0,73410,74110,A
Sprite,Foreground,Centre,"SB\dot.png",320,240 M,0,73415,74115,405,311,426,352 F,0,73415,74115,0.9,0.6 S,0,73415,74115,0.25,0.1 P,0,73415,74115,A
Sprite,Foreground,Centre,"SB\spotlight.png",320,240 M,0,74524,,328,354 F,0,74524,75224,0.9,0.3 S,0,74524,75224,1.4,0.9 P,0,74524,75224,A
Sprite,Foreground,Centre,"SB\dot.png",320,240 M,0,74524,75224,328,354,363,307 F,0,74524,75224,0.9,0.6 S,0,74524,75224,0.25,0.1 P,0,74524,75224,A
Sprite,Foreground,Centre,"SB\dot.png",320,240 M,0,74529,75229,328,354,292,334 F,0,74529,75229,0.9,0.6 S,0,74529,75229,0.25,0.1 P,0,74529,75229,A
Sprite,Foreground,Centre,"SB\dot.png",320,240 M,0,74534,75234,328,354,280,335 F,0,74534,75234,0.9,0.6 S,0,74534,75234,0.25,0.1 P,0,74534,75234,A
Sprite,Foreground,Centre,"SB\dot.png",320,240 M,0,74539,75239,328,354,335,333 F,0,74539,75239,0.9,0.6 S,0,74539,75239,0.25,0.1 P,0,74539,75239,A
Sprite,Foreground,Centre,"SB\dot.png",320,240 M,0,74544,75244,328,354,318,364 F,0,74544,75244,0.9,0.6 S,0,74544,75244,0.25,0.1 P,0,74544,75244,A
Sprite,Foreground,Centre,"SB\dot.png",320,240 M,0,74549,75249,328,354,315,327 F,0,74549,75249,0.9,0.6 S,0,74549,75249,0.25,0.1 P,0,74549,75249,A
Sprite,Foreground,Centre,"SB\dot.png",320,240 M,0,74554,75254,328,354,321,337 F,0,74554,75254,0.9,0.6 S,0,74554,75254,0.25,0.1 P,0,74554,75254,A
Sprite,Foreground,Centre,"SB\dot.png",320,240 M,0,74559,75259,328,354,362,362 F,0,74559,75259,0.9,0.6 S,0,74559,75259,0.25,0.1 P,0,74559,75259,A
Sprite,Foreground,Centre,"SB\dot.png",320,240 M,0,74564,75264,328,354,365,339 F,0,74564,75264,0.9,0.6 S,0,74564,75264,0.25,0.1 P,0,74564,75264,A
Sprite,Foreground,Centre,"SB\dot.png",320,240 M,0,74569,75269,328,354,307,377 F,0,74569,75269,0.9,0.6 S,0,74569,75269,0.25,0.1 P,0,74569,75269,A
Sprite,Foreground,Centre,"SB\spotlight.png",320,240 M,0,75101,,186,292 F,0,75101,75801,0.9,0.3 S,0,75101,75801,1.4,0.9 P,0,75101,75801,A
Sprite,Foreground,Centre,"SB\dot.png",320,240 M,0,75101,75801,186,292,150,341 F,0,75101,75801,0.9,0.6 S,0,75101,75801,0.25,0.1 P,0,75101,75801,A
Sprite,Foreground,Centre,"SB\dot.png",320,240 M,0,75106,75806,186,292,228,260 F,0,75106,75806,0.9,0.6 S,0,75106,75806,0.25,0.1 P,0,75106,75806,A
Sprite,Foreground,Centre,"SB\dot.png",320,240 M,0,75111,75811,186,292,203,308 F,0,75111,75811,0.9,0.6 S,0,75111,75811,0.25,0.1 P,0,75111,75811,A
Sprite,Foreground,Centre,"SB\dot.png",320,240 M,0,75116,75816,186,292,146,335 F,0,75116,75816,0.9,0.6 S,0,75116,75816,0.25,0.1 P,0,75116,75816,A
Sprite,Foreground,Centre,"SB\dot.png",320,240 M,0,75121,75821,186,292,164,260 F,0,75121,75821,0.9,0.6 S,0,75121,75821,0.25,0.1 P,0,75121,75821,A
Sprite,Foreground,Centre,"SB\dot.png",320,240 M,0,75126,75826,186,292,231,325 F,0,75126,75826,0.9,0.6 S,0,75126,75826,0.25,0.1 P,0,75126,75826,A
Sprite,Foreground,Centre,"SB\dot.png",320,240 M,0,75131,75831,186,292,146,280 F,0,75131,75831,0.9,0.6 S,0,75131,75831,0.25,0.1 P,0,75131,75831,A
Sprite,Foreground,Centre,"SB\dot.png",320,240 M,0,75136,75836,186,292,220,305 F,0,75136,75836,0.9,0.6 S,0,75136,75836,0.25,0.1 P,0,75136,75836,A
Sprite,Foreground,Centre,"SB\dot.png",320,240 M,0,75141,75841,186,292,139,324 F,0,75141,75841,0.9,0.6 S,0,75141,75841,0.25,0.1 P,0,75141,75841,A
Sprite,Foreground,Centre,"SB\dot.png",320,240 M,0,75146,75846,186,292,182,307 F,0,75146,75846,0.9,0.6 S,0,75146,75846,0.25,0.1 P,0,75146,75846,A
Sprite,Foreground,Centre,"SB\spotlight.png",320,240 M,0,75678,,250,155 F,0,75678,76378,0.9,0.3 S,0,75678,76378,1.4,0.9 P,0,75678,76378,A
Sprite,Foreground,Centre,"SB\dot.png",320,240 M,0,75678,76378,250,155,226,146 F,0,75678,76378,0.9,0.6 S,0,75678,76378,0.25,0.1 P,0,75678,76378,A
Sprite,Foreground,Centre,"SB\dot.png",320,240 M,0,75683,76383,250,155,256,195 F,0,75683,76383,0.9,0.6 S,0,75683,76383,0.25,0.1 P,0,75683,76383,A
Sprite,Foreground,Centre,"SB\dot.png",320,240 M,0,75688,76388,250,155,231,204 F,0,75688,76388,0.9,0.6 S,0,75688,76388,0.25,0.1 P,0,75688,76388,A
Sprite,Foreground,Centre,"SB\dot.png",320,240 M,0,75693,76393,250,155,207,136 F,0,75693,76393,0.9,0.6 S,0,75693,76393,0.25,0.1 P,0,75693,76393,A
Sprite,Foreground,Centre,"SB\dot.png",320,240 M,0,75698,76398,250,155,293,152 F,0,75698,76398,0.9,0.6 S,0,75698,76398,0.25,0.1 P,0,75698,76398,A
Sprite,Foreground,Centre,"SB\dot.png",320,240 M,0,75703,76403,250,155,240,175 F,0,75703,76403,0.9,0.6 S,0,75703,76403,0.25,0.1 P,0,75703,76403,A
Sprite,Foreground,Centre,"SB\dot.png",320,240 M,0,75708,76408,250,155,225,203 F,0,75708,76408,0.9,0.6 S,0,75708,76408,0.25,0.1 P,0,75708,76408,A
Sprite,Foreground,Centre,"SB\dot.png",320,240 M,0,75713,76413,250,155,276,191 F,0,75713,76413,0.9,0.6 S,0,75713,76413,0.25,0.1 P,0,75713,76413,A
Sprite,Foreground,Centre,"SB\dot.png",320,240 M,0,75718,76418,250,155,211,202 F,0,75718,76418,0.9,0.6 S,0,75718,76418,0.25,0.1 P,0,75718,76418,A
Sprite,Foreground,Centre,"SB\dot.png",320,240 M,0,75723,76423,250,155,263,142 F,0,75723,76423,0.9,0.6 S,0,75723,76423,0.25,0.1 P,0,75723,76423,A
Sprite,Foreground,Centre,"SB\spotlight.png",320,240 M,0,76832,,184,215 F,0,76832,77532,0.9,0.3 S,0,76832,77532,1.4,0.9 P,0,76832,77532,A
Sprite,Foreground,Centre,"SB\dot.png",320,240 M,0,76832,77532,184,215,155,229 F,0,76832,77532,0.9,0.6 S,0,76832,77532,0.25,0.1 P,0,76832,77532,A
Sprite,Foreground,Centre,"SB\dot.png",320,240 M,0,76837,77537,184,215,135,187 F,0,76837,77537,0.9,0.6 S,0,76837,77537,0.25,0.1 P,0,76837,77537,A
Sprite,Foreground,Centre,"SB\dot.png",320,240 M,0,76842,77542,184,215,199,219 F,0,76842,77542,0.9,0.6 S,0,76842,77542,0.25,0.1 P,0,76842,77542,A
Sprite,Foreground,Centre,"SB\dot.png",320,240 M,0,76847,77547,184,215,146,169 F,0,76847,77547,0.9,0.6 S,0,76847,77547,0.25,0.1 P,0,76847,77547,A
Sprite,Foreground,Centre,"SB\dot.png",320,240 M,0,76852,77552,184,215,183,186 F,0,76852,77552,0.9,0.6 S,0,76852,77552,0.25,0.1 P,0,76852,77552,A
Sprite,Foreground,Centre,"SB\dot.png",320,240 M,0,76857,77557,184,215,188,170 F,0,76857,77557,0.9,0.6 S,0,76857,77557,0.25,0.1 P,0,76857,77557,A
Sprite,Foreground,Centre,"SB\dot.png",320,240 M,0,76862,77562,184,215,223,229 F,0,76862,77562,0.9,0.6 S,0,76862,77562,0.25,0.1 P,0,76862,77562,A
Sprite,Foreground,Centre,"SB\dot.png",320,240 M,0,76867,77567,184,215,181,238 F,0,76867,77567,0.9,0.6 S,0,76867,77567,0.25,0.1 P,0,76867,77567,A
Sprite,Foreground,Centre,"SB\dot.png",320,240 M,0,76872,77572,184,215,177,167 F,0,76872,77572,0.9,0.6 S,0,76872,77572,0.25,0.1 P,0,76872,77572,A
Sprite,Foreground,Centre,"SB\dot.png",320,240 M,0,76877,77577,184,215,222,234 F,0,76877,77577,0.9,0.6 S,0,76877,77577,0.25,0.1 P,0,76877,77577,A
Sprite,Foreground,Centre,"SB\spotlight.png",320,240 M,0,77409,,86,305 F,0,77409,78109,0.9,0.3 S,0,77409,78109,1.4,0.9 P,0,77409,78109,A
Sprite,Foreground,Centre,"SB\dot.png",320,240 M,0,77409,78109,86,305,94,334 F,0,77409,78109,0.9,0.6 S,0,77409,78109,0.25,0.1 P,0,77409,78109,A
Sprite,Foreground,Centre,"SB\dot.png",320,240 M,0,77414,78114,86,305,36,336 F,0,77414,78114,0.9,0.6 S,0,77414,78114,0.25,0.1 P,0,77414,78114,A
Sprite,Foreground,Centre,"SB\dot.png",320,240 M,0,77419,78119,86,305,115,279 F,0,77419,78119,0.9,0.6 S,0,77419,78119,0.25,0.1 P,0,77419,78119,A
Sprite,Foreground,Centre,"SB\dot.png",320,240 M,0,77424,78124,86,305,93,267 F,0,77424,78124,0.9,0.6 S,0,77424,78124,0.25,0.1 P,0,77424,78124,A
Sprite,Foreground,Centre,"SB\dot.png",320,240 M,0,77429,78129,86,305,99,353 F,0,77429,78129,0.9,0.6 S,0,77429,78129,0.25,0.1 P,0,77429,78129,A
Sprite,Foreground,Centre,"SB\dot.png",320,240 M,0,77434,78134,86,305,88,262 F,0,77434,78134,0.9,0.6 S,0,77434,78134,0.25,0.1 P,0,77434,78134,A
Sprite,Foreground,Centre,"SB\dot.png",320,240 M,0,77439,78139,86,305,54,264 F,0,77439,78139,0.9,0.6 S,0,77439,78139,0.25,0.1 P,0,77439,78139,A
Sprite,Foreground,Centre,"SB\dot.png",320,240 M,0,77444,78144,86,305,79,317 F,0,77444,78144,0.9,0.6 S,0,77444,78144,0.25,0.1 P,0,77444,78144,A
Sprite,Foreground,Centre,"SB\dot.png",320,240 M,0,77449,78149,86,305,76,288 F,0,77449,78149,0.9,0.6 S,0,77449,78149,0.25,0.1 P,0,77449,78149,A
Sprite,Foreground,Centre,"SB\dot.png",320,240 M,0,77454,78154,86,305,60,332 F,0,77454,78154,0.9,0.6 S,0,77454,78154,0.25,0.1 P,0,77454,78154,A
Sprite,Foreground,Centre,"SB\spotlight.png",320,240 M,0,77985,,250,325 F,0,77985,78685,0.9,0.3 S,0,77985,78685,1.4,0.9 P,0,77985,78685,A
Sprite,Foreground,Centre,"SB\dot.png",320,240 M,0,77985,78685,250,325,286,277 F,0,77985,78685,0.9,0.6 S,0,77985,78685,0.25,0.1 P,0,77985,78685,A
Sprite,Foreground,Centre,"SB\dot.png",320,240 M,0,77990,78690,250,325,283,346 F,0,77990,78690,0.9,0.6 S,0,77990,78690,0.25,0.1 P,0,77990,78690,A
Sprite,Foreground,Centre,"SB\dot.png",320,240 M,0,77995,78695,250,325,294,309 F,0,77995,78695,0.9,0.6 S,0,77995,78695,0.25,0.1 P,0,77995,78695,A
Sprite,Foreground,Centre,"SB\dot.png",320,240 M,0,78000,78700,250,325,282,336 F,0,78000,78700,0.9,0.6 S,0,78000,78700,0.25,0.1 P,0,78000,78700,A
Sprite,Foreground,Centre,"SB\dot.png",320,240 M,0,78005,78705,250,325,250,278 F,0,78005,78705,0.9,0.6 S,0,78005,78705,0.25,0.1 P,0,78005,78705,A
Sprite,Foreground,Centre,"SB\dot.png",320,240 M,0,78010,78710,250,325,243,283 F,0,78010,78710,0.9,0.6 S,0,78010,78710,0.25,0.1 P,0,78010,78710,A
Sprite,Foreground,Centre,"SB\dot.png",320,240 M,0,78015,78715,250,325,208,370 F,0,78015,78715,0.9,0.6 S,0,78015,78715,0.25,0.1 P,0,78015,78715,A
Sprite,Foreground,Centre,"SB\dot.png",320,240 M,0,78020,78720,250,325,279,318 F,0,78020,78720,0.9,0.6 S,0,78020,78720,0.25,0.1 P,0,78020,78720,A
Sprite,Foreground,Centre,"SB\dot.png",320,240 M,0,78025,78725,250,325,264,295 F,0,78025,78725,0.9,0.6 S,0,78025,78725,0.25,0.1 P,0,78025,78725,A
Sprite,Foreground,Centre,"SB\dot.png",320,240 M,0,78030,78730,250,325,243,315 F,0,78030,78730,0.9,0.6 S,0,78030,78730,0.25,0.1 P,0,78030,78730,A
Sprite,Foreground,Centre,"SB\spotlight.png",320,240 M,0,78851,,477,273 F,0,78851,79551,0.9,0.3 S,0,78851,79551,1.4,0.9 P,0,78851,79551,A
Sprite,Foreground,Centre,"SB\dot.png",320,240 M,0,78851,79551,477,273,524,323 F,0,78851,79551,0.9,0.6 S,0,78851,79551,0.25,0.1 P,0,78851,79551,A
Sprite,Foreground,Centre,"SB\dot.png",320,240 M,0,78856,79556,477,273,469,275 F,0,78856,79556,0.9,0.6 S,0,78856,79556,0.25,0.1 P,0,78856,79556,A
Sprite,Foreground,Centre,"SB\dot.png",320,240 M,0,78861,79561,477,273,497,269 F,0,78861,79561,0.9,0.6 S,0,78861,79561,0.25,0.1 P,0,78861,79561,A
Sprite,Foreground,Centre,"SB\dot.png",320,240 M,0,78866,79566,477,273,514,302 F,0,78866,79566,0.9,0.6 S,0,78866,79566,0.25,0.1 P,0,78866,79566,A
Sprite,Foreground,Centre,"SB\dot.png",320,240 M,0,78871,79571,477,273,448,309 F,0,78871,79571,0.9,0.6 S,0,78871,79571,0.25,0.1 P,0,78871,79571,A
Sprite,Foreground,Centre,"SB\dot.png",320,240 M,0,78876,79576,477,273,459,232 F,0,78876,79576,0.9,0.6 S,0,78876,79576,0.25,0.1 P,0,78876,79576,A
Sprite,Foreground,Centre,"SB\dot.png",320,240 M,0,78881,79581,477,273,506,233 F,0,78881,79581,0.9,0.6 S,0,78881,79581,0.25,0.1 P,0,78881,79581,A
Sprite,Foreground,Centre,"SB\dot.png",320,240 M,0,78886,79586,477,273,511,279 F,0,78886,79586,0.9,0.6 S,0,78886,79586,0.25,0.1 P,0,78886,79586,A
Sprite,Foreground,Centre,"SB\dot.png",320,240 M,0,78891,79591,477,273,523,252 F,0,78891,79591,0.9,0.6 S,0,78891,79591,0.25,0.1 P,0,78891,79591,A
Sprite,Foreground,Centre,"SB\dot.png",320,240 M,0,78896,79596,477,273,515,267 F,0,78896,79596,0.9,0.6 S,0,78896,79596,0.25,0.1 P,0,78896,79596,A
Sprite,Foreground,Centre,"SB\spotlight.png",320,240 M,0,79139,,413,211 F,0,79139,79839,0.9,0.3 S,0,79139,79839,1.4,0.9 P,0,79139,79839,A
Sprite,Foreground,Centre,"SB\dot.png",320,240 M,0,79139,79839,413,211,406,258 F,0,79139,79839,0.9,0.6 S,0,79139,79839,0.25,0.1 P,0,79139,79839,A
Sprite,Foreground,Centre,"SB\dot.png",320,240 M,0,79144,79844,413,211,426,220 F,0,79144,79844,0.9,0.6 S,0,79144,79844,0.25,0.1 P,0,79144,79844,A
Sprite,Foreground,Centre,"SB\dot.png",320,240 M,0,79149,79849,413,211,418,204 F,0,79149,79849,0.9,0.6 S,0,79149,79849,0.25,0.1 P,0,79149,79849,A
Sprite,Foreground,Centre,"SB\dot.png",320,240 M,0,79154,79854,413,211,462,185 F,0,79154,79854,0.9,0.6 S,0,79154,79854,0.25,0.1 P,0,79154,79854,A
Sprite,Foreground,Centre,"SB\dot.png",320,240 M,0,79159,79859,413,211,394,261 F,0,79159,79859,0.9,0.6 S,0,79159,79859,0.25,0.1 P,0,79159,79859,A
Sprite,Foreground,Centre,"SB\dot.png",320,240 M,0,79164,79864,413,211,462,181 F,0,79164,79864,0.9,0.6 S,0,79164,79864,0.25,0.1 P,0,79164,79864,A
Sprite,Foreground,Centre,"SB\dot.png",320,240 M,0,79169,79869,413,211,453,245 F,0,79169,79869,0.9,0.6 S,0,79169,79869,0.25,0.1 P,0,79169,79869,A
Sprite,Foreground,Centre,"SB\dot.png",320,240 M,0,79174,79874,413,211,443,247 F,0,79174,79874,0.9,0.6 S,0,79174,79874,0.25,0.1 P,0,79174,79874,A
Sprite,Foreground,Centre,"SB\dot.png",320,240 M,0,79179,79879,413,211,424,191 F,0,79179,79879,0.9,0.6 S,0,79179,79879,0.25,0.1 P,0,79179,79879,A
Sprite,Foreground,Centre,"SB\dot.png",320,240 M,0,79184,79884,413,211,364,208 F,0,79184,79884,0.9,0.6 S,0,79184,79884,0.25,0.1 P,0,79184,79884,A
Sprite,Foreground,Centre,"SB\spotlight.png",320,240 M,0,79716,,323,98 F,0,79716,80416,0.9,0.3 S,0,79716,80416,1.4,0.9 P,0,79716,80416,A
Sprite,Foreground,Centre,"SB\dot.png",320,240 M,0,79716,80416,323,98,321,51 F,0,79716,80416,0.9,0.6 S,0,79716,80416,0.25,0.1 P,0,79716,80416,A
Sprite,Foreground,Centre,"SB\dot.png",320,240 M,0,79721,80421,323,98,313,113 F,0,79721,80421,0.9,0.6 S,0,79721,80421,0.25,0.1 P,0,79721,80421,A
Sprite,Foreground,Centre,"SB\dot.png",320,240 M,0,79726,80426,323,98,344,81 F,0,79726,80426,0.9,0.6 S,0,79726,80426,0.25,0.1 P,0,79726,80426,A
Sprite,Foreground,Centre,"SB\dot.png",320,240 M,0,79731,80431,323,98,302,147 F,0,79731,80431,0.9,0.6 S,0,79731,80431,0.25,0.1 P,0,79731,80431,A
Sprite,Foreground,Centre,"SB\dot.png",320,240 M,0,79736,80436,323,98,284,70 F,0,79736,80436,0.9,0.6 S,0,79736,80436,0.25,0.1 P,0,79736,80436,A
Sprite,Foreground,Centre,"SB\dot.png",320,240 M,0,79741,80441,323,98,320,82 F,0,79741,80441,0.9,0.6 S,0,79741,80441,0.25,0.1 P,0,79741,80441,A
Sprite,Foreground,Centre,"SB\dot.png",320,240 M,0,79746,80446,323,98,305,148 F,0,79746,80446,0.9,0.6 S,0,79746,80446,0.25,0.1 P,0,79746,80446,A
Sprite,Foreground,Centre,"SB\dot.png",320,240 M,0,79751,80451,323,98,371,48 F,0,79751,80451,0.9,0.6 S,0,79751,80451,0.25,0.1 P,0,79751,80451,A
Sprite,Foreground,Centre,"SB\dot.png",320,240 M,0,79756,80456,323,98,310,131 F,0,79756,80456,0.9,0.6 S,0,79756,80456,0.25,0.1 P,0,79756,80456,A
Sprite,Foreground,Centre,"SB\dot.png",320,240 M,0,79761,80461,323,98,371,74 F,0,79761,80461,0.9,0.6 S,0,79761,80461,0.25,0.1 P,0,79761,80461,A
Sprite,Foreground,Centre,"SB\spotlight.png",320,240 M,0,80293,,187,165 F,0,80293,80993,0.9,0.3 S,0,80293,80993,1.4,0.9 P,0,80293,80993,A
Sprite,Foreground,Centre,"SB\dot.png",320,240 M,0,80293,80993,187,165,185,177 F,0,80293,80993,0.9,0.6 S,0,80293,80993,0.25,0.1 P,0,80293,80993,A
Sprite,Foreground,Centre,"SB\dot.png",320,240 M,0,80298,80998,187,165,184,136 F,0,80298,80998,0.9,0.6 S,0,80298,80998,0.25,0.1 P,0,80298,80998,A
Sprite,Foreground,Centre,"SB\dot.png",320,240 M,0,80303,81003,187,165,225,127 F,0,80303,81003,0.9,0.6 S,0,80303,81003,0.25,0.1 P,0,80303,81003,A
Sprite,Foreground,Centre,"SB\dot.png",320,240 M,0,80308,81008,187,165,156,210 F,0,80308,81008,0.9,0.6 S,0,80308,81008,0.25,0.1 P,0,80308,81008,A
Sprite,Foreground,Centre,"SB\dot.png",320,240 M,0,80313,81013,187,165,168,213 F,0,80313,81013,0.9,0.6 S,0,80313,81013,0.25,0.1 P,0,80313,81013,A
Sprite,Foreground,Centre,"SB\dot.png",320,240 M,0,80318,81018,187,165,232,181 F,0,80318,81018,0.9,0.6 S,0,80318,81018,0.25,0.1 P,0,80318,81018,A
Sprite,Foreground,Centre,"SB\dot.png",320,240 M,0,80323,81023,187,165,165,156 F,0,80323,81023,0.9,0.6 S,0,80323,81023,0.25,0.1 P,0,80323,81023,A
Sprite,Foreground,Centre,"SB\dot.png",320,240 M,0,80328,81028,187,165,233,154 F,0,80328,81028,0.9,0.6 S,0,80328,81028,0.25,0.1 P,0,80328,81028,A
Sprite,Foreground,Centre,"SB\dot.png",320,240 M,0,80333,81033,187,165,193,214 F,0,80333,81033,0.9,0.6 S,0,80333,81033,0.25,0.1 P,0,80333,81033,A
Sprite,Foreground,Centre,"SB\dot.png",320,240 M,0,80338,81038,187,165,226,136 F,0,80338,81038,0.9,0.6 S,0,80338,81038,0.25,0.1 P,0,80338,81038,A
Sprite,Foreground,Centre,"SB\spotlight.png",320,240 M,0,80870,,256,299 F,0,80870,81570,0.9,0.3 S,0,80870,81570,1.4,0.9 P,0,80870,81570,A
Sprite,Foreground,Centre,"SB\dot.png",320,240 M,0,80870,81570,256,299,219,249 F,0,80870,81570,0.9,0.6 S,0,80870,81570,0.25,0.1 P,0,80870,81570,A
Sprite,Foreground,Centre,"SB\dot.png",320,240 M,0,80875,81575,256,299,219,257 F,0,80875,81575,0.9,0.6 S,0,80875,81575,0.25,0.1 P,0,80875,81575,A
Sprite,Foreground,Centre,"SB\dot.png",320,240 M,0,80880,81580,256,299,259,313 F,0,80880,81580,0.9,0.6 S,0,80880,81580,0.25,0.1 P,0,80880,81580,A
Sprite,Foreground,Centre,"SB\dot.png",320,240 M,0,80885,81585,256,299,294,340 F,0,80885,81585,0.9,0.6 S,0,80885,81585,0.25,0.1 P,0,80885,81585,A
Sprite,Foreground,Centre,"SB\dot.png",320,240 M,0,80890,81590,256,299,293,328 F,0,80890,81590,0.9,0.6 S,0,80890,81590,0.25,0.1 P,0,80890,81590,A
Sprite,Foreground,Centre,"SB\dot.png",320,240 M,0,80895,81595,256,299,254,328 F,0,80895,81595,0.9,0.6 S,0,80895,81595,0.25,0.1 P,0,80895,81595,A
Sprite,Foreground,Centre,"SB\dot.png",320,240 M,0,80900,81600,256,299,239,324 F,0,80900,81600,0.9,0.6 S,0,80900,81600,0.25,0.1 P,0,80900,81600,A
Sprite,Foreground,Centre,"SB\dot.png",320,240 M,0,80905,81605,256,299,306,336 F,0,80905,81605,0.9,0.6 S,0,80905,81605,0.25,0.1 P,0,80905,81605,A
Sprite,Foreground,Centre,"SB\dot.png",320,240 M,0,80910,81610,256,299,263,268 F,0,80910,81610,0.9,0.6 S,0,80910,81610,0.25,0.1 P,0,80910,81610,A
Sprite,Foreground,Centre,"SB\dot.png",320,240 M,0,80915,81615,256,299,283,307 F,0,80915,81615,0.9,0.6 S,0,80915,81615,0.25,0.1 P,0,80915,81615,A
Sprite,Foreground,Centre,"SB\spotlight.png",320,240 M,0,81447,,401,245 F,0,81447,82147,0.9,0.3 S,0,81447,82147,1.4,0.9 P,0,81447,82147,A
Sprite,Foreground,Centre,"SB\dot.png",320,240 M,0,81447,82147,401,245,365,230 F,0,81447,82147,0.9,0.6 S,0,81447,82147,0.25,0.1 P,0,81447,82147,A
Sprite,Foreground,Centre,"SB\dot.png",320,240 M,0,81452,82152,401,245,418,208 F,0,81452,82152,0.9,0.6 S,0,81452,82152,0.25,0.1 P,0,81452,82152,A
Sprite,Foreground,Centre,"SB\dot.png",320,240 M,0,81457,82157,401,245,379,277 F,0,81457,82157,0.9,0.6 S,0,81457,82157,0.25,0.1 P,0,81457,82157,A
Sprite,Foreground,Centre,"SB\dot.png",320,240 M,0,81462,82162,401,245,356,287 F,0,81462,82162,0.9,0.6 S,0,81462,82162,0.25,0.1 P,0,81462,82162,A
Sprite,Foreground,Centre,"SB\dot.png",320,240 M,0,81467,82167,401,245,354,254 F,0,81467,82167,0.9,0.6 S,0,81467,82167,0.25,0.1 P,0,81467,82167,A
Sprite,Foreground,Centre,"SB\dot.png",320,240 M,0,81472,82172,401,245,396,234 F,0,81472,82172,0.9,0.6 S,0,81472,82172,0.25,0.1 P,0,81472,82172,A
Sprite,Foreground,Centre,"SB\dot.png",320,240 M,0,81477,82177,401,245,445,272 F,0,81477,82177,0.9,0.6 S,0,81477,82177,0.25,0.1 P,0,81477,82177,A
Sprite,Foreground,Centre,"SB\dot.png",320,240 M,0,81482,82182,401,245,363,242 F,0,81482,82182,0.9,0.6 S,0,81482,82182,0.25,0.1 P,0,81482,82182,A
Sprite,Foreground,Centre,"SB\dot.png",320,240 M,0,81487,82187,401,245,400,233 F,0,81487,82187,0.9,0.6 S,0,81487,82187,0.25,0.1 P,0,81487,82187,A
Sprite,Foreground,Centre,"SB\dot.png",320,240 M,0,81492,82192,401,245,420,218 F,0,81492,82192,0.9,0.6 S,0,81492,82192,0.25,0.1 P,0,81492,82192,A
Sprite,Foreground,Centre,"SB\spotlight.png",320,240 M,0,82601,,332,300 F,0,82601,83301,0.9,0.3 S,0,82601,83301,1.4,0.9 P,0,82601,83301,A
Sprite,Foreground,Centre,"SB\dot.png",320,240 M,0,82601,83301,332,300,306,279 F,0,82601,83301,0.9,0.6 S,0,82601,83301,0.25,0.1 P,0,82601,83301,A
Sprite,Foreground,Centre,"SB\dot.png",320,240 M,0,82606,83306,332,300,290,303 F,0,82606,83306,0.9,0.6 S,0,82606,83306,0.25,0.1 P,0,82606,83306,A
Sprite,Foreground,Centre,"SB\dot.png",320,240 M,0,82611,83311,332,300,331,266 F,0,82611,83311,0.9,0.6 S,0,82611,83311,0.25,0.1 P,0,82611,83311,A
Sprite,Foreground,Centre,"SB\dot.png",320,240 M,0,82616,83316,332,300,314,303 F,0,82616,83316,0.9,0.6 S,0,82616,83316,0.25,0.1 P,0,82616,83316,A
Sprite,Foreground,Centre,"SB\dot.png",320,240 M,0,82621,83321,332,300,323,259 F,0,82621,83321,0.9,0.6 S,0,82621,83321,0.25,0.1 P,0,82621,83321,A
Sprite,Foreground,Centre,"SB\dot.png",320,240 M,0,82626,83326,332,300,365,286 F,0,82626,83326,0.9,0.6 S,0,82626,83326,0.25,0.1 P,0,82626,83326,A
Sprite,Foreground,Centre,"SB\dot.png",320,240 M,0,82631,83331,332,300,303,280 F,0,82631,83331,0.9,0.6 S,0,82631,83331,0.25,0.1 P,0,82631,83331,A
Sprite,Foreground,Centre,"SB\dot.png",320,240 M,0,82636,83336,332,300,288,329 F,0,82636,83336,0.9,0.6 S,0,82636,83336,0.25,0.1 P,0,82636,83336,A
Sprite,Foreground,Centre,"SB\dot.png",320,240 M,0,82641,83341,332,300,316,250 F,0,82641,83341,0.9,0.6 S,0,82641,83341,0.25,0.1 P,0,82641,83341,A
Sprite,Foreground,Centre,"SB\dot.png",320,240 M,0,82646,83346,332,300,363,321 F,0,82646,83346,0.9,0.6 S,0,82646,83346,0.25,0.1 P,0,82646,83346,A
Sprite,Foreground,Centre,"SB\spotlight.png",320,240 M,0,83178,,242,395 F,0,83178,83878,0.9,0.3 S,0,83178,83878,1.4,0.9 P,0,83178,83878,A
Sprite,Foreground,Centre,"SB\dot.png",320,240 M,0,83178,83878,242,395,250,442 F,0,83178,83878,0.9,0.6 S,0,83178,83878,0.25,0.1 P,0,83178,83878,A
Sprite,Foreground,Centre,"SB\dot.png",320,240 M,0,83183,83883,242,395,279,373 F,0,83183,83883,0.9,0.6 S,0,83183,83883,0.25,0.1 P,0,83183,83883,A
Sprite,Foreground,Centre,"SB\dot.png",320,240 M,0,83188,83888,242,395,225,354 F,0,83188,83888,0.9,0.6 S,0,83188,83888,0.25,0.1 P,0,83188,83888,A
Sprite,Foreground,Centre,"SB\dot.png",320,240 M,0,83193,83893,242,395,277,402 F,0,83193,83893,0.9,0.6 S,0,83193,83893,0.25,0.1 P,0,83193,83893,A
Sprite,Foreground,Centre,"SB\dot.png",320,240 M,0,83198,83898,242,395,255,398 F,0,83198,83898,0.9,0.6 S,0,83198,83898,0.25,0.1 P,0,83198,83898,A
Sprite,Foreground,Centre,"SB\dot.png",320,240 M,0,83203,83903,242,395,230,363 F,0,83203,83903,0.9,0.6 S,0,83203,83903,0.25,0.1 P,0,83203,83903,A
Sprite,Foreground,Centre,"SB\dot.png",320,240 M,0,83208,83908,242,395,243,398 F,0,83208,83908,0.9,0.6 S,0,83208,83908,0.25,0.1 P,0,83208,83908,A
Sprite,Foreground,Centre,"SB\dot.png",320,240 M,0,83213,83913,242,395,226,431 F,0,83213,83913,0.9,0.6 S,0,83213,83913,0.25,0.1 P,0,83213,83913,A
Sprite,Foreground,Centre,"SB\dot.png",320,240 M,0,83218,83918,242,395,218,359 F,0,83218,83918,0.9,0.6 S,0,83218,83918,0.25,0.1 P,0,83218,83918,A
Sprite,Foreground,Centre,"SB\dot.png",320,240 M,0,83223,83923,242,395,256,356 F,0,83223,83923,0.9,0.6 S,0,83223,83923,0.25,0.1 P,0,83223,83923,A
Sprite,Foreground,Centre,"SB\spotlight.png",320,240 M,0,83755,,206,235 F,0,83755,84455,0.9,0.3 S,0,83755,84455,1.4,0.9 P,0,83755,84455,A
Sprite,Foreground,Centre,"SB\dot.png",320,240 M,0,83755,84455,206,235,206,238 F,0,83755,84455,0.9,0.6 S,0,83755,84455,0.25,0.1 P,0,83755,84455,A
Sprite,Foreground,Centre,"SB\dot.png",320,240 M,0,83760,84460,206,235,206,280 F,0,83760,84460,0.9,0.6 S,0,83760,84460,0.25,0.1 P,0,83760,84460,A
Sprite,Foreground,Centre,"SB\dot.png",320,240 M,0,83765,84465,206,235,232,193 F,0,83765,84465,0.9,0.6 S,0,83765,84465,0.25,0.1 P,0,83765,84465,A
Sprite,Foreground,Centre,"SB\dot.png",320,240 M,0,83770,84470,206,235,174,248 F,0,83770,84470,0.9,0.6 S,0,83770,84470,0.25,0.1 P,0,83770,84470,A
Sprite,Foreground,Centre,"SB\dot.png",320,240 M,0,83775,84475,206,235,226,218 F,0,83775,84475,0.9,0.6 S,0,83775,84475,0.25,0.1 P,0,83775,84475,A
Sprite,Foreground,Centre,"SB\dot.png",320,240 M,0,83780,84480,206,235,169,234 F,0,83780,84480,0.9,0.6 S,0,83780,84480,0.25,0.1 P,0,83780,84480,A
Sprite,Foreground,Centre,"SB\dot.png",320,240 M,0,83785,84485,206,235,214,283 F,0,83785,84485,0.9,0.6 S,0,83785,84485,0.25,0.1 P,0,83785,84485,A
Sprite,Foreground,Centre,"SB\dot.png",320,240 M,0,83790,84490,206,235,221,212 F,0,83790,84490,0.9,0.6 S,0,83790,84490,0.25,0.1 P,0,83790,84490,A
Sprite,Foreground,Centre,"SB\dot.png",320,240 M,0,83795,84495,206,235,198,266 F,0,83795,84495,0.9,0.6 S,0,83795,84495,0.25,0.1 P,0,83795,84495,A
Sprite,Foreground,Centre,"SB\dot.png",320,240 M,0,83800,84500,206,235,175,225 F,0,83800,84500,0.9,0.6 S,0,83800,84500,0.25,0.1 P,0,83800,84500,A
Sprite,Foreground,Centre,"SB\spotlight.png",320,240 M,0,84476,,287,67 F,0,84476,85176,0.9,0.3 S,0,84476,85176,1.4,0.9 P,0,84476,85176,A
Sprite,Foreground,Centre,"SB\dot.png",320,240 M,0,84476,85176,287,67,269,92 F,0,84476,85176,0.9,0.6 S,0,84476,85176,0.25,0.1 P,0,84476,85176,A
Sprite,Foreground,Centre,"SB\dot.png",320,240 M,0,84481,85181,287,67,328,106 F,0,84481,85181,0.9,0.6 S,0,84481,85181,0.25,0.1 P,0,84481,85181,A
Sprite,Foreground,Centre,"SB\dot.png",320,240 M,0,84486,85186,287,67,309,81 F,0,84486,85186,0.9,0.6 S,0,84486,85186,0.25,0.1 P,0,84486,85186,A
Sprite,Foreground,Centre,"SB\dot.png",320,240 M,0,84491,85191,287,67,323,86 F,0,84491,85191,0.9,0.6 S,0,84491,85191,0.25,0.1 P,0,84491,85191,A
Sprite,Foreground,Centre,"SB\dot.png",320,240 M,0,84496,85196,287,67,334,38 F,0,84496,85196,0.9,0.6 S,0,84496,85196,0.25,0.1 P,0,84496,85196,A
Sprite,Foreground,Centre,"SB\dot.png",320,240 M,0,84501,85201,287,67,290,36 F,0,84501,85201,0.9,0.6 S,0,84501,85201,0.25,0.1 P,0,84501,85201,A
Sprite,Foreground,Centre,"SB\dot.png",320,240 M,0,84506,85206,287,67,273,86 F,0,84506,85206,0.9,0.6 S,0,84506,85206,0.25,0.1 P,0,84506,85206,A
Sprite,Foreground,Centre,"SB\dot.png",320,240 M,0,84511,85211,287,67,257,22 F,0,84511,85211,0.9,0.6 S,0,84511,85211,0.25,0.1 P,0,84511,85211,A
Sprite,Foreground,Centre,"SB\dot.png",320,240 M,0,84516,85216,287,67,284,110 F,0,84516,85216,0.9,0.6 S,0,84516,85216,0.25,0.1 P,0,84516,85216,A
Sprite,Foreground,Centre,"SB\dot.png",320,240 M,0,84521,85221,287,67,289,42 F,0,84521,85221,0.9,0.6 S,0,84521,85221,0.25,0.1 P,0,84521,85221,A
Sprite,Foreground,Centre,"SB\spotlight.png",320,240 M,0,84909,,320,256 F,0,84909,85609,0.9,0.3 S,0,84909,85609,1.4,0.9 P,0,84909,85609,A
Sprite,Foreground,Centre,"SB\dot.png",320,240 M,0,84909,85609,320,256,362,227 F,0,84909,85609,0.9,0.6 S,0,84909,85609,0.25,0.1 P,0,84909,85609,A
Sprite,Foreground,Centre,"SB\dot.png",320,240 M,0,84914,85614,320,256,358,235 F,0,84914,85614,0.9,0.6 S,0,84914,85614,0.25,0.1 P,0,84914,85614,A
Sprite,Foreground,Centre,"SB\dot.png",320,240 M,0,84919,85619,320,256,309,295 F,0,84919,85619,0.9,0.6 S,0,84919,85619,0.25,0.1 P,0,84919,85619,A
Sprite,Foreground,Centre,"SB\dot.png",320,240 M,0,84924,85624,320,256,330,259 F,0,84924,85624,0.9,0.6 S,0,84924,85624,0.25,0.1 P,0,84924,85624,A
Sprite,Foreground,Centre,"SB\dot.png",320,240 M,0,84929,85629,320,256,358,212 F,0,84929,85629,0.9,0.6 S,0,84929,85629,0.25,0.1 P,0,84929,85629,A
Sprite,Foreground,Centre,"SB\dot.png",320,240 M,0,84934,85634,320,256,313,252 F,0,84934,85634,0.9,0.6 S,0,84934,85634,0.25,0.1 P,0,84934,85634,A
Sprite,Foreground,Centre,"SB\dot.png",320,240 M,0,84939,85639,320,256,366,229 F,0,84939,85639,0.9,0.6 S,0,84939,85639,0.25,0.1 P,0,84939,85639,A
Sprite,Foreground,Centre,"SB\dot.png",320,240 M,0,84944,85644,320,256,350,281 F,0,84944,85644,0.9,0.6 S,0,84944,85644,0.25,0.1 P,0,84944,85644,A
Sprite,Foreground,Centre,"SB\dot.png",320,240 M,0,84949,85649,320,256,332,267 F,0,84949,85649,0.9,0.6 S,0,84949,85649,0.25,0.1 P,0,84949,85649,A
Sprite,Foreground,Centre,"SB\dot.png",320,240 M,0,84954,85654,320,256,292,218 F,0,84954,85654,0.9,0.6 S,0,84954,85654,0.25,0.1 P,0,84954,85654,A
Sprite,Foreground,Centre,"SB\triangle2.png",320,240 V,0,42216,42716,0.8,0.6,0.8,0 M,0,42216,46065,690,520,641,-50 F,0,42216,47216,0.58 R,0,42216,47216,5,14 C,0,42216,47216,220,54,155 P,0,42216,47216,A V,0,42716,43216,0.8,0,0.8,0.6 V,0,43216,43716,0.8,0.6,0.8,0 V,0,43716,44216,0.8,0,0.8,0.6 V,0,44216,44716,0.8,0.6,0.8,0 V,0,44716,45216,0.8,0,0.8,0.6 V,0,45216,45716,0.8,0.6,0.8,0 V,0,45716,46216,0.8,0,0.8,0.6 V,0,46216,46716,0.8,0.6,0.8,0 V,0,46716,47216,0.8,0,0.8,0.6
Sprite,Foreground,Centre,"SB\triangle2.png",320,240 V,0,42516,43016,1,0.5,1,0 M,0,42516,46105,508,520,603,-50 F,0,42516,47516,0.59 R,0,42516,47516,0,9 C,0,42516,47516,220,54,155 P,0,42516,47516,A V,0,43016,43516,1,0,1,0.5 V,0,43516,44016,1,0.5,1,0 V,0,44016,44516,1,0,1,0.5 V,0,44516,45016,1,0.5,1,0 V,0,45016,45516,1,0,1,0.5 V,0,45516,46016,1,0.5,1,0 V,0,46016,46516,1,0,1,0.5 V,0,46516,47016,1,0.5,1,0 V,0,47016,47516,1,0,1,0.5
Sprite,Foreground,Centre,"SB\triangle2.png",320,240 V,0,42816,43316,0.6,1,0.6,0 M,0,42816,46957,-196,520,-95,-50 F,0,42816,47816,0.49 R,0,42816,47816,1,8 C,0,42816,47816,220,54,155 P,0,42816,47816,A V,0,43316,43816,0.6,0,0.6,1 V,0,43816,44316,0.6,1,0.6,0 V,0,44316,44816,0.6,0,0.6,1 V,0,44816,45316,0.6,1,0.6,0 V,0,45316,45816,0.6,0,0.6,1 V,0,45816,46316,0.6,1,0.6,0 V,0,46316,46816,0.6,0,0.6,1 V,0,46816,47316,0.6,1,0.6,0 V,0,47316,47816,0.6,0,0.6,1
Sprite,Foreground,Centre,"SB\triangle2.png",320,240 V,0,43116,43616,0.6,1,0.6,0 M,0,43116,46657,696,520,603,-50 F,0,43116,48116,0.54 R,0,43116,48116,2,10 C,0,43116,48116,220,54,155 P,0,43116,48116,A V,0,43616,44116,0.6,0,0.6,1 V,0,44116,44616,0.6,1,0.6,0 V,0,44616,45116,0.6,0,0.6,1 V,0,45116,45616,0.6,1,0.6,0 V,0,45616,46116,0.6,0,0.6,1 V,0,46116,46616,0.6,1,0.6,0 V,0,46616,47116,0.6,0,0.6,1 V,0,47116,47616,0.6,1,0.6,0 V,0,47616,48116,0.6,0,0.6,1
Sprite,Foreground,Centre,"SB\triangle2.png",320,240 V,0,43416,43916,1.1,0.5,1.1,0 M,0,43416,48205,447,520,577,-50 F,0,43416,48416,0.48 R,0,43416,48416,3,11 C,0,43416,48416,220,54,155 P,0,43416,48416,A V,0,43916,44416,1.1,0,1.1,0.5 V,0,44416,44916,1.1,0.5,1.1,0 V,0,44916,45416,1.1,0,1.1,0.5 V,0,45416,45916,1.1,0.5,1.1,0 V,0,45916,46416,1.1,0,1.1,0.5 V,0,46416,46916,1.1,0.5,1.1,0 V,0,46916,47416,1.1,0,1.1,0.5 V,0,47416,47916,1.1,0.5,1.1,0 V,0,47916,48416,1.1,0,1.1,0.5
Sprite,Foreground,Centre,"SB\triangle2.png",320,240 V,0,43716,44216,1,0.8,1,0 M,0,43716,48441,-96,520,-223,-50 F,0,43716,48716,0.54 R,0,43716,48716,5,14 C,0,43716,48716,220,54,155 P,0,43716,48716,A V,0,44216,44716,1,0,1,0.8 V,0,44716,45216,1,0.8,1,0 V,0,45216,45716,1,0,1,0.8 V,0,45716,46216,1,0.8,1,0 V,0,46216,46716,1,0,1,0.8 V,0,46716,47216,1,0.8,1,0 V,0,47216,47716,1,0,1,0.8 V,0,47716,48216,1,0.8,1,0 V,0,48216,48716,1,0,1,0.8
Sprite,Foreground,Centre,"SB\triangle2.png",320,240 V,0,44016,44516,0.7,0.7,0.7,0 M,0,44016,48658,-189,520,-145,-50 F,0,44016,49016,0.61 R,0,44016,49016,4,14 C,0,44016,49016,220,54,155 P,0,44016,49016,A V,0,44516,45016,0.7,0,0.7,0.7 V,0,45016,45516,0.7,0.7,0.7,0 V,0,45516,46016,0.7,0,0.7,0.7 V,0,46016,46516,0.7,0.7,0.7,0 V,0,46516,47016,0.7,0,0.7,0.7 V,0,47016,47516,0.7,0.7,0.7,0 V,0,47516,48016,0.7,0,0.7,0.7 V,0,48016,48516,0.7,0.7,0.7,0 V,0,48516,49016,0.7,0,0.7,0.7
Sprite,Foreground,Centre,"SB\triangle2.png",320,240 V,0,44316,44816,0.8,0.5,0.8,0 M,0,44316,49019,20,520,49,-50 F,0,44316,49316,0.7 R,0,44316,49316,0,6 C,0,44316,49316,220,54,155 P,0,44316,49316,A V,0,44816,45316,0.8,0,0.8,0.5 V,0,45316,45816,0.8,0.5,0.8,0 V,0,45816,46316,0.8,0,0.8,0.5 V,0,46316,46816,0.8,0.5,0.8,0 V,0,46816,47316,0.8,0,0.8,0.5 V,0,47316,47816,0.8,0.5,0.8,0 V,0,47816,48316,0.8,0,0.8,0.5 V,0,48316,48816,0.8,0.5,0.8,0 V,0,48816,49316,0.8,0,0.8,0.5
Sprite,Foreground,Centre,"SB\triangle2.png",320,240 V,0,44616,45116,0.9,0.5,0.9,0 M,0,44616,48155,392,520,268,-50 F,0,44616,49616,0.6 R,0,44616,49616,5,13 C,0,44616,49616,220,54,155 P,0,44616,49616,A V,0,45116,45616,0.9,0,0.9,0.5 V,0,45616,46116,0.9,0.5,0.9,0 V,0,46116,46616,0.9,0,0.9,0.5 V,0,46616,47116,0.9,0.5,0.9,0 V,0,47116,47616,0.9,0,0.9,0.5 V,0,47616,48116,0.9,0.5,0.9,0 V,0,48116,48616,0.9,0,0.9,0.5 V,0,48616,49116,0.9,0.5,0.9,0 V,0,49116,49616,0.9,0,0.9,0.5
Sprite,Foreground,Centre,"SB\triangle2.png",320,240 V,0,44916,45416,1.1,0.5,1.1,0 M,0,44916,48095,83,520,197,-50 F,0,44916,49916,0.49 R,0,44916,49916,0,10 C,0,44916,49916,220,54,155 P,0,44916,49916,A V,0,45416,45916,1.1,0,1.1,0.5 V,0,45916,46416,1.1,0.5,1.1,0 V,0,46416,46916,1.1,0,1.1,0.5 V,0,46916,47416,1.1,0.5,1.1,0 V,0,47416,47916,1.1,0,1.1,0.5 V,0,47916,48416,1.1,0.5,1.1,0 V,0,48416,48916,1.1,0,1.1,0.5 V,0,48916,49416,1.1,0.5,1.1,0 V,0,49416,49916,1.1,0,1.1,0.5
Sprite,Foreground,Centre,"SB\triangle2.png",320,240 V,0,45216,45716,0.7,0.8,0.7,0 M,0,45216,49357,285,520,425,-50 F,0,45216,50216,0.6 R,0,45216,50216,1,9 C,0,45216,50216,220,54,155 P,0,45216,50216,A V,0,45716,46216,0.7,0,0.7,0.8 V,0,46216,46716,0.7,0.8,0.7,0 V,0,46716,47216,0.7,0,0.7,0.8 V,0,47216,47716,0.7,0.8,0.7,0 V,0,47716,48216,0.7,0,0.7,0.8 V,0,48216,48716,0.7,0.8,0.7,0 V,0,48716,49216,0.7,0,0.7,0.8 V,0,49216,49716,0.7,0.8,0.7,0 V,0,49716,50216,0.7,0,0.7,0.8
Sprite,Foreground,Centre,"SB\triangle2.png",320,240 V,0,45516,46016,0.7,0.5,0.7,0 M,0,45516,48996,57,520,51,-50 F,0,45516,50516,0.46 R,0,45516,50516,2,10 C,0,45516,50516,220,54,155 P,0,45516,50516,A V,0,46016,46516,0.7,0,0.7,0.5 V,0,46516,47016,0.7,0.5,0.7,0 V,0,47016,47516,0.7,0,0.7,0.5 V,0,47516,48016,0.7,0.5,0.7,0 V,0,48016,48516,0.7,0,0.7,0.5 V,0,48516,49016,0.7,0.5,0.7,0 V,0,49016,49516,0.7,0,0.7,0.5 V,0,49516,50016,0.7,0.5,0.7,0 V,0,50016,50516,0.7,0,0.7,0.5
Sprite,Foreground,Centre,"SB\triangle2.png",320,240 V,0,45816,46316,0.6,1,0.6,0 M,0,45816,49608,-116,520,-88,-50 F,0,45816,50816,0.51 R,0,45816,50816,4,10 C,0,45816,50816,220,54,155 P,0,45816,50816,A V,0,46316,46816,0.6,0,0.6,1 V,0,46816,47316,0.6,1,0.6,0 V,0,47316,47816,0.6,0,0.6,1 V,0,47816,48316,0.6,1,0.6,0 V,0,48316,48816,0.6,0,0.6,1 V,0,48816,49316,0.6,1,0.6,0 V,0,49316,49816,0.6,0,0.6,1 V,0,49816,50316,0.6,1,0.6,0 V,0,50316,50816,0.6,0,0.6,1
Sprite,Foreground,Centre,"SB\triangle2.png",320,240 V,0,46116,46616,0.8,1,0.8,0 M,0,46116,50674,288,520,473,-50 F,0,46116,51116,0.7 R,0,46116,51116,0,6 C,0,46116,51116,220,54,155 P,0,46116,51116,A V,0,46616,47116,0.8,0,0.8,1 V,0,47116,47616,0.8,1,0.8,0 V,0,47616,48116,0.8,0,0.8,1 V,0,48116,48616,0.8,1,0.8,0 V,0,48616,49116,0.8,0,0.8,1 V,0,49116,49616,0.8,1,0.8,0 V,0,49616,50116,0.8,0,0.8,1 V,0,50116,50616,0.8,1,0.8,0 V,0,50616,51116,0.8,0,0.8,1
Sprite,Foreground,Centre,"SB\triangle2.png",320,240 V,0,46416,46916,0.9,0.6,0.9,0 M,0,46416,49747,176,520,265,-50 F,0,46416,51416,0.69 R,0,46416,51416,2,11 C,0,46416,51416,220,54,155 P,0,46416,51416,A V,0,46916,47416,0.9,0,0.9,0.6 V,0,47416,47916,0.9,0.6,0.9,0 V,0,47916,48416,0.9,0,0.9,0.6 V,0,48416,48916,0.9,0.6,0.9,0 V,0,48916,49416,0.9,0,0.9,0.6 V,0,49416,49916,0.9,0.6,0.9,0 V,0,49916,50416,0.9,0,0.9,0.6 V,0,50416,50916,0.9,0.6,0.9,0 V,0,50916,51416,0.9,0,0.9,0.6
Sprite,Foreground,Centre,"SB\triangle2.png",320,240 V,0,46716,47216,1,0.9,1,0 M,0,46716,51512,106,520,156,-50 F,0,46716,51716,0.65 R,0,46716,51716,4,16 C,0,46716,51716,220,54,155 P,0,46716,51716,A V,0,47216,47716,1,0,1,0.9 V,0,47716,48216,1,0.9,1,0 V,0,48216,48716,1,0,1,0.9 V,0,48716,49216,1,0.9,1,0 V,0,49216,49716,1,0,1,0.9 V,0,49716,50216,1,0.9,1,0 V,0,50216,50716,1,0,1,0.9 V,0,50716,51216,1,0.9,1,0 V,0,51216,51716,1,0,1,0.9
Sprite,Foreground,Centre,"SB\triangle2.png",320,240 V,0,47016,47516,0.9,0.8,0.9,0 M,0,47016,51999,484,520,457,-50 F,0,47016,52016,0.57 R,0,47016,52016,6,13 C,0,47016,52016,220,54,155 P,0,47016,52016,A V,0,47516,48016,0.9,0,0.9,0.8 V,0,48016,48516,0.9,0.8,0.9,0 V,0,48516,49016,0.9,0,0.9,0.8 V,0,49016,49516,0.9,0.8,0.9,0 V,0,49516,50016,0.9,0,0.9,0.8 V,0,50016,50516,0.9,0.8,0.9,0 V,0,50516,51016,0.9,0,0.9,0.8 V,0,51016,51516,0.9,0.8,0.9,0 V,0,51516,52016,0.9,0,0.9,0.8
Sprite,Foreground,Centre,"SB\triangle2.png",320,240 V,0,47316,47816,0.8,0.9,0.8,0 M,0,47316,52257,536,520,544,-50 F,0,47316,52316,0.62 R,0,47316,52316,1,13 C,0,47316,52316,220,54,155 P,0,47316,52316,A V,0,47816,48316,0.8,0,0.8,0.9 V,0,48316,48816,0.8,0.9,0.8,0 V,0,48816,49316,0.8,0,0.8,0.9 V,0,49316,49816,0.8,0.9,0.8,0 V,0,49816,50316,0.8,0,0.8,0.9 V,0,50316,50816,0.8,0.9,0.8,0 V,0,50816,51316,0.8,0,0.8,0.9 V,0,51316,51816,0.8,0.9,0.8,0 V,0,51816,52316,0.8,0,0.8,0.9
Sprite,Foreground,Centre,"SB\triangle2.png",320,240 V,0,47616,48116,0.9,0.9,0.9,0 M,0,47616,52039,592,520,682,-50 F,0,47616,52616,0.67 R,0,47616,52616,4,10 C,0,47616,52616,220,54,155 P,0,47616,52616,A V,0,48116,48616,0.9,0,0.9,0.9 V,0,48616,49116,0.9,0.9,0.9,0 V,0,49116,49616,0.9,0,0.9,0.9 V,0,49616,50116,0.9,0.9,0.9,0 V,0,50116,50616,0.9,0,0.9,0.9 V,0,50616,51116,0.9,0.9,0.9,0 V,0,51116,51616,0.9,0,0.9,0.9 V,0,51616,52116,0.9,0.9,0.9,0 V,0,52116,52616,0.9,0,0.9,0.9
Sprite,Foreground,Centre,"SB\triangle2.png",320,240 V,0,47916,48416,0.6,0.8,0.6,0 M,0,47916,51450,105,520,29,-50 F,0,47916,52916,0.69 R,0,47916,52916,1,9 C,0,47916,52916,220,54,155 P,0,47916,52916,A V,0,48416,48916,0.6,0,0.6,0.8 V,0,48916,49416,0.6,0.8,0.6,0 V,0,49416,49916,0.6,0,0.6,0.8 V,0,49916,50416,0.6,0.8,0.6,0 V,0,50416,50916,0.6,0,0.6,0.8 V,0,50916,51416,0.6,0.8,0.6,0 V,0,51416,51916,0.6,0,0.6,0.8 V,0,51916,52416,0.6,0.8,0.6,0 V,0,52416,52916,0.6,0,0.6,0.8
Sprite,Foreground,Centre,"SB\triangle2.png",320,240 V,0,48216,48716,0.7,0.9,0.7,0 M,0,48216,51448,700,520,863,-50 F,0,48216,53216,0.47 R,0,48216,53216,5,16 C,0,48216,53216,220,54,155 P,0,48216,53216,A V,0,48716,49216,0.7,0,0.7,0.9 V,0,49216,49716,0.7,0.9,0.7,0 V,0,49716,50216,0.7,0,0.7,0.9 V,0,50216,50716,0.7,0.9,0.7,0 V,0,50716,51216,0.7,0,0.7,0.9 V,0,51216,51716,0.7,0.9,0.7,0 V,0,51716,52216,0.7,0,0.7,0.9 V,0,52216,52716,0.7,0.9,0.7,0 V,0,52716,53216,0.7,0,0.7,0.9
Sprite,Foreground,Centre,"SB\triangle2.png",320,240 V,0,48516,49016,1.1,1,1.1,0 M,0,48516,51824,676,520,521,-50 F,0,48516,53516,0.48 R,0,48516,53516,2,8 C,0,48516,53516,220,54,155 P,0,48516,53516,A V,0,49016,49516,1.1,0,1.1,1 V,0,49516,50016,1.1,1,1.1,0 V,0,50016,50516,1.1,0,1.1,1 V,0,50516,51016,1.1,1,1.1,0 V,0,51016,51516,1.1,0,1.1,1 V,0,51516,52016,1.1,1,1.1,0 V,0,52016,52516,1.1,0,1.1,1 V,0,52516,53016,1.1,1,1.1,0 V,0,53016,53516,1.1,0,1.1,1
Sprite,Foreground,Centre,"SB\triangle2.png",320,240 V,0,48816,49316,0.9,0.6,0.9,0 M,0,48816,53560,-114,520,-87,-50 F,0,48816,53816,0.63 R,0,48816,53816,1,9 C,0,48816,53816,220,54,155 P,0,48816,53816,A V,0,49316,49816,0.9,0,0.9,0.6 V,0,49816,50316,0.9,0.6,0.9,0 V,0,50316,50816,0.9,0,0.9,0.6 V,0,50816,51316,0.9,0.6,0.9,0 V,0,51316,51816,0.9,0,0.9,0.6 V,0,51816,52316,0.9,0.6,0.9,0 V,0,52316,52816,0.9,0,0.9,0.6 V,0,52816,53316,0.9,0.6,0.9,0 V,0,53316,53816,0.9,0,0.9,0.6
Sprite,Foreground,Centre,"SB\triangle2.png",320,240 V,0,49116,49616,0.9,0.7,0.9,0 M,0,49116,53897,-12,520,-127,-50 F,0,49116,54116,0.54 R,0,49116,54116,4,10 C,0,49116,54116,220,54,155 P,0,49116,54116,A V,0,49616,50116,0.9,0,0.9,0.7 V,0,50116,50616,0.9,0.7,0.9,0 V,0,50616,51116,0.9,0,0.9,0.7 V,0,51116,51616,0.9,0.7,0.9,0 V,0,51616,52116,0.9,0,0.9,0.7 V,0,52116,52616,0.9,0.7,0.9,0 V,0,52616,53116,0.9,0,0.9,0.7 V,0,53116,53616,0.9,0.7,0.9,0 V,0,53616,54116,0.9,0,0.9,0.7
Sprite,Foreground,Centre,"SB\triangle2.png",320,240 V,0,49416,49916,0.9,0.8,0.9,0 M,0,49416,54142,290,520,194,-50 F,0,49416,54416,0.61 R,0,49416,54416,5,14 C,0,49416,54416,220,54,155 P,0,49416,54416,A V,0,49916,50416,0.9,0,0.9,0.8 V,0,50416,50916,0.9,0.8,0.9,0 V,0,50916,51416,0.9,0,0.9,0.8 V,0,51416,51916,0.9,0.8,0.9,0 V,0,51916,52416,0.9,0,0.9,0.8 V,0,52416,52916,0.9,0.8,0.9,0 V,0,52916,53416,0.9,0,0.9,0.8 V,0,53416,53916,0.9,0.8,0.9,0 V,0,53916,54416,0.9,0,0.9,0.8
Sprite,Foreground,Centre,"SB\triangle2.png",320,240 V,0,49716,50216,0.7,0.5,0.7,0 M,0,49716,54371,435,520,423,-50 F,0,49716,54716,0.59 R,0,49716,54716,1,8 C,0,49716,54716,220,54,155 P,0,49716,54716,A V,0,50216,50716,0.7,0,0.7,0.5 V,0,50716,51216,0.7,0.5,0.7,0 V,0,51216,51716,0.7,0,0.7,0.5 V,0,51716,52216,0.7,0.5,0.7,0 V,0,52216,52716,0.7,0,0.7,0.5 V,0,52716,53216,0.7,0.5,0.7,0 V,0,53216,53716,0.7,0,0.7,0.5 V,0,53716,54216,0.7,0.5,0.7,0 V,0,54216,54716,0.7,0,0.7,0.5
Sprite,Foreground,Centre,"SB\triangle2.png",320,240 V,0,50016,50516,0.7,0.5,0.7,0 M,0,50016,53108,-149,520,-134,-50 F,0,50016,55016,0.47 R,0,50016,55016,3,10 C,0,50016,55016,220,54,155 P,0,50016,55016,A V,0,50516,51016,0.7,0,0.7,0.5 V,0,51016,51516,0.7,0.5,0.7,0 V,0,51516,52016,0.7,0,0.7,0.5 V,0,52016,52516,0.7,0.5,0.7,0 V,0,52516,53016,0.7,0,0.7,0.5 V,0,53016,53516,0.7,0.5,0.7,0 V,0,53516,54016,0.7,0,0.7,0.5 V,0,54016,54516,0.7,0.5,0.7,0 V,0,54516,55016,0.7,0,0.7,0.5
Sprite,Foreground,Centre,"SB\triangle2.png",320,240 V,0,50316,50816,1,0.7,1,0 M,0,50316,55194,-1,520,45,-50 F,0,50316,55316,0.63 R,0,50316,55316,6,17 C,0,50316,55316,220,54,155 P,0,50316,55316,A V,0,50816,51316,1,0,1,0.7 V,0,51316,51816,1,0.7,1,0 V,0,51816,52316,1,0,1,0.7 V,0,52316,52816,1,0.7,1,0 V,0,52816,53316,1,0,1,0.7 V,0,53316,53816,1,0.7,1,0 V,0,53816,54316,1,0,1,0.7 V,0,54316,54816,1,0.7,1,0 V,0,54816,55316,1,0,1,0.7
Sprite,Foreground,Centre,"SB\triangle2.png",320,240 V,0,50616,51116,1.1,1,1.1,0 M,0,50616,54921,47,520,134,-50 F,0,50616,55616,0.53 R,0,50616,55616,4,14 C,0,50616,55616,220,54,155 P,0,50616,55616,A V,0,51116,51616,1.1,0,1.1,1 V,0,51616,52116,1.1,1,1.1,0 V,0,52116,52616,1.1,0,1.1,1 V,0,52616,53116,1.1,1,1.1,0 V,0,53116,53616,1.1,0,1.1,1 V,0,53616,54116,1.1,1,1.1,0 V,0,54116,54616,1.1,0,1.1,1 V,0,54616,55116,1.1,1,1.1,0 V,0,55116,55616,1.1,0,1.1,1
Sprite,Foreground,Centre,"SB\triangle2.png",320,240 V,0,50916,51416,0.9,0.8,0.9,0 M,0,50916,54864,596,520,421,-50 F,0,50916,55916,0.64 R,0,50916,55916,2,11 C,0,50916,55916,220,54,155 P,0,50916,55916,A V,0,51416,51916,0.9,0,0.9,0.8 V,0,51916,52416,0.9,0.8,0.9,0 V,0,52416,52916,0.9,0,0.9,0.8 V,0,52916,53416,0.9,0.8,0.9,0 V,0,53416,53916,0.9,0,0.9,0.8 V,0,53916,54416,0.9,0.8,0.9,0 V,0,54416,54916,0.9,0,0.9,0.8 V,0,54916,55416,0.9,0.8,0.9,0 V,0,55416,55916,0.9,0,0.9,0.8
Sprite,Foreground,Centre,"SB\triangle2.png",320,240 V,0,51216,51716,0.6,0.7,0.6,0 M,0,51216,56196,83,520,42,-50 F,0,51216,56216,0.53 R,0,51216,56216,2,12 C,0,51216,56216,220,54,155 P,0,51216,56216,A V,0,51716,52216,0.6,0,0.6,0.7 V,0,52216,52716,0.6,0.7,0.6,0 V,0,52716,53216,0.6,0,0.6,0.7 V,0,53216,53716,0.6,0.7,0.6,0 V,0,53716,54216,0.6,0,0.6,0.7 V,0,54216,54716,0.6,0.7,0.6,0 V,0,54716,55216,0.6,0,0.6,0.7 V,0,55216,55716,0.6,0.7,0.6,0 V,0,55716,56216,0.6,0,0.6,0.7
Sprite,Foreground,Centre,"SB\triangle2.png",320,240 V,0,51516,52016,1,1,1,0 M,0,51516,54868,418,520,526,-50 F,0,51516,56516,0.64 R,0,51516,56516,1,9 C,0,51516,56516,220,54,155 P,0,51516,56516,A V,0,52016,52516,1,0,1,1 V,0,52516,53016,1,1,1,0 V,0,53016,53516,1,0,1,1 V,0,53516,54016,1,1,1,0 V,0,54016,54516,1,0,1,1 V,0,54516,55016,1,1,1,0 V,0,55016,55516,1,0,1,1 V,0,55516,56016,1,1,1,0 V,0,56016,56516,1,0,1,1
Sprite,Foreground,Centre,"SB\triangle2.png",320,240 V,0,51816,52316,0.7,0.6,0.7,0 M,0,51816,54978,630,520,546,-50 F,0,51816,56816,0.7 R,0,51816,56816,2,12 C,0,51816,56816,220,54,155 P,0,51816,56816,A V,0,52316,52816,0.7,0,0.7,0.6 V,0,52816,53316,0.7,0.6,0.7,0 V,0,53316,53816,0.7,0,0.7,0.6 V,0,53816,54316,0.7,0.6,0.7,0 V,0,54316,54816,0.7,0,0.7,0.6 V,0,54816,55316,0.7,0.6,0.7,0 V,0,55316,55816,0.7,0,0.7,0.6 V,0,55816,56316,0.7,0.6,0.7,0 V,0,56316,56816,0.7,0,0.7,0.6
Sprite,Foreground,Centre,"SB\triangle2.png",320,240 V,0,52116,52616,1.1,0.7,1.1,0 M,0,52116,56761,376,520,277,-50 F,0,52116,57116,0.55 R,0,52116,57116,6,14 C,0,52116,57116,220,54,155 P,0,52116,57116,A V,0,52616,53116,1.1,0,1.1,0.7 V,0,53116,53616,1.1,0.7,1.1,0 V,0,53616,54116,1.1,0,1.1,0.7 V,0,54116,54616,1.1,0.7,1.1,0 V,0,54616,55116,1.1,0,1.1,0.7 V,0,55116,55616,1.1,0.7,1.1,0 V,0,55616,56116,1.1,0,1.1,0.7 V,0,56116,56616,1.1,0.7,1.1,0 V,0,56616,57116,1.1,0,1.1,0.7
Sprite,Foreground,Centre,"SB\triangle2.png",320,240 V,0,52416,52916,0.8,0.6,0.8,0 M,0,52416,56776,449,520,353,-50 F,0,52416,57416,0.47 R,0,52416,57416,1,10 C,0,52416,57416,220,54,155 P,0,52416,57416,A V,0,52916,53416,0.8,0,0.8,0.6 V,0,53416,53916,0.8,0.6,0.8,0 V,0,53916,54416,0.8,0,0.8,0.6 V,0,54416,54916,0.8,0.6,0.8,0 V,0,54916,55416,0.8,0,0.8,0.6 V,0,55416,55916,0.8,0.6,0.8,0 V,0,55916,56416,0.8,0,0.8,0.6 V,0,56416,56916,0.8,0.6,0.8,0 V,0,56916,57416,0.8,0,0.8,0.6
Sprite,Foreground,Centre,"SB\triangle2.png",320,240 V,0,52716,53216,0.7,0.9,0.7,0 M,0,52716,57023,-80,520,-43,-50 F,0,52716,57716,0.47 R,0,52716,57716,4,14 C,0,52716,57716,220,54,155 P,0,52716,57716,A V,0,53216,53716,0.7,0,0.7,0.9 V,0,53716,54216,0.7,0.9,0.7,0 V,0,54216,54716,0.7,0,0.7,0.9 V,0,54716,55216,0.7,0.9,0.7,0 V,0,55216,55716,0.7,0,0.7,0.9 V,0,55716,56216,0.7,0.9,0.7,0 V,0,56216,56716,0.7,0,0.7,0.9 V,0,56716,57216,0.7,0.9,0.7,0 V,0,57216,57716,0.7,0,0.7,0.9
Sprite,Foreground,Centre,"SB\triangle2.png",320,240 V,0,53016,53516,0.8,0.8,0.8,0 M,0,53016,56801,414,520,334,-50 F,0,53016,58016,0.6 R,0,53016,58016,4,10 C,0,53016,58016,220,54,155 P,0,53016,58016,A V,0,53516,54016,0.8,0,0.8,0.8 V,0,54016,54516,0.8,0.8,0.8,0 V,0,54516,55016,0.8,0,0.8,0.8 V,0,55016,55516,0.8,0.8,0.8,0 V,0,55516,56016,0.8,0,0.8,0.8 V,0,56016,56516,0.8,0.8,0.8,0 V,0,56516,57016,0.8,0,0.8,0.8 V,0,57016,57516,0.8,0.8,0.8,0 V,0,57516,58016,0.8,0,0.8,0.8
Sprite,Foreground,Centre,"SB\triangle2.png",320,240 V,0,53316,53816,0.8,0.5,0.8,0 M,0,53316,57242,269,520,455,-50 F,0,53316,58316,0.69 R,0,53316,58316,6,14 C,0,53316,58316,220,54,155 P,0,53316,58316,A V,0,53816,54316,0.8,0,0.8,0.5 V,0,54316,54816,0.8,0.5,0.8,0 V,0,54816,55316,0.8,0,0.8,0.5 V,0,55316,55816,0.8,0.5,0.8,0 V,0,55816,56316,0.8,0,0.8,0.5 V,0,56316,56816,0.8,0.5,0.8,0 V,0,56816,57316,0.8,0,0.8,0.5 V,0,57316,57816,0.8,0.5,0.8,0 V,0,57816,58316,0.8,0,0.8,0.5
Sprite,Foreground,Centre,"SB\triangle2.png",320,240 V,0,53616,54116,0.7,0.5,0.7,0 M,0,53616,58576,-121,520,-182,-50 F,0,53616,58616,0.61 R,0,53616,58616,5,17 C,0,53616,58616,220,54,155 P,0,53616,58616,A V,0,54116,54616,0.7,0,0.7,0.5 V,0,54616,55116,0.7,0.5,0.7,0 V,0,55116,55616,0.7,0,0.7,0.5 V,0,55616,56116,0.7,0.5,0.7,0 V,0,56116,56616,0.7,0,0.7,0.5 V,0,56616,57116,0.7,0.5,0.7,0 V,0,57116,57616,0.7,0,0.7,0.5 V,0,57616,58116,0.7,0.5,0.7,0 V,0,58116,58616,0.7,0,0.7,0.5
Sprite,Foreground,Centre,"SB\triangle2.png",320,240 V,0,53916,54416,0.6,0.6,0.6,0 M,0,53916,57196,93,520,127,-50 F,0,53916,58916,0.56 R,0,53916,58916,1,11 C,0,53916,58916,220,54,155 P,0,53916,58916,A V,0,54416,54916,0.6,0,0.6,0.6 V,0,54916,55416,0.6,0.6,0.6,0 V,0,55416,55916,0.6,0,0.6,0.6 V,0,55916,56416,0.6,0.6,0.6,0 V,0,56416,56916,0.6,0,0.6,0.6 V,0,56916,57416,0.6,0.6,0.6,0 V,0,57416,57916,0.6,0,0.6,0.6 V,0,57916,58416,0.6,0.6,0.6,0 V,0,58416,58916,0.6,0,0.6,0.6
Sprite,Foreground,Centre,"SB\triangle2.png",320,240 V,0,54216,54716,1,1,1,0 M,0,54216,58923,-173,520,11,-50 F,0,54216,59216,0.56 R,0,54216,59216,2,13 C,0,54216,59216,220,54,155 P,0,54216,59216,A V,0,54716,55216,1,0,1,1 V,0,55216,55716,1,1,1,0 V,0,55716,56216,1,0,1,1 V,0,56216,56716,1,1,1,0 V,0,56716,57216,1,0,1,1 V,0,57216,57716,1,1,1,0 V,0,57716,58216,1,0,1,1 V,0,58216,58716,1,1,1,0 V,0,58716,59216,1,0,1,1
Sprite,Foreground,Centre,"SB\triangle2.png",320,240 V,0,54516,55016,0.9,0.6,0.9,0 M,0,54516,58138,377,520,426,-50 F,0,54516,59516,0.46 R,0,54516,59516,4,12 C,0,54516,59516,220,54,155 P,0,54516,59516,A V,0,55016,55516,0.9,0,0.9,0.6 V,0,55516,56016,0.9,0.6,0.9,0 V,0,56016,56516,0.9,0,0.9,0.6 V,0,56516,57016,0.9,0.6,0.9,0 V,0,57016,57516,0.9,0,0.9,0.6 V,0,57516,58016,0.9,0.6,0.9,0 V,0,58016,58516,0.9,0,0.9,0.6 V,0,58516,59016,0.9,0.6,0.9,0 V,0,59016,59516,0.9,0,0.9,0.6
Sprite,Foreground,Centre,"SB\triangle2.png",320,240 V,0,54816,55316,0.9,0.5,0.9,0 M,0,54816,57867,-103,520,-302,-50 F,0,54816,59816,0.59 R,0,54816,59816,0,9 C,0,54816,59816,220,54,155 P,0,54816,59816,A V,0,55316,55816,0.9,0,0.9,0.5 V,0,55816,56316,0.9,0.5,0.9,0 V,0,56316,56816,0.9,0,0.9,0.5 V,0,56816,57316,0.9,0.5,0.9,0 V,0,57316,57816,0.9,0,0.9,0.5 V,0,57816,58316,0.9,0.5,0.9,0 V,0,58316,58816,0.9,0,0.9,0.5 V,0,58816,59316,0.9,0.5,0.9,0 V,0,59316,59816,0.9,0,0.9,0.5
Sprite,Foreground,Centre,"SB\triangle2.png",320,240 V,0,55116,55616,0.9,0.6,0.9,0 M,0,55116,58583,206,520,82,-50 F,0,55116,60116,0.45 R,0,55116,60116,6,17 C,0,55116,60116,220,54,155 P,0,55116,60116,A V,0,55616,56116,0.9,0,0.9,0.6 V,0,56116,56616,0.9,0.6,0.9,0 V,0,56616,57116,0.9,0,0.9,0.6 V,0,57116,57616,0.9,0.6,0.9,0 V,0,57616,58116,0.9,0,0.9,0.6 V,0,58116,58616,0.9,0.6,0.9,0 V,0,58616,59116,0.9,0,0.9,0.6 V,0,59116,59616,0.9,0.6,0.9,0 V,0,59616,60116,0.9,0,0.9,0.6
Sprite,Foreground,Centre,"SB\triangle2.png",320,240 V,0,55416,55916,1.1,0.8,1.1,0 M,0,55416,60075,-117,520,-274,-50 F,0,55416,60416,0.67 R,0,55416,60416,0,7 C,0,55416,60416,220,54,155 P,0,55416,60416,A V,0,55916,56416,1.1,0,1.1,0.8 V,0,56416,56916,1.1,0.8,1.1,0 V,0,56916,57416,1.1,0,1.1,0.8 V,0,57416,57916,1.1,0.8,1.1,0 V,0,57916,58416,1.1,0,1.1,0.8 V,0,58416,58916,1.1,0.8,1.1,0 V,0,58916,59416,1.1,0,1.1,0.8 V,0,59416,59916,1.1,0.8,1.1,0 V,0,59916,60416,1.1,0,1.1,0.8
Sprite,Foreground,Centre,"SB\triangle2.png",320,240 V,0,55716,56216,0.9,0.5,0.9,0 M,0,55716,59870,95,520,43,-50 F,0,55716,60716,0.53 R,0,55716,60716,3,13 C,0,55716,60716,220,54,155 P,0,55716,60716,A V,0,56216,56716,0.9,0,0.9,0.5 V,0,56716,57216,0.9,0.5,0.9,0 V,0,57216,57716,0.9,0,0.9,0.5 V,0,57716,58216,0.9,0.5,0.9,0 V,0,58216,58716,0.9,0,0.9,0.5 V,0,58716,59216,0.9,0.5,0.9,0 V,0,59216,59716,0.9,0,0.9,0.5 V,0,59716,60216,0.9,0.5,0.9,0 V,0,60216,60716,0.9,0,0.9,0.5
Sprite,Foreground,Centre,"SB\triangle2.png",320,240 V,0,56016,56516,0.8,0.6,0.8,0 M,0,56016,60032,186,520,284,-50 F,0,56016,61016,0.59 R,0,56016,61016,5,16 C,0,56016,61016,220,54,155 P,0,56016,61016,A V,0,56516,57016,0.8,0,0.8,0.6 V,0,57016,57516,0.8,0.6,0.8,0 V,0,57516,58016,0.8,0,0.8,0.6 V,0,58016,58516,0.8,0.6,0.8,0 V,0,58516,59016,0.8,0,0.8,0.6 V,0,59016,59516,0.8,0.6,0.8,0 V,0,59516,60016,0.8,0,0.8,0.6 V,0,60016,60516,0.8,0.6,0.8,0 V,0,60516,61016,0.8,0,0.8,0.6
Sprite,Foreground,Centre,"SB\triangle2.png",320,240 V,0,56316,56816,0.9,0.8,0.9,0 M,0,56316,60218,-11,520,-194,-50 F,0,56316,61316,0.57 R,0,56316,61316,0,7 C,0,56316,61316,220,54,155 P,0,56316,61316,A V,0,56816,57316,0.9,0,0.9,0.8 V,0,57316,57816,0.9,0.8,0.9,0 V,0,57816,58316,0.9,0,0.9,0.8 V,0,58316,58816,0.9,0.8,0.9,0 V,0,58816,59316,0.9,0,0.9,0.8 V,0,59316,59816,0.9,0.8,0.9,0 V,0,59816,60316,0.9,0,0.9,0.8 V,0,60316,60816,0.9,0.8,0.9,0 V,0,60816,61316,0.9,0,0.9,0.8
Sprite,Foreground,Centre,"SB\triangle2.png",320,240 V,0,56616,57116,0.6,0.7,0.6,0 M,0,56616,61031,0,520,187,-50 F,0,56616,61616,0.56 R,0,56616,61616,6,12 C,0,56616,61616,220,54,155 P,0,56616,61616,A V,0,57116,57616,0.6,0,0.6,0.7 V,0,57616,58116,0.6,0.7,0.6,0 V,0,58116,58616,0.6,0,0.6,0.7 V,0,58616,59116,0.6,0.7,0.6,0 V,0,59116,59616,0.6,0,0.6,0.7 V,0,59616,60116,0.6,0.7,0.6,0 V,0,60116,60616,0.6,0,0.6,0.7 V,0,60616,61116,0.6,0.7,0.6,0 V,0,61116,61616,0.6,0,0.6,0.7
Sprite,Foreground,Centre,"SB\triangle2.png",320,240 V,0,56916,57416,1.1,0.5,1.1,0 M,0,56916,61334,695,520,776,-50 F,0,56916,61916,0.53 R,0,56916,61916,6,14 C,0,56916,61916,220,54,155 P,0,56916,61916,A V,0,57416,57916,1.1,0,1.1,0.5 V,0,57916,58416,1.1,0.5,1.1,0 V,0,58416,58916,1.1,0,1.1,0.5 V,0,58916,59416,1.1,0.5,1.1,0 V,0,59416,59916,1.1,0,1.1,0.5 V,0,59916,60416,1.1,0.5,1.1,0 V,0,60416,60916,1.1,0,1.1,0.5 V,0,60916,61416,1.1,0.5,1.1,0 V,0,61416,61916,1.1,0,1.1,0.5
Sprite,Foreground,Centre,"SB\triangle2.png",320,240 V,0,57216,57716,0.9,0.9,0.9,0 M,0,57216,62200,259,520,434,-50 F,0,57216,62216,0.65 R,0,57216,62216,0,10 C,0,57216,62216,220,54,155 P,0,57216,62216,A V,0,57716,58216,0.9,0,0.9,0.9 V,0,58216,58716,0.9,0.9,0.9,0 V,0,58716,59216,0.9,0,0.9,0.9 V,0,59216,59716,0.9,0.9,0.9,0 V,0,59716,60216,0.9,0,0.9,0.9 V,0,60216,60716,0.9,0.9,0.9,0 V,0,60716,61216,0.9,0,0.9,0.9 V,0,61216,61716,0.9,0.9,0.9,0 V,0,61716,62216,0.9,0,0.9,0.9
Sprite,Foreground,Centre,"SB\triangle2.png",320,240 V,0,57516,58016,1.1,0.6,1.1,0 M,0,57516,61424,189,520,0,-50 F,0,57516,62516,0.7 R,0,57516,62516,3,15 C,0,57516,62516,220,54,155 P,0,57516,62516,A V,0,58016,58516,1.1,0,1.1,0.6 V,0,58516,59016,1.1,0.6,1.1,0 V,0,59016,59516,1.1,0,1.1,0.6 V,0,59516,60016,1.1,0.6,1.1,0 V,0,60016,60516,1.1,0,1.1,0.6 V,0,60516,61016,1.1,0.6,1.1,0 V,0,61016,61516,1.1,0,1.1,0.6 V,0,61516,62016,1.1,0.6,1.1,0 V,0,62016,62516,1.1,0,1.1,0.6
Sprite,Foreground,Centre,"SB\triangle2.png",320,240 V,0,57816,58316,0.7,0.7,0.7,0 M,0,57816,62514,343,520,297,-50 F,0,57816,62816,0.52 R,0,57816,62816,3,14 C,0,57816,62816,220,54,155 P,0,57816,62816,A V,0,58316,58816,0.7,0,0.7,0.7 V,0,58816,59316,0.7,0.7,0.7,0 V,0,59316,59816,0.7,0,0.7,0.7 V,0,59816,60316,0.7,0.7,0.7,0 V,0,60316,60816,0.7,0,0.7,0.7 V,0,60816,61316,0.7,0.7,0.7,0 V,0,61316,61816,0.7,0,0.7,0.7 V,0,61816,62316,0.7,0.7,0.7,0 V,0,62316,62816,0.7,0,0.7,0.7
Sprite,Foreground,Centre,"SB\triangle2.png",320,240 V,0,58116,58616,1,0.5,1,0 M,0,58116,61946,565,520,405,-50 F,0,58116,63116,0.53 R,0,58116,63116,5,12 C,0,58116,63116,220,54,155 P,0,58116,63116,A V,0,58616,59116,1,0,1,0.5 V,0,59116,59616,1,0.5,1,0 V,0,59616,60116,1,0,1,0.5 V,0,60116,60616,1,0.5,1,0 V,0,60616,61116,1,0,1,0.5 V,0,61116,61616,1,0.5,1,0 V,0,61616,62116,1,0,1,0.5 V,0,62116,62616,1,0.5,1,0 V,0,62616,63116,1,0,1,0.5
Sprite,Foreground,Centre,"SB\triangle2.png",320,240 V,0,58416,58916,0.7,0.9,0.7,0 M,0,58416,62327,256,520,233,-50 F,0,58416,63416,0.48 R,0,58416,63416,5,13 C,0,58416,63416,220,54,155 P,0,58416,63416,A V,0,58916,59416,0.7,0,0.7,0.9 V,0,59416,59916,0.7,0.9,0.7,0 V,0,59916,60416,0.7,0,0.7,0.9 V,0,60416,60916,0.7,0.9,0.7,0 V,0,60916,61416,0.7,0,0.7,0.9 V,0,61416,61916,0.7,0.9,0.7,0 V,0,61916,62416,0.7,0,0.7,0.9 V,0,62416,62916,0.7,0.9,0.7,0 V,0,62916,63416,0.7,0,0.7,0.9
Sprite,Foreground,Centre,"SB\triangle2.png",320,240 V,0,58716,59216,1,0.6,1,0 M,0,58716,61747,-197,520,-383,-50 F,0,58716,63716,0.59 R,0,58716,63716,4,16 C,0,58716,63716,220,54,155 P,0,58716,63716,A V,0,59216,59716,1,0,1,0.6 V,0,59716,60216,1,0.6,1,0 V,0,60216,60716,1,0,1,0.6 V,0,60716,61216,1,0.6,1,0 V,0,61216,61716,1,0,1,0.6 V,0,61716,62216,1,0.6,1,0 V,0,62216,62716,1,0,1,0.6 V,0,62716,63216,1,0.6,1,0 V,0,63216,63716,1,0,1,0.6
Sprite,Foreground,Centre,"SB\triangle2.png",320,240 V,0,59016,59516,0.9,0.9,0.9,0 M,0,59016,63042,231,520,126,-50 F,0,59016,64016,0.54 R,0,59016,64016,4,15 C,0,59016,64016,220,54,155 P,0,59016,64016,A V,0,59516,60016,0.9,0,0.9,0.9 V,0,60016,60516,0.9,0.9,0.9,0 V,0,60516,61016,0.9,0,0.9,0.9 V,0,61016,61516,0.9,0.9,0.9,0 V,0,61516,62016,0.9,0,0.9,0.9 V,0,62016,62516,0.9,0.9,0.9,0 V,0,62516,63016,0.9,0,0.9,0.9 V,0,63016,63516,0.9,0.9,0.9,0 V,0,63516,64016,0.9,0,0.9,0.9
Sprite,Foreground,Centre,"SB\triangle2.png",320,240 V,0,59316,59816,1,0.7,1,0 M,0,59316,64247,133,520,263,-50 F,0,59316,64316,0.49 R,0,59316,64316,2,13 C,0,59316,64316,220,54,155 P,0,59316,64316,A V,0,59816,60316,1,0,1,0.7 V,0,60316,60816,1,0.7,1,0 V,0,60816,61316,1,0,1,0.7 V,0,61316,61816,1,0.7,1,0 V,0,61816,62316,1,0,1,0.7 V,0,62316,62816,1,0.7,1,0 V,0,62816,63316,1,0,1,0.7 V,0,63316,63816,1,0.7,1,0 V,0,63816,64316,1,0,1,0.7
Sprite,Foreground,Centre,"SB\triangle2.png",320,240 V,0,59616,60116,0.7,0.6,0.7,0 M,0,59616,62900,261,520,77,-50 F,0,59616,64616,0.69 R,0,59616,64616,2,10 C,0,59616,64616,220,54,155 P,0,59616,64616,A V,0,60116,60616,0.7,0,0.7,0.6 V,0,60616,61116,0.7,0.6,0.7,0 V,0,61116,61616,0.7,0,0.7,0.6 V,0,61616,62116,0.7,0.6,0.7,0 V,0,62116,62616,0.7,0,0.7,0.6 V,0,62616,63116,0.7,0.6,0.7,0 V,0,63116,63616,0.7,0,0.7,0.6 V,0,63616,64116,0.7,0.6,0.7,0 V,0,64116,64616,0.7,0,0.7,0.6
Sprite,Foreground,Centre,"SB\triangle2.png",320,240 V,0,59916,60416,0.9,0.6,0.9,0 M,0,59916,63631,43,520,230,-50 F,0,59916,64916,0.48 R,0,59916,64916,2,8 C,0,59916,64916,220,54,155 P,0,59916,64916,A V,0,60416,60916,0.9,0,0.9,0.6 V,0,60916,61416,0.9,0.6,0.9,0 V,0,61416,61916,0.9,0,0.9,0.6 V,0,61916,62416,0.9,0.6,0.9,0 V,0,62416,62916,0.9,0,0.9,0.6 V,0,62916,63416,0.9,0.6,0.9,0 V,0,63416,63916,0.9,0,0.9,0.6 V,0,63916,64416,0.9,0.6,0.9,0 V,0,64416,64916,0.9,0,0.9,0.6
Sprite,Foreground,Centre,"SB\triangle2.png",320,240 V,0,60216,60716,0.6,0.9,0.6,0 M,0,60216,63889,519,520,587,-50 F,0,60216,65216,0.45 R,0,60216,65216,1,7 C,0,60216,65216,220,54,155 P,0,60216,65216,A V,0,60716,61216,0.6,0,0.6,0.9 V,0,61216,61716,0.6,0.9,0.6,0 V,0,61716,62216,0.6,0,0.6,0.9 V,0,62216,62716,0.6,0.9,0.6,0 V,0,62716,63216,0.6,0,0.6,0.9 V,0,63216,63716,0.6,0.9,0.6,0 V,0,63716,64216,0.6,0,0.6,0.9 V,0,64216,64716,0.6,0.9,0.6,0 V,0,64716,65216,0.6,0,0.6,0.9
Sprite,Foreground,Centre,"SB\triangle2.png",320,240 V,0,60516,61016,1.1,0.6,1.1,0 M,0,60516,64798,-55,520,-5,-50 F,0,60516,65516,0.56 R,0,60516,65516,1,13 C,0,60516,65516,220,54,155 P,0,60516,65516,A V,0,61016,61516,1.1,0,1.1,0.6 V,0,61516,62016,1.1,0.6,1.1,0 V,0,62016,62516,1.1,0,1.1,0.6 V,0,62516,63016,1.1,0.6,1.1,0 V,0,63016,63516,1.1,0,1.1,0.6 V,0,63516,64016,1.1,0.6,1.1,0 V,0,64016,64516,1.1,0,1.1,0.6 V,0,64516,65016,1.1,0.6,1.1,0 V,0,65016,65516,1.1,0,1.1,0.6
Sprite,Foreground,Centre,"SB\triangle2.png",320,240 V,0,60816,61316,0.7,0.7,0.7,0 M,0,60816,65031,184,520,192,-50 F,0,60816,65816,0.58 R,0,60816,65816,3,11 C,0,60816,65816,220,54,155 P,0,60816,65816,A V,0,61316,61816,0.7,0,0.7,0.7 V,0,61816,62316,0.7,0.7,0.7,0 V,0,62316,62816,0.7,0,0.7,0.7 V,0,62816,63316,0.7,0.7,0.7,0 V,0,63316,63816,0.7,0,0.7,0.7 V,0,63816,64316,0.7,0.7,0.7,0 V,0,64316,64816,0.7,0,0.7,0.7 V,0,64816,65316,0.7,0.7,0.7,0 V,0,65316,65816,0.7,0,0.7,0.7
Sprite,Foreground,Centre,"SB\triangle2.png",320,240 V,0,61116,61616,1,1,1,0 M,0,61116,65458,692,520,726,-50 F,0,61116,66116,0.57 R,0,61116,66116,6,17 C,0,61116,66116,220,54,155 P,0,61116,66116,A V,0,61616,62116,1,0,1,1 V,0,62116,62616,1,1,1,0 V,0,62616,63116,1,0,1,1 V,0,63116,63616,1,1,1,0 V,0,63616,64116,1,0,1,1 V,0,64116,64616,1,1,1,0 V,0,64616,65116,1,0,1,1 V,0,65116,65616,1,1,1,0 V,0,65616,66116,1,0,1,1
Sprite,Foreground,Centre,"SB\triangle2.png",320,240 V,0,61416,61916,0.6,0.5,0.6,0 M,0,61416,65836,553,520,573,-50 F,0,61416,66416,0.61 R,0,61416,66416,3,11 C,0,61416,66416,220,54,155 P,0,61416,66416,A V,0,61916,62416,0.6,0,0.6,0.5 V,0,62416,62916,0.6,0.5,0.6,0 V,0,62916,63416,0.6,0,0.6,0.5 V,0,63416,63916,0.6,0.5,0.6,0 V,0,63916,64416,0.6,0,0.6,0.5 V,0,64416,64916,0.6,0.5,0.6,0 V,0,64916,65416,0.6,0,0.6,0.5 V,0,65416,65916,0.6,0.5,0.6,0 V,0,65916,66416,0.6,0,0.6,0.5
Sprite,Foreground,Centre,"SB\triangle2.png",320,240 V,0,61716,62216,0.9,0.5,0.9,0 M,0,61716,65125,63,520,180,-50 F,0,61716,66716,0.49 R,0,61716,66716,5,14 C,0,61716,66716,220,54,155 P,0,61716,66716,A V,0,62216,62716,0.9,0,0.9,0.5 V,0,62716,63216,0.9,0.5,0.9,0 V,0,63216,63716,0.9,0,0.9,0.5 V,0,63716,64216,0.9,0.5,0.9,0 V,0,64216,64716,0.9,0,0.9,0.5 V,0,64716,65216,0.9,0.5,0.9,0 V,0,65216,65716,0.9,0,0.9,0.5 V,0,65716,66216,0.9,0.5,0.9,0 V,0,66216,66716,0.9,0,0.9,0.5
Sprite,Foreground,Centre,"SB\triangle2.png",320,240 V,0,62016,62516,0.6,0.5,0.6,0 M,0,62016,66116,265,520,362,-50 F,0,62016,67016,0.66 R,0,62016,67016,5,17 C,0,62016,67016,220,54,155 P,0,62016,67016,A V,0,62516,63016,0.6,0,0.6,0.5 V,0,63016,63516,0.6,0.5,0.6,0 V,0,63516,64016,0.6,0,0.6,0.5 V,0,64016,64516,0.6,0.5,0.6,0 V,0,64516,65016,0.6,0,0.6,0.5 V,0,65016,65516,0.6,0.5,0.6,0 V,0,65516,66016,0.6,0,0.6,0.5 V,0,66016,66516,0.6,0.5,0.6,0 V,0,66516,67016,0.6,0,0.6,0.5
Sprite,Foreground,Centre,"SB\triangle2.png",320,240 V,0,62316,62816,0.6,0.5,0.6,0 M,0,62316,66977,99,520,-83,-50 F,0,62316,67316,0.69 R,0,62316,67316,0,9 C,0,62316,67316,220,54,155 P,0,62316,67316,A V,0,62816,63316,0.6,0,0.6,0.5 V,0,63316,63816,0.6,0.5,0.6,0 V,0,63816,64316,0.6,0,0.6,0.5 V,0,64316,64816,0.6,0.5,0.6,0 V,0,64816,65316,0.6,0,0.6,0.5 V,0,65316,65816,0.6,0.5,0.6,0 V,0,65816,66316,0.6,0,0.6,0.5 V,0,66316,66816,0.6,0.5,0.6,0 V,0,66816,67316,0.6,0,0.6,0.5
Sprite,Foreground,Centre,"SB\triangle2.png",320,240 V,0,62616,63116,1.1,0.5,1.1,0 M,0,62616,67142,461,520,362,-50 F,0,62616,67616,0.52 R,0,62616,67616,0,9 C,0,62616,67616,220,54,155 P,0,62616,67616,A V,0,63116,63616,1.1,0,1.1,0.5 V,0,63616,64116,1.1,0.5,1.1,0 V,0,64116,64616,1.1,0,1.1,0.5 V,0,64616,65116,1.1,0.5,1.1,0 V,0,65116,65616,1.1,0,1.1,0.5 V,0,65616,66116,1.1,0.5,1.1,0 V,0,66116,66616,1.1,0,1.1,0.5 V,0,66616,67116,1.1,0.5,1.1,0 V,0,67116,67616,1.1,0,1.1,0.5
Sprite,Foreground,Centre,"SB\triangle2.png",320,240 V,0,62916,63416,0.8,0.6,0.8,0 M,0,62916,66865,92,520,179,-50 F,0,62916,67916,0.6 R,0,62916,67916,6,15 C,0,62916,67916,220,54,155 P,0,62916,67916,A V,0,63416,63916,0.8,0,0.8,0.6 V,0,63916,64416,0.8,0.6,0.8,0 V,0,64416,64916,0.8,0,0.8,0.6 V,0,64916,65416,0.8,0.6,0.8,0 V,0,65416,65916,0.8,0,0.8,0.6 V,0,65916,66416,0.8,0.6,0.8,0 V,0,66416,66916,0.8,0,0.8,0.6 V,0,66916,67416,0.8,0.6,0.8,0 V,0,67416,67916,0.8,0,0.8,0.6
Sprite,Foreground,Centre,"SB\triangle2.png",320,240 V,0,63216,63716,1,0.9,1,0 M,0,63216,66982,626,520,508,-50 F,0,63216,68216,0.69 R,0,63216,68216,6,14 C,0,63216,68216,220,54,155 P,0,63216,68216,A V,0,63716,64216,1,0,1,0.9 V,0,64216,64716,1,0.9,1,0 V,0,64716,65216,1,0,1,0.9 V,0,65216,65716,1,0.9,1,0 V,0,65716,66216,1,0,1,0.9 V,0,66216,66716,1,0.9,1,0 V,0,66716,67216,1,0,1,0.9 V,0,67216,67716,1,0.9,1,0 V,0,67716,68216,1,0,1,0.9
Sprite,Foreground,Centre,"SB\triangle2.png",320,240 V,0,63516,64016,1.1,0.9,1.1,0 M,0,63516,67687,520,520,516,-50 F,0,63516,68516,0.48 R,0,63516,68516,1,11 C,0,63516,68516,220,54,155 P,0,63516,68516,A V,0,64016,64516,1.1,0,1.1,0.9 V,0,64516,65016,1.1,0.9,1.1,0 V,0,65016,65516,1.1,0,1.1,0.9 V,0,65516,66016,1.1,0.9,1.1,0 V,0,66016,66516,1.1,0,1.1,0.9 V,0,66516,67016,1.1,0.9,1.1,0 V,0,67016,67516,1.1,0,1.1,0.9 V,0,67516,68016,1.1,0.9,1.1,0 V,0,68016,68516,1.1,0,1.1,0.9
Sprite,Foreground,Centre,"SB\triangle2.png",320,240 V,0,63816,64316,0.8,0.9,0.8,0 M,0,63816,68602,159,520,319,-50 F,0,63816,68816,0.67 R,0,63816,68816,2,14 C,0,63816,68816,220,54,155 P,0,63816,68816,A V,0,64316,64816,0.8,0,0.8,0.9 V,0,64816,65316,0.8,0.9,0.8,0 V,0,65316,65816,0.8,0,0.8,0.9 V,0,65816,66316,0.8,0.9,0.8,0 V,0,66316,66816,0.8,0,0.8,0.9 V,0,66816,67316,0.8,0.9,0.8,0 V,0,67316,67816,0.8,0,0.8,0.9 V,0,67816,68316,0.8,0.9,0.8,0 V,0,68316,68816,0.8,0,0.8,0.9
Sprite,Foreground,Centre,"SB\triangle2.png",320,240 V,0,64116,64616,0.8,0.6,0.8,0 M,0,64116,68484,111,520,35,-50 F,0,64116,69116,0.45 R,0,64116,69116,0,10 C,0,64116,69116,220,54,155 P,0,64116,69116,A V,0,64616,65116,0.8,0,0.8,0.6 V,0,65116,65616,0.8,0.6,0.8,0 V,0,65616,66116,0.8,0,0.8,0.6 V,0,66116,66616,0.8,0.6,0.8,0 V,0,66616,67116,0.8,0,0.8,0.6 V,0,67116,67616,0.8,0.6,0.8,0 V,0,67616,68116,0.8,0,0.8,0.6 V,0,68116,68616,0.8,0.6,0.8,0 V,0,68616,69116,0.8,0,0.8,0.6
Sprite,Foreground,Centre,"SB\triangle2.png",320,240 V,0,64416,64916,0.7,0.5,0.7,0 M,0,64416,68661,290,520,382,-50 F,0,64416,69416,0.65 R,0,64416,69416,3,11 C,0,64416,69416,220,54,155 P,0,64416,69416,A V,0,64916,65416,0.7,0,0.7,0.5 V,0,65416,65916,0.7,0.5,0.7,0 V,0,65916,66416,0.7,0,0.7,0.5 V,0,66416,66916,0.7,0.5,0.7,0 V,0,66916,67416,0.7,0,0.7,0.5 V,0,67416,67916,0.7,0.5,0.7,0 V,0,67916,68416,0.7,0,0.7,0.5 V,0,68416,68916,0.7,0.5,0.7,0 V,0,68916,69416,0.7,0,0.7,0.5
Sprite,Foreground,Centre,"SB\triangle2.png",320,240 V,0,64716,65216,0.9,0.5,0.9,0 M,0,64716,69075,445,520,522,-50 F,0,64716,69716,0.63 R,0,64716,69716,6,12 C,0,64716,69716,220,54,155 P,0,64716,69716,A V,0,65216,65716,0.9,0,0.9,0.5 V,0,65716,66216,0.9,0.5,0.9,0 V,0,66216,66716,0.9,0,0.9,0.5 V,0,66716,67216,0.9,0.5,0.9,0 V,0,67216,67716,0.9,0,0.9,0.5 V,0,67716,68216,0.9,0.5,0.9,0 V,0,68216,68716,0.9,0,0.9,0.5 V,0,68716,69216,0.9,0.5,0.9,0 V,0,69216,69716,0.9,0,0.9,0.5
Sprite,Foreground,Centre,"SB\triangle2.png",320,240 V,0,65016,65516,0.8,0.7,0.8,0 M,0,65016,68196,429,520,436,-50 F,0,65016,70016,0.51 R,0,65016,70016,3,12 C,0,65016,70016,220,54,155 P,0,65016,70016,A V,0,65516,66016,0.8,0,0.8,0.7 V,0,66016,66516,0.8,0.7,0.8,0 V,0,66516,67016,0.8,0,0.8,0.7 V,0,67016,67516,0.8,0.7,0.8,0 V,0,67516,68016,0.8,0,0.8,0.7 V,0,68016,68516,0.8,0.7,0.8,0 V,0,68516,69016,0.8,0,0.8,0.7 V,0,69016,69516,0.8,0.7,0.8,0 V,0,69516,70016,0.8,0,0.8,0.7
Sprite,Foreground,Centre,"SB\triangle2.png",320,240 V,0,65316,65816,0.8,0.6,0.8,0 M,0,65316,69522,25,520,-40,-50 F,0,65316,70316,0.45 R,0,65316,70316,1,11 C,0,65316,70316,220,54,155 P,0,65316,70316,A V,0,65816,66316,0.8,0,0.8,0.6 V,0,66316,66816,0.8,0.6,0.8,0 V,0,66816,67316,0.8,0,0.8,0.6 V,0,67316,67816,0.8,0.6,0.8,0 V,0,67816,68316,0.8,0,0.8,0.6 V,0,68316,68816,0.8,0.6,0.8,0 V,0,68816,69316,0.8,0,0.8,0.6 V,0,69316,69816,0.8,0.6,0.8,0 V,0,69816,70316,0.8,0,0.8,0.6
Sprite,Foreground,Centre,"SB\triangle2.png",320,240 V,0,65616,66116,0.6,0.9,0.6,0 M,0,65616,68877,275,520,411,-50 F,0,65616,70616,0.61 R,0,65616,70616,1,13 C,0,65616,70616,220,54,155 P,0,65616,70616,A V,0,66116,66616,0.6,0,0.6,0.9 V,0,66616,67116,0.6,0.9,0.6,0 V,0,67116,67616,0.6,0,0.6,0.9 V,0,67616,68116,0.6,0.9,0.6,0 V,0,68116,68616,0.6,0,0.6,0.9 V,0,68616,69116,0.6,0.9,0.6,0 V,0,69116,69616,0.6,0,0.6,0.9 V,0,69616,70116,0.6,0.9,0.6,0 V,0,70116,70616,0.6,0,0.6,0.9
Sprite,Foreground,Centre,"SB\triangle2.png",320,240 V,0,65916,66416,0.9,0.9,0.9,0 M,0,65916,69787,-47,520,-3,-50 F,0,65916,70916,0.61 R,0,65916,70916,6,15 C,0,65916,70916,220,54,155 P,0,65916,70916,A V,0,66416,66916,0.9,0,0.9,0.9 V,0,66916,67416,0.9,0.9,0.9,0 V,0,67416,67916,0.9,0,0.9,0.9 V,0,67916,68416,0.9,0.9,0.9,0 V,0,68416,68916,0.9,0,0.9,0.9 V,0,68916,69416,0.9,0.9,0.9,0 V,0,69416,69916,0.9,0,0.9,0.9 V,0,69916,70416,0.9,0.9,0.9,0 V,0,70416,70916,0.9,0,0.9,0.9
Sprite,Foreground,Centre,"SB\triangle2.png",320,240 V,0,66216,66716,0.8,0.5,0.8,0 M,0,66216,69689,626,520,805,-50 F,0,66216,71216,0.55 R,0,66216,71216,0,7 C,0,66216,71216,220,54,155 P,0,66216,71216,A V,0,66716,67216,0.8,0,0.8,0.5 V,0,67216,67716,0.8,0.5,0.8,0 V,0,67716,68216,0.8,0,0.8,0.5 V,0,68216,68716,0.8,0.5,0.8,0 V,0,68716,69216,0.8,0,0.8,0.5 V,0,69216,69716,0.8,0.5,0.8,0 V,0,69716,70216,0.8,0,0.8,0.5 V,0,70216,70716,0.8,0.5,0.8,0 V,0,70716,71216,0.8,0,0.8,0.5
Sprite,Foreground,Centre,"SB\triangle2.png",320,240 V,0,66516,67016,1,0.5,1,0 M,0,66516,70444,-45,520,34,-50 F,0,66516,71516,0.49 R,0,66516,71516,2,11 C,0,66516,71516,220,54,155 P,0,66516,71516,A V,0,67016,67516,1,0,1,0.5 V,0,67516,68016,1,0.5,1,0 V,0,68016,68516,1,0,1,0.5 V,0,68516,69016,1,0.5,1,0 V,0,69016,69516,1,0,1,0.5 V,0,69516,70016,1,0.5,1,0 V,0,70016,70516,1,0,1,0.5 V,0,70516,71016,1,0.5,1,0 V,0,71016,71516,1,0,1,0.5
Sprite,Foreground,Centre,"SB\triangle2.png",320,240 V,0,66816,67316,1.1,0.6,1.1,0 M,0,66816,71096,333,520,456,-50 F,0,66816,71816,0.45 R,0,66816,71816,1,9 C,0,66816,71816,220,54,155 P,0,66816,71816,A V,0,67316,67816,1.1,0,1.1,0.6 V,0,67816,68316,1.1,0.6,1.1,0 V,0,68316,68816,1.1,0,1.1,0.6 V,0,68816,69316,1.1,0.6,1.1,0 V,0,69316,69816,1.1,0,1.1,0.6 V,0,69816,70316,1.1,0.6,1.1,0 V,0,70316,70816,1.1,0,1.1,0.6 V,0,70816,71316,1.1,0.6,1.1,0 V,0,71316,71816,1.1,0,1.1,0.6
Sprite,Foreground,Centre,"SB\triangle2.png",320,240 V,0,67116,67616,1,0.8,1,0 M,0,67116,70396,535,520,713,-50 F,0,67116,72116,0.51 R,0,67116,72116,6,16 C,0,67116,72116,220,54,155 P,0,67116,72116,A V,0,67616,68116,1,0,1,0.8 V,0,68116,68616,1,0.8,1,0 V,0,68616,69116,1,0,1,0.8 V,0,69116,69616,1,0.8,1,0 V,0,69616,70116,1,0,1,0.8 V,0,70116,70616,1,0.8,1,0 V,0,70616,71116,1,0,1,0.8 V,0,71116,71616,1,0.8,1,0 V,0,71616,72116,1,0,1,0.8
Sprite,Foreground,Centre,"SB\triangle2.png",320,240 V,0,67416,67916,0.8,1,0.8,0 M,0,67416,71694,506,520,671,-50 F,0,67416,72416,0.52 R,0,67416,72416,1,11 C,0,67416,72416,220,54,155 P,0,67416,72416,A V,0,67916,68416,0.8,0,0.8,1 V,0,68416,68916,0.8,1,0.8,0 V,0,68916,69416,0.8,0,0.8,1 V,0,69416,69916,0.8,1,0.8,0 V,0,69916,70416,0.8,0,0.8,1 V,0,70416,70916,0.8,1,0.8,0 V,0,70916,71416,0.8,0,0.8,1 V,0,71416,71916,0.8,1,0.8,0 V,0,71916,72416,0.8,0,0.8,1
Sprite,Foreground,Centre,"SB\triangle2.png",320,240 V,0,67716,68216,0.8,1,0.8,0 M,0,67716,72437,-34,520,-31,-50 F,0,67716,72716,0.5 R,0,67716,72716,5,13 C,0,67716,72716,220,54,155 P,0,67716,72716,A V,0,68216,68716,0.8,0,0.8,1 V,0,68716,69216,0.8,1,0.8,0 V,0,69216,69716,0.8,0,0.8,1 V,0,69716,70216,0.8,1,0.8,0 V,0,70216,70716,0.8,0,0.8,1 V,0,70716,71216,0.8,1,0.8,0 V,0,71216,71716,0.8,0,0.8,1 V,0,71716,72216,0.8,1,0.8,0 V,0,72216,72716,0.8,0,0.8,1
Sprite,Foreground,Centre,"SB\triangle2.png",320,240 V,0,68016,68516,1.1,0.8,1.1,0 M,0,68016,72415,683,520,489,-50 F,0,68016,73016,0.66 R,0,68016,73016,3,10 C,0,68016,73016,220,54,155 P,0,68016,73016,A V,0,68516,69016,1.1,0,1.1,0.8 V,0,69016,69516,1.1,0.8,1.1,0 V,0,69516,70016,1.1,0,1.1,0.8 V,0,70016,70516,1.1,0.8,1.1,0 V,0,70516,71016,1.1,0,1.1,0.8 V,0,71016,71516,1.1,0.8,1.1,0 V,0,71516,72016,1.1,0,1.1,0.8 V,0,72016,72516,1.1,0.8,1.1,0 V,0,72516,73016,1.1,0,1.1,0.8
Sprite,Foreground,Centre,"SB\triangle2.png",320,240 V,0,68316,68816,0.8,1,0.8,0 M,0,68316,72819,37,520,212,-50 F,0,68316,73316,0.61 R,0,68316,73316,3,13 C,0,68316,73316,220,54,155 P,0,68316,73316,A V,0,68816,69316,0.8,0,0.8,1 V,0,69316,69816,0.8,1,0.8,0 V,0,69816,70316,0.8,0,0.8,1 V,0,70316,70816,0.8,1,0.8,0 V,0,70816,71316,0.8,0,0.8,1 V,0,71316,71816,0.8,1,0.8,0 V,0,71816,72316,0.8,0,0.8,1 V,0,72316,72816,0.8,1,0.8,0 V,0,72816,73316,0.8,0,0.8,1
Sprite,Foreground,Centre,"SB\triangle2.png",320,240 V,0,68616,69116,0.9,0.9,0.9,0 M,0,68616,73317,290,520,254,-50 F,0,68616,73616,0.54 R,0,68616,73616,5,16 C,0,68616,73616,220,54,155 P,0,68616,73616,A V,0,69116,69616,0.9,0,0.9,0.9 V,0,69616,70116,0.9,0.9,0.9,0 V,0,70116,70616,0.9,0,0.9,0.9 V,0,70616,71116,0.9,0.9,0.9,0 V,0,71116,71616,0.9,0,0.9,0.9 V,0,71616,72116,0.9,0.9,0.9,0 V,0,72116,72616,0.9,0,0.9,0.9 V,0,72616,73116,0.9,0.9,0.9,0 V,0,73116,73616,0.9,0,0.9,0.9
Sprite,Foreground,Centre,"SB\triangle2.png",320,240 V,0,68916,69416,1,0.9,1,0 M,0,68916,73784,-56,520,22,-50 F,0,68916,73916,0.68 R,0,68916,73916,4,13 C,0,68916,73916,220,54,155 P,0,68916,73916,A V,0,69416,69916,1,0,1,0.9 V,0,69916,70416,1,0.9,1,0 V,0,70416,70916,1,0,1,0.9 V,0,70916,71416,1,0.9,1,0 V,0,71416,71916,1,0,1,0.9 V,0,71916,72416,1,0.9,1,0 V,0,72416,72916,1,0,1,0.9 V,0,72916,73416,1,0.9,1,0 V,0,73416,73916,1,0,1,0.9
Sprite,Foreground,Centre,"SB\triangle2.png",320,240 V,0,69216,69716,0.6,0.6,0.6,0 M,0,69216,72589,304,520,113,-50 F,0,69216,74216,0.65 R,0,69216,74216,4,11 C,0,69216,74216,220,54,155 P,0,69216,74216,A V,0,69716,70216,0.6,0,0.6,0.6 V,0,70216,70716,0.6,0.6,0.6,0 V,0,70716,71216,0.6,0,0.6,0.6 V,0,71216,71716,0.6,0.6,0.6,0 V,0,71716,72216,0.6,0,0.6,0.6 V,0,72216,72716,0.6,0.6,0.6,0 V,0,72716,73216,0.6,0,0.6,0.6 V,0,73216,73716,0.6,0.6,0.6,0 V,0,73716,74216,0.6,0,0.6,0.6
Sprite,Foreground,Centre,"SB\triangle2.png",320,240 V,0,69516,70016,1.1,1,1.1,0 M,0,69516,72919,278,520,253,-50 F,0,69516,74516,0.6 R,0,69516,74516,6,14 C,0,69516,74516,220,54,155 P,0,69516,74516,A V,0,70016,70516,1.1,0,1.1,1 V,0,70516,71016,1.1,1,1.1,0 V,0,71016,71516,1.1,0,1.1,1 V,0,71516,72016,1.1,1,1.1,0 V,0,72016,72516,1.1,0,1.1,1 V,0,72516,73016,1.1,1,1.1,0 V,0,73016,73516,1.1,0,1.1,1 V,0,73516,74016,1.1,1,1.1,0 V,0,74016,74516,1.1,0,1.1,1
Sprite,Foreground,Centre,"SB\triangle2.png",320,240 V,0,69816,70316,0.9,0.9,0.9,0 M,0,69816,74521,135,520,155,-50 F,0,69816,74816,0.6 R,0,69816,74816,2,14 C,0,69816,74816,220,54,155 P,0,69816,74816,A V,0,70316,70816,0.9,0,0.9,0.9 V,0,70816,71316,0.9,0.9,0.9,0 V,0,71316,71816,0.9,0,0.9,0.9 V,0,71816,72316,0.9,0.9,0.9,0 V,0,72316,72816,0.9,0,0.9,0.9 V,0,72816,73316,0.9,0.9,0.9,0 V,0,73316,73816,0.9,0,0.9,0.9 V,0,73816,74316,0.9,0.9,0.9,0 V,0,74316,74816,0.9,0,0.9,0.9
Sprite,Foreground,Centre,"SB\triangle2.png",320,240 V,0,70116,70616,0.6,1,0.6,0 M,0,70116,74338,589,520,745,-50 F,0,70116,75116,0.58 R,0,70116,75116,0,11 C,0,70116,75116,220,54,155 P,0,70116,75116,A V,0,70616,71116,0.6,0,0.6,1 V,0,71116,71616,0.6,1,0.6,0 V,0,71616,72116,0.6,0,0.6,1 V,0,72116,72616,0.6,1,0.6,0 V,0,72616,73116,0.6,0,0.6,1 V,0,73116,73616,0.6,1,0.6,0 V,0,73616,74116,0.6,0,0.6,1 V,0,74116,74616,0.6,1,0.6,0 V,0,74616,75116,0.6,0,0.6,1
Sprite,Foreground,Centre,"SB\triangle2.png",320,240 V,0,70416,70916,0.9,1,0.9,0 M,0,70416,73710,188,520,244,-50 F,0,70416,75416,0.45 R,0,70416,75416,5,15 C,0,70416,75416,220,54,155 P,0,70416,75416,A V,0,70916,71416,0.9,0,0.9,1 V,0,71416,71916,0.9,1,0.9,0 V,0,71916,72416,0.9,0,0.9,1 V,0,72416,72916,0.9,1,0.9,0 V,0,72916,73416,0.9,0,0.9,1 V,0,73416,73916,0.9,1,0.9,0 V,0,73916,74416,0.9,0,0.9,1 V,0,74416,74916,0.9,1,0.9,0 V,0,74916,75416,0.9,0,0.9,1
Sprite,Foreground,Centre,"SB\triangle2.png",320,240 V,0,70716,71216,0.6,0.7,0.6,0 M,0,70716,75271,-59,520,16,-50 F,0,70716,75716,0.57 R,0,70716,75716,3,14 C,0,70716,75716,220,54,155 P,0,70716,75716,A V,0,71216,71716,0.6,0,0.6,0.7 V,0,71716,72216,0.6,0.7,0.6,0 V,0,72216,72716,0.6,0,0.6,0.7 V,0,72716,73216,0.6,0.7,0.6,0 V,0,73216,73716,0.6,0,0.6,0.7 V,0,73716,74216,0.6,0.7,0.6,0 V,0,74216,74716,0.6,0,0.6,0.7 V,0,74716,75216,0.6,0.7,0.6,0 V,0,75216,75716,0.6,0,0.6,0.7
Sprite,Foreground,Centre,"SB\triangle2.png",320,240 V,0,71016,71516,0.8,0.6,0.8,0 M,0,71016,74912,-158,520,-160,-50 F,0,71016,76016,0.59 R,0,71016,76016,4,16 C,0,71016,76016,220,54,155 P,0,71016,76016,A V,0,71516,72016,0.8,0,0.8,0.6 V,0,72016,72516,0.8,0.6,0.8,0 V,0,72516,73016,0.8,0,0.8,0.6 V,0,73016,73516,0.8,0.6,0.8,0 V,0,73516,74016,0.8,0,0.8,0.6 V,0,74016,74516,0.8,0.6,0.8,0 V,0,74516,75016,0.8,0,0.8,0.6 V,0,75016,75516,0.8,0.6,0.8,0 V,0,75516,76016,0.8,0,0.8,0.6
Sprite,Foreground,Centre,"SB\triangle2.png",320,240 V,0,71316,71816,1.1,0.7,1.1,0 M,0,71316,76055,-56,520,-87,-50 F,0,71316,76316,0.69 R,0,71316,76316,2,14 C,0,71316,76316,220,54,155 P,0,71316,76316,A V,0,71816,72316,1.1,0,1.1,0.7 V,0,72316,72816,1.1,0.7,1.1,0 V,0,72816,73316,1.1,0,1.1,0.7 V,0,73316,73816,1.1,0.7,1.1,0 V,0,73816,74316,1.1,0,1.1,0.7 V,0,74316,74816,1.1,0.7,1.1,0 V,0,74816,75316,1.1,0,1.1,0.7 V,0,75316,75816,1.1,0.7,1.1,0 V,0,75816,76316,1.1,0,1.1,0.7
Sprite,Foreground,Centre,"SB\triangle2.png",320,240 V,0,71616,72116,0.9,0.8,0.9,0 M,0,71616,75870,196,520,361,-50 F,0,71616,76616,0.58 R,0,71616,76616,1,11 C,0,71616,76616,220,54,155 P,0,71616,76616,A V,0,72116,72616,0.9,0,0.9,0.8 V,0,72616,73116,0.9,0.8,0.9,0 V,0,73116,73616,0.9,0,0.9,0.8 V,0,73616,74116,0.9,0.8,0.9,0 V,0,74116,74616,0.9,0,0.9,0.8 V,0,74616,75116,0.9,0.8,0.9,0 V,0,75116,75616,0.9,0,0.9,0.8 V,0,75616,76116,0.9,0.8,0.9,0 V,0,76116,76616,0.9,0,0.9,0.8
Sprite,Foreground,Centre,"SB\triangle2.png",320,240 V,0,71916,72416,0.8,1,0.8,0 M,0,71916,76685,526,520,504,-50 F,0,71916,76916,0.6 R,0,71916,76916,6,18 C,0,71916,76916,220,54,155 P,0,71916,76916,A V,0,72416,72916,0.8,0,0.8,1 V,0,72916,73416,0.8,1,0.8,0 V,0,73416,73916,0.8,0,0.8,1 V,0,73916,74416,0.8,1,0.8,0 V,0,74416,74916,0.8,0,0.8,1 V,0,74916,75416,0.8,1,0.8,0 V,0,75416,75916,0.8,0,0.8,1 V,0,75916,76416,0.8,1,0.8,0 V,0,76416,76916,0.8,0,0.8,1
Sprite,Foreground,Centre,"SB\triangle2.png",320,240 V,0,72216,72716,0.6,0.7,0.6,0 M,0,72216,77127,-125,520,-165,-50 F,0,72216,77216,0.58 R,0,72216,77216,4,12 C,0,72216,77216,220,54,155 P,0,72216,77216,A V,0,72716,73216,0.6,0,0.6,0.7 V,0,73216,73716,0.6,0.7,0.6,0 V,0,73716,74216,0.6,0,0.6,0.7 V,0,74216,74716,0.6,0.7,0.6,0 V,0,74716,75216,0.6,0,0.6,0.7 V,0,75216,75716,0.6,0.7,0.6,0 V,0,75716,76216,0.6,0,0.6,0.7 V,0,76216,76716,0.6,0.7,0.6,0 V,0,76716,77216,0.6,0,0.6,0.7
Sprite,Foreground,Centre,"SB\triangle2.png",320,240 V,0,72516,73016,1,0.9,1,0 M,0,72516,76208,-65,520,-150,-50 F,0,72516,77516,0.65 R,0,72516,77516,2,12 C,0,72516,77516,220,54,155 P,0,72516,77516,A V,0,73016,73516,1,0,1,0.9 V,0,73516,74016,1,0.9,1,0 V,0,74016,74516,1,0,1,0.9 V,0,74516,75016,1,0.9,1,0 V,0,75016,75516,1,0,1,0.9 V,0,75516,76016,1,0.9,1,0 V,0,76016,76516,1,0,1,0.9 V,0,76516,77016,1,0.9,1,0 V,0,77016,77516,1,0,1,0.9
Sprite,Foreground,Centre,"SB\triangle2.png",320,240 V,0,72816,73316,1.1,0.8,1.1,0 M,0,72816,77058,571,520,557,-50 F,0,72816,77816,0.67 R,0,72816,77816,3,9 C,0,72816,77816,220,54,155 P,0,72816,77816,A V,0,73316,73816,1.1,0,1.1,0.8 V,0,73816,74316,1.1,0.8,1.1,0 V,0,74316,74816,1.1,0,1.1,0.8 V,0,74816,75316,1.1,0.8,1.1,0 V,0,75316,75816,1.1,0,1.1,0.8 V,0,75816,76316,1.1,0.8,1.1,0 V,0,76316,76816,1.1,0,1.1,0.8 V,0,76816,77316,1.1,0.8,1.1,0 V,0,77316,77816,1.1,0,1.1,0.8
Sprite,Foreground,Centre,"SB\triangle2.png",320,240 V,0,73116,73616,1,0.9,1,0 M,0,73116,77164,394,520,554,-50 F,0,73116,78116,0.62 R,0,73116,78116,2,14 C,0,73116,78116,220,54,155 P,0,73116,78116,A V,0,73616,74116,1,0,1,0.9 V,0,74116,74616,1,0.9,1,0 V,0,74616,75116,1,0,1,0.9 V,0,75116,75616,1,0.9,1,0 V,0,75616,76116,1,0,1,0.9 V,0,76116,76616,1,0.9,1,0 V,0,76616,77116,1,0,1,0.9 V,0,77116,77616,1,0.9,1,0 V,0,77616,78116,1,0,1,0.9
Sprite,Foreground,Centre,"SB\triangle2.png",320,240 V,0,73416,73916,0.8,0.7,0.8,0 M,0,73416,76730,-197,520,-329,-50 F,0,73416,78416,0.62 R,0,73416,78416,1,7 C,0,73416,78416,220,54,155 P,0,73416,78416,A V,0,73916,74416,0.8,0,0.8,0.7 V,0,74416,74916,0.8,0.7,0.8,0 V,0,74916,75416,0.8,0,0.8,0.7 V,0,75416,75916,0.8,0.7,0.8,0 V,0,75916,76416,0.8,0,0.8,0.7 V,0,76416,76916,0.8,0.7,0.8,0 V,0,76916,77416,0.8,0,0.8,0.7 V,0,77416,77916,0.8,0.7,0.8,0 V,0,77916,78416,0.8,0,0.8,0.7
Sprite,Foreground,Centre,"SB\triangle2.png",320,240 V,0,73716,74216,0.9,0.8,0.9,0 M,0,73716,78296,-36,520,-123,-50 F,0,73716,78716,0.48 R,0,73716,78716,4,11 C,0,73716,78716,220,54,155 P,0,73716,78716,A V,0,74216,74716,0.9,0,0.9,0.8 V,0,74716,75216,0.9,0.8,0.9,0 V,0,75216,75716,0.9,0,0.9,0.8 V,0,75716,76216,0.9,0.8,0.9,0 V,0,76216,76716,0.9,0,0.9,0.8 V,0,76716,77216,0.9,0.8,0.9,0 V,0,77216,77716,0.9,0,0.9,0.8 V,0,77716,78216,0.9,0.8,0.9,0 V,0,78216,78716,0.9,0,0.9,0.8
Sprite,Foreground,Centre,"SB\triangle2.png",320,240 V,0,74016,74516,0.9,0.7,0.9,0 M,0,74016,78398,688,520,790,-50 F,0,74016,79016,0.51 R,0,74016,79016,3,13 C,0,74016,79016,220,54,155 P,0,74016,79016,A V,0,74516,75016,0.9,0,0.9,0.7 V,0,75016,75516,0.9,0.7,0.9,0 V,0,75516,76016,0.9,0,0.9,0.7 V,0,76016,76516,0.9,0.7,0.9,0 V,0,76516,77016,0.9,0,0.9,0.7 V,0,77016,77516,0.9,0.7,0.9,0 V,0,77516,78016,0.9,0,0.9,0.7 V,0,78016,78516,0.9,0.7,0.9,0 V,0,78516,79016,0.9,0,0.9,0.7
Sprite,Foreground,Centre,"SB\triangle2.png",320,240 V,0,74316,74816,0.9,0.9,0.9,0 M,0,74316,79199,697,520,804,-50 F,0,74316,79316,0.67 R,0,74316,79316,3,12 C,0,74316,79316,220,54,155 P,0,74316,79316,A V,0,74816,75316,0.9,0,0.9,0.9 V,0,75316,75816,0.9,0.9,0.9,0 V,0,75816,76316,0.9,0,0.9,0.9 V,0,76316,76816,0.9,0.9,0.9,0 V,0,76816,77316,0.9,0,0.9,0.9 V,0,77316,77816,0.9,0.9,0.9,0 V,0,77816,78316,0.9,0,0.9,0.9 V,0,78316,78816,0.9,0.9,0.9,0 V,0,78816,79316,0.9,0,0.9,0.9
Sprite,Foreground,Centre,"SB\triangle2.png",320,240 V,0,74616,75116,1,0.9,1,0 M,0,74616,79057,384,520,473,-50 F,0,74616,79616,0.49 R,0,74616,79616,3,10 C,0,74616,79616,220,54,155 P,0,74616,79616,A V,0,75116,75616,1,0,1,0.9 V,0,75616,76116,1,0.9,1,0 V,0,76116,76616,1,0,1,0.9 V,0,76616,77116,1,0.9,1,0 V,0,77116,77616,1,0,1,0.9 V,0,77616,78116,1,0.9,1,0 V,0,78116,78616,1,0,1,0.9 V,0,78616,79116,1,0.9,1,0 V,0,79116,79616,1,0,1,0.9
Sprite,Foreground,Centre,"SB\triangle2.png",320,240 V,0,74916,75416,1,0.9,1,0 M,0,74916,77999,-149,520,-208,-50 F,0,74916,79916,0.52 R,0,74916,79916,1,12 C,0,74916,79916,220,54,155 P,0,74916,79916,A V,0,75416,75916,1,0,1,0.9 V,0,75916,76416,1,0.9,1,0 V,0,76416,76916,1,0,1,0.9 V,0,76916,77416,1,0.9,1,0 V,0,77416,77916,1,0,1,0.9 V,0,77916,78416,1,0.9,1,0 V,0,78416,78916,1,0,1,0.9 V,0,78916,79416,1,0.9,1,0 V,0,79416,79916,1,0,1,0.9
Sprite,Foreground,Centre,"SB\triangle2.png",320,240 V,0,75216,75716,1.1,0.7,1.1,0 M,0,75216,78425,675,520,746,-50 F,0,75216,80216,0.62 R,0,75216,80216,2,12 C,0,75216,80216,220,54,155 P,0,75216,80216,A V,0,75716,76216,1.1,0,1.1,0.7 V,0,76216,76716,1.1,0.7,1.1,0 V,0,76716,77216,1.1,0,1.1,0.7 V,0,77216,77716,1.1,0.7,1.1,0 V,0,77716,78216,1.1,0,1.1,0.7 V,0,78216,78716,1.1,0.7,1.1,0 V,0,78716,79216,1.1,0,1.1,0.7 V,0,79216,79716,1.1,0.7,1.1,0 V,0,79716,80216,1.1,0,1.1,0.7
Sprite,Foreground,Centre,"SB\triangle2.png",320,240 V,0,75516,76016,0.8,1,0.8,0 M,0,75516,80340,443,520,431,-50 F,0,75516,80516,0.69 R,0,75516,80516,0,12 C,0,75516,80516,220,54,155 P,0,75516,80516,A V,0,76016,76516,0.8,0,0.8,1 V,0,76516,77016,0.8,1,0.8,0 V,0,77016,77516,0.8,0,0.8,1 V,0,77516,78016,0.8,1,0.8,0 V,0,78016,78516,0.8,0,0.8,1 V,0,78516,79016,0.8,1,0.8,0 V,0,79016,79516,0.8,0,0.8,1 V,0,79516,80016,0.8,1,0.8,0 V,0,80016,80516,0.8,0,0.8,1
Sprite,Foreground,Centre,"SB\triangle2.png",320,240 V,0,75816,76316,0.9,0.7,0.9,0 M,0,75816,79623,190,520,350,-50 F,0,75816,80816,0.54 R,0,75816,80816,6,16 C,0,75816,80816,220,54,155 P,0,75816,80816,A V,0,76316,76816,0.9,0,0.9,0.7 V,0,76816,77316,0.9,0.7,0.9,0 V,0,77316,77816,0.9,0,0.9,0.7 V,0,77816,78316,0.9,0.7,0.9,0 V,0,78316,78816,0.9,0,0.9,0.7 V,0,78816,79316,0.9,0.7,0.9,0 V,0,79316,79816,0.9,0,0.9,0.7 V,0,79816,80316,0.9,0.7,0.9,0 V,0,80316,80816,0.9,0,0.9,0.7
Sprite,Foreground,Centre,"SB\triangle2.png",320,240 V,0,76116,76616,0.8,0.8,0.8,0 M,0,76116,81001,-20,520,64,-50 F,0,76116,81116,0.5 R,0,76116,81116,4,14 C,0,76116,81116,220,54,155 P,0,76116,81116,A V,0,76616,77116,0.8,0,0.8,0.8 V,0,77116,77616,0.8,0.8,0.8,0 V,0,77616,78116,0.8,0,0.8,0.8 V,0,78116,78616,0.8,0.8,0.8,0 V,0,78616,79116,0.8,0,0.8,0.8 V,0,79116,79616,0.8,0.8,0.8,0 V,0,79616,80116,0.8,0,0.8,0.8 V,0,80116,80616,0.8,0.8,0.8,0 V,0,80616,81116,0.8,0,0.8,0.8
Sprite,Foreground,Centre,"SB\triangle2.png",320,240 V,0,76416,76916,0.6,0.5,0.6,0 M,0,76416,81322,496,520,596,-50 F,0,76416,81416,0.46 R,0,76416,81416,0,9 C,0,76416,81416,220,54,155 P,0,76416,81416,A V,0,76916,77416,0.6,0,0.6,0.5 V,0,77416,77916,0.6,0.5,0.6,0 V,0,77916,78416,0.6,0,0.6,0.5 V,0,78416,78916,0.6,0.5,0.6,0 V,0,78916,79416,0.6,0,0.6,0.5 V,0,79416,79916,0.6,0.5,0.6,0 V,0,79916,80416,0.6,0,0.6,0.5 V,0,80416,80916,0.6,0.5,0.6,0 V,0,80916,81416,0.6,0,0.6,0.5
Sprite,Foreground,Centre,"SB\triangle2.png",320,240 V,0,76716,77216,0.8,0.6,0.8,0 M,0,76716,79897,43,520,161,-50 F,0,76716,81716,0.52 R,0,76716,81716,3,14 C,0,76716,81716,220,54,155 P,0,76716,81716,A V,0,77216,77716,0.8,0,0.8,0.6 V,0,77716,78216,0.8,0.6,0.8,0 V,0,78216,78716,0.8,0,0.8,0.6 V,0,78716,79216,0.8,0.6,0.8,0 V,0,79216,79716,0.8,0,0.8,0.6 V,0,79716,80216,0.8,0.6,0.8,0 V,0,80216,80716,0.8,0,0.8,0.6 V,0,80716,81216,0.8,0.6,0.8,0 V,0,81216,81716,0.8,0,0.8,0.6
Sprite,Foreground,Centre,"SB\triangle2.png",320,240 V,0,77016,77516,0.7,0.9,0.7,0 M,0,77016,81686,585,520,457,-50 F,0,77016,82016,0.61 R,0,77016,82016,1,12 C,0,77016,82016,220,54,155 P,0,77016,82016,A V,0,77516,78016,0.7,0,0.7,0.9 V,0,78016,78516,0.7,0.9,0.7,0 V,0,78516,79016,0.7,0,0.7,0.9 V,0,79016,79516,0.7,0.9,0.7,0 V,0,79516,80016,0.7,0,0.7,0.9 V,0,80016,80516,0.7,0.9,0.7,0 V,0,80516,81016,0.7,0,0.7,0.9 V,0,81016,81516,0.7,0.9,0.7,0 V,0,81516,82016,0.7,0,0.7,0.9
Sprite,Foreground,Centre,"SB\triangle2.png",320,240 V,0,77316,77816,0.7,0.8,0.7,0 M,0,77316,80389,442,520,369,-50 F,0,77316,82316,0.64 R,0,77316,82316,1,10 C,0,77316,82316,220,54,155 P,0,77316,82316,A V,0,77816,78316,0.7,0,0.7,0.8 V,0,78316,78816,0.7,0.8,0.7,0 V,0,78816,79316,0.7,0,0.7,0.8 V,0,79316,79816,0.7,0.8,0.7,0 V,0,79816,80316,0.7,0,0.7,0.8 V,0,80316,80816,0.7,0.8,0.7,0 V,0,80816,81316,0.7,0,0.7,0.8 V,0,81316,81816,0.7,0.8,0.7,0 V,0,81816,82316,0.7,0,0.7,0.8
Sprite,Foreground,Centre,"SB\triangle2.png",320,240 V,0,77616,78116,1.1,0.6,1.1,0 M,0,77616,80646,674,520,707,-50 F,0,77616,82616,0.57 R,0,77616,82616,4,16 C,0,77616,82616,220,54,155 P,0,77616,82616,A V,0,78116,78616,1.1,0,1.1,0.6 V,0,78616,79116,1.1,0.6,1.1,0 V,0,79116,79616,1.1,0,1.1,0.6 V,0,79616,80116,1.1,0.6,1.1,0 V,0,80116,80616,1.1,0,1.1,0.6 V,0,80616,81116,1.1,0.6,1.1,0 V,0,81116,81616,1.1,0,1.1,0.6 V,0,81616,82116,1.1,0.6,1.1,0 V,0,82116,82616,1.1,0,1.1,0.6
Sprite,Foreground,Centre,"SB\triangle2.png",320,240 V,0,77916,78416,0.8,0.8,0.8,0 M,0,77916,82753,55,520,10,-50 F,0,77916,82916,0.61 R,0,77916,82916,1,8 C,0,77916,82916,220,54,155 P,0,77916,82916,A V,0,78416,78916,0.8,0,0.8,0.8 V,0,78916,79416,0.8,0.8,0.8,0 V,0,79416,79916,0.8,0,0.8,0.8 V,0,79916,80416,0.8,0.8,0.8,0 V,0,80416,80916,0.8,0,0.8,0.8 V,0,80916,81416,0.8,0.8,0.8,0 V,0,81416,81916,0.8,0,0.8,0.8 V,0,81916,82416,0.8,0.8,0.8,0 V,0,82416,82916,0.8,0,0.8,0.8
Sprite,Foreground,Centre,"SB\triangle2.png",320,240 V,0,78216,78716,0.6,0.7,0.6,0 M,0,78216,82044,138,520,255,-50 F,0,78216,83216,0.7 R,0,78216,83216,5,16 C,0,78216,83216,220,54,155 P,0,78216,83216,A V,0,78716,79216,0.6,0,0.6,0.7 V,0,79216,79716,0.6,0.7,0.6,0 V,0,79716,80216,0.6,0,0.6,0.7 V,0,80216,80716,0.6,0.7,0.6,0 V,0,80716,81216,0.6,0,0.6,0.7 V,0,81216,81716,0.6,0.7,0.6,0 V,0,81716,82216,0.6,0,0.6,0.7 V,0,82216,82716,0.6,0.7,0.6,0 V,0,82716,83216,0.6,0,0.6,0.7
Sprite,Foreground,Centre,"SB\triangle2.png",320,240 V,0,78516,79016,0.6,0.7,0.6,0 M,0,78516,82522,-190,520,-308,-50 F,0,78516,83516,0.68 R,0,78516,83516,5,13 C,0,78516,83516,220,54,155 P,0,78516,83516,A V,0,79016,79516,0.6,0,0.6,0.7 V,0,79516,80016,0.6,0.7,0.6,0 V,0,80016,80516,0.6,0,0.6,0.7 V,0,80516,81016,0.6,0.7,0.6,0 V,0,81016,81516,0.6,0,0.6,0.7 V,0,81516,82016,0.6,0.7,0.6,0 V,0,82016,82516,0.6,0,0.6,0.7 V,0,82516,83016,0.6,0.7,0.6,0 V,0,83016,83516,0.6,0,0.6,0.7
Sprite,Foreground,Centre,"SB\triangle2.png",320,240 V,0,78816,79316,1,0.5,1,0 M,0,78816,82025,50,520,62,-50 F,0,78816,83816,0.47 R,0,78816,83816,1,9 C,0,78816,83816,220,54,155 P,0,78816,83816,A V,0,79316,79816,1,0,1,0.5 V,0,79816,80316,1,0.5,1,0 V,0,80316,80816,1,0,1,0.5 V,0,80816,81316,1,0.5,1,0 V,0,81316,81816,1,0,1,0.5 V,0,81816,82316,1,0.5,1,0 V,0,82316,82816,1,0,1,0.5 V,0,82816,83316,1,0.5,1,0 V,0,83316,83816,1,0,1,0.5
Sprite,Foreground,Centre,"SB\triangle2.png",320,240 V,0,79116,79616,1,1,1,0 M,0,79116,84053,451,520,616,-50 F,0,79116,84116,0.46 R,0,79116,84116,4,15 C,0,79116,84116,220,54,155 P,0,79116,84116,A V,0,79616,80116,1,0,1,1 V,0,80116,80616,1,1,1,0 V,0,80616,81116,1,0,1,1 V,0,81116,81616,1,1,1,0 V,0,81616,82116,1,0,1,1 V,0,82116,82616,1,1,1,0 V,0,82616,83116,1,0,1,1 V,0,83116,83616,1,1,1,0 V,0,83616,84116,1,0,1,1
Sprite,Foreground,Centre,"SB\triangle2.png",320,240 V,0,79416,79916,0.9,1,0.9,0 M,0,79416,83718,98,520,115,-50 F,0,79416,84416,0.51 R,0,79416,84416,1,10 C,0,79416,84416,220,54,155 P,0,79416,84416,A V,0,79916,80416,0.9,0,0.9,1 V,0,80416,80916,0.9,1,0.9,0 V,0,80916,81416,0.9,0,0.9,1 V,0,81416,81916,0.9,1,0.9,0 V,0,81916,82416,0.9,0,0.9,1 V,0,82416,82916,0.9,1,0.9,0 V,0,82916,83416,0.9,0,0.9,1 V,0,83416,83916,0.9,1,0.9,0 V,0,83916,84416,0.9,0,0.9,1
Sprite,Foreground,Centre,"SB\triangle2.png",320,240 V,0,79716,80216,0.8,0.5,0.8,0 M,0,79716,83356,663,520,742,-50 F,0,79716,84716,0.55 R,0,79716,84716,4,10 C,0,79716,84716,220,54,155 P,0,79716,84716,A V,0,80216,80716,0.8,0,0.8,0.5 V,0,80716,81216,0.8,0.5,0.8,0 V,0,81216,81716,0.8,0,0.8,0.5 V,0,81716,82216,0.8,0.5,0.8,0 V,0,82216,82716,0.8,0,0.8,0.5 V,0,82716,83216,0.8,0.5,0.8,0 V,0,83216,83716,0.8,0,0.8,0.5 V,0,83716,84216,0.8,0.5,0.8,0 V,0,84216,84716,0.8,0,0.8,0.5
Sprite,Foreground,Centre,"SB\triangle2.png",320,240 V,0,80016,80516,1,0.7,1,0 M,0,80016,83443,290,520,378,-50 F,0,80016,85016,0.65 R,0,80016,85016,6,12 C,0,80016,85016,220,54,155 P,0,80016,85016,A V,0,80516,81016,1,0,1,0.7 V,0,81016,81516,1,0.7,1,0 V,0,81516,82016,1,0,1,0.7 V,0,82016,82516,1,0.7,1,0 V,0,82516,83016,1,0,1,0.7 V,0,83016,83516,1,0.7,1,0 V,0,83516,84016,1,0,1,0.7 V,0,84016,84516,1,0.7,1,0 V,0,84516,85016,1,0,1,0.7
Sprite,Foreground,Centre,"SB\triangle2.png",320,240 V,0,80316,80816,0.6,0.9,0.6,0 M,0,80316,83884,-198,520,-228,-50 F,0,80316,85316,0.51 R,0,80316,85316,4,10 C,0,80316,85316,220,54,155 P,0,80316,85316,A V,0,80816,81316,0.6,0,0.6,0.9 V,0,81316,81816,0.6,0.9,0.6,0 V,0,81816,82316,0.6,0,0.6,0.9 V,0,82316,82816,0.6,0.9,0.6,0 V,0,82816,83316,0.6,0,0.6,0.9 V,0,83316,83816,0.6,0.9,0.6,0 V,0,83816,84316,0.6,0,0.6,0.9 V,0,84316,84816,0.6,0.9,0.6,0 V,0,84816,85316,0.6,0,0.6,0.9
Sprite,Foreground,Centre,"SB\triangle2.png",320,240 V,0,80616,81116,0.7,0.9,0.7,0 M,0,80616,84954,44,520,50,-50 F,0,80616,85616,0.58 R,0,80616,85616,3,13 C,0,80616,85616,220,54,155 P,0,80616,85616,A V,0,81116,81616,0.7,0,0.7,0.9 V,0,81616,82116,0.7,0.9,0.7,0 V,0,82116,82616,0.7,0,0.7,0.9 V,0,82616,83116,0.7,0.9,0.7,0 V,0,83116,83616,0.7,0,0.7,0.9 V,0,83616,84116,0.7,0.9,0.7,0 V,0,84116,84616,0.7,0,0.7,0.9 V,0,84616,85116,0.7,0.9,0.7,0 V,0,85116,85616,0.7,0,0.7,0.9
Sprite,Foreground,Centre,"SB\triangle2.png",320,240 V,0,80916,81416,0.9,0.5,0.9,0 M,0,80916,84842,501,520,559,-50 F,0,80916,85916,0.64 R,0,80916,85916,1,8 C,0,80916,85916,220,54,155 P,0,80916,85916,A V,0,81416,81916,0.9,0,0.9,0.5 V,0,81916,82416,0.9,0.5,0.9,0 V,0,82416,82916,0.9,0,0.9,0.5 V,0,82916,83416,0.9,0.5,0.9,0 V,0,83416,83916,0.9,0,0.9,0.5 V,0,83916,84416,0.9,0.5,0.9,0 V,0,84416,84916,0.9,0,0.9,0.5 V,0,84916,85416,0.9,0.5,0.9,0 V,0,85416,85916,0.9,0,0.9,0.5
Sprite,Foreground,Centre,"SB\triangle.png",320,240 V,0,42216,42716,1,1,1,0 M,0,42216,45572,-115,520,-164,-50 F,0,42216,47216,0.52 R,0,42216,47216,4,13 C,0,42216,47216,220,54,155 P,0,42216,47216,A V,0,42716,43216,1,0,1,1 V,0,43216,43716,1,1,1,0 V,0,43716,44216,1,0,1,1 V,0,44216,44716,1,1,1,0 V,0,44716,45216,1,0,1,1 V,0,45216,45716,1,1,1,0 V,0,45716,46216,1,0,1,1 V,0,46216,46716,1,1,1,0 V,0,46716,47216,1,0,1,1
Sprite,Foreground,Centre,"SB\triangle.png",320,240 V,0,42516,43016,0.9,0.6,0.9,0 M,0,42516,45849,574,520,764,-50 F,0,42516,47516,0.5 R,0,42516,47516,3,14 C,0,42516,47516,220,54,155 P,0,42516,47516,A V,0,43016,43516,0.9,0,0.9,0.6 V,0,43516,44016,0.9,0.6,0.9,0 V,0,44016,44516,0.9,0,0.9,0.6 V,0,44516,45016,0.9,0.6,0.9,0 V,0,45016,45516,0.9,0,0.9,0.6 V,0,45516,46016,0.9,0.6,0.9,0 V,0,46016,46516,0.9,0,0.9,0.6 V,0,46516,47016,0.9,0.6,0.9,0 V,0,47016,47516,0.9,0,0.9,0.6
Sprite,Foreground,Centre,"SB\triangle.png",320,240 V,0,42816,43316,1.1,1,1.1,0 M,0,42816,47339,246,520,74,-50 F,0,42816,47816,0.54 R,0,42816,47816,6,13 C,0,42816,47816,220,54,155 P,0,42816,47816,A V,0,43316,43816,1.1,0,1.1,1 V,0,43816,44316,1.1,1,1.1,0 V,0,44316,44816,1.1,0,1.1,1 V,0,44816,45316,1.1,1,1.1,0 V,0,45316,45816,1.1,0,1.1,1 V,0,45816,46316,1.1,1,1.1,0 V,0,46316,46816,1.1,0,1.1,1 V,0,46816,47316,1.1,1,1.1,0 V,0,47316,47816,1.1,0,1.1,1
Sprite,Foreground,Centre,"SB\triangle.png",320,240 V,0,43116,43616,1,0.5,1,0 M,0,43116,47253,347,520,386,-50 F,0,43116,48116,0.59 R,0,43116,48116,4,16 C,0,43116,48116,220,54,155 P,0,43116,48116,A V,0,43616,44116,1,0,1,0.5 V,0,44116,44616,1,0.5,1,0 V,0,44616,45116,1,0,1,0.5 V,0,45116,45616,1,0.5,1,0 V,0,45616,46116,1,0,1,0.5 V,0,46116,46616,1,0.5,1,0 V,0,46616,47116,1,0,1,0.5 V,0,47116,47616,1,0.5,1,0 V,0,47616,48116,1,0,1,0.5
Sprite,Foreground,Centre,"SB\triangle.png",320,240 V,0,43416,43916,0.9,0.8,0.9,0 M,0,43416,46529,427,520,511,-50 F,0,43416,48416,0.54 R,0,43416,48416,6,17 C,0,43416,48416,220,54,155 P,0,43416,48416,A V,0,43916,44416,0.9,0,0.9,0.8 V,0,44416,44916,0.9,0.8,0.9,0 V,0,44916,45416,0.9,0,0.9,0.8 V,0,45416,45916,0.9,0.8,0.9,0 V,0,45916,46416,0.9,0,0.9,0.8 V,0,46416,46916,0.9,0.8,0.9,0 V,0,46916,47416,0.9,0,0.9,0.8 V,0,47416,47916,0.9,0.8,0.9,0 V,0,47916,48416,0.9,0,0.9,0.8
Sprite,Foreground,Centre,"SB\triangle.png",320,240 V,0,43716,44216,0.9,1,0.9,0 M,0,43716,47283,382,520,306,-50 F,0,43716,48716,0.52 R,0,43716,48716,4,15 C,0,43716,48716,220,54,155 P,0,43716,48716,A V,0,44216,44716,0.9,0,0.9,1 V,0,44716,45216,0.9,1,0.9,0 V,0,45216,45716,0.9,0,0.9,1 V,0,45716,46216,0.9,1,0.9,0 V,0,46216,46716,0.9,0,0.9,1 V,0,46716,47216,0.9,1,0.9,0 V,0,47216,47716,0.9,0,0.9,1 V,0,47716,48216,0.9,1,0.9,0 V,0,48216,48716,0.9,0,0.9,1
Sprite,Foreground,Centre,"SB\triangle.png",320,240 V,0,44016,44516,0.6,0.5,0.6,0 M,0,44016,47719,-162,520,-96,-50 F,0,44016,49016,0.59 R,0,44016,49016,0,11 C,0,44016,49016,220,54,155 P,0,44016,49016,A V,0,44516,45016,0.6,0,0.6,0.5 V,0,45016,45516,0.6,0.5,0.6,0 V,0,45516,46016,0.6,0,0.6,0.5 V,0,46016,46516,0.6,0.5,0.6,0 V,0,46516,47016,0.6,0,0.6,0.5 V,0,47016,47516,0.6,0.5,0.6,0 V,0,47516,48016,0.6,0,0.6,0.5 V,0,48016,48516,0.6,0.5,0.6,0 V,0,48516,49016,0.6,0,0.6,0.5
Sprite,Foreground,Centre,"SB\triangle.png",320,240 V,0,44316,44816,0.8,0.9,0.8,0 M,0,44316,49296,461,520,504,-50 F,0,44316,49316,0.65 R,0,44316,49316,3,14 C,0,44316,49316,220,54,155 P,0,44316,49316,A V,0,44816,45316,0.8,0,0.8,0.9 V,0,45316,45816,0.8,0.9,0.8,0 V,0,45816,46316,0.8,0,0.8,0.9 V,0,46316,46816,0.8,0.9,0.8,0 V,0,46816,47316,0.8,0,0.8,0.9 V,0,47316,47816,0.8,0.9,0.8,0 V,0,47816,48316,0.8,0,0.8,0.9 V,0,48316,48816,0.8,0.9,0.8,0 V,0,48816,49316,0.8,0,0.8,0.9
Sprite,Foreground,Centre,"SB\triangle.png",320,240 V,0,44616,45116,1,0.6,1,0 M,0,44616,49135,-77,520,15,-50 F,0,44616,49616,0.49 R,0,44616,49616,0,7 C,0,44616,49616,220,54,155 P,0,44616,49616,A V,0,45116,45616,1,0,1,0.6 V,0,45616,46116,1,0.6,1,0 V,0,46116,46616,1,0,1,0.6 V,0,46616,47116,1,0.6,1,0 V,0,47116,47616,1,0,1,0.6 V,0,47616,48116,1,0.6,1,0 V,0,48116,48616,1,0,1,0.6 V,0,48616,49116,1,0.6,1,0 V,0,49116,49616,1,0,1,0.6
Sprite,Foreground,Centre,"SB\triangle.png",320,240 V,0,44916,45416,0.7,0.9,0.7,0 M,0,44916,49058,-129,520,35,-50 F,0,44916,49916,0.68 R,0,44916,49916,1,7 C,0,44916,49916,220,54,155 P,0,44916,49916,A V,0,45416,45916,0.7,0,0.7,0.9 V,0,45916,46416,0.7,0.9,0.7,0 V,0,46416,46916,0.7,0,0.7,0.9 V,0,46916,47416,0.7,0.9,0.7,0 V,0,47416,47916,0.7,0,0.7,0.9 V,0,47916,48416,0.7,0.9,0.7,0 V,0,48416,48916,0.7,0,0.7,0.9 V,0,48916,49416,0.7,0.9,0.7,0 V,0,49416,49916,0.7,0,0.7,0.9
Sprite,Foreground,Centre,"SB\triangle.png",320,240 V,0,45216,45716,0.6,1,0.6,0 M,0,45216,49780,-20,520,31,-50 F,0,45216,50216,0.53 R,0,45216,50216,2,14 C,0,45216,50216,220,54,155 P,0,45216,50216,A V,0,45716,46216,0.6,0,0.6,1 V,0,46216,46716,0.6,1,0.6,0 V,0,46716,47216,0.6,0,0.6,1 V,0,47216,47716,0.6,1,0.6,0 V,0,47716,48216,0.6,0,0.6,1 V,0,48216,48716,0.6,1,0.6,0 V,0,48716,49216,0.6,0,0.6,1 V,0,49216,49716,0.6,1,0.6,0 V,0,49716,50216,0.6,0,0.6,1
Sprite,Foreground,Centre,"SB\triangle.png",320,240 V,0,45516,46016,0.9,0.7,0.9,0 M,0,45516,50493,130,520,325,-50 F,0,45516,50516,0.55 R,0,45516,50516,4,11 C,0,45516,50516,220,54,155 P,0,45516,50516,A V,0,46016,46516,0.9,0,0.9,0.7 V,0,46516,47016,0.9,0.7,0.9,0 V,0,47016,47516,0.9,0,0.9,0.7 V,0,47516,48016,0.9,0.7,0.9,0 V,0,48016,48516,0.9,0,0.9,0.7 V,0,48516,49016,0.9,0.7,0.9,0 V,0,49016,49516,0.9,0,0.9,0.7 V,0,49516,50016,0.9,0.7,0.9,0 V,0,50016,50516,0.9,0,0.9,0.7
Sprite,Foreground,Centre,"SB\triangle.png",320,240 V,0,45816,46316,0.8,1,0.8,0 M,0,45816,50686,275,520,253,-50 F,0,45816,50816,0.46 R,0,45816,50816,4,12 C,0,45816,50816,220,54,155 P,0,45816,50816,A V,0,46316,46816,0.8,0,0.8,1 V,0,46816,47316,0.8,1,0.8,0 V,0,47316,47816,0.8,0,0.8,1 V,0,47816,48316,0.8,1,0.8,0 V,0,48316,48816,0.8,0,0.8,1 V,0,48816,49316,0.8,1,0.8,0 V,0,49316,49816,0.8,0,0.8,1 V,0,49816,50316,0.8,1,0.8,0 V,0,50316,50816,0.8,0,0.8,1
Sprite,Foreground,Centre,"SB\triangle.png",320,240 V,0,46116,46616,1,0.6,1,0 M,0,46116,49484,695,520,500,-50 F,0,46116,51116,0.5 R,0,46116,51116,0,7 C,0,46116,51116,220,54,155 P,0,46116,51116,A V,0,46616,47116,1,0,1,0.6 V,0,47116,47616,1,0.6,1,0 V,0,47616,48116,1,0,1,0.6 V,0,48116,48616,1,0.6,1,0 V,0,48616,49116,1,0,1,0.6 V,0,49116,49616,1,0.6,1,0 V,0,49616,50116,1,0,1,0.6 V,0,50116,50616,1,0.6,1,0 V,0,50616,51116,1,0,1,0.6
Sprite,Foreground,Centre,"SB\triangle.png",320,240 V,0,46416,46916,0.8,0.7,0.8,0 M,0,46416,50733,-189,520,-225,-50 F,0,46416,51416,0.51 R,0,46416,51416,0,12 C,0,46416,51416,220,54,155 P,0,46416,51416,A V,0,46916,47416,0.8,0,0.8,0.7 V,0,47416,47916,0.8,0.7,0.8,0 V,0,47916,48416,0.8,0,0.8,0.7 V,0,48416,48916,0.8,0.7,0.8,0 V,0,48916,49416,0.8,0,0.8,0.7 V,0,49416,49916,0.8,0.7,0.8,0 V,0,49916,50416,0.8,0,0.8,0.7 V,0,50416,50916,0.8,0.7,0.8,0 V,0,50916,51416,0.8,0,0.8,0.7
Sprite,Foreground,Centre,"SB\triangle.png",320,240 V,0,46716,47216,0.9,0.9,0.9,0 M,0,46716,51476,-37,520,-14,-50 F,0,46716,51716,0.63 R,0,46716,51716,4,15 C,0,46716,51716,220,54,155 P,0,46716,51716,A V,0,47216,47716,0.9,0,0.9,0.9 V,0,47716,48216,0.9,0.9,0.9,0 V,0,48216,48716,0.9,0,0.9,0.9 V,0,48716,49216,0.9,0.9,0.9,0 V,0,49216,49716,0.9,0,0.9,0.9 V,0,49716,50216,0.9,0.9,0.9,0 V,0,50216,50716,0.9,0,0.9,0.9 V,0,50716,51216,0.9,0.9,0.9,0 V,0,51216,51716,0.9,0,0.9,0.9
Sprite,Foreground,Centre,"SB\triangle.png",320,240 V,0,47016,47516,0.9,0.5,0.9,0 M,0,47016,50404,685,520,876,-50 F,0,47016,52016,0.55 R,0,47016,52016,2,14 C,0,47016,52016,220,54,155 P,0,47016,52016,A V,0,47516,48016,0.9,0,0.9,0.5 V,0,48016,48516,0.9,0.5,0.9,0 V,0,48516,49016,0.9,0,0.9,0.5 V,0,49016,49516,0.9,0.5,0.9,0 V,0,49516,50016,0.9,0,0.9,0.5 V,0,50016,50516,0.9,0.5,0.9,0 V,0,50516,51016,0.9,0,0.9,0.5 V,0,51016,51516,0.9,0.5,0.9,0 V,0,51516,52016,0.9,0,0.9,0.5
Sprite,Foreground,Centre,"SB\triangle.png",320,240 V,0,47316,47816,1,0.8,1,0 M,0,47316,51946,-77,520,96,-50 F,0,47316,52316,0.63 R,0,47316,52316,6,18 C,0,47316,52316,220,54,155 P,0,47316,52316,A V,0,47816,48316,1,0,1,0.8 V,0,48316,48816,1,0.8,1,0 V,0,48816,49316,1,0,1,0.8 V,0,49316,49816,1,0.8,1,0 V,0,49816,50316,1,0,1,0.8 V,0,50316,50816,1,0.8,1,0 V,0,50816,51316,1,0,1,0.8 V,0,51316,51816,1,0.8,1,0 V,0,51816,52316,1,0,1,0.8
Sprite,Foreground,Centre,"SB\triangle.png",320,240 V,0,47616,48116,0.7,0.6,0.7,0 M,0,47616,50784,472,520,291,-50 F,0,47616,52616,0.58 R,0,47616,52616,3,10 C,0,47616,52616,220,54,155 P,0,47616,52616,A V,0,48116,48616,0.7,0,0.7,0.6 V,0,48616,49116,0.7,0.6,0.7,0 V,0,49116,49616,0.7,0,0.7,0.6 V,0,49616,50116,0.7,0.6,0.7,0 V,0,50116,50616,0.7,0,0.7,0.6 V,0,50616,51116,0.7,0.6,0.7,0 V,0,51116,51616,0.7,0,0.7,0.6 V,0,51616,52116,0.7,0.6,0.7,0 V,0,52116,52616,0.7,0,0.7,0.6
Sprite,Foreground,Centre,"SB\triangle.png",320,240 V,0,47916,48416,0.7,0.9,0.7,0 M,0,47916,52389,-27,520,-34,-50 F,0,47916,52916,0.61 R,0,47916,52916,4,14 C,0,47916,52916,220,54,155 P,0,47916,52916,A V,0,48416,48916,0.7,0,0.7,0.9 V,0,48916,49416,0.7,0.9,0.7,0 V,0,49416,49916,0.7,0,0.7,0.9 V,0,49916,50416,0.7,0.9,0.7,0 V,0,50416,50916,0.7,0,0.7,0.9 V,0,50916,51416,0.7,0.9,0.7,0 V,0,51416,51916,0.7,0,0.7,0.9 V,0,51916,52416,0.7,0.9,0.7,0 V,0,52416,52916,0.7,0,0.7,0.9
Sprite,Foreground,Centre,"SB\triangle.png",320,240 V,0,48216,48716,0.6,0.6,0.6,0 M,0,48216,52919,-172,520,-69,-50 F,0,48216,53216,0.46 R,0,48216,53216,4,14 C,0,48216,53216,220,54,155 P,0,48216,53216,A V,0,48716,49216,0.6,0,0.6,0.6 V,0,49216,49716,0.6,0.6,0.6,0 V,0,49716,50216,0.6,0,0.6,0.6 V,0,50216,50716,0.6,0.6,0.6,0 V,0,50716,51216,0.6,0,0.6,0.6 V,0,51216,51716,0.6,0.6,0.6,0 V,0,51716,52216,0.6,0,0.6,0.6 V,0,52216,52716,0.6,0.6,0.6,0 V,0,52716,53216,0.6,0,0.6,0.6
Sprite,Foreground,Centre,"SB\triangle.png",320,240 V,0,48516,49016,1,0.9,1,0 M,0,48516,52349,178,520,72,-50 F,0,48516,53516,0.55 R,0,48516,53516,6,17 C,0,48516,53516,220,54,155 P,0,48516,53516,A V,0,49016,49516,1,0,1,0.9 V,0,49516,50016,1,0.9,1,0 V,0,50016,50516,1,0,1,0.9 V,0,50516,51016,1,0.9,1,0 V,0,51016,51516,1,0,1,0.9 V,0,51516,52016,1,0.9,1,0 V,0,52016,52516,1,0,1,0.9 V,0,52516,53016,1,0.9,1,0 V,0,53016,53516,1,0,1,0.9
Sprite,Foreground,Centre,"SB\triangle.png",320,240 V,0,48816,49316,0.8,0.7,0.8,0 M,0,48816,52542,380,520,413,-50 F,0,48816,53816,0.64 R,0,48816,53816,1,7 C,0,48816,53816,220,54,155 P,0,48816,53816,A V,0,49316,49816,0.8,0,0.8,0.7 V,0,49816,50316,0.8,0.7,0.8,0 V,0,50316,50816,0.8,0,0.8,0.7 V,0,50816,51316,0.8,0.7,0.8,0 V,0,51316,51816,0.8,0,0.8,0.7 V,0,51816,52316,0.8,0.7,0.8,0 V,0,52316,52816,0.8,0,0.8,0.7 V,0,52816,53316,0.8,0.7,0.8,0 V,0,53316,53816,0.8,0,0.8,0.7
Sprite,Foreground,Centre,"SB\triangle.png",320,240 V,0,49116,49616,0.7,0.9,0.7,0 M,0,49116,53544,390,520,301,-50 F,0,49116,54116,0.66 R,0,49116,54116,2,12 C,0,49116,54116,220,54,155 P,0,49116,54116,A V,0,49616,50116,0.7,0,0.7,0.9 V,0,50116,50616,0.7,0.9,0.7,0 V,0,50616,51116,0.7,0,0.7,0.9 V,0,51116,51616,0.7,0.9,0.7,0 V,0,51616,52116,0.7,0,0.7,0.9 V,0,52116,52616,0.7,0.9,0.7,0 V,0,52616,53116,0.7,0,0.7,0.9 V,0,53116,53616,0.7,0.9,0.7,0 V,0,53616,54116,0.7,0,0.7,0.9
Sprite,Foreground,Centre,"SB\triangle.png",320,240 V,0,49416,49916,1.1,0.9,1.1,0 M,0,49416,54050,589,520,767,-50 F,0,49416,54416,0.47 R,0,49416,54416,2,11 C,0,49416,54416,220,54,155 P,0,49416,54416,A V,0,49916,50416,1.1,0,1.1,0.9 V,0,50416,50916,1.1,0.9,1.1,0 V,0,50916,51416,1.1,0,1.1,0.9 V,0,51416,51916,1.1,0.9,1.1,0 V,0,51916,52416,1.1,0,1.1,0.9 V,0,52416,52916,1.1,0.9,1.1,0 V,0,52916,53416,1.1,0,1.1,0.9 V,0,53416,53916,1.1,0.9,1.1,0 V,0,53916,54416,1.1,0,1.1,0.9
Sprite,Foreground,Centre,"SB\triangle.png",320,240 V,0,49716,50216,0.6,0.8,0.6,0 M,0,49716,53886,-97,520,29,-50 F,0,49716,54716,0.51 R,0,49716,54716,3,14 C,0,49716,54716,220,54,155 P,0,49716,54716,A V,0,50216,50716,0.6,0,0.6,0.8 V,0,50716,51216,0.6,0.8,0.6,0 V,0,51216,51716,0.6,0,0.6,0.8 V,0,51716,52216,0.6,0.8,0.6,0 V,0,52216,52716,0.6,0,0.6,0.8 V,0,52716,53216,0.6,0.8,0.6,0 V,0,53216,53716,0.6,0,0.6,0.8 V,0,53716,54216,0.6,0.8,0.6,0 V,0,54216,54716,0.6,0,0.6,0.8
Sprite,Foreground,Centre,"SB\triangle.png",320,240 V,0,50016,50516,0.6,0.7,0.6,0 M,0,50016,54114,51,520,-63,-50 F,0,50016,55016,0.64 R,0,50016,55016,1,8 C,0,50016,55016,220,54,155 P,0,50016,55016,A V,0,50516,51016,0.6,0,0.6,0.7 V,0,51016,51516,0.6,0.7,0.6,0 V,0,51516,52016,0.6,0,0.6,0.7 V,0,52016,52516,0.6,0.7,0.6,0 V,0,52516,53016,0.6,0,0.6,0.7 V,0,53016,53516,0.6,0.7,0.6,0 V,0,53516,54016,0.6,0,0.6,0.7 V,0,54016,54516,0.6,0.7,0.6,0 V,0,54516,55016,0.6,0,0.6,0.7
Sprite,Foreground,Centre,"SB\triangle.png",320,240 V,0,50316,50816,0.8,1,0.8,0 M,0,50316,54356,110,520,-52,-50 F,0,50316,55316,0.63 R,0,50316,55316,0,10 C,0,50316,55316,220,54,155 P,0,50316,55316,A V,0,50816,51316,0.8,0,0.8,1 V,0,51316,51816,0.8,1,0.8,0 V,0,51816,52316,0.8,0,0.8,1 V,0,52316,52816,0.8,1,0.8,0 V,0,52816,53316,0.8,0,0.8,1 V,0,53316,53816,0.8,1,0.8,0 V,0,53816,54316,0.8,0,0.8,1 V,0,54316,54816,0.8,1,0.8,0 V,0,54816,55316,0.8,0,0.8,1
Sprite,Foreground,Centre,"SB\triangle.png",320,240 V,0,50616,51116,0.8,0.6,0.8,0 M,0,50616,55515,311,520,245,-50 F,0,50616,55616,0.48 R,0,50616,55616,2,9 C,0,50616,55616,220,54,155 P,0,50616,55616,A V,0,51116,51616,0.8,0,0.8,0.6 V,0,51616,52116,0.8,0.6,0.8,0 V,0,52116,52616,0.8,0,0.8,0.6 V,0,52616,53116,0.8,0.6,0.8,0 V,0,53116,53616,0.8,0,0.8,0.6 V,0,53616,54116,0.8,0.6,0.8,0 V,0,54116,54616,0.8,0,0.8,0.6 V,0,54616,55116,0.8,0.6,0.8,0 V,0,55116,55616,0.8,0,0.8,0.6
Sprite,Foreground,Centre,"SB\triangle.png",320,240 V,0,50916,51416,0.6,0.5,0.6,0 M,0,50916,55348,-60,520,-242,-50 F,0,50916,55916,0.66 R,0,50916,55916,6,13 C,0,50916,55916,220,54,155 P,0,50916,55916,A V,0,51416,51916,0.6,0,0.6,0.5 V,0,51916,52416,0.6,0.5,0.6,0 V,0,52416,52916,0.6,0,0.6,0.5 V,0,52916,53416,0.6,0.5,0.6,0 V,0,53416,53916,0.6,0,0.6,0.5 V,0,53916,54416,0.6,0.5,0.6,0 V,0,54416,54916,0.6,0,0.6,0.5 V,0,54916,55416,0.6,0.5,0.6,0 V,0,55416,55916,0.6,0,0.6,0.5
Sprite,Foreground,Centre,"SB\triangle.png",320,240 V,0,51216,51716,0.7,0.8,0.7,0 M,0,51216,55871,52,520,-90,-50 F,0,51216,56216,0.63 R,0,51216,56216,4,12 C,0,51216,56216,220,54,155 P,0,51216,56216,A V,0,51716,52216,0.7,0,0.7,0.8 V,0,52216,52716,0.7,0.8,0.7,0 V,0,52716,53216,0.7,0,0.7,0.8 V,0,53216,53716,0.7,0.8,0.7,0 V,0,53716,54216,0.7,0,0.7,0.8 V,0,54216,54716,0.7,0.8,0.7,0 V,0,54716,55216,0.7,0,0.7,0.8 V,0,55216,55716,0.7,0.8,0.7,0 V,0,55716,56216,0.7,0,0.7,0.8
Sprite,Foreground,Centre,"SB\triangle.png",320,240 V,0,51516,52016,0.6,0.8,0.6,0 M,0,51516,55689,327,520,464,-50 F,0,51516,56516,0.53 R,0,51516,56516,3,9 C,0,51516,56516,220,54,155 P,0,51516,56516,A V,0,52016,52516,0.6,0,0.6,0.8 V,0,52516,53016,0.6,0.8,0.6,0 V,0,53016,53516,0.6,0,0.6,0.8 V,0,53516,54016,0.6,0.8,0.6,0 V,0,54016,54516,0.6,0,0.6,0.8 V,0,54516,55016,0.6,0.8,0.6,0 V,0,55016,55516,0.6,0,0.6,0.8 V,0,55516,56016,0.6,0.8,0.6,0 V,0,56016,56516,0.6,0,0.6,0.8
Sprite,Foreground,Centre,"SB\triangle.png",320,240 V,0,51816,52316,0.6,1,0.6,0 M,0,51816,56278,71,520,235,-50 F,0,51816,56816,0.5 R,0,51816,56816,1,12 C,0,51816,56816,220,54,155 P,0,51816,56816,A V,0,52316,52816,0.6,0,0.6,1 V,0,52816,53316,0.6,1,0.6,0 V,0,53316,53816,0.6,0,0.6,1 V,0,53816,54316,0.6,1,0.6,0 V,0,54316,54816,0.6,0,0.6,1 V,0,54816,55316,0.6,1,0.6,0 V,0,55316,55816,0.6,0,0.6,1 V,0,55816,56316,0.6,1,0.6,0 V,0,56316,56816,0.6,0,0.6,1
Sprite,Foreground,Centre,"SB\triangle.png",320,240 V,0,52116,52616,0.7,0.5,0.7,0 M,0,52116,56817,-161,520,-102,-50 F,0,52116,57116,0.54 R,0,52116,57116,3,9 C,0,52116,57116,220,54,155 P,0,52116,57116,A V,0,52616,53116,0.7,0,0.7,0.5 V,0,53116,53616,0.7,0.5,0.7,0 V,0,53616,54116,0.7,0,0.7,0.5 V,0,54116,54616,0.7,0.5,0.7,0 V,0,54616,55116,0.7,0,0.7,0.5 V,0,55116,55616,0.7,0.5,0.7,0 V,0,55616,56116,0.7,0,0.7,0.5 V,0,56116,56616,0.7,0.5,0.7,0 V,0,56616,57116,0.7,0,0.7,0.5
Sprite,Foreground,Centre,"SB\triangle.png",320,240 V,0,52416,52916,0.9,1,0.9,0 M,0,52416,55423,581,520,584,-50 F,0,52416,57416,0.54 R,0,52416,57416,5,12 C,0,52416,57416,220,54,155 P,0,52416,57416,A V,0,52916,53416,0.9,0,0.9,1 V,0,53416,53916,0.9,1,0.9,0 V,0,53916,54416,0.9,0,0.9,1 V,0,54416,54916,0.9,1,0.9,0 V,0,54916,55416,0.9,0,0.9,1 V,0,55416,55916,0.9,1,0.9,0 V,0,55916,56416,0.9,0,0.9,1 V,0,56416,56916,0.9,1,0.9,0 V,0,56916,57416,0.9,0,0.9,1
Sprite,Foreground,Centre,"SB\triangle.png",320,240 V,0,52716,53216,1,0.9,1,0 M,0,52716,55837,278,520,361,-50 F,0,52716,57716,0.48 R,0,52716,57716,6,17 C,0,52716,57716,220,54,155 P,0,52716,57716,A V,0,53216,53716,1,0,1,0.9 V,0,53716,54216,1,0.9,1,0 V,0,54216,54716,1,0,1,0.9 V,0,54716,55216,1,0.9,1,0 V,0,55216,55716,1,0,1,0.9 V,0,55716,56216,1,0.9,1,0 V,0,56216,56716,1,0,1,0.9 V,0,56716,57216,1,0.9,1,0 V,0,57216,57716,1,0,1,0.9
Sprite,Foreground,Centre,"SB\triangle.png",320,240 V,0,53016,53516,1.1,0.5,1.1,0 M,0,53016,57642,-99,520,-118,-50 F,0,53016,58016,0.5 R,0,53016,58016,6,15 C,0,53016,58016,220,54,155 P,0,53016,58016,A V,0,53516,54016,1.1,0,1.1,0.5 V,0,54016,54516,1.1,0.5,1.1,0 V,0,54516,55016,1.1,0,1.1,0.5 V,0,55016,55516,1.1,0.5,1.1,0 V,0,55516,56016,1.1,0,1.1,0.5 V,0,56016,56516,1.1,0.5,1.1,0 V,0,56516,57016,1.1,0,1.1,0.5 V,0,57016,57516,1.1,0.5,1.1,0 V,0,57516,58016,1.1,0,1.1,0.5
Sprite,Foreground,Centre,"SB\triangle.png",320,240 V,0,53316,53816,0.8,0.6,0.8,0 M,0,53316,58050,569,520,757,-50 F,0,53316,58316,0.59 R,0,53316,58316,6,13 C,0,53316,58316,220,54,155 P,0,53316,58316,A V,0,53816,54316,0.8,0,0.8,0.6 V,0,54316,54816,0.8,0.6,0.8,0 V,0,54816,55316,0.8,0,0.8,0.6 V,0,55316,55816,0.8,0.6,0.8,0 V,0,55816,56316,0.8,0,0.8,0.6 V,0,56316,56816,0.8,0.6,0.8,0 V,0,56816,57316,0.8,0,0.8,0.6 V,0,57316,57816,0.8,0.6,0.8,0 V,0,57816,58316,0.8,0,0.8,0.6
Sprite,Foreground,Centre,"SB\triangle.png",320,240 V,0,53616,54116,0.9,0.8,0.9,0 M,0,53616,57871,90,520,252,-50 F,0,53616,58616,0.5 R,0,53616,58616,1,11 C,0,53616,58616,220,54,155 P,0,53616,58616,A V,0,54116,54616,0.9,0,0.9,0.8 V,0,54616,55116,0.9,0.8,0.9,0 V,0,55116,55616,0.9,0,0.9,0.8 V,0,55616,56116,0.9,0.8,0.9,0 V,0,56116,56616,0.9,0,0.9,0.8 V,0,56616,57116,0.9,0.8,0.9,0 V,0,57116,57616,0.9,0,0.9,0.8 V,0,57616,58116,0.9,0.8,0.9,0 V,0,58116,58616,0.9,0,0.9,0.8
Sprite,Foreground,Centre,"SB\triangle.png",320,240 V,0,53916,54416,0.8,0.5,0.8,0 M,0,53916,58251,-69,520,-116,-50 F,0,53916,58916,0.46 R,0,53916,58916,0,11 C,0,53916,58916,220,54,155 P,0,53916,58916,A V,0,54416,54916,0.8,0,0.8,0.5 V,0,54916,55416,0.8,0.5,0.8,0 V,0,55416,55916,0.8,0,0.8,0.5 V,0,55916,56416,0.8,0.5,0.8,0 V,0,56416,56916,0.8,0,0.8,0.5 V,0,56916,57416,0.8,0.5,0.8,0 V,0,57416,57916,0.8,0,0.8,0.5 V,0,57916,58416,0.8,0.5,0.8,0 V,0,58416,58916,0.8,0,0.8,0.5
Sprite,Foreground,Centre,"SB\triangle.png",320,240 V,0,54216,54716,0.7,0.9,0.7,0 M,0,54216,58150,281,520,117,-50 F,0,54216,59216,0.65 R,0,54216,59216,3,15 C,0,54216,59216,220,54,155 P,0,54216,59216,A V,0,54716,55216,0.7,0,0.7,0.9 V,0,55216,55716,0.7,0.9,0.7,0 V,0,55716,56216,0.7,0,0.7,0.9 V,0,56216,56716,0.7,0.9,0.7,0 V,0,56716,57216,0.7,0,0.7,0.9 V,0,57216,57716,0.7,0.9,0.7,0 V,0,57716,58216,0.7,0,0.7,0.9 V,0,58216,58716,0.7,0.9,0.7,0 V,0,58716,59216,0.7,0,0.7,0.9
Sprite,Foreground,Centre,"SB\triangle.png",320,240 V,0,54516,55016,0.6,0.7,0.6,0 M,0,54516,58371,237,520,247,-50 F,0,54516,59516,0.5 R,0,54516,59516,0,8 C,0,54516,59516,220,54,155 P,0,54516,59516,A V,0,55016,55516,0.6,0,0.6,0.7 V,0,55516,56016,0.6,0.7,0.6,0 V,0,56016,56516,0.6,0,0.6,0.7 V,0,56516,57016,0.6,0.7,0.6,0 V,0,57016,57516,0.6,0,0.6,0.7 V,0,57516,58016,0.6,0.7,0.6,0 V,0,58016,58516,0.6,0,0.6,0.7 V,0,58516,59016,0.6,0.7,0.6,0 V,0,59016,59516,0.6,0,0.6,0.7
Sprite,Foreground,Centre,"SB\triangle.png",320,240 V,0,54816,55316,0.7,0.9,0.7,0 M,0,54816,58790,270,520,444,-50 F,0,54816,59816,0.7 R,0,54816,59816,6,14 C,0,54816,59816,220,54,155 P,0,54816,59816,A V,0,55316,55816,0.7,0,0.7,0.9 V,0,55816,56316,0.7,0.9,0.7,0 V,0,56316,56816,0.7,0,0.7,0.9 V,0,56816,57316,0.7,0.9,0.7,0 V,0,57316,57816,0.7,0,0.7,0.9 V,0,57816,58316,0.7,0.9,0.7,0 V,0,58316,58816,0.7,0,0.7,0.9 V,0,58816,59316,0.7,0.9,0.7,0 V,0,59316,59816,0.7,0,0.7,0.9
Sprite,Foreground,Centre,"SB\triangle.png",320,240 V,0,55116,55616,1.1,1,1.1,0 M,0,55116,58828,280,520,119,-50 F,0,55116,60116,0.52 R,0,55116,60116,3,12 C,0,55116,60116,220,54,155 P,0,55116,60116,A V,0,55616,56116,1.1,0,1.1,1 V,0,56116,56616,1.1,1,1.1,0 V,0,56616,57116,1.1,0,1.1,1 V,0,57116,57616,1.1,1,1.1,0 V,0,57616,58116,1.1,0,1.1,1 V,0,58116,58616,1.1,1,1.1,0 V,0,58616,59116,1.1,0,1.1,1 V,0,59116,59616,1.1,1,1.1,0 V,0,59616,60116,1.1,0,1.1,1
Sprite,Foreground,Centre,"SB\triangle.png",320,240 V,0,55416,55916,0.6,0.5,0.6,0 M,0,55416,59685,-116,520,5,-50 F,0,55416,60416,0.7 R,0,55416,60416,3,15 C,0,55416,60416,220,54,155 P,0,55416,60416,A V,0,55916,56416,0.6,0,0.6,0.5 V,0,56416,56916,0.6,0.5,0.6,0 V,0,56916,57416,0.6,0,0.6,0.5 V,0,57416,57916,0.6,0.5,0.6,0 V,0,57916,58416,0.6,0,0.6,0.5 V,0,58416,58916,0.6,0.5,0.6,0 V,0,58916,59416,0.6,0,0.6,0.5 V,0,59416,59916,0.6,0.5,0.6,0 V,0,59916,60416,0.6,0,0.6,0.5
Sprite,Foreground,Centre,"SB\triangle.png",320,240 V,0,55716,56216,0.6,1,0.6,0 M,0,55716,60294,491,520,434,-50 F,0,55716,60716,0.51 R,0,55716,60716,1,13 C,0,55716,60716,220,54,155 P,0,55716,60716,A V,0,56216,56716,0.6,0,0.6,1 V,0,56716,57216,0.6,1,0.6,0 V,0,57216,57716,0.6,0,0.6,1 V,0,57716,58216,0.6,1,0.6,0 V,0,58216,58716,0.6,0,0.6,1 V,0,58716,59216,0.6,1,0.6,0 V,0,59216,59716,0.6,0,0.6,1 V,0,59716,60216,0.6,1,0.6,0 V,0,60216,60716,0.6,0,0.6,1
Sprite,Foreground,Centre,"SB\triangle.png",320,240 V,0,56016,56516,0.6,0.9,0.6,0 M,0,56016,60184,314,520,142,-50 F,0,56016,61016,0.46 R,0,56016,61016,3,11 C,0,56016,61016,220,54,155 P,0,56016,61016,A V,0,56516,57016,0.6,0,0.6,0.9 V,0,57016,57516,0.6,0.9,0.6,0 V,0,57516,58016,0.6,0,0.6,0.9 V,0,58016,58516,0.6,0.9,0.6,0 V,0,58516,59016,0.6,0,0.6,0.9 V,0,59016,59516,0.6,0.9,0.6,0 V,0,59516,60016,0.6,0,0.6,0.9 V,0,60016,60516,0.6,0.9,0.6,0 V,0,60516,61016,0.6,0,0.6,0.9
Sprite,Foreground,Centre,"SB\triangle.png",320,240 V,0,56316,56816,0.7,0.5,0.7,0 M,0,56316,59621,180,520,148,-50 F,0,56316,61316,0.61 R,0,56316,61316,2,9 C,0,56316,61316,220,54,155 P,0,56316,61316,A V,0,56816,57316,0.7,0,0.7,0.5 V,0,57316,57816,0.7,0.5,0.7,0 V,0,57816,58316,0.7,0,0.7,0.5 V,0,58316,58816,0.7,0.5,0.7,0 V,0,58816,59316,0.7,0,0.7,0.5 V,0,59316,59816,0.7,0.5,0.7,0 V,0,59816,60316,0.7,0,0.7,0.5 V,0,60316,60816,0.7,0.5,0.7,0 V,0,60816,61316,0.7,0,0.7,0.5
Sprite,Foreground,Centre,"SB\triangle.png",320,240 V,0,56616,57116,1.1,0.7,1.1,0 M,0,56616,61568,334,520,251,-50 F,0,56616,61616,0.64 R,0,56616,61616,4,15 C,0,56616,61616,220,54,155 P,0,56616,61616,A V,0,57116,57616,1.1,0,1.1,0.7 V,0,57616,58116,1.1,0.7,1.1,0 V,0,58116,58616,1.1,0,1.1,0.7 V,0,58616,59116,1.1,0.7,1.1,0 V,0,59116,59616,1.1,0,1.1,0.7 V,0,59616,60116,1.1,0.7,1.1,0 V,0,60116,60616,1.1,0,1.1,0.7 V,0,60616,61116,1.1,0.7,1.1,0 V,0,61116,61616,1.1,0,1.1,0.7
Sprite,Foreground,Centre,"SB\triangle.png",320,240 V,0,56916,57416,1.1,0.7,1.1,0 M,0,56916,61346,-35,520,-50,-50 F,0,56916,61916,0.53 R,0,56916,61916,6,14 C,0,56916,61916,220,54,155 P,0,56916,61916,A V,0,57416,57916,1.1,0,1.1,0.7 V,0,57916,58416,1.1,0.7,1.1,0 V,0,58416,58916,1.1,0,1.1,0.7 V,0,58916,59416,1.1,0.7,1.1,0 V,0,59416,59916,1.1,0,1.1,0.7 V,0,59916,60416,1.1,0.7,1.1,0 V,0,60416,60916,1.1,0,1.1,0.7 V,0,60916,61416,1.1,0.7,1.1,0 V,0,61416,61916,1.1,0,1.1,0.7
Sprite,Foreground,Centre,"SB\triangle.png",320,240 V,0,57216,57716,1,0.9,1,0 M,0,57216,61168,450,520,305,-50 F,0,57216,62216,0.46 R,0,57216,62216,3,11 C,0,57216,62216,220,54,155 P,0,57216,62216,A V,0,57716,58216,1,0,1,0.9 V,0,58216,58716,1,0.9,1,0 V,0,58716,59216,1,0,1,0.9 V,0,59216,59716,1,0.9,1,0 V,0,59716,60216,1,0,1,0.9 V,0,60216,60716,1,0.9,1,0 V,0,60716,61216,1,0,1,0.9 V,0,61216,61716,1,0.9,1,0 V,0,61716,62216,1,0,1,0.9
Sprite,Foreground,Centre,"SB\triangle.png",320,240 V,0,57516,58016,1,0.8,1,0 M,0,57516,62259,541,520,719,-50 F,0,57516,62516,0.7 R,0,57516,62516,2,14 C,0,57516,62516,220,54,155 P,0,57516,62516,A V,0,58016,58516,1,0,1,0.8 V,0,58516,59016,1,0.8,1,0 V,0,59016,59516,1,0,1,0.8 V,0,59516,60016,1,0.8,1,0 V,0,60016,60516,1,0,1,0.8 V,0,60516,61016,1,0.8,1,0 V,0,61016,61516,1,0,1,0.8 V,0,61516,62016,1,0.8,1,0 V,0,62016,62516,1,0,1,0.8
Sprite,Foreground,Centre,"SB\triangle.png",320,240 V,0,57816,58316,0.7,1,0.7,0 M,0,57816,62499,46,520,168,-50 F,0,57816,62816,0.55 R,0,57816,62816,2,12 C,0,57816,62816,220,54,155 P,0,57816,62816,A V,0,58316,58816,0.7,0,0.7,1 V,0,58816,59316,0.7,1,0.7,0 V,0,59316,59816,0.7,0,0.7,1 V,0,59816,60316,0.7,1,0.7,0 V,0,60316,60816,0.7,0,0.7,1 V,0,60816,61316,0.7,1,0.7,0 V,0,61316,61816,0.7,0,0.7,1 V,0,61816,62316,0.7,1,0.7,0 V,0,62316,62816,0.7,0,0.7,1
Sprite,Foreground,Centre,"SB\triangle.png",320,240 V,0,58116,58616,0.6,0.7,0.6,0 M,0,58116,62464,116,520,254,-50 F,0,58116,63116,0.57 R,0,58116,63116,4,13 C,0,58116,63116,220,54,155 P,0,58116,63116,A V,0,58616,59116,0.6,0,0.6,0.7 V,0,59116,59616,0.6,0.7,0.6,0 V,0,59616,60116,0.6,0,0.6,0.7 V,0,60116,60616,0.6,0.7,0.6,0 V,0,60616,61116,0.6,0,0.6,0.7 V,0,61116,61616,0.6,0.7,0.6,0 V,0,61616,62116,0.6,0,0.6,0.7 V,0,62116,62616,0.6,0.7,0.6,0 V,0,62616,63116,0.6,0,0.6,0.7
Sprite,Foreground,Centre,"SB\triangle.png",320,240 V,0,58416,58916,0.7,0.5,0.7,0 M,0,58416,62556,-65,520,-233,-50 F,0,58416,63416,0.46 R,0,58416,63416,5,17 C,0,58416,63416,220,54,155 P,0,58416,63416,A V,0,58916,59416,0.7,0,0.7,0.5 V,0,59416,59916,0.7,0.5,0.7,0 V,0,59916,60416,0.7,0,0.7,0.5 V,0,60416,60916,0.7,0.5,0.7,0 V,0,60916,61416,0.7,0,0.7,0.5 V,0,61416,61916,0.7,0.5,0.7,0 V,0,61916,62416,0.7,0,0.7,0.5 V,0,62416,62916,0.7,0.5,0.7,0 V,0,62916,63416,0.7,0,0.7,0.5
Sprite,Foreground,Centre,"SB\triangle.png",320,240 V,0,58716,59216,0.8,0.8,0.8,0 M,0,58716,62647,582,520,689,-50 F,0,58716,63716,0.56 R,0,58716,63716,5,12 C,0,58716,63716,220,54,155 P,0,58716,63716,A V,0,59216,59716,0.8,0,0.8,0.8 V,0,59716,60216,0.8,0.8,0.8,0 V,0,60216,60716,0.8,0,0.8,0.8 V,0,60716,61216,0.8,0.8,0.8,0 V,0,61216,61716,0.8,0,0.8,0.8 V,0,61716,62216,0.8,0.8,0.8,0 V,0,62216,62716,0.8,0,0.8,0.8 V,0,62716,63216,0.8,0.8,0.8,0 V,0,63216,63716,0.8,0,0.8,0.8
Sprite,Foreground,Centre,"SB\triangle.png",320,240 V,0,59016,59516,1,0.7,1,0 M,0,59016,63983,244,520,236,-50 F,0,59016,64016,0.52 R,0,59016,64016,4,11 C,0,59016,64016,220,54,155 P,0,59016,64016,A V,0,59516,60016,1,0,1,0.7 V,0,60016,60516,1,0.7,1,0 V,0,60516,61016,1,0,1,0.7 V,0,61016,61516,1,0.7,1,0 V,0,61516,62016,1,0,1,0.7 V,0,62016,62516,1,0.7,1,0 V,0,62516,63016,1,0,1,0.7 V,0,63016,63516,1,0.7,1,0 V,0,63516,64016,1,0,1,0.7
Sprite,Foreground,Centre,"SB\triangle.png",320,240 V,0,59316,59816,0.8,0.8,0.8,0 M,0,59316,64236,155,520,126,-50 F,0,59316,64316,0.58 R,0,59316,64316,0,7 C,0,59316,64316,220,54,155 P,0,59316,64316,A V,0,59816,60316,0.8,0,0.8,0.8 V,0,60316,60816,0.8,0.8,0.8,0 V,0,60816,61316,0.8,0,0.8,0.8 V,0,61316,61816,0.8,0.8,0.8,0 V,0,61816,62316,0.8,0,0.8,0.8 V,0,62316,62816,0.8,0.8,0.8,0 V,0,62816,63316,0.8,0,0.8,0.8 V,0,63316,63816,0.8,0.8,0.8,0 V,0,63816,64316,0.8,0,0.8,0.8
Sprite,Foreground,Centre,"SB\triangle.png",320,240 V,0,59616,60116,1,0.7,1,0 M,0,59616,64494,178,520,155,-50 F,0,59616,64616,0.48 R,0,59616,64616,5,11 C,0,59616,64616,220,54,155 P,0,59616,64616,A V,0,60116,60616,1,0,1,0.7 V,0,60616,61116,1,0.7,1,0 V,0,61116,61616,1,0,1,0.7 V,0,61616,62116,1,0.7,1,0 V,0,62116,62616,1,0,1,0.7 V,0,62616,63116,1,0.7,1,0 V,0,63116,63616,1,0,1,0.7 V,0,63616,64116,1,0.7,1,0 V,0,64116,64616,1,0,1,0.7
Sprite,Foreground,Centre,"SB\triangle.png",320,240 V,0,59916,60416,0.8,0.8,0.8,0 M,0,59916,63230,628,520,790,-50 F,0,59916,64916,0.46 R,0,59916,64916,6,13 C,0,59916,64916,220,54,155 P,0,59916,64916,A V,0,60416,60916,0.8,0,0.8,0.8 V,0,60916,61416,0.8,0.8,0.8,0 V,0,61416,61916,0.8,0,0.8,0.8 V,0,61916,62416,0.8,0.8,0.8,0 V,0,62416,62916,0.8,0,0.8,0.8 V,0,62916,63416,0.8,0.8,0.8,0 V,0,63416,63916,0.8,0,0.8,0.8 V,0,63916,64416,0.8,0.8,0.8,0 V,0,64416,64916,0.8,0,0.8,0.8
Sprite,Foreground,Centre,"SB\triangle.png",320,240 V,0,60216,60716,1,0.9,1,0 M,0,60216,64811,259,520,285,-50 F,0,60216,65216,0.45 R,0,60216,65216,0,6 C,0,60216,65216,220,54,155 P,0,60216,65216,A V,0,60716,61216,1,0,1,0.9 V,0,61216,61716,1,0.9,1,0 V,0,61716,62216,1,0,1,0.9 V,0,62216,62716,1,0.9,1,0 V,0,62716,63216,1,0,1,0.9 V,0,63216,63716,1,0.9,1,0 V,0,63716,64216,1,0,1,0.9 V,0,64216,64716,1,0.9,1,0 V,0,64716,65216,1,0,1,0.9
Sprite,Foreground,Centre,"SB\triangle.png",320,240 V,0,60516,61016,0.7,0.5,0.7,0 M,0,60516,64581,-118,520,-43,-50 F,0,60516,65516,0.48 R,0,60516,65516,0,8 C,0,60516,65516,220,54,155 P,0,60516,65516,A V,0,61016,61516,0.7,0,0.7,0.5 V,0,61516,62016,0.7,0.5,0.7,0 V,0,62016,62516,0.7,0,0.7,0.5 V,0,62516,63016,0.7,0.5,0.7,0 V,0,63016,63516,0.7,0,0.7,0.5 V,0,63516,64016,0.7,0.5,0.7,0 V,0,64016,64516,0.7,0,0.7,0.5 V,0,64516,65016,0.7,0.5,0.7,0 V,0,65016,65516,0.7,0,0.7,0.5
Sprite,Foreground,Centre,"SB\triangle.png",320,240 V,0,60816,61316,0.8,1,0.8,0 M,0,60816,64543,262,520,370,-50 F,0,60816,65816,0.65 R,0,60816,65816,3,15 C,0,60816,65816,220,54,155 P,0,60816,65816,A V,0,61316,61816,0.8,0,0.8,1 V,0,61816,62316,0.8,1,0.8,0 V,0,62316,62816,0.8,0,0.8,1 V,0,62816,63316,0.8,1,0.8,0 V,0,63316,63816,0.8,0,0.8,1 V,0,63816,64316,0.8,1,0.8,0 V,0,64316,64816,0.8,0,0.8,1 V,0,64816,65316,0.8,1,0.8,0 V,0,65316,65816,0.8,0,0.8,1
Sprite,Foreground,Centre,"SB\triangle.png",320,240 V,0,61116,61616,0.8,1,0.8,0 M,0,61116,65953,-92,520,-16,-50 F,0,61116,66116,0.47 R,0,61116,66116,0,10 C,0,61116,66116,220,54,155 P,0,61116,66116,A V,0,61616,62116,0.8,0,0.8,1 V,0,62116,62616,0.8,1,0.8,0 V,0,62616,63116,0.8,0,0.8,1 V,0,63116,63616,0.8,1,0.8,0 V,0,63616,64116,0.8,0,0.8,1 V,0,64116,64616,0.8,1,0.8,0 V,0,64616,65116,0.8,0,0.8,1 V,0,65116,65616,0.8,1,0.8,0 V,0,65616,66116,0.8,0,0.8,1
Sprite,Foreground,Centre,"SB\triangle.png",320,240 V,0,61416,61916,0.8,0.8,0.8,0 M,0,61416,65123,462,520,357,-50 F,0,61416,66416,0.61 R,0,61416,66416,2,14 C,0,61416,66416,220,54,155 P,0,61416,66416,A V,0,61916,62416,0.8,0,0.8,0.8 V,0,62416,62916,0.8,0.8,0.8,0 V,0,62916,63416,0.8,0,0.8,0.8 V,0,63416,63916,0.8,0.8,0.8,0 V,0,63916,64416,0.8,0,0.8,0.8 V,0,64416,64916,0.8,0.8,0.8,0 V,0,64916,65416,0.8,0,0.8,0.8 V,0,65416,65916,0.8,0.8,0.8,0 V,0,65916,66416,0.8,0,0.8,0.8
Sprite,Foreground,Centre,"SB\triangle.png",320,240 V,0,61716,62216,1,1,1,0 M,0,61716,65235,329,520,193,-50 F,0,61716,66716,0.67 R,0,61716,66716,3,13 C,0,61716,66716,220,54,155 P,0,61716,66716,A V,0,62216,62716,1,0,1,1 V,0,62716,63216,1,1,1,0 V,0,63216,63716,1,0,1,1 V,0,63716,64216,1,1,1,0 V,0,64216,64716,1,0,1,1 V,0,64716,65216,1,1,1,0 V,0,65216,65716,1,0,1,1 V,0,65716,66216,1,1,1,0 V,0,66216,66716,1,0,1,1
Sprite,Foreground,Centre,"SB\triangle.png",320,240 V,0,62016,62516,1,0.9,1,0 M,0,62016,66137,433,520,332,-50 F,0,62016,67016,0.53 R,0,62016,67016,0,11 C,0,62016,67016,220,54,155 P,0,62016,67016,A V,0,62516,63016,1,0,1,0.9 V,0,63016,63516,1,0.9,1,0 V,0,63516,64016,1,0,1,0.9 V,0,64016,64516,1,0.9,1,0 V,0,64516,65016,1,0,1,0.9 V,0,65016,65516,1,0.9,1,0 V,0,65516,66016,1,0,1,0.9 V,0,66016,66516,1,0.9,1,0 V,0,66516,67016,1,0,1,0.9
Sprite,Foreground,Centre,"SB\triangle.png",320,240 V,0,62316,62816,0.9,0.7,0.9,0 M,0,62316,65730,-126,520,-174,-50 F,0,62316,67316,0.63 R,0,62316,67316,5,15 C,0,62316,67316,220,54,155 P,0,62316,67316,A V,0,62816,63316,0.9,0,0.9,0.7 V,0,63316,63816,0.9,0.7,0.9,0 V,0,63816,64316,0.9,0,0.9,0.7 V,0,64316,64816,0.9,0.7,0.9,0 V,0,64816,65316,0.9,0,0.9,0.7 V,0,65316,65816,0.9,0.7,0.9,0 V,0,65816,66316,0.9,0,0.9,0.7 V,0,66316,66816,0.9,0.7,0.9,0 V,0,66816,67316,0.9,0,0.9,0.7
Sprite,Foreground,Centre,"SB\triangle.png",320,240 V,0,62616,63116,0.6,0.9,0.6,0 M,0,62616,67171,507,520,410,-50 F,0,62616,67616,0.69 R,0,62616,67616,0,6 C,0,62616,67616,220,54,155 P,0,62616,67616,A V,0,63116,63616,0.6,0,0.6,0.9 V,0,63616,64116,0.6,0.9,0.6,0 V,0,64116,64616,0.6,0,0.6,0.9 V,0,64616,65116,0.6,0.9,0.6,0 V,0,65116,65616,0.6,0,0.6,0.9 V,0,65616,66116,0.6,0.9,0.6,0 V,0,66116,66616,0.6,0,0.6,0.9 V,0,66616,67116,0.6,0.9,0.6,0 V,0,67116,67616,0.6,0,0.6,0.9
Sprite,Foreground,Centre,"SB\triangle.png",320,240 V,0,62916,63416,1,0.8,1,0 M,0,62916,67541,290,520,392,-50 F,0,62916,67916,0.7 R,0,62916,67916,5,13 C,0,62916,67916,220,54,155 P,0,62916,67916,A V,0,63416,63916,1,0,1,0.8 V,0,63916,64416,1,0.8,1,0 V,0,64416,64916,1,0,1,0.8 V,0,64916,65416,1,0.8,1,0 V,0,65416,65916,1,0,1,0.8 V,0,65916,66416,1,0.8,1,0 V,0,66416,66916,1,0,1,0.8 V,0,66916,67416,1,0.8,1,0 V,0,67416,67916,1,0,1,0.8
Sprite,Foreground,Centre,"SB\triangle.png",320,240 V,0,63216,63716,1.1,0.7,1.1,0 M,0,63216,67421,287,520,196,-50 F,0,63216,68216,0.61 R,0,63216,68216,0,10 C,0,63216,68216,220,54,155 P,0,63216,68216,A V,0,63716,64216,1.1,0,1.1,0.7 V,0,64216,64716,1.1,0.7,1.1,0 V,0,64716,65216,1.1,0,1.1,0.7 V,0,65216,65716,1.1,0.7,1.1,0 V,0,65716,66216,1.1,0,1.1,0.7 V,0,66216,66716,1.1,0.7,1.1,0 V,0,66716,67216,1.1,0,1.1,0.7 V,0,67216,67716,1.1,0.7,1.1,0 V,0,67716,68216,1.1,0,1.1,0.7
Sprite,Foreground,Centre,"SB\triangle.png",320,240 V,0,63516,64016,0.8,1,0.8,0 M,0,63516,66928,173,520,43,-50 F,0,63516,68516,0.64 R,0,63516,68516,6,18 C,0,63516,68516,220,54,155 P,0,63516,68516,A V,0,64016,64516,0.8,0,0.8,1 V,0,64516,65016,0.8,1,0.8,0 V,0,65016,65516,0.8,0,0.8,1 V,0,65516,66016,0.8,1,0.8,0 V,0,66016,66516,0.8,0,0.8,1 V,0,66516,67016,0.8,1,0.8,0 V,0,67016,67516,0.8,0,0.8,1 V,0,67516,68016,0.8,1,0.8,0 V,0,68016,68516,0.8,0,0.8,1
Sprite,Foreground,Centre,"SB\triangle.png",320,240 V,0,63816,64316,0.7,0.6,0.7,0 M,0,63816,68555,-127,520,55,-50 F,0,63816,68816,0.45 R,0,63816,68816,2,14 C,0,63816,68816,220,54,155 P,0,63816,68816,A V,0,64316,64816,0.7,0,0.7,0.6 V,0,64816,65316,0.7,0.6,0.7,0 V,0,65316,65816,0.7,0,0.7,0.6 V,0,65816,66316,0.7,0.6,0.7,0 V,0,66316,66816,0.7,0,0.7,0.6 V,0,66816,67316,0.7,0.6,0.7,0 V,0,67316,67816,0.7,0,0.7,0.6 V,0,67816,68316,0.7,0.6,0.7,0 V,0,68316,68816,0.7,0,0.7,0.6
Sprite,Foreground,Centre,"SB\triangle.png",320,240 V,0,64116,64616,0.8,0.5,0.8,0 M,0,64116,68598,277,520,83,-50 F,0,64116,69116,0.65 R,0,64116,69116,3,9 C,0,64116,69116,220,54,155 P,0,64116,69116,A V,0,64616,65116,0.8,0,0.8,0.5 V,0,65116,65616,0.8,0.5,0.8,0 V,0,65616,66116,0.8,0,0.8,0.5 V,0,66116,66616,0.8,0.5,0.8,0 V,0,66616,67116,0.8,0,0.8,0.5 V,0,67116,67616,0.8,0.5,0.8,0 V,0,67616,68116,0.8,0,0.8,0.5 V,0,68116,68616,0.8,0.5,0.8,0 V,0,68616,69116,0.8,0,0.8,0.5
Sprite,Foreground,Centre,"SB\triangle.png",320,240 V,0,64416,64916,0.9,0.9,0.9,0 M,0,64416,68466,-92,520,4,-50 F,0,64416,69416,0.45 R,0,64416,69416,3,10 C,0,64416,69416,220,54,155 P,0,64416,69416,A V,0,64916,65416,0.9,0,0.9,0.9 V,0,65416,65916,0.9,0.9,0.9,0 V,0,65916,66416,0.9,0,0.9,0.9 V,0,66416,66916,0.9,0.9,0.9,0 V,0,66916,67416,0.9,0,0.9,0.9 V,0,67416,67916,0.9,0.9,0.9,0 V,0,67916,68416,0.9,0,0.9,0.9 V,0,68416,68916,0.9,0.9,0.9,0 V,0,68916,69416,0.9,0,0.9,0.9
Sprite,Foreground,Centre,"SB\triangle.png",320,240 V,0,64716,65216,0.6,0.9,0.6,0 M,0,64716,69249,471,520,397,-50 F,0,64716,69716,0.47 R,0,64716,69716,4,12 C,0,64716,69716,220,54,155 P,0,64716,69716,A V,0,65216,65716,0.6,0,0.6,0.9 V,0,65716,66216,0.6,0.9,0.6,0 V,0,66216,66716,0.6,0,0.6,0.9 V,0,66716,67216,0.6,0.9,0.6,0 V,0,67216,67716,0.6,0,0.6,0.9 V,0,67716,68216,0.6,0.9,0.6,0 V,0,68216,68716,0.6,0,0.6,0.9 V,0,68716,69216,0.6,0.9,0.6,0 V,0,69216,69716,0.6,0,0.6,0.9
Sprite,Foreground,Centre,"SB\triangle.png",320,240 V,0,65016,65516,0.7,0.7,0.7,0 M,0,65016,69676,-107,520,-148,-50 F,0,65016,70016,0.45 R,0,65016,70016,4,15 C,0,65016,70016,220,54,155 P,0,65016,70016,A V,0,65516,66016,0.7,0,0.7,0.7 V,0,66016,66516,0.7,0.7,0.7,0 V,0,66516,67016,0.7,0,0.7,0.7 V,0,67016,67516,0.7,0.7,0.7,0 V,0,67516,68016,0.7,0,0.7,0.7 V,0,68016,68516,0.7,0.7,0.7,0 V,0,68516,69016,0.7,0,0.7,0.7 V,0,69016,69516,0.7,0.7,0.7,0 V,0,69516,70016,0.7,0,0.7,0.7
Sprite,Foreground,Centre,"SB\triangle.png",320,240 V,0,65316,65816,0.8,0.6,0.8,0 M,0,65316,69785,598,520,734,-50 F,0,65316,70316,0.52 R,0,65316,70316,1,10 C,0,65316,70316,220,54,155 P,0,65316,70316,A V,0,65816,66316,0.8,0,0.8,0.6 V,0,66316,66816,0.8,0.6,0.8,0 V,0,66816,67316,0.8,0,0.8,0.6 V,0,67316,67816,0.8,0.6,0.8,0 V,0,67816,68316,0.8,0,0.8,0.6 V,0,68316,68816,0.8,0.6,0.8,0 V,0,68816,69316,0.8,0,0.8,0.6 V,0,69316,69816,0.8,0.6,0.8,0 V,0,69816,70316,0.8,0,0.8,0.6
Sprite,Foreground,Centre,"SB\triangle.png",320,240 V,0,65616,66116,1.1,0.8,1.1,0 M,0,65616,69309,-5,520,-148,-50 F,0,65616,70616,0.59 R,0,65616,70616,0,10 C,0,65616,70616,220,54,155 P,0,65616,70616,A V,0,66116,66616,1.1,0,1.1,0.8 V,0,66616,67116,1.1,0.8,1.1,0 V,0,67116,67616,1.1,0,1.1,0.8 V,0,67616,68116,1.1,0.8,1.1,0 V,0,68116,68616,1.1,0,1.1,0.8 V,0,68616,69116,1.1,0.8,1.1,0 V,0,69116,69616,1.1,0,1.1,0.8 V,0,69616,70116,1.1,0.8,1.1,0 V,0,70116,70616,1.1,0,1.1,0.8
Sprite,Foreground,Centre,"SB\triangle.png",320,240 V,0,65916,66416,1.1,0.6,1.1,0 M,0,65916,68933,39,520,-57,-50 F,0,65916,70916,0.66 R,0,65916,70916,2,11 C,0,65916,70916,220,54,155 P,0,65916,70916,A V,0,66416,66916,1.1,0,1.1,0.6 V,0,66916,67416,1.1,0.6,1.1,0 V,0,67416,67916,1.1,0,1.1,0.6 V,0,67916,68416,1.1,0.6,1.1,0 V,0,68416,68916,1.1,0,1.1,0.6 V,0,68916,69416,1.1,0.6,1.1,0 V,0,69416,69916,1.1,0,1.1,0.6 V,0,69916,70416,1.1,0.6,1.1,0 V,0,70416,70916,1.1,0,1.1,0.6
Sprite,Foreground,Centre,"SB\triangle.png",320,240 V,0,66216,66716,1,0.9,1,0 M,0,66216,70962,666,520,812,-50 F,0,66216,71216,0.65 R,0,66216,71216,0,7 C,0,66216,71216,220,54,155 P,0,66216,71216,A V,0,66716,67216,1,0,1,0.9 V,0,67216,67716,1,0.9,1,0 V,0,67716,68216,1,0,1,0.9 V,0,68216,68716,1,0.9,1,0 V,0,68716,69216,1,0,1,0.9 V,0,69216,69716,1,0.9,1,0 V,0,69716,70216,1,0,1,0.9 V,0,70216,70716,1,0.9,1,0 V,0,70716,71216,1,0,1,0.9
Sprite,Foreground,Centre,"SB\triangle.png",320,240 V,0,66516,67016,0.6,0.9,0.6,0 M,0,66516,69896,64,520,264,-50 F,0,66516,71516,0.49 R,0,66516,71516,6,13 C,0,66516,71516,220,54,155 P,0,66516,71516,A V,0,67016,67516,0.6,0,0.6,0.9 V,0,67516,68016,0.6,0.9,0.6,0 V,0,68016,68516,0.6,0,0.6,0.9 V,0,68516,69016,0.6,0.9,0.6,0 V,0,69016,69516,0.6,0,0.6,0.9 V,0,69516,70016,0.6,0.9,0.6,0 V,0,70016,70516,0.6,0,0.6,0.9 V,0,70516,71016,0.6,0.9,0.6,0 V,0,71016,71516,0.6,0,0.6,0.9
Sprite,Foreground,Centre,"SB\triangle.png",320,240 V,0,66816,67316,1.1,1,1.1,0 M,0,66816,70944,462,520,364,-50 F,0,66816,71816,0.57 R,0,66816,71816,4,15 C,0,66816,71816,220,54,155 P,0,66816,71816,A V,0,67316,67816,1.1,0,1.1,1 V,0,67816,68316,1.1,1,1.1,0 V,0,68316,68816,1.1,0,1.1,1 V,0,68816,69316,1.1,1,1.1,0 V,0,69316,69816,1.1,0,1.1,1 V,0,69816,70316,1.1,1,1.1,0 V,0,70316,70816,1.1,0,1.1,1 V,0,70816,71316,1.1,1,1.1,0 V,0,71316,71816,1.1,0,1.1,1
Sprite,Foreground,Centre,"SB\triangle.png",320,240 V,0,67116,67616,0.6,0.7,0.6,0 M,0,67116,71159,-178,520,-310,-50 F,0,67116,72116,0.66 R,0,67116,72116,3,10 C,0,67116,72116,220,54,155 P,0,67116,72116,A V,0,67616,68116,0.6,0,0.6,0.7 V,0,68116,68616,0.6,0.7,0.6,0 V,0,68616,69116,0.6,0,0.6,0.7 V,0,69116,69616,0.6,0.7,0.6,0 V,0,69616,70116,0.6,0,0.6,0.7 V,0,70116,70616,0.6,0.7,0.6,0 V,0,70616,71116,0.6,0,0.6,0.7 V,0,71116,71616,0.6,0.7,0.6,0 V,0,71616,72116,0.6,0,0.6,0.7
Sprite,Foreground,Centre,"SB\triangle.png",320,240 V,0,67416,67916,0.8,0.8,0.8,0 M,0,67416,71044,181,520,353,-50 F,0,67416,72416,0.7 R,0,67416,72416,3,11 C,0,67416,72416,220,54,155 P,0,67416,72416,A V,0,67916,68416,0.8,0,0.8,0.8 V,0,68416,68916,0.8,0.8,0.8,0 V,0,68916,69416,0.8,0,0.8,0.8 V,0,69416,69916,0.8,0.8,0.8,0 V,0,69916,70416,0.8,0,0.8,0.8 V,0,70416,70916,0.8,0.8,0.8,0 V,0,70916,71416,0.8,0,0.8,0.8 V,0,71416,71916,0.8,0.8,0.8,0 V,0,71916,72416,0.8,0,0.8,0.8
Sprite,Foreground,Centre,"SB\triangle.png",320,240 V,0,67716,68216,0.6,0.6,0.6,0 M,0,67716,71997,125,520,183,-50 F,0,67716,72716,0.53 R,0,67716,72716,0,8 C,0,67716,72716,220,54,155 P,0,67716,72716,A V,0,68216,68716,0.6,0,0.6,0.6 V,0,68716,69216,0.6,0.6,0.6,0 V,0,69216,69716,0.6,0,0.6,0.6 V,0,69716,70216,0.6,0.6,0.6,0 V,0,70216,70716,0.6,0,0.6,0.6 V,0,70716,71216,0.6,0.6,0.6,0 V,0,71216,71716,0.6,0,0.6,0.6 V,0,71716,72216,0.6,0.6,0.6,0 V,0,72216,72716,0.6,0,0.6,0.6
Sprite,Foreground,Centre,"SB\triangle.png",320,240 V,0,68016,68516,0.8,0.9,0.8,0 M,0,68016,72522,20,520,-65,-50 F,0,68016,73016,0.52 R,0,68016,73016,4,11 C,0,68016,73016,220,54,155 P,0,68016,73016,A V,0,68516,69016,0.8,0,0.8,0.9 V,0,69016,69516,0.8,0.9,0.8,0 V,0,69516,70016,0.8,0,0.8,0.9 V,0,70016,70516,0.8,0.9,0.8,0 V,0,70516,71016,0.8,0,0.8,0.9 V,0,71016,71516,0.8,0.9,0.8,0 V,0,71516,72016,0.8,0,0.8,0.9 V,0,72016,72516,0.8,0.9,0.8,0 V,0,72516,73016,0.8,0,0.8,0.9
Sprite,Foreground,Centre,"SB\triangle.png",320,240 V,0,68316,68816,0.6,0.8,0.6,0 M,0,68316,71920,27,520,159,-50 F,0,68316,73316,0.63 R,0,68316,73316,0,12 C,0,68316,73316,220,54,155 P,0,68316,73316,A V,0,68816,69316,0.6,0,0.6,0.8 V,0,69316,69816,0.6,0.8,0.6,0 V,0,69816,70316,0.6,0,0.6,0.8 V,0,70316,70816,0.6,0.8,0.6,0 V,0,70816,71316,0.6,0,0.6,0.8 V,0,71316,71816,0.6,0.8,0.6,0 V,0,71816,72316,0.6,0,0.6,0.8 V,0,72316,72816,0.6,0.8,0.6,0 V,0,72816,73316,0.6,0,0.6,0.8
Sprite,Foreground,Centre,"SB\triangle.png",320,240 V,0,68616,69116,0.7,0.7,0.7,0 M,0,68616,72720,572,520,406,-50 F,0,68616,73616,0.61 R,0,68616,73616,4,12 C,0,68616,73616,220,54,155 P,0,68616,73616,A V,0,69116,69616,0.7,0,0.7,0.7 V,0,69616,70116,0.7,0.7,0.7,0 V,0,70116,70616,0.7,0,0.7,0.7 V,0,70616,71116,0.7,0.7,0.7,0 V,0,71116,71616,0.7,0,0.7,0.7 V,0,71616,72116,0.7,0.7,0.7,0 V,0,72116,72616,0.7,0,0.7,0.7 V,0,72616,73116,0.7,0.7,0.7,0 V,0,73116,73616,0.7,0,0.7,0.7
Sprite,Foreground,Centre,"SB\triangle.png",320,240 V,0,68916,69416,1.1,0.9,1.1,0 M,0,68916,72027,549,520,371,-50 F,0,68916,73916,0.48 R,0,68916,73916,6,14 C,0,68916,73916,220,54,155 P,0,68916,73916,A V,0,69416,69916,1.1,0,1.1,0.9 V,0,69916,70416,1.1,0.9,1.1,0 V,0,70416,70916,1.1,0,1.1,0.9 V,0,70916,71416,1.1,0.9,1.1,0 V,0,71416,71916,1.1,0,1.1,0.9 V,0,71916,72416,1.1,0.9,1.1,0 V,0,72416,72916,1.1,0,1.1,0.9 V,0,72916,73416,1.1,0.9,1.1,0 V,0,73416,73916,1.1,0,1.1,0.9
Sprite,Foreground,Centre,"SB\triangle.png",320,240 V,0,69216,69716,0.9,0.5,0.9,0 M,0,69216,73835,-117,520,-20,-50 F,0,69216,74216,0.66 R,0,69216,74216,0,6 C,0,69216,74216,220,54,155 P,0,69216,74216,A V,0,69716,70216,0.9,0,0.9,0.5 V,0,70216,70716,0.9,0.5,0.9,0 V,0,70716,71216,0.9,0,0.9,0.5 V,0,71216,71716,0.9,0.5,0.9,0 V,0,71716,72216,0.9,0,0.9,0.5 V,0,72216,72716,0.9,0.5,0.9,0 V,0,72716,73216,0.9,0,0.9,0.5 V,0,73216,73716,0.9,0.5,0.9,0 V,0,73716,74216,0.9,0,0.9,0.5
Sprite,Foreground,Centre,"SB\triangle.png",320,240 V,0,69516,70016,1.1,0.6,1.1,0 M,0,69516,73399,424,520,548,-50 F,0,69516,74516,0.69 R,0,69516,74516,5,17 C,0,69516,74516,220,54,155 P,0,69516,74516,A V,0,70016,70516,1.1,0,1.1,0.6 V,0,70516,71016,1.1,0.6,1.1,0 V,0,71016,71516,1.1,0,1.1,0.6 V,0,71516,72016,1.1,0.6,1.1,0 V,0,72016,72516,1.1,0,1.1,0.6 V,0,72516,73016,1.1,0.6,1.1,0 V,0,73016,73516,1.1,0,1.1,0.6 V,0,73516,74016,1.1,0.6,1.1,0 V,0,74016,74516,1.1,0,1.1,0.6
Sprite,Foreground,Centre,"SB\triangle.png",320,240 V,0,69816,70316,0.9,0.8,0.9,0 M,0,69816,74734,499,520,618,-50 F,0,69816,74816,0.62 R,0,69816,74816,4,12 C,0,69816,74816,220,54,155 P,0,69816,74816,A V,0,70316,70816,0.9,0,0.9,0.8 V,0,70816,71316,0.9,0.8,0.9,0 V,0,71316,71816,0.9,0,0.9,0.8 V,0,71816,72316,0.9,0.8,0.9,0 V,0,72316,72816,0.9,0,0.9,0.8 V,0,72816,73316,0.9,0.8,0.9,0 V,0,73316,73816,0.9,0,0.9,0.8 V,0,73816,74316,0.9,0.8,0.9,0 V,0,74316,74816,0.9,0,0.9,0.8
Sprite,Foreground,Centre,"SB\triangle.png",320,240 V,0,70116,70616,1,0.5,1,0 M,0,70116,73992,5,520,-151,-50 F,0,70116,75116,0.65 R,0,70116,75116,1,8 C,0,70116,75116,220,54,155 P,0,70116,75116,A V,0,70616,71116,1,0,1,0.5 V,0,71116,71616,1,0.5,1,0 V,0,71616,72116,1,0,1,0.5 V,0,72116,72616,1,0.5,1,0 V,0,72616,73116,1,0,1,0.5 V,0,73116,73616,1,0.5,1,0 V,0,73616,74116,1,0,1,0.5 V,0,74116,74616,1,0.5,1,0 V,0,74616,75116,1,0,1,0.5
Sprite,Foreground,Centre,"SB\triangle.png",320,240 V,0,70416,70916,0.7,0.8,0.7,0 M,0,70416,73747,608,520,487,-50 F,0,70416,75416,0.48 R,0,70416,75416,5,17 C,0,70416,75416,220,54,155 P,0,70416,75416,A V,0,70916,71416,0.7,0,0.7,0.8 V,0,71416,71916,0.7,0.8,0.7,0 V,0,71916,72416,0.7,0,0.7,0.8 V,0,72416,72916,0.7,0.8,0.7,0 V,0,72916,73416,0.7,0,0.7,0.8 V,0,73416,73916,0.7,0.8,0.7,0 V,0,73916,74416,0.7,0,0.7,0.8 V,0,74416,74916,0.7,0.8,0.7,0 V,0,74916,75416,0.7,0,0.7,0.8
Sprite,Foreground,Centre,"SB\triangle.png",320,240 V,0,70716,71216,0.6,0.5,0.6,0 M,0,70716,74030,-25,520,-166,-50 F,0,70716,75716,0.49 R,0,70716,75716,1,13 C,0,70716,75716,220,54,155 P,0,70716,75716,A V,0,71216,71716,0.6,0,0.6,0.5 V,0,71716,72216,0.6,0.5,0.6,0 V,0,72216,72716,0.6,0,0.6,0.5 V,0,72716,73216,0.6,0.5,0.6,0 V,0,73216,73716,0.6,0,0.6,0.5 V,0,73716,74216,0.6,0.5,0.6,0 V,0,74216,74716,0.6,0,0.6,0.5 V,0,74716,75216,0.6,0.5,0.6,0 V,0,75216,75716,0.6,0,0.6,0.5
Sprite,Foreground,Centre,"SB\triangle.png",320,240 V,0,71016,71516,0.6,0.7,0.6,0 M,0,71016,74921,-31,520,-21,-50 F,0,71016,76016,0.64 R,0,71016,76016,0,8 C,0,71016,76016,220,54,155 P,0,71016,76016,A V,0,71516,72016,0.6,0,0.6,0.7 V,0,72016,72516,0.6,0.7,0.6,0 V,0,72516,73016,0.6,0,0.6,0.7 V,0,73016,73516,0.6,0.7,0.6,0 V,0,73516,74016,0.6,0,0.6,0.7 V,0,74016,74516,0.6,0.7,0.6,0 V,0,74516,75016,0.6,0,0.6,0.7 V,0,75016,75516,0.6,0.7,0.6,0 V,0,75516,76016,0.6,0,0.6,0.7
Sprite,Foreground,Centre,"SB\triangle.png",320,240 V,0,71316,71816,0.6,0.5,0.6,0 M,0,71316,74650,138,520,257,-50 F,0,71316,76316,0.55 R,0,71316,76316,2,8 C,0,71316,76316,220,54,155 P,0,71316,76316,A V,0,71816,72316,0.6,0,0.6,0.5 V,0,72316,72816,0.6,0.5,0.6,0 V,0,72816,73316,0.6,0,0.6,0.5 V,0,73316,73816,0.6,0.5,0.6,0 V,0,73816,74316,0.6,0,0.6,0.5 V,0,74316,74816,0.6,0.5,0.6,0 V,0,74816,75316,0.6,0,0.6,0.5 V,0,75316,75816,0.6,0.5,0.6,0 V,0,75816,76316,0.6,0,0.6,0.5
Sprite,Foreground,Centre,"SB\triangle.png",320,240 V,0,71616,72116,0.9,0.7,0.9,0 M,0,71616,75856,502,520,617,-50 F,0,71616,76616,0.59 R,0,71616,76616,5,13 C,0,71616,76616,220,54,155 P,0,71616,76616,A V,0,72116,72616,0.9,0,0.9,0.7 V,0,72616,73116,0.9,0.7,0.9,0 V,0,73116,73616,0.9,0,0.9,0.7 V,0,73616,74116,0.9,0.7,0.9,0 V,0,74116,74616,0.9,0,0.9,0.7 V,0,74616,75116,0.9,0.7,0.9,0 V,0,75116,75616,0.9,0,0.9,0.7 V,0,75616,76116,0.9,0.7,0.9,0 V,0,76116,76616,0.9,0,0.9,0.7
Sprite,Foreground,Centre,"SB\triangle.png",320,240 V,0,71916,72416,1.1,0.7,1.1,0 M,0,71916,75783,259,520,102,-50 F,0,71916,76916,0.61 R,0,71916,76916,2,8 C,0,71916,76916,220,54,155 P,0,71916,76916,A V,0,72416,72916,1.1,0,1.1,0.7 V,0,72916,73416,1.1,0.7,1.1,0 V,0,73416,73916,1.1,0,1.1,0.7 V,0,73916,74416,1.1,0.7,1.1,0 V,0,74416,74916,1.1,0,1.1,0.7 V,0,74916,75416,1.1,0.7,1.1,0 V,0,75416,75916,1.1,0,1.1,0.7 V,0,75916,76416,1.1,0.7,1.1,0 V,0,76416,76916,1.1,0,1.1,0.7
Sprite,Foreground,Centre,"SB\triangle.png",320,240 V,0,72216,72716,0.8,1,0.8,0 M,0,72216,76134,101,520,130,-50 F,0,72216,77216,0.48 R,0,72216,77216,4,15 C,0,72216,77216,220,54,155 P,0,72216,77216,A V,0,72716,73216,0.8,0,0.8,1 V,0,73216,73716,0.8,1,0.8,0 V,0,73716,74216,0.8,0,0.8,1 V,0,74216,74716,0.8,1,0.8,0 V,0,74716,75216,0.8,0,0.8,1 V,0,75216,75716,0.8,1,0.8,0 V,0,75716,76216,0.8,0,0.8,1 V,0,76216,76716,0.8,1,0.8,0 V,0,76716,77216,0.8,0,0.8,1
Sprite,Foreground,Centre,"SB\triangle.png",320,240 V,0,72516,73016,1,0.6,1,0 M,0,72516,77305,678,520,839,-50 F,0,72516,77516,0.47 R,0,72516,77516,2,9 C,0,72516,77516,220,54,155 P,0,72516,77516,A V,0,73016,73516,1,0,1,0.6 V,0,73516,74016,1,0.6,1,0 V,0,74016,74516,1,0,1,0.6 V,0,74516,75016,1,0.6,1,0 V,0,75016,75516,1,0,1,0.6 V,0,75516,76016,1,0.6,1,0 V,0,76016,76516,1,0,1,0.6 V,0,76516,77016,1,0.6,1,0 V,0,77016,77516,1,0,1,0.6
Sprite,Foreground,Centre,"SB\triangle.png",320,240 V,0,72816,73316,1.1,0.8,1.1,0 M,0,72816,75877,302,520,469,-50 F,0,72816,77816,0.56 R,0,72816,77816,4,12 C,0,72816,77816,220,54,155 P,0,72816,77816,A V,0,73316,73816,1.1,0,1.1,0.8 V,0,73816,74316,1.1,0.8,1.1,0 V,0,74316,74816,1.1,0,1.1,0.8 V,0,74816,75316,1.1,0.8,1.1,0 V,0,75316,75816,1.1,0,1.1,0.8 V,0,75816,76316,1.1,0.8,1.1,0 V,0,76316,76816,1.1,0,1.1,0.8 V,0,76816,77316,1.1,0.8,1.1,0 V,0,77316,77816,1.1,0,1.1,0.8
Sprite,Foreground,Centre,"SB\triangle.png",320,240 V,0,73116,73616,0.6,0.9,0.6,0 M,0,73116,76731,79,520,132,-50 F,0,73116,78116,0.49 R,0,73116,78116,0,8 C,0,73116,78116,220,54,155 P,0,73116,78116,A V,0,73616,74116,0.6,0,0.6,0.9 V,0,74116,74616,0.6,0.9,0.6,0 V,0,74616,75116,0.6,0,0.6,0.9 V,0,75116,75616,0.6,0.9,0.6,0 V,0,75616,76116,0.6,0,0.6,0.9 V,0,76116,76616,0.6,0.9,0.6,0 V,0,76616,77116,0.6,0,0.6,0.9 V,0,77116,77616,0.6,0.9,0.6,0 V,0,77616,78116,0.6,0,0.6,0.9
Sprite,Foreground,Centre,"SB\triangle.png",320,240 V,0,73416,73916,0.9,0.9,0.9,0 M,0,73416,76871,649,520,648,-50 F,0,73416,78416,0.6 R,0,73416,78416,0,8 C,0,73416,78416,220,54,155 P,0,73416,78416,A V,0,73916,74416,0.9,0,0.9,0.9 V,0,74416,74916,0.9,0.9,0.9,0 V,0,74916,75416,0.9,0,0.9,0.9 V,0,75416,75916,0.9,0.9,0.9,0 V,0,75916,76416,0.9,0,0.9,0.9 V,0,76416,76916,0.9,0.9,0.9,0 V,0,76916,77416,0.9,0,0.9,0.9 V,0,77416,77916,0.9,0.9,0.9,0 V,0,77916,78416,0.9,0,0.9,0.9
Sprite,Foreground,Centre,"SB\triangle.png",320,240 V,0,73716,74216,0.6,0.7,0.6,0 M,0,73716,78237,382,520,506,-50 F,0,73716,78716,0.46 R,0,73716,78716,3,12 C,0,73716,78716,220,54,155 P,0,73716,78716,A V,0,74216,74716,0.6,0,0.6,0.7 V,0,74716,75216,0.6,0.7,0.6,0 V,0,75216,75716,0.6,0,0.6,0.7 V,0,75716,76216,0.6,0.7,0.6,0 V,0,76216,76716,0.6,0,0.6,0.7 V,0,76716,77216,0.6,0.7,0.6,0 V,0,77216,77716,0.6,0,0.6,0.7 V,0,77716,78216,0.6,0.7,0.6,0 V,0,78216,78716,0.6,0,0.6,0.7
Sprite,Foreground,Centre,"SB\triangle.png",320,240 V,0,74016,74516,0.6,0.5,0.6,0 M,0,74016,78063,344,520,214,-50 F,0,74016,79016,0.66 R,0,74016,79016,3,13 C,0,74016,79016,220,54,155 P,0,74016,79016,A V,0,74516,75016,0.6,0,0.6,0.5 V,0,75016,75516,0.6,0.5,0.6,0 V,0,75516,76016,0.6,0,0.6,0.5 V,0,76016,76516,0.6,0.5,0.6,0 V,0,76516,77016,0.6,0,0.6,0.5 V,0,77016,77516,0.6,0.5,0.6,0 V,0,77516,78016,0.6,0,0.6,0.5 V,0,78016,78516,0.6,0.5,0.6,0 V,0,78516,79016,0.6,0,0.6,0.5
Sprite,Foreground,Centre,"SB\triangle.png",320,240 V,0,74316,74816,1,0.9,1,0 M,0,74316,78246,534,520,548,-50 F,0,74316,79316,0.49 R,0,74316,79316,1,8 C,0,74316,79316,220,54,155 P,0,74316,79316,A V,0,74816,75316,1,0,1,0.9 V,0,75316,75816,1,0.9,1,0 V,0,75816,76316,1,0,1,0.9 V,0,76316,76816,1,0.9,1,0 V,0,76816,77316,1,0,1,0.9 V,0,77316,77816,1,0.9,1,0 V,0,77816,78316,1,0,1,0.9 V,0,78316,78816,1,0.9,1,0 V,0,78816,79316,1,0,1,0.9
Sprite,Foreground,Centre,"SB\triangle.png",320,240 V,0,74616,75116,0.7,0.7,0.7,0 M,0,74616,77859,587,520,660,-50 F,0,74616,79616,0.55 R,0,74616,79616,3,9 C,0,74616,79616,220,54,155 P,0,74616,79616,A V,0,75116,75616,0.7,0,0.7,0.7 V,0,75616,76116,0.7,0.7,0.7,0 V,0,76116,76616,0.7,0,0.7,0.7 V,0,76616,77116,0.7,0.7,0.7,0 V,0,77116,77616,0.7,0,0.7,0.7 V,0,77616,78116,0.7,0.7,0.7,0 V,0,78116,78616,0.7,0,0.7,0.7 V,0,78616,79116,0.7,0.7,0.7,0 V,0,79116,79616,0.7,0,0.7,0.7
Sprite,Foreground,Centre,"SB\triangle.png",320,240 V,0,74916,75416,0.9,0.8,0.9,0 M,0,74916,79010,408,520,217,-50 F,0,74916,79916,0.45 R,0,74916,79916,3,9 C,0,74916,79916,220,54,155 P,0,74916,79916,A V,0,75416,75916,0.9,0,0.9,0.8 V,0,75916,76416,0.9,0.8,0.9,0 V,0,76416,76916,0.9,0,0.9,0.8 V,0,76916,77416,0.9,0.8,0.9,0 V,0,77416,77916,0.9,0,0.9,0.8 V,0,77916,78416,0.9,0.8,0.9,0 V,0,78416,78916,0.9,0,0.9,0.8 V,0,78916,79416,0.9,0.8,0.9,0 V,0,79416,79916,0.9,0,0.9,0.8
Sprite,Foreground,Centre,"SB\triangle.png",320,240 V,0,75216,75716,1,1,1,0 M,0,75216,79184,370,520,234,-50 F,0,75216,80216,0.64 R,0,75216,80216,0,12 C,0,75216,80216,220,54,155 P,0,75216,80216,A V,0,75716,76216,1,0,1,1 V,0,76216,76716,1,1,1,0 V,0,76716,77216,1,0,1,1 V,0,77216,77716,1,1,1,0 V,0,77716,78216,1,0,1,1 V,0,78216,78716,1,1,1,0 V,0,78716,79216,1,0,1,1 V,0,79216,79716,1,1,1,0 V,0,79716,80216,1,0,1,1
Sprite,Foreground,Centre,"SB\triangle.png",320,240 V,0,75516,76016,0.9,0.5,0.9,0 M,0,75516,80418,-84,520,10,-50 F,0,75516,80516,0.67 R,0,75516,80516,1,12 C,0,75516,80516,220,54,155 P,0,75516,80516,A V,0,76016,76516,0.9,0,0.9,0.5 V,0,76516,77016,0.9,0.5,0.9,0 V,0,77016,77516,0.9,0,0.9,0.5 V,0,77516,78016,0.9,0.5,0.9,0 V,0,78016,78516,0.9,0,0.9,0.5 V,0,78516,79016,0.9,0.5,0.9,0 V,0,79016,79516,0.9,0,0.9,0.5 V,0,79516,80016,0.9,0.5,0.9,0 V,0,80016,80516,0.9,0,0.9,0.5
Sprite,Foreground,Centre,"SB\triangle.png",320,240 V,0,75816,76316,1,0.7,1,0 M,0,75816,80145,650,520,577,-50 F,0,75816,80816,0.54 R,0,75816,80816,5,12 C,0,75816,80816,220,54,155 P,0,75816,80816,A V,0,76316,76816,1,0,1,0.7 V,0,76816,77316,1,0.7,1,0 V,0,77316,77816,1,0,1,0.7 V,0,77816,78316,1,0.7,1,0 V,0,78316,78816,1,0,1,0.7 V,0,78816,79316,1,0.7,1,0 V,0,79316,79816,1,0,1,0.7 V,0,79816,80316,1,0.7,1,0 V,0,80316,80816,1,0,1,0.7
Sprite,Foreground,Centre,"SB\triangle.png",320,240 V,0,76116,76616,0.9,0.5,0.9,0 M,0,76116,80845,36,520,93,-50 F,0,76116,81116,0.55 R,0,76116,81116,3,13 C,0,76116,81116,220,54,155 P,0,76116,81116,A V,0,76616,77116,0.9,0,0.9,0.5 V,0,77116,77616,0.9,0.5,0.9,0 V,0,77616,78116,0.9,0,0.9,0.5 V,0,78116,78616,0.9,0.5,0.9,0 V,0,78616,79116,0.9,0,0.9,0.5 V,0,79116,79616,0.9,0.5,0.9,0 V,0,79616,80116,0.9,0,0.9,0.5 V,0,80116,80616,0.9,0.5,0.9,0 V,0,80616,81116,0.9,0,0.9,0.5
Sprite,Foreground,Centre,"SB\triangle.png",320,240 V,0,76416,76916,1.1,0.6,1.1,0 M,0,76416,80607,435,520,297,-50 F,0,76416,81416,0.69 R,0,76416,81416,6,17 C,0,76416,81416,220,54,155 P,0,76416,81416,A V,0,76916,77416,1.1,0,1.1,0.6 V,0,77416,77916,1.1,0.6,1.1,0 V,0,77916,78416,1.1,0,1.1,0.6 V,0,78416,78916,1.1,0.6,1.1,0 V,0,78916,79416,1.1,0,1.1,0.6 V,0,79416,79916,1.1,0.6,1.1,0 V,0,79916,80416,1.1,0,1.1,0.6 V,0,80416,80916,1.1,0.6,1.1,0 V,0,80916,81416,1.1,0,1.1,0.6
Sprite,Foreground,Centre,"SB\triangle.png",320,240 V,0,76716,77216,0.6,0.8,0.6,0 M,0,76716,81693,216,520,384,-50 F,0,76716,81716,0.57 R,0,76716,81716,5,17 C,0,76716,81716,220,54,155 P,0,76716,81716,A V,0,77216,77716,0.6,0,0.6,0.8 V,0,77716,78216,0.6,0.8,0.6,0 V,0,78216,78716,0.6,0,0.6,0.8 V,0,78716,79216,0.6,0.8,0.6,0 V,0,79216,79716,0.6,0,0.6,0.8 V,0,79716,80216,0.6,0.8,0.6,0 V,0,80216,80716,0.6,0,0.6,0.8 V,0,80716,81216,0.6,0.8,0.6,0 V,0,81216,81716,0.6,0,0.6,0.8
Sprite,Foreground,Centre,"SB\triangle.png",320,240 V,0,77016,77516,1,0.7,1,0 M,0,77016,80374,119,520,100,-50 F,0,77016,82016,0.58 R,0,77016,82016,1,9 C,0,77016,82016,220,54,155 P,0,77016,82016,A V,0,77516,78016,1,0,1,0.7 V,0,78016,78516,1,0.7,1,0 V,0,78516,79016,1,0,1,0.7 V,0,79016,79516,1,0.7,1,0 V,0,79516,80016,1,0,1,0.7 V,0,80016,80516,1,0.7,1,0 V,0,80516,81016,1,0,1,0.7 V,0,81016,81516,1,0.7,1,0 V,0,81516,82016,1,0,1,0.7
Sprite,Foreground,Centre,"SB\triangle.png",320,240 V,0,77316,77816,0.7,1,0.7,0 M,0,77316,81695,609,520,680,-50 F,0,77316,82316,0.53 R,0,77316,82316,2,12 C,0,77316,82316,220,54,155 P,0,77316,82316,A V,0,77816,78316,0.7,0,0.7,1 V,0,78316,78816,0.7,1,0.7,0 V,0,78816,79316,0.7,0,0.7,1 V,0,79316,79816,0.7,1,0.7,0 V,0,79816,80316,0.7,0,0.7,1 V,0,80316,80816,0.7,1,0.7,0 V,0,80816,81316,0.7,0,0.7,1 V,0,81316,81816,0.7,1,0.7,0 V,0,81816,82316,0.7,0,0.7,1
Sprite,Foreground,Centre,"SB\triangle.png",320,240 V,0,77616,78116,0.8,0.6,0.8,0 M,0,77616,81071,44,520,-146,-50 F,0,77616,82616,0.45 R,0,77616,82616,3,15 C,0,77616,82616,220,54,155 P,0,77616,82616,A V,0,78116,78616,0.8,0,0.8,0.6 V,0,78616,79116,0.8,0.6,0.8,0 V,0,79116,79616,0.8,0,0.8,0.6 V,0,79616,80116,0.8,0.6,0.8,0 V,0,80116,80616,0.8,0,0.8,0.6 V,0,80616,81116,0.8,0.6,0.8,0 V,0,81116,81616,0.8,0,0.8,0.6 V,0,81616,82116,0.8,0.6,0.8,0 V,0,82116,82616,0.8,0,0.8,0.6
Sprite,Foreground,Centre,"SB\triangle.png",320,240 V,0,77916,78416,0.6,0.5,0.6,0 M,0,77916,81793,141,520,-30,-50 F,0,77916,82916,0.53 R,0,77916,82916,6,13 C,0,77916,82916,220,54,155 P,0,77916,82916,A V,0,78416,78916,0.6,0,0.6,0.5 V,0,78916,79416,0.6,0.5,0.6,0 V,0,79416,79916,0.6,0,0.6,0.5 V,0,79916,80416,0.6,0.5,0.6,0 V,0,80416,80916,0.6,0,0.6,0.5 V,0,80916,81416,0.6,0.5,0.6,0 V,0,81416,81916,0.6,0,0.6,0.5 V,0,81916,82416,0.6,0.5,0.6,0 V,0,82416,82916,0.6,0,0.6,0.5
Sprite,Foreground,Centre,"SB\triangle.png",320,240 V,0,78216,78716,0.9,0.5,0.9,0 M,0,78216,82278,4,520,-29,-50 F,0,78216,83216,0.58 R,0,78216,83216,0,7 C,0,78216,83216,220,54,155 P,0,78216,83216,A V,0,78716,79216,0.9,0,0.9,0.5 V,0,79216,79716,0.9,0.5,0.9,0 V,0,79716,80216,0.9,0,0.9,0.5 V,0,80216,80716,0.9,0.5,0.9,0 V,0,80716,81216,0.9,0,0.9,0.5 V,0,81216,81716,0.9,0.5,0.9,0 V,0,81716,82216,0.9,0,0.9,0.5 V,0,82216,82716,0.9,0.5,0.9,0 V,0,82716,83216,0.9,0,0.9,0.5
Sprite,Foreground,Centre,"SB\triangle.png",320,240 V,0,78516,79016,0.9,1,0.9,0 M,0,78516,82993,38,520,224,-50 F,0,78516,83516,0.61 R,0,78516,83516,2,11 C,0,78516,83516,220,54,155 P,0,78516,83516,A V,0,79016,79516,0.9,0,0.9,1 V,0,79516,80016,0.9,1,0.9,0 V,0,80016,80516,0.9,0,0.9,1 V,0,80516,81016,0.9,1,0.9,0 V,0,81016,81516,0.9,0,0.9,1 V,0,81516,82016,0.9,1,0.9,0 V,0,82016,82516,0.9,0,0.9,1 V,0,82516,83016,0.9,1,0.9,0 V,0,83016,83516,0.9,0,0.9,1
Sprite,Foreground,Centre,"SB\triangle.png",320,240 V,0,78816,79316,0.8,0.7,0.8,0 M,0,78816,83549,32,520,229,-50 F,0,78816,83816,0.7 R,0,78816,83816,1,12 C,0,78816,83816,220,54,155 P,0,78816,83816,A V,0,79316,79816,0.8,0,0.8,0.7 V,0,79816,80316,0.8,0.7,0.8,0 V,0,80316,80816,0.8,0,0.8,0.7 V,0,80816,81316,0.8,0.7,0.8,0 V,0,81316,81816,0.8,0,0.8,0.7 V,0,81816,82316,0.8,0.7,0.8,0 V,0,82316,82816,0.8,0,0.8,0.7 V,0,82816,83316,0.8,0.7,0.8,0 V,0,83316,83816,0.8,0,0.8,0.7
Sprite,Foreground,Centre,"SB\triangle.png",320,240 V,0,79116,79616,0.8,0.5,0.8,0 M,0,79116,82923,-118,520,-98,-50 F,0,79116,84116,0.54 R,0,79116,84116,4,11 C,0,79116,84116,220,54,155 P,0,79116,84116,A V,0,79616,80116,0.8,0,0.8,0.5 V,0,80116,80616,0.8,0.5,0.8,0 V,0,80616,81116,0.8,0,0.8,0.5 V,0,81116,81616,0.8,0.5,0.8,0 V,0,81616,82116,0.8,0,0.8,0.5 V,0,82116,82616,0.8,0.5,0.8,0 V,0,82616,83116,0.8,0,0.8,0.5 V,0,83116,83616,0.8,0.5,0.8,0 V,0,83616,84116,0.8,0,0.8,0.5
Sprite,Foreground,Centre,"SB\triangle.png",320,240 V,0,79416,79916,0.9,0.5,0.9,0 M,0,79416,84052,503,520,665,-50 F,0,79416,84416,0.48 R,0,79416,84416,5,17 C,0,79416,84416,220,54,155 P,0,79416,84416,A V,0,79916,80416,0.9,0,0.9,0.5 V,0,80416,80916,0.9,0.5,0.9,0 V,0,80916,81416,0.9,0,0.9,0.5 V,0,81416,81916,0.9,0.5,0.9,0 V,0,81916,82416,0.9,0,0.9,0.5 V,0,82416,82916,0.9,0.5,0.9,0 V,0,82916,83416,0.9,0,0.9,0.5 V,0,83416,83916,0.9,0.5,0.9,0 V,0,83916,84416,0.9,0,0.9,0.5
Sprite,Foreground,Centre,"SB\triangle.png",320,240 V,0,79716,80216,0.8,1,0.8,0 M,0,79716,84646,45,520,4,-50 F,0,79716,84716,0.53 R,0,79716,84716,3,11 C,0,79716,84716,220,54,155 P,0,79716,84716,A V,0,80216,80716,0.8,0,0.8,1 V,0,80716,81216,0.8,1,0.8,0 V,0,81216,81716,0.8,0,0.8,1 V,0,81716,82216,0.8,1,0.8,0 V,0,82216,82716,0.8,0,0.8,1 V,0,82716,83216,0.8,1,0.8,0 V,0,83216,83716,0.8,0,0.8,1 V,0,83716,84216,0.8,1,0.8,0 V,0,84216,84716,0.8,0,0.8,1
Sprite,Foreground,Centre,"SB\triangle.png",320,240 V,0,80016,80516,0.8,0.8,0.8,0 M,0,80016,84484,209,520,310,-50 F,0,80016,85016,0.46 R,0,80016,85016,3,13 C,0,80016,85016,220,54,155 P,0,80016,85016,A V,0,80516,81016,0.8,0,0.8,0.8 V,0,81016,81516,0.8,0.8,0.8,0 V,0,81516,82016,0.8,0,0.8,0.8 V,0,82016,82516,0.8,0.8,0.8,0 V,0,82516,83016,0.8,0,0.8,0.8 V,0,83016,83516,0.8,0.8,0.8,0 V,0,83516,84016,0.8,0,0.8,0.8 V,0,84016,84516,0.8,0.8,0.8,0 V,0,84516,85016,0.8,0,0.8,0.8
Sprite,Foreground,Centre,"SB\triangle.png",320,240 V,0,80316,80816,0.9,0.9,0.9,0 M,0,80316,85314,-108,520,-154,-50 F,0,80316,85316,0.64 R,0,80316,85316,1,13 C,0,80316,85316,220,54,155 P,0,80316,85316,A V,0,80816,81316,0.9,0,0.9,0.9 V,0,81316,81816,0.9,0.9,0.9,0 V,0,81816,82316,0.9,0,0.9,0.9 V,0,82316,82816,0.9,0.9,0.9,0 V,0,82816,83316,0.9,0,0.9,0.9 V,0,83316,83816,0.9,0.9,0.9,0 V,0,83816,84316,0.9,0,0.9,0.9 V,0,84316,84816,0.9,0.9,0.9,0 V,0,84816,85316,0.9,0,0.9,0.9
Sprite,Foreground,Centre,"SB\triangle.png",320,240 V,0,80616,81116,1.1,0.6,1.1,0 M,0,80616,85550,539,520,621,-50 F,0,80616,85616,0.54 R,0,80616,85616,6,16 C,0,80616,85616,220,54,155 P,0,80616,85616,A V,0,81116,81616,1.1,0,1.1,0.6 V,0,81616,82116,1.1,0.6,1.1,0 V,0,82116,82616,1.1,0,1.1,0.6 V,0,82616,83116,1.1,0.6,1.1,0 V,0,83116,83616,1.1,0,1.1,0.6 V,0,83616,84116,1.1,0.6,1.1,0 V,0,84116,84616,1.1,0,1.1,0.6 V,0,84616,85116,1.1,0.6,1.1,0 V,0,85116,85616,1.1,0,1.1,0.6
Sprite,Foreground,Centre,"SB\triangle.png",320,240 V,0,80916,81416,0.7,1,0.7,0 M,0,80916,85144,-190,520,-288,-50 F,0,80916,85916,0.45 R,0,80916,85916,0,7 C,0,80916,85916,220,54,155 P,0,80916,85916,A V,0,81416,81916,0.7,0,0.7,1 V,0,81916,82416,0.7,1,0.7,0 V,0,82416,82916,0.7,0,0.7,1 V,0,82916,83416,0.7,1,0.7,0 V,0,83416,83916,0.7,0,0.7,1 V,0,83916,84416,0.7,1,0.7,0 V,0,84416,84916,0.7,0,0.7,1 V,0,84916,85416,0.7,1,0.7,0 V,0,85416,85916,0.7,0,0.7,1
Sprite,Foreground,Centre,"SB\1.png",320,240 S,0,478,,0.45 F,0,478,678,0,0.8 M,0,478,3186,380,350,422,350 P,0,478,3186,A F,0,678,2986,0.8 F,0,2986,3186,0.8,0
Sprite,Foreground,Centre,"SB\1-re.png",320,240 S,0,478,,0.45 F,0,478,678,0,0.4 M,0,478,3186,380,375,422,375 P,0,478,3186,A F,0,678,2986,0.3 F,0,2986,3186,0.4,0
Sprite,Foreground,Centre,"SB\2.png",320,240 S,0,11584,,0.45 F,0,11584,11784,0,0.8 M,0,11584,14435,380,350,422,350 P,0,11584,14435,A F,0,11784,14235,0.8 F,0,14235,14435,0.8,0
Sprite,Foreground,Centre,"SB\2-re.png",320,240 S,0,11584,,0.45 F,0,11584,11784,0,0.4 M,0,11584,14435,380,375,422,375 P,0,11584,14435,A F,0,11784,14235,0.3 F,0,14235,14435,0.4,0
Sprite,Foreground,Centre,"SB\3.png",320,240 S,0,14324,,0.45 F,0,14324,14524,0,0.8 M,0,14324,16743,380,350,422,350 P,0,14324,16743,A F,0,14524,16543,0.8 F,0,16543,16743,0.8,0
Sprite,Foreground,Centre,"SB\3-re.png",320,240 S,0,14324,,0.45 F,0,14324,14524,0,0.4 M,0,14324,16743,380,375,422,375 P,0,14324,16743,A F,0,14524,16543,0.3 F,0,16543,16743,0.4,0
Sprite,Foreground,Centre,"SB\4.png",320,240 S,0,16632,,0.45 F,0,16632,16832,0,0.8 M,0,16632,19051,380,350,422,350 P,0,16632,19051,A F,0,16832,18851,0.8 F,0,18851,19051,0.8,0
Sprite,Foreground,Centre,"SB\4-re.png",320,240 S,0,16632,,0.45 F,0,16632,16832,0,0.4 M,0,16632,19051,380,375,422,375 P,0,16632,19051,A F,0,16832,18851,0.3 F,0,18851,19051,0.4,0
Sprite,Foreground,Centre,"SB\5.png",320,240 S,0,18939,,0.45 F,0,18939,19139,0,0.8 M,0,18939,21359,380,350,422,350 P,0,18939,21359,A F,0,19139,21159,0.8 F,0,21159,21359,0.8,0
Sprite,Foreground,Centre,"SB\5-re.png",320,240 S,0,18939,,0.45 F,0,18939,19139,0,0.4 M,0,18939,21359,380,375,422,375 P,0,18939,21359,A F,0,19139,21159,0.3 F,0,21159,21359,0.4,0
Sprite,Foreground,Centre,"SB\6.png",320,240 S,0,21247,,0.45 F,0,21247,21447,0,0.8 M,0,21247,23666,380,350,422,350 P,0,21247,23666,A F,0,21447,23466,0.8 F,0,23466,23666,0.8,0
Sprite,Foreground,Centre,"SB\6-re.png",320,240 S,0,21247,,0.45 F,0,21247,21447,0,0.4 M,0,21247,23666,380,375,422,375 P,0,21247,23666,A F,0,21447,23466,0.3 F,0,23466,23666,0.4,0
Sprite,Foreground,Centre,"SB\7.png",320,240 S,0,23555,,0.45 F,0,23555,23755,0,0.8 M,0,23555,25974,380,350,422,350 P,0,23555,25974,A F,0,23755,25774,0.8 F,0,25774,25974,0.8,0
Sprite,Foreground,Centre,"SB\7-re.png",320,240 S,0,23555,,0.45 F,0,23555,23755,0,0.4 M,0,23555,25974,380,375,422,375 P,0,23555,25974,A F,0,23755,25774,0.3 F,0,25774,25974,0.4,0
Sprite,Foreground,Centre,"SB\8.png",320,240 S,0,25862,,0.45 F,0,25862,26062,0,0.8 M,0,25862,28282,380,350,422,350 P,0,25862,28282,A F,0,26062,28082,0.8 F,0,28082,28282,0.8,0
Sprite,Foreground,Centre,"SB\8-re.png",320,240 S,0,25862,,0.45 F,0,25862,26062,0,0.4 M,0,25862,28282,380,375,422,375 P,0,25862,28282,A F,0,26062,28082,0.3 F,0,28082,28282,0.4,0
Sprite,Foreground,Centre,"SB\9.png",320,240 S,0,28170,,0.45 F,0,28170,28370,0,0.8 M,0,28170,30589,380,350,422,350 P,0,28170,30589,A F,0,28370,30389,0.8 F,0,30389,30589,0.8,0
Sprite,Foreground,Centre,"SB\9-re.png",320,240 S,0,28170,,0.45 F,0,28170,28370,0,0.4 M,0,28170,30589,380,375,422,375 P,0,28170,30589,A F,0,28370,30389,0.3 F,0,30389,30589,0.4,0
Sprite,Foreground,Centre,"SB\10.png",320,240 S,0,30622,,0.45 F,0,30622,30822,0,0.8 M,0,30622,32609,380,350,422,350 P,0,30622,32609,A F,0,30822,32409,0.8 F,0,32409,32609,0.8,0
Sprite,Foreground,Centre,"SB\10-re.png",320,240 S,0,30622,,0.45 F,0,30622,30822,0,0.4 M,0,30622,32609,380,375,422,375 P,0,30622,32609,A F,0,30822,32409,0.3 F,0,32409,32609,0.4,0
Sprite,Foreground,Centre,"SB\11.png",320,240 S,0,32785,,0.45 F,0,32785,32985,0,0.8 M,0,32785,34916,380,350,422,350 P,0,32785,34916,A F,0,32985,34716,0.8 F,0,34716,34916,0.8,0
Sprite,Foreground,Centre,"SB\11-re.png",320,240 S,0,32785,,0.45 F,0,32785,32985,0,0.4 M,0,32785,34916,380,375,422,375 P,0,32785,34916,A F,0,32985,34716,0.3 F,0,34716,34916,0.4,0
Sprite,Foreground,Centre,"SB\12.png",320,240 S,0,35093,,0.45 F,0,35093,35293,0,0.8 M,0,35093,37224,380,350,422,350 P,0,35093,37224,A F,0,35293,37024,0.8 F,0,37024,37224,0.8,0
Sprite,Foreground,Centre,"SB\12-re.png",320,240 S,0,35093,,0.45 F,0,35093,35293,0,0.4 M,0,35093,37224,380,375,422,375 P,0,35093,37224,A F,0,35293,37024,0.3 F,0,37024,37224,0.4,0
Sprite,Foreground,Centre,"SB\13.png",320,240 S,0,37112,,0.45 F,0,37112,37312,0,0.8 M,0,37112,41839,380,350,422,350 P,0,37112,41839,A F,0,37312,41639,0.8 F,0,41639,41839,0.8,0
Sprite,Foreground,Centre,"SB\13-re.png",320,240 S,0,37112,,0.45 F,0,37112,37312,0,0.4 M,0,37112,41839,380,375,422,375 P,0,37112,41839,A F,0,37312,41639,0.3 F,0,41639,41839,0.4,0
Sprite,Foreground,Centre,"SB\1.png",320,240 S,0,42016,,0.45 F,0,42016,42216,0,0.8 M,0,42016,44435,380,350,422,350 P,0,42016,44435,A F,0,42216,44235,0.8 F,0,44235,44435,0.8,0
Sprite,Foreground,Centre,"SB\1-re.png",320,240 S,0,42016,,0.45 F,0,42016,42216,0,0.4 M,0,42016,44435,380,375,422,375 P,0,42016,44435,A F,0,42216,44235,0.3 F,0,44235,44435,0.4,0
Sprite,Foreground,Centre,"SB\14.png",320,240 S,0,44324,,0.45 F,0,44324,44524,0,0.8 M,0,44324,47032,380,350,422,350 P,0,44324,47032,A F,0,44524,46832,0.8 F,0,46832,47032,0.8,0
Sprite,Foreground,Centre,"SB\14-re.png",320,240 S,0,44324,,0.45 F,0,44324,44524,0,0.4 M,0,44324,47032,380,375,422,375 P,0,44324,47032,A F,0,44524,46832,0.3 F,0,46832,47032,0.4,0
Sprite,Foreground,Centre,"SB\15.png",320,240 S,0,46920,,0.45 F,0,46920,47120,0,0.8 M,0,46920,49772,380,350,422,350 P,0,46920,49772,A F,0,47120,49572,0.8 F,0,49572,49772,0.8,0
Sprite,Foreground,Centre,"SB\15-re.png",320,240 S,0,46920,,0.45 F,0,46920,47120,0,0.4 M,0,46920,49772,380,375,422,375 P,0,46920,49772,A F,0,47120,49572,0.3 F,0,49572,49772,0.4,0
Sprite,Foreground,Centre,"SB\16.png",320,240 S,0,49516,,0.45 F,0,49516,49716,0,0.8 M,0,49516,51359,380,350,422,350 P,0,49516,51359,A F,0,49716,51159,0.8 F,0,51159,51359,0.8,0
Sprite,Foreground,Centre,"SB\16-re.png",320,240 S,0,49516,,0.45 F,0,49516,49716,0,0.4 M,0,49516,51359,380,375,422,375 P,0,49516,51359,A F,0,49716,51159,0.3 F,0,51159,51359,0.4,0
Sprite,Foreground,Centre,"SB\17.png",320,240 S,0,51247,,0.45 F,0,51247,51447,0,0.8 M,0,51247,53666,380,350,422,350 P,0,51247,53666,A F,0,51447,53466,0.8 F,0,53466,53666,0.8,0
Sprite,Foreground,Centre,"SB\17-re.png",320,240 S,0,51247,,0.45 F,0,51247,51447,0,0.4 M,0,51247,53666,380,375,422,375 P,0,51247,53666,A F,0,51447,53466,0.3 F,0,53466,53666,0.4,0
Sprite,Foreground,Centre,"SB\18.png",320,240 S,0,53555,,0.45 F,0,53555,53755,0,0.8 M,0,53555,56262,380,350,422,350 P,0,53555,56262,A F,0,53755,56062,0.8 F,0,56062,56262,0.8,0
Sprite,Foreground,Centre,"SB\18-re.png",320,240 S,0,53555,,0.45 F,0,53555,53755,0,0.4 M,0,53555,56262,380,375,422,375 P,0,53555,56262,A F,0,53755,56062,0.3 F,0,56062,56262,0.4,0
Sprite,Foreground,Centre,"SB\19.png",320,240 S,0,56151,,0.45 F,0,56151,56351,0,0.8 M,0,56151,58282,380,350,422,350 P,0,56151,58282,A F,0,56351,58082,0.8 F,0,58082,58282,0.8,0
Sprite,Foreground,Centre,"SB\19-re.png",320,240 S,0,56151,,0.45 F,0,56151,56351,0,0.4 M,0,56151,58282,380,375,422,375 P,0,56151,58282,A F,0,56351,58082,0.3 F,0,58082,58282,0.4,0
Sprite,Foreground,Centre,"SB\20.png",320,240 S,0,58026,,0.45 F,0,58026,58226,0,0.8 M,0,58026,63185,380,350,422,350 P,0,58026,63185,A F,0,58226,62985,0.8 F,0,62985,63185,0.8,0
Sprite,Foreground,Centre,"SB\20-re.png",320,240 S,0,58026,,0.45 F,0,58026,58226,0,0.4 M,0,58026,63185,380,375,422,375 P,0,58026,63185,A F,0,58226,62985,0.3 F,0,62985,63185,0.4,0
Sprite,Foreground,Centre,"SB\21.png",320,240 S,0,69420,,0.45 F,0,69420,69620,0,0.8 M,0,69420,71839,380,350,422,350 P,0,69420,71839,A F,0,69620,71639,0.8 F,0,71639,71839,0.8,0
Sprite,Foreground,Centre,"SB\21-re.png",320,240 S,0,69420,,0.45 F,0,69420,69620,0,0.4 M,0,69420,71839,380,375,422,375 P,0,69420,71839,A F,0,69620,71639,0.3 F,0,71639,71839,0.4,0
Sprite,Foreground,Centre,"SB\22.png",320,240 S,0,71584,,0.45 F,0,71584,71784,0,0.8 M,0,71584,74147,380,350,422,350 P,0,71584,74147,A F,0,71784,73947,0.8 F,0,73947,74147,0.8,0
Sprite,Foreground,Centre,"SB\22-re.png",320,240 S,0,71584,,0.45 F,0,71584,71784,0,0.4 M,0,71584,74147,380,375,422,375 P,0,71584,74147,A F,0,71784,73947,0.3 F,0,73947,74147,0.4,0
Sprite,Foreground,Centre,"SB\23.png",320,240 S,0,73891,,0.45 F,0,73891,74091,0,0.8 M,0,73891,76455,380,350,422,350 P,0,73891,76455,A F,0,74091,76255,0.8 F,0,76255,76455,0.8,0
Sprite,Foreground,Centre,"SB\23-re.png",320,240 S,0,73891,,0.45 F,0,73891,74091,0,0.4 M,0,73891,76455,380,375,422,375 P,0,73891,76455,A F,0,74091,76255,0.3 F,0,76255,76455,0.4,0
Sprite,Foreground,Centre,"SB\24.png",320,240 S,0,76199,,0.45 F,0,76199,76399,0,0.8 M,0,76199,80205,380,350,422,350 P,0,76199,80205,A F,0,76399,80005,0.8 F,0,80005,80205,0.8,0
Sprite,Foreground,Centre,"SB\24-re.png",320,240 S,0,76199,,0.45 F,0,76199,76399,0,0.4 M,0,76199,80205,380,375,422,375 P,0,76199,80205,A F,0,76399,80005,0.3 F,0,80005,80205,0.4,0
Sprite,Foreground,Centre,"SB\1.png",320,240 S,0,80093,,0.45 F,0,80093,80293,0,0.8 M,0,80093,82512,380,350,422,350 P,0,80093,82512,A F,0,80293,82312,0.8 F,0,82312,82512,0.8,0
Sprite,Foreground,Centre,"SB\1-re.png",320,240 S,0,80093,,0.45 F,0,80093,80293,0,0.4 M,0,80093,82512,380,375,422,375 P,0,80093,82512,A F,0,80293,82312,0.3 F,0,82312,82512,0.4,0
Sprite,Foreground,Centre,"SB\25.png",320,240 S,0,82401,,0.45 F,0,82401,82601,0,0.8 M,0,82401,86262,380,350,422,350 P,0,82401,86262,A F,0,82601,86062,0.8 F,0,86062,86262,0.8,0
Sprite,Foreground,Centre,"SB\25-re.png",320,240 S,0,82401,,0.45 F,0,82401,82601,0,0.4 M,0,82401,86262,380,375,422,375 P,0,82401,86262,A F,0,82601,86062,0.3 F,0,86062,86262,0.4,0
//Storyboard Sound Samples

[TimingPoints]
678,288.461538461538,4,2,1,50,1,0
2986,288.461538461538,4,2,1,70,1,0
42216,-100,4,2,1,80,0,1
60678,-100,4,2,1,70,0,0
69909,-100,4,2,1,80,0,1
80293,-100,4,2,1,50,0,0

[Colours]
Combo1 : 196,172,60
Combo2 : 192,192,192
Combo3 : 0,128,192
Combo4 : 128,128,255

[HitObjects]
48,43,678,6,0,B|142:36|142:36|236:76,1,180,4|0,0:0|0:0,0:0:0:0:
243,166,1543,1,2,0:0:0:0:
145,149,1831,2,0,P|90:182|145:263,1,180,4|0,0:0|0:0,0:0:0:0:
222,318,2697,1,2,0:0:0:0:
303,265,2986,6,0,L|417:273,1,89.9999999999999,4|8,0:0|0:0,0:0:0:0:
470,210,3562,1,0,0:0:0:0:
443,114,3851,1,8,0:0:0:0:
345,100,4139,2,0,L|343:47,2,45,0|0|8,0:0|0:0|0:0,0:0:0:0:
321,143,4572,2,0,B|292:206|292:206|230:229,1,135,0|8,0:0|0:0,0:0:0:0:
183,141,5293,6,0,L|146:56,1,89.9999999999999,0|8,0:0|0:0,0:0:0:0:
54,93,5870,2,0,L|77:197,1,89.9999999999999,0|8,0:0|0:0,0:0:0:0:
40,274,6447,6,0,L|45:321,2,45,8|8|8,0:0|0:0|0:0,0:0:0:0:
87,259,6880,2,0,L|229:245,1,135,8|8,0:0|0:0,0:0:0:0:
292,314,7601,6,0,L|384:309,1,89.9999999999999,0|8,0:0|0:0,0:0:0:0:
450,381,8178,2,0,P|479:328|479:282,1,89.9999999999999,0|8,0:0|0:0,0:0:0:0:
419,221,8755,2,0,P|385:173|402:54,1,180,0|8,0:0|0:0,0:0:0:0:
269,131,9764,6,0,P|183:128|126:30,2,180,8|8|8,0:0|0:0|0:0,0:0:0:0:
411,174,11351,2,0,L|405:324,1,135,8|2,0:0|0:0,0:0:0:0:
262,346,12216,6,0,L|156:365,1,89.9999999999999,4|4,0:0|0:0,0:0:0:0:
117,279,12793,2,0,L|14:266,1,89.9999999999999,4|8,0:0|0:0,0:0:0:0:
16,169,13370,1,0,0:0:0:0:
95,106,13659,1,8,0:0:0:0:
184,147,13947,2,0,L|284:141,1,89.9999999999999,0|8,0:0|0:0,0:0:0:0:
343,71,14524,6,0,P|387:55|458:81,1,89.9999999999999,0|8,0:0|0:0,0:0:0:0:
492,137,15101,1,0,0:0:0:0:
396,158,15389,1,8,0:0:0:0:
461,232,15678,2,0,L|477:376,2,135,8|8|8,0:0|0:0|0:0,0:0:0:0:
396,158,16832,6,0,L|272:149,1,89.9999999999999,4|4,0:0|0:0,0:0:0:0:
217,195,17409,2,4,L|127:201,1,89.9999999999999,4|8,0:0|0:0,0:0:0:0:
49,262,17985,1,0,0:0:0:0:
90,352,18274,1,8,0:0:0:0:
181,315,18562,2,0,L|277:298,1,89.9999999999999,0|8,0:0|0:0,0:0:0:0:
290,202,19139,6,0,P|310:151|206:51,2,180,8|8|8,0:0|0:0|0:0,0:0:0:0:
269,299,20582,1,8,0:0:0:0:
366,280,20870,2,0,L|465:271,1,89.9999999999999,8|8,0:0|0:0,0:0:0:0:
490,178,21447,5,4,0:0:0:0:
493,79,21735,1,4,0:0:0:0:
404,123,22024,2,0,L|304:127,1,89.9999999999999,4|8,0:0|0:0,0:0:0:0:
223,167,22601,1,0,0:0:0:0:
186,75,22889,1,8,0:0:0:0:
90,101,23178,2,0,L|78:218,1,89.9999999999999,0|8,0:0|0:0,0:0:0:0:
160,249,23755,6,0,B|177:283|177:283|168:349,1,89.9999999999999,0|8,0:0|0:0,0:0:0:0:
77,371,24332,1,0,0:0:0:0:
38,280,24620,1,8,0:0:0:0:
80,190,24909,2,0,P|141:156|228:205,2,135,8|8|8,0:0|0:0|0:0,0:0:0:0:
150,259,26062,6,0,L|273:255,1,89.9999999999999,4|4,0:0|0:0,0:0:0:0:
324,204,26639,2,0,L|413:206,1,89.9999999999999,4|8,0:0|0:0,0:0:0:0:
480,279,27216,2,0,B|445:332|445:332|320:345,1,180
242,295,28082,1,8,0:0:0:0:
158,350,28370,6,0,P|68:346|27:242,1,180,0|8,0:0|0:0,0:0:0:0:
84,196,29235,1,0,0:0:0:0:
38,107,29524,2,0,L|22:20,2,45,0|0|8,0:0|0:0|0:0,0:0:0:0:
84,88,29957,2,0,L|195:81,1,89.9999999999999,0|8,0:0|0:0,0:0:0:0:
314,128,30678,6,0,B|447:90|447:90|388:64,1,180,2|2,0:0|0:0,0:0:0:0:
262,47,31687,2,0,L|127:34,1,135,2|8,0:0|0:0,0:0:0:0:
55,102,32409,2,0,L|62:208,1,89.9999999999999,2|2,0:0|0:0,0:0:0:0:
153,307,33130,6,0,P|261:307|309:273,1,135,2|2,0:0|0:0,0:0:0:0:
207,167,33995,2,0,P|189:111|235:35,1,135,2|8,0:0|0:0,0:0:0:0:
290,115,34716,2,0,L|398:125,1,89.9999999999999,2|2,0:0|0:0,0:0:0:0:
476,236,35437,6,0,L|330:253,1,135,2|2,0:0|0:0,0:0:0:0:
206,312,36303,2,0,L|71:296,1,135,2|2,0:0|0:0,0:0:0:0:
28,206,37024,1,2,0:0:0:0:
105,144,37312,1,8,0:0:0:0:
183,204,37601,6,0,P|205:144|180:90,2,89.9999999999999,0|8|0,0:0|0:0|0:0,0:0:0:0:
97,255,38466,1,8,0:0:0:0:
145,343,38755,2,0,B|223:361|223:361|306:348,1,135,4|4,0:0|0:0,0:0:0:0:
361,300,39476,1,4,0:0:0:0:
389,104,40053,6,0,P|310:77|221:126,1,180
134,82,40918,1,0,0:0:0:0:
73,160,41207,2,0,L|14:163,2,45
278,300,42216,6,0,P|341:313|461:283,1,180,4|2,0:0|0:0,0:0:0:0:
412,196,43082,1,8,0:0:0:0:
453,106,43370,2,0,P|364:106|312:203,1,180,2|2,0:0|0:0,0:0:0:0:
217,197,44235,1,8,0:0:0:0:
122,174,44524,6,0,L|9:152,1,89.9999999999999,0|8,0:0|0:0,0:0:0:0:
104,87,45101,2,0,L|192:69,1,89.9999999999999,0|8,0:0|0:0,0:0:0:0:
268,132,45678,2,0,P|294:199|246:282,1,135,8|8,0:0|0:0,0:0:0:0:
178,281,46399,2,0,L|30:266,1,135,8|2,0:0|0:0,0:0:0:0:
41,366,47120,5,8,0:0:0:0:
142,374,47409,2,0,L|236:363,1,89.9999999999999,0|8,0:0|0:0,0:0:0:0:
313,307,47985,2,0,L|457:321,1,135,0|8,0:0|0:0,0:0:0:0:
506,239,48707,1,8,0:0:0:0:
420,188,48995,6,0,P|357:171|346:81,1,135,0|8,0:0|0:0,0:0:0:0:
253,53,49716,2,0,L|133:47,1,89.9999999999999,0|8,0:0|0:0,0:0:0:0:
126,140,50293,2,0,L|246:134,1,89.9999999999999,0|8,0:0|0:0,0:0:0:0:
304,179,50870,1,8,0:0:0:0:
287,276,51159,1,8,0:0:0:0:
202,327,51447,6,0,P|94:339|76:335,1,89.9999999999999,4|8,0:0|0:0,0:0:0:0:
53,262,52024,2,0,P|161:250|179:254,1,89.9999999999999,0|8,0:0|0:0,0:0:0:0:
195,164,52601,2,0,P|219:111|174:48,2,135,8|8|2,0:0|0:0|0:0,0:0:0:0:
107,117,53755,6,0,P|90:163|106:212,1,89.9999999999999,0|8,0:0|0:0,0:0:0:0:
190,240,54332,2,0,P|207:286|191:335,1,89.9999999999999,0|8,0:0|0:0,0:0:0:0:
115,379,54909,2,0,P|182:356|272:389,1,135,8|8,0:0|0:0,0:0:0:0:
339,345,55630,2,0,P|405:362|478:309,1,135,8|2,0:0|0:0,0:0:0:0:
454,233,56351,6,0,L|464:105,2,89.9999999999999,8|0|8,0:0|0:0|0:0,0:0:0:0:
358,206,57216,1,0,0:0:0:0:
263,235,57505,2,0,L|117:235,1,135,8|2,0:0|0:0,0:0:0:0:
48,175,58226,6,0,P|34:108|124:54,1,180,8|8,0:0|0:0,0:0:0:0:
184,125,59091,1,2,0:0:0:0:
278,154,59380,2,0,P|367:152|406:106,1,135,8|8,0:0|0:0,0:0:0:0:
338,42,60101,1,0,0:0:0:0:
240,60,60389,1,8,0:0:0:0:
193,147,60678,6,0,L|202:271,2,89.9999999999999,0|8|0,0:0|0:0|0:0,0:0:0:0:
292,141,61543,1,8,0:0:0:0:
377,190,61832,2,0,L|371:288,1,89.9999999999999,0|8,0:0|0:0,0:0:0:0:
287,332,62409,2,0,L|183:315,1,89.9999999999999,0|8,0:0|0:0,0:0:0:0:
104,347,62985,6,0,P|23:359|-15:341,2,89.9999999999999,0|8|0,0:0|0:0|0:0,0:0:0:0:
122,249,63851,1,8,0:0:0:0:
85,157,64139,2,0,P|51:87|69:40,1,89.9999999999999,0|8,0:0|0:0,0:0:0:0:
150,83,64716,2,0,P|225:60|249:66,1,89.9999999999999,0|8,0:0|0:0,0:0:0:0:
310,124,65293,6,0,P|365:132|433:125,2,89.9999999999999,0|8|0,0:0|0:0|0:0,0:0:0:0:
211,137,66159,1,8,0:0:0:0:
274,212,66447,2,0,P|279:274|235:309,1,89.9999999999999,0|8,0:0|0:0,0:0:0:0:
176,340,67024,2,0,L|53:351,1,89.9999999999999,0|8,0:0|0:0,0:0:0:0:
33,263,67601,6,0,P|24:202|106:116,1,180,2|2,0:0|0:0,0:0:0:0:
188,157,68466,1,2,0:0:0:0:
274,108,68755,2,0,P|328:134|435:77,1,180,2|2,0:0|0:0,0:0:0:0:
343,36,69620,1,2,0:0:0:0:
245,16,69909,6,0,L|142:25,2,89.9999999999999,4|4|4,0:0|0:0|0:0,0:0:0:0:
274,108,70774,2,0,P|287:159|247:222,1,89.9999999999999,8|0,0:0|0:0,0:0:0:0:
179,217,71351,1,8,0:0:0:0:
100,156,71639,2,0,P|50:163|1:186,1,89.9999999999999,0|8,0:0|0:0,0:0:0:0:
75,255,72216,6,0,P|82:315|58:345,2,89.9999999999999,0|8|0,0:0|0:0|0:0,0:0:0:0:
168,220,73082,1,8,0:0:0:0:
231,295,73370,2,0,P|292:309|394:254,1,180
327,181,74235,1,8,0:0:0:0:
379,96,74524,6,0,L|496:83,1,89.9999999999999,0|8,0:0|0:0,0:0:0:0:
495,181,75101,2,0,L|488:288,1,89.9999999999999,0|8,0:0|0:0,0:0:0:0:
407,327,75678,2,0,P|345:299|226:344,1,180
146,358,76543,1,8,0:0:0:0:
65,299,76832,6,0,L|56:166,1,89.9999999999999,0|8,0:0|0:0,0:0:0:0:
157,218,77409,2,0,L|170:122,1,89.9999999999999,0|8,0:0|0:0,0:0:0:0:
106,52,77985,2,0,B|26:37|26:37|46:152,1,180
25,232,78851,1,8,0:0:0:0:
69,320,79139,6,0,B|110:356|110:356|258:344,1,180
322,298,80005,1,8,0:0:0:0:
404,244,80293,6,0,P|425:183|372:60,2,180,2|2|2,0:0|0:0|0:0,0:0:0:0:
238,353,82024,1,2,0:0:0:0:
53,281,82601,6,0,P|34:210|110:107,1,180,2|2,0:0|0:0,0:0:0:0:
245,234,83755,2,0,P|306:224|382:164,1,135,2|2,0:0|0:0,0:0:0:0:
342,87,84476,1,4,0:0:0:0:
256,192,84909,12,0,86062,0:0:0:0:
