osu file format v14

[General]
AudioFilename: audio.mp3
AudioLeadIn: 0
PreviewTime: 137833
Countdown: 0
SampleSet: Normal
StackLeniency: 0.6
Mode: 0
LetterboxInBreaks: 0
EpilepsyWarning: 1
WidescreenStoryboard: 1

[Editor]
DistanceSpacing: 1
BeatDivisor: 4
GridSize: 32
TimelineZoom: 2.3

[Metadata]
Title:L.L.L.
TitleUnicode:L.L.L.
Artist:MYTH & ROID
ArtistUnicode:MYTH & ROID
Creator:Kalibe
Version:Lust
Source:オーバーロード
Tags:Overlord ending ed albedo full version irohas mugiwarasekai cococolaco -tochi tochi
BeatmapID:1895993
BeatmapSetID:908637

[Difficulty]
HPDrainRate:6
CircleSize:4
OverallDifficulty:9
ApproachRate:9.5
SliderMultiplier:1.7
SliderTickRate:1

[Events]
//Background and Video events
0,0,"albedo.jpg",0,0
//Break Periods
//Storyboard Layer 0 (Background)
//Storyboard Layer 1 (Fail)
//Storyboard Layer 2 (Pass)
//Storyboard Layer 3 (Foreground)
Sprite,Foreground,Centre,"sb\h.png",0,0 C,0,43434,,255,58,54 M,0,43434,44434,481,242 F,0,43434,44434,0.7,0 S,0,43434,44434,0.5,0.7 R,0,43434,44434,0 P,0,43434,44434,A
Sprite,Foreground,Centre,"sb\h.png",0,0 C,0,43722,,255,69,19 M,0,43722,44722,292,264 F,0,43722,44722,0.7,0 S,0,43722,44722,0.5,0.7 R,0,43722,44722,0 P,0,43722,44722,A
Sprite,Foreground,Centre,"sb\h.png",0,0 C,0,43867,,255,2,61 M,0,43867,44867,434,376 F,0,43867,44867,0.7,0 S,0,43867,44867,0.5,0.7 R,0,43867,44867,0 P,0,43867,44867,A
Sprite,Foreground,Centre,"sb\h.png",0,0 C,0,44155,,255,70,2 M,0,44155,45155,482,230 F,0,44155,45155,0.7,0 S,0,44155,45155,0.5,0.7 R,0,44155,45155,0 P,0,44155,45155,A
Sprite,Foreground,Centre,"sb\h.png",0,0 C,0,44444,,255,5,13 M,0,44444,45444,541,319 F,0,44444,45444,0.7,0 S,0,44444,45444,0.5,0.7 R,0,44444,45444,0 P,0,44444,45444,A
Sprite,Foreground,Centre,"sb\h.png",0,0 C,0,44588,,255,2,27 M,0,44588,45588,335,186 F,0,44588,45588,0.7,0 S,0,44588,45588,0.5,0.7 R,0,44588,45588,0 P,0,44588,45588,A
Sprite,Foreground,Centre,"sb\h.png",0,0 C,0,44732,,255,19,64 M,0,44732,45732,485,107 F,0,44732,45732,0.7,0 S,0,44732,45732,0.5,0.7 R,0,44732,45732,0 P,0,44732,45732,A
Sprite,Foreground,Centre,"sb\h.png",0,0 C,0,44804,,255,29,51 M,0,44804,45804,485,107 F,0,44804,45804,0.7,0 S,0,44804,45804,0.5,0.7 R,0,44804,45804,0 P,0,44804,45804,A
Sprite,Foreground,Centre,"sb\h.png",0,0 C,0,44876,,255,52,61 M,0,44876,45876,485,107 F,0,44876,45876,0.7,0 S,0,44876,45876,0.5,0.7 R,0,44876,45876,0 P,0,44876,45876,A
Sprite,Foreground,Centre,"sb\h.png",0,0 C,0,45020,,255,6,59 M,0,45020,46020,392,92 F,0,45020,46020,0.7,0 S,0,45020,46020,0.5,0.7 R,0,45020,46020,0 P,0,45020,46020,A
Sprite,Foreground,Centre,"sb\h.png",0,0 C,0,45309,,255,34,46 M,0,45309,46309,328,334 F,0,45309,46309,0.7,0 S,0,45309,46309,0.5,0.7 R,0,45309,46309,0 P,0,45309,46309,A
Sprite,Foreground,Centre,"sb\h.png",0,0 C,0,45453,,255,8,64 M,0,45453,46453,488,248 F,0,45453,46453,0.7,0 S,0,45453,46453,0.5,0.7 R,0,45453,46453,0 P,0,45453,46453,A
Sprite,Foreground,Centre,"sb\h.png",0,0 C,0,45597,,255,33,59 M,0,45597,46597,353,165 F,0,45597,46597,0.7,0 S,0,45597,46597,0.5,0.7 R,0,45597,46597,0 P,0,45597,46597,A
Sprite,Foreground,Centre,"sb\h.png",0,0 C,0,45670,,255,37,47 M,0,45670,46670,353,165 F,0,45670,46670,0.7,0 S,0,45670,46670,0.5,0.7 R,0,45670,46670,0 P,0,45670,46670,A
Sprite,Foreground,Centre,"sb\h.png",0,0 C,0,45742,,255,4,44 M,0,45742,46742,353,165 F,0,45742,46742,0.7,0 S,0,45742,46742,0.5,0.7 R,0,45742,46742,0 P,0,45742,46742,A
Sprite,Foreground,Centre,"sb\h.png",0,0 C,0,46030,,255,4,64 M,0,46030,47030,202,252 F,0,46030,47030,0.7,0 S,0,46030,47030,0.5,0.7 R,0,46030,47030,0 P,0,46030,47030,A
Sprite,Foreground,Centre,"sb\h.png",0,0 C,0,46174,,255,67,34 M,0,46174,47174,324,418 F,0,46174,47174,0.7,0 S,0,46174,47174,0.5,0.7 R,0,46174,47174,0 P,0,46174,47174,A
Sprite,Foreground,Centre,"sb\h.png",0,0 C,0,46463,,255,0,25 M,0,46463,47463,395,247 F,0,46463,47463,0.7,0 S,0,46463,47463,0.5,0.7 R,0,46463,47463,0 P,0,46463,47463,A
Sprite,Foreground,Centre,"sb\h.png",0,0 C,0,46607,,255,70,27 M,0,46607,47607,304,434 F,0,46607,47607,0.7,0 S,0,46607,47607,0.5,0.7 R,0,46607,47607,0 P,0,46607,47607,A
Sprite,Foreground,Centre,"sb\h.png",0,0 C,0,46895,,255,19,35 M,0,46895,47895,528,296 F,0,46895,47895,0.7,0 S,0,46895,47895,0.5,0.7 R,0,46895,47895,0 P,0,46895,47895,A
Sprite,Foreground,Centre,"sb\h.png",0,0 C,0,47112,,255,66,9 M,0,47112,48112,505,139 F,0,47112,48112,0.7,0 S,0,47112,48112,0.5,0.7 R,0,47112,48112,0 P,0,47112,48112,A
Sprite,Foreground,Centre,"sb\h.png",0,0 C,0,47184,,255,12,13 M,0,47184,48184,502,126 F,0,47184,48184,0.7,0 S,0,47184,48184,0.5,0.7 R,0,47184,48184,0 P,0,47184,48184,A
Sprite,Foreground,Centre,"sb\h.png",0,0 C,0,47328,,255,18,59 M,0,47328,48328,544,315 F,0,47328,48328,0.7,0 S,0,47328,48328,0.5,0.7 R,0,47328,48328,0 P,0,47328,48328,A
Sprite,Foreground,Centre,"sb\h.png",0,0 C,0,47617,,255,36,11 M,0,47617,48617,316,151 F,0,47617,48617,0.7,0 S,0,47617,48617,0.5,0.7 R,0,47617,48617,0 P,0,47617,48617,A
Sprite,Foreground,Centre,"sb\h.png",0,0 C,0,47905,,255,70,21 M,0,47905,48905,196,149 F,0,47905,48905,0.7,0 S,0,47905,48905,0.5,0.7 R,0,47905,48905,0 P,0,47905,48905,A
Sprite,Foreground,Centre,"sb\h.png",0,0 C,0,48049,,255,16,10 M,0,48049,49049,69,383 F,0,48049,49049,0.7,0 S,0,48049,49049,0.5,0.7 R,0,48049,49049,0 P,0,48049,49049,A
Sprite,Foreground,Centre,"sb\h.png",0,0 C,0,48338,,255,14,64 M,0,48338,49338,88,275 F,0,48338,49338,0.7,0 S,0,48338,49338,0.5,0.7 R,0,48338,49338,0 P,0,48338,49338,A
Sprite,Foreground,Centre,"sb\h.png",0,0 C,0,48626,,255,46,19 M,0,48626,49626,433,125 F,0,48626,49626,0.7,0 S,0,48626,49626,0.5,0.7 R,0,48626,49626,0 P,0,48626,49626,A
Sprite,Foreground,Centre,"sb\h.png",0,0 C,0,48915,,255,69,63 M,0,48915,49915,297,195 F,0,48915,49915,0.7,0 S,0,48915,49915,0.5,0.7 R,0,48915,49915,0 P,0,48915,49915,A
Sprite,Foreground,Centre,"sb\h.png",0,0 C,0,49203,,255,62,38 M,0,49203,50203,546,395 F,0,49203,50203,0.7,0 S,0,49203,50203,0.5,0.7 R,0,49203,50203,0 P,0,49203,50203,A
Sprite,Foreground,Centre,"sb\h.png",0,0 C,0,49347,,255,49,8 M,0,49347,50347,472,227 F,0,49347,50347,0.7,0 S,0,49347,50347,0.5,0.7 R,0,49347,50347,0 P,0,49347,50347,A
Sprite,Foreground,Centre,"sb\h.png",0,0 C,0,49636,,255,17,55 M,0,49636,50636,288,429 F,0,49636,50636,0.7,0 S,0,49636,50636,0.5,0.7 R,0,49636,50636,0 P,0,49636,50636,A
Sprite,Foreground,Centre,"sb\h.png",0,0 C,0,49924,,255,1,6 M,0,49924,50924,415,393 F,0,49924,50924,0.7,0 S,0,49924,50924,0.5,0.7 R,0,49924,50924,0 P,0,49924,50924,A
Sprite,Foreground,Centre,"sb\h.png",0,0 C,0,50213,,255,18,33 M,0,50213,51213,214,325 F,0,50213,51213,0.7,0 S,0,50213,51213,0.5,0.7 R,0,50213,51213,0 P,0,50213,51213,A
Sprite,Foreground,Centre,"sb\h.png",0,0 C,0,50501,,255,26,17 M,0,50501,51501,65,241 F,0,50501,51501,0.7,0 S,0,50501,51501,0.5,0.7 R,0,50501,51501,0 P,0,50501,51501,A
Sprite,Foreground,Centre,"sb\h.png",0,0 C,0,50645,,255,11,54 M,0,50645,51645,64,359 F,0,50645,51645,0.7,0 S,0,50645,51645,0.5,0.7 R,0,50645,51645,0 P,0,50645,51645,A
Sprite,Foreground,Centre,"sb\h.png",0,0 C,0,50790,,255,7,59 M,0,50790,51790,235,224 F,0,50790,51790,0.7,0 S,0,50790,51790,0.5,0.7 R,0,50790,51790,0 P,0,50790,51790,A
Sprite,Foreground,Centre,"sb\h.png",0,0 C,0,50934,,255,31,64 M,0,50934,51934,214,325 F,0,50934,51934,0.7,0 S,0,50934,51934,0.5,0.7 R,0,50934,51934,0 P,0,50934,51934,A
Sprite,Foreground,Centre,"sb\h.png",0,0 C,0,51079,,255,46,71 M,0,51079,52079,107,158 F,0,51079,52079,0.7,0 S,0,51079,52079,0.5,0.7 R,0,51079,52079,0 P,0,51079,52079,A
Sprite,Foreground,Centre,"sb\h.png",0,0 C,0,51222,,255,38,9 M,0,51222,52222,214,325 F,0,51222,52222,0.7,0 S,0,51222,52222,0.5,0.7 R,0,51222,52222,0 P,0,51222,52222,A
Sprite,Foreground,Centre,"sb\h.png",0,0 C,0,51511,,255,23,55 M,0,51511,52511,274,81 F,0,51511,52511,0.7,0 S,0,51511,52511,0.5,0.7 R,0,51511,52511,0 P,0,51511,52511,A
Sprite,Foreground,Centre,"sb\h.png",0,0 C,0,51799,,255,45,39 M,0,51799,52799,434,126 F,0,51799,52799,0.7,0 S,0,51799,52799,0.5,0.7 R,0,51799,52799,0 P,0,51799,52799,A
Sprite,Foreground,Centre,"sb\h.png",0,0 C,0,51944,,255,23,13 M,0,51944,52944,555,237 F,0,51944,52944,0.7,0 S,0,51944,52944,0.5,0.7 R,0,51944,52944,0 P,0,51944,52944,A
Sprite,Foreground,Centre,"sb\h.png",0,0 C,0,52232,,255,54,34 M,0,52232,53232,576,382 F,0,52232,53232,0.7,0 S,0,52232,53232,0.5,0.7 R,0,52232,53232,0 P,0,52232,53232,A
Sprite,Foreground,Centre,"sb\h.png",0,0 C,0,52304,,255,49,45 M,0,52304,53304,576,382 F,0,52304,53304,0.7,0 S,0,52304,53304,0.5,0.7 R,0,52304,53304,0 P,0,52304,53304,A
Sprite,Foreground,Centre,"sb\h.png",0,0 C,0,52376,,255,8,20 M,0,52376,53376,576,382 F,0,52376,53376,0.7,0 S,0,52376,53376,0.5,0.7 R,0,52376,53376,0 P,0,52376,53376,A
Sprite,Foreground,Centre,"sb\h.png",0,0 C,0,52520,,255,31,20 M,0,52520,53520,453,427 F,0,52520,53520,0.7,0 S,0,52520,53520,0.5,0.7 R,0,52520,53520,0 P,0,52520,53520,A
Sprite,Foreground,Centre,"sb\h.png",0,0 C,0,52665,,255,67,60 M,0,52665,53665,298,368 F,0,52665,53665,0.7,0 S,0,52665,53665,0.5,0.7 R,0,52665,53665,0 P,0,52665,53665,A
Sprite,Foreground,Centre,"sb\h.png",0,0 C,0,52953,,255,21,29 M,0,52953,53953,119,402 F,0,52953,53953,0.7,0 S,0,52953,53953,0.5,0.7 R,0,52953,53953,0 P,0,52953,53953,A
Sprite,Foreground,Centre,"sb\h.png",0,0 C,0,53097,,255,64,21 M,0,53097,54097,304,242 F,0,53097,54097,0.7,0 S,0,53097,54097,0.5,0.7 R,0,53097,54097,0 P,0,53097,54097,A
Sprite,Foreground,Centre,"sb\h.png",0,0 C,0,53386,,255,64,36 M,0,53386,54386,369,305 F,0,53386,54386,0.7,0 S,0,53386,54386,0.5,0.7 R,0,53386,54386,0 P,0,53386,54386,A
Sprite,Foreground,Centre,"sb\h.png",0,0 C,0,53530,,255,13,18 M,0,53530,54530,292,139 F,0,53530,54530,0.7,0 S,0,53530,54530,0.5,0.7 R,0,53530,54530,0 P,0,53530,54530,A
Sprite,Foreground,Centre,"sb\h.png",0,0 C,0,53674,,255,56,8 M,0,53674,54674,175,280 F,0,53674,54674,0.7,0 S,0,53674,54674,0.5,0.7 R,0,53674,54674,0 P,0,53674,54674,A
Sprite,Foreground,Centre,"sb\h.png",0,0 C,0,53819,,255,61,17 M,0,53819,54819,304,242 F,0,53819,54819,0.7,0 S,0,53819,54819,0.5,0.7 R,0,53819,54819,0 P,0,53819,54819,A
Sprite,Foreground,Centre,"sb\h.png",0,0 C,0,53963,,255,70,11 M,0,53963,54963,164,131 F,0,53963,54963,0.7,0 S,0,53963,54963,0.5,0.7 R,0,53963,54963,0 P,0,53963,54963,A
Sprite,Foreground,Centre,"sb\h.png",0,0 C,0,54035,,255,23,2 M,0,54035,55035,164,131 F,0,54035,55035,0.7,0 S,0,54035,55035,0.5,0.7 R,0,54035,55035,0 P,0,54035,55035,A
Sprite,Foreground,Centre,"sb\h.png",0,0 C,0,54107,,255,11,55 M,0,54107,55107,164,131 F,0,54107,55107,0.7,0 S,0,54107,55107,0.5,0.7 R,0,54107,55107,0 P,0,54107,55107,A
Sprite,Foreground,Centre,"sb\h.png",0,0 C,0,54251,,255,12,41 M,0,54251,55251,64,208 F,0,54251,55251,0.7,0 S,0,54251,55251,0.5,0.7 R,0,54251,55251,0 P,0,54251,55251,A
Sprite,Foreground,Centre,"sb\h.png",0,0 C,0,54540,,255,19,34 M,0,54540,55540,247,221 F,0,54540,55540,0.7,0 S,0,54540,55540,0.5,0.7 R,0,54540,55540,0 P,0,54540,55540,A
Sprite,Foreground,Centre,"sb\h.png",0,0 C,0,54684,,255,7,9 M,0,54684,55684,106,324 F,0,54684,55684,0.7,0 S,0,54684,55684,0.5,0.7 R,0,54684,55684,0 P,0,54684,55684,A
Sprite,Foreground,Centre,"sb\h.png",0,0 C,0,54828,,255,6,41 M,0,54828,55828,361,331 F,0,54828,55828,0.7,0 S,0,54828,55828,0.5,0.7 R,0,54828,55828,0 P,0,54828,55828,A
Sprite,Foreground,Centre,"sb\h.png",0,0 C,0,54972,,255,33,38 M,0,54972,55972,159,222 F,0,54972,55972,0.7,0 S,0,54972,55972,0.5,0.7 R,0,54972,55972,0 P,0,54972,55972,A
Sprite,Foreground,Centre,"sb\h.png",0,0 C,0,55261,,255,41,53 M,0,55261,56261,355,238 F,0,55261,56261,0.7,0 S,0,55261,56261,0.5,0.7 R,0,55261,56261,0 P,0,55261,56261,A
Sprite,Foreground,Centre,"sb\h.png",0,0 C,0,55405,,255,39,11 M,0,55405,56405,186,419 F,0,55405,56405,0.7,0 S,0,55405,56405,0.5,0.7 R,0,55405,56405,0 P,0,55405,56405,A
Sprite,Foreground,Centre,"sb\h.png",0,0 C,0,55694,,255,45,21 M,0,55694,56694,307,159 F,0,55694,56694,0.7,0 S,0,55694,56694,0.5,0.7 R,0,55694,56694,0 P,0,55694,56694,A
Sprite,Foreground,Centre,"sb\h.png",0,0 C,0,56054,,255,70,48 M,0,56054,57054,506,400 F,0,56054,57054,0.7,0 S,0,56054,57054,0.5,0.7 R,0,56054,57054,0 P,0,56054,57054,A
Sprite,Foreground,Centre,"sb\h.png",0,0 C,0,56126,,255,66,36 M,0,56126,57126,517,414 F,0,56126,57126,0.7,0 S,0,56126,57126,0.5,0.7 R,0,56126,57126,0 P,0,56126,57126,A
Sprite,Foreground,Centre,"sb\h.png",0,0 C,0,56343,,255,27,20 M,0,56343,57343,558,307 F,0,56343,57343,0.7,0 S,0,56343,57343,0.5,0.7 R,0,56343,57343,0 P,0,56343,57343,A
Sprite,Foreground,Centre,"sb\h.png",0,0 C,0,56559,,255,30,5 M,0,56559,57559,207,184 F,0,56559,57559,0.7,0 S,0,56559,57559,0.5,0.7 R,0,56559,57559,0 P,0,56559,57559,A
Sprite,Foreground,Centre,"sb\h.png",0,0 C,0,56847,,255,16,59 M,0,56847,57847,399,205 F,0,56847,57847,0.7,0 S,0,56847,57847,0.5,0.7 R,0,56847,57847,0 P,0,56847,57847,A
Sprite,Foreground,Centre,"sb\h.png",0,0 C,0,57136,,255,4,12 M,0,57136,58136,576,187 F,0,57136,58136,0.7,0 S,0,57136,58136,0.5,0.7 R,0,57136,58136,0 P,0,57136,58136,A
Sprite,Foreground,Centre,"sb\h.png",0,0 C,0,57280,,255,45,55 M,0,57280,58280,478,171 F,0,57280,58280,0.7,0 S,0,57280,58280,0.5,0.7 R,0,57280,58280,0 P,0,57280,58280,A
Sprite,Foreground,Centre,"sb\h.png",0,0 C,0,57569,,255,1,11 M,0,57569,58569,542,380 F,0,57569,58569,0.7,0 S,0,57569,58569,0.5,0.7 R,0,57569,58569,0 P,0,57569,58569,A
Sprite,Foreground,Centre,"sb\h.png",0,0 C,0,57857,,255,43,50 M,0,57857,58857,317,207 F,0,57857,58857,0.7,0 S,0,57857,58857,0.5,0.7 R,0,57857,58857,0 P,0,57857,58857,A
Sprite,Foreground,Centre,"sb\h.png",0,0 C,0,58145,,255,48,44 M,0,58145,59145,246,409 F,0,58145,59145,0.7,0 S,0,58145,59145,0.5,0.7 R,0,58145,59145,0 P,0,58145,59145,A
Sprite,Foreground,Centre,"sb\h.png",0,0 C,0,58218,,255,7,56 M,0,58218,59218,246,409 F,0,58218,59218,0.7,0 S,0,58218,59218,0.5,0.7 R,0,58218,59218,0 P,0,58218,59218,A
Sprite,Foreground,Centre,"sb\h.png",0,0 C,0,58290,,255,20,28 M,0,58290,59290,246,409 F,0,58290,59290,0.7,0 S,0,58290,59290,0.5,0.7 R,0,58290,59290,0 P,0,58290,59290,A
Sprite,Foreground,Centre,"sb\h.png",0,0 C,0,58434,,255,47,34 M,0,58434,59434,252,324 F,0,58434,59434,0.7,0 S,0,58434,59434,0.5,0.7 R,0,58434,59434,0 P,0,58434,59434,A
Sprite,Foreground,Centre,"sb\h.png",0,0 C,0,58722,,255,33,5 M,0,58722,59722,340,389 F,0,58722,59722,0.7,0 S,0,58722,59722,0.5,0.7 R,0,58722,59722,0 P,0,58722,59722,A
Sprite,Foreground,Centre,"sb\h.png",0,0 C,0,58867,,255,11,62 M,0,58867,59867,99,235 F,0,58867,59867,0.7,0 S,0,58867,59867,0.5,0.7 R,0,58867,59867,0 P,0,58867,59867,A
Sprite,Foreground,Centre,"sb\h.png",0,0 C,0,58939,,255,26,11 M,0,58939,59939,88,255 F,0,58939,59939,0.7,0 S,0,58939,59939,0.5,0.7 R,0,58939,59939,0 P,0,58939,59939,A
Sprite,Foreground,Centre,"sb\h.png",0,0 C,0,59011,,255,22,6 M,0,59011,60011,90,273 F,0,59011,60011,0.7,0 S,0,59011,60011,0.5,0.7 R,0,59011,60011,0 P,0,59011,60011,A
Sprite,Foreground,Centre,"sb\h.png",0,0 C,0,59155,,255,10,23 M,0,59155,60155,234,201 F,0,59155,60155,0.7,0 S,0,59155,60155,0.5,0.7 R,0,59155,60155,0 P,0,59155,60155,A
Sprite,Foreground,Centre,"sb\h.png",0,0 C,0,59299,,255,50,67 M,0,59299,60299,67,90 F,0,59299,60299,0.7,0 S,0,59299,60299,0.5,0.7 R,0,59299,60299,0 P,0,59299,60299,A
Sprite,Foreground,Centre,"sb\h.png",0,0 C,0,59444,,255,37,33 M,0,59444,60444,297,131 F,0,59444,60444,0.7,0 S,0,59444,60444,0.5,0.7 R,0,59444,60444,0 P,0,59444,60444,A
Sprite,Foreground,Centre,"sb\h.png",0,0 C,0,59876,,255,22,5 M,0,59876,60876,304,119 F,0,59876,60876,0.7,0 S,0,59876,60876,0.5,0.7 R,0,59876,60876,0 P,0,59876,60876,A
Sprite,Foreground,Centre,"sb\h.png",0,0 C,0,60020,,255,69,18 M,0,60020,61020,125,161 F,0,60020,61020,0.7,0 S,0,60020,61020,0.5,0.7 R,0,60020,61020,0 P,0,60020,61020,A
Sprite,Foreground,Centre,"sb\h.png",0,0 C,0,60381,,255,38,17 M,0,60381,61381,388,144 F,0,60381,61381,0.7,0 S,0,60381,61381,0.5,0.7 R,0,60381,61381,0 P,0,60381,61381,A
Sprite,Foreground,Centre,"sb\h.png",0,0 C,0,60452,,255,15,38 M,0,60452,61452,392,140 F,0,60452,61452,0.7,0 S,0,60452,61452,0.5,0.7 R,0,60452,61452,0 P,0,60452,61452,A
Sprite,Foreground,Centre,"sb\h.png",0,0 C,0,60597,,255,44,25 M,0,60597,61597,517,217 F,0,60597,61597,0.7,0 S,0,60597,61597,0.5,0.7 R,0,60597,61597,0 P,0,60597,61597,A
Sprite,Foreground,Centre,"sb\h.png",0,0 C,0,60886,,255,18,55 M,0,60886,61886,463,376 F,0,60886,61886,0.7,0 S,0,60886,61886,0.5,0.7 R,0,60886,61886,0 P,0,60886,61886,A
Sprite,Foreground,Centre,"sb\h.png",0,0 C,0,60958,,255,48,50 M,0,60958,61958,466,380 F,0,60958,61958,0.7,0 S,0,60958,61958,0.5,0.7 R,0,60958,61958,0 P,0,60958,61958,A
Sprite,Foreground,Centre,"sb\h.png",0,0 C,0,61030,,255,15,67 M,0,61030,62030,469,384 F,0,61030,62030,0.7,0 S,0,61030,62030,0.5,0.7 R,0,61030,62030,0 P,0,61030,62030,A
Sprite,Foreground,Centre,"sb\h.png",0,0 C,0,61319,,255,37,15 M,0,61319,62319,372,184 F,0,61319,62319,0.7,0 S,0,61319,62319,0.5,0.7 R,0,61319,62319,0 P,0,61319,62319,A
Sprite,Foreground,Centre,"sb\h.png",0,0 C,0,61463,,255,64,24 M,0,61463,62463,369,104 F,0,61463,62463,0.7,0 S,0,61463,62463,0.5,0.7 R,0,61463,62463,0 P,0,61463,62463,A
Sprite,Foreground,Centre,"sb\h.png",0,0 C,0,43434,,255,33,30 M,0,43434,44434,481,242 F,0,43434,44434,0.7,0 S,0,43434,44434,0.5,0.7 R,0,43434,44434,0 P,0,43434,44434,A
Sprite,Foreground,Centre,"sb\h.png",0,0 C,0,43722,,255,59,4 M,0,43722,44722,292,264 F,0,43722,44722,0.7,0 S,0,43722,44722,0.5,0.7 R,0,43722,44722,0 P,0,43722,44722,A
Sprite,Foreground,Centre,"sb\h.png",0,0 C,0,43867,,255,29,16 M,0,43867,44867,434,376 F,0,43867,44867,0.7,0 S,0,43867,44867,0.5,0.7 R,0,43867,44867,0 P,0,43867,44867,A
Sprite,Foreground,Centre,"sb\h.png",0,0 C,0,44155,,255,39,3 M,0,44155,45155,482,230 F,0,44155,45155,0.7,0 S,0,44155,45155,0.5,0.7 R,0,44155,45155,0 P,0,44155,45155,A
Sprite,Foreground,Centre,"sb\h.png",0,0 C,0,44444,,255,25,6 M,0,44444,45444,541,319 F,0,44444,45444,0.7,0 S,0,44444,45444,0.5,0.7 R,0,44444,45444,0 P,0,44444,45444,A
Sprite,Foreground,Centre,"sb\h.png",0,0 C,0,44588,,255,36,57 M,0,44588,45588,335,186 F,0,44588,45588,0.7,0 S,0,44588,45588,0.5,0.7 R,0,44588,45588,0 P,0,44588,45588,A
Sprite,Foreground,Centre,"sb\h.png",0,0 C,0,44732,,255,11,64 M,0,44732,45732,485,107 F,0,44732,45732,0.7,0 S,0,44732,45732,0.5,0.7 R,0,44732,45732,0 P,0,44732,45732,A
Sprite,Foreground,Centre,"sb\h.png",0,0 C,0,44804,,255,8,56 M,0,44804,45804,485,107 F,0,44804,45804,0.7,0 S,0,44804,45804,0.5,0.7 R,0,44804,45804,0 P,0,44804,45804,A
Sprite,Foreground,Centre,"sb\h.png",0,0 C,0,44876,,255,27,43 M,0,44876,45876,485,107 F,0,44876,45876,0.7,0 S,0,44876,45876,0.5,0.7 R,0,44876,45876,0 P,0,44876,45876,A
Sprite,Foreground,Centre,"sb\h.png",0,0 C,0,45020,,255,69,47 M,0,45020,46020,392,92 F,0,45020,46020,0.7,0 S,0,45020,46020,0.5,0.7 R,0,45020,46020,0 P,0,45020,46020,A
Sprite,Foreground,Centre,"sb\h.png",0,0 C,0,45309,,255,29,69 M,0,45309,46309,328,334 F,0,45309,46309,0.7,0 S,0,45309,46309,0.5,0.7 R,0,45309,46309,0 P,0,45309,46309,A
Sprite,Foreground,Centre,"sb\h.png",0,0 C,0,45453,,255,10,15 M,0,45453,46453,488,248 F,0,45453,46453,0.7,0 S,0,45453,46453,0.5,0.7 R,0,45453,46453,0 P,0,45453,46453,A
Sprite,Foreground,Centre,"sb\h.png",0,0 C,0,45597,,255,20,16 M,0,45597,46597,353,165 F,0,45597,46597,0.7,0 S,0,45597,46597,0.5,0.7 R,0,45597,46597,0 P,0,45597,46597,A
Sprite,Foreground,Centre,"sb\h.png",0,0 C,0,45670,,255,13,52 M,0,45670,46670,353,165 F,0,45670,46670,0.7,0 S,0,45670,46670,0.5,0.7 R,0,45670,46670,0 P,0,45670,46670,A
Sprite,Foreground,Centre,"sb\h.png",0,0 C,0,45742,,255,16,51 M,0,45742,46742,353,165 F,0,45742,46742,0.7,0 S,0,45742,46742,0.5,0.7 R,0,45742,46742,0 P,0,45742,46742,A
Sprite,Foreground,Centre,"sb\h.png",0,0 C,0,46030,,255,57,18 M,0,46030,47030,202,252 F,0,46030,47030,0.7,0 S,0,46030,47030,0.5,0.7 R,0,46030,47030,0 P,0,46030,47030,A
Sprite,Foreground,Centre,"sb\h.png",0,0 C,0,46174,,255,28,41 M,0,46174,47174,324,418 F,0,46174,47174,0.7,0 S,0,46174,47174,0.5,0.7 R,0,46174,47174,0 P,0,46174,47174,A
Sprite,Foreground,Centre,"sb\h.png",0,0 C,0,46463,,255,31,0 M,0,46463,47463,395,247 F,0,46463,47463,0.7,0 S,0,46463,47463,0.5,0.7 R,0,46463,47463,0 P,0,46463,47463,A
Sprite,Foreground,Centre,"sb\h.png",0,0 C,0,46607,,255,17,17 M,0,46607,47607,304,434 F,0,46607,47607,0.7,0 S,0,46607,47607,0.5,0.7 R,0,46607,47607,0 P,0,46607,47607,A
Sprite,Foreground,Centre,"sb\h.png",0,0 C,0,46895,,255,35,11 M,0,46895,47895,528,296 F,0,46895,47895,0.7,0 S,0,46895,47895,0.5,0.7 R,0,46895,47895,0 P,0,46895,47895,A
Sprite,Foreground,Centre,"sb\h.png",0,0 C,0,47112,,255,68,46 M,0,47112,48112,505,139 F,0,47112,48112,0.7,0 S,0,47112,48112,0.5,0.7 R,0,47112,48112,0 P,0,47112,48112,A
Sprite,Foreground,Centre,"sb\h.png",0,0 C,0,47184,,255,10,37 M,0,47184,48184,502,126 F,0,47184,48184,0.7,0 S,0,47184,48184,0.5,0.7 R,0,47184,48184,0 P,0,47184,48184,A
Sprite,Foreground,Centre,"sb\h.png",0,0 C,0,47328,,255,50,10 M,0,47328,48328,544,315 F,0,47328,48328,0.7,0 S,0,47328,48328,0.5,0.7 R,0,47328,48328,0 P,0,47328,48328,A
Sprite,Foreground,Centre,"sb\h.png",0,0 C,0,47617,,255,1,43 M,0,47617,48617,316,151 F,0,47617,48617,0.7,0 S,0,47617,48617,0.5,0.7 R,0,47617,48617,0 P,0,47617,48617,A
Sprite,Foreground,Centre,"sb\h.png",0,0 C,0,47905,,255,30,0 M,0,47905,48905,196,149 F,0,47905,48905,0.7,0 S,0,47905,48905,0.5,0.7 R,0,47905,48905,0 P,0,47905,48905,A
Sprite,Foreground,Centre,"sb\h.png",0,0 C,0,48049,,255,24,27 M,0,48049,49049,69,383 F,0,48049,49049,0.7,0 S,0,48049,49049,0.5,0.7 R,0,48049,49049,0 P,0,48049,49049,A
Sprite,Foreground,Centre,"sb\h.png",0,0 C,0,48338,,255,50,8 M,0,48338,49338,88,275 F,0,48338,49338,0.7,0 S,0,48338,49338,0.5,0.7 R,0,48338,49338,0 P,0,48338,49338,A
Sprite,Foreground,Centre,"sb\h.png",0,0 C,0,48626,,255,1,38 M,0,48626,49626,433,125 F,0,48626,49626,0.7,0 S,0,48626,49626,0.5,0.7 R,0,48626,49626,0 P,0,48626,49626,A
Sprite,Foreground,Centre,"sb\h.png",0,0 C,0,48915,,255,3,25 M,0,48915,49915,297,195 F,0,48915,49915,0.7,0 S,0,48915,49915,0.5,0.7 R,0,48915,49915,0 P,0,48915,49915,A
Sprite,Foreground,Centre,"sb\h.png",0,0 C,0,49203,,255,37,7 M,0,49203,50203,546,395 F,0,49203,50203,0.7,0 S,0,49203,50203,0.5,0.7 R,0,49203,50203,0 P,0,49203,50203,A
Sprite,Foreground,Centre,"sb\h.png",0,0 C,0,49347,,255,53,20 M,0,49347,50347,472,227 F,0,49347,50347,0.7,0 S,0,49347,50347,0.5,0.7 R,0,49347,50347,0 P,0,49347,50347,A
Sprite,Foreground,Centre,"sb\h.png",0,0 C,0,49636,,255,34,53 M,0,49636,50636,288,429 F,0,49636,50636,0.7,0 S,0,49636,50636,0.5,0.7 R,0,49636,50636,0 P,0,49636,50636,A
Sprite,Foreground,Centre,"sb\h.png",0,0 C,0,49924,,255,32,23 M,0,49924,50924,415,393 F,0,49924,50924,0.7,0 S,0,49924,50924,0.5,0.7 R,0,49924,50924,0 P,0,49924,50924,A
Sprite,Foreground,Centre,"sb\h.png",0,0 C,0,50213,,255,2,16 M,0,50213,51213,214,325 F,0,50213,51213,0.7,0 S,0,50213,51213,0.5,0.7 R,0,50213,51213,0 P,0,50213,51213,A
Sprite,Foreground,Centre,"sb\h.png",0,0 C,0,50501,,255,1,47 M,0,50501,51501,65,241 F,0,50501,51501,0.7,0 S,0,50501,51501,0.5,0.7 R,0,50501,51501,0 P,0,50501,51501,A
Sprite,Foreground,Centre,"sb\h.png",0,0 C,0,50645,,255,17,44 M,0,50645,51645,64,359 F,0,50645,51645,0.7,0 S,0,50645,51645,0.5,0.7 R,0,50645,51645,0 P,0,50645,51645,A
Sprite,Foreground,Centre,"sb\h.png",0,0 C,0,50790,,255,43,20 M,0,50790,51790,235,224 F,0,50790,51790,0.7,0 S,0,50790,51790,0.5,0.7 R,0,50790,51790,0 P,0,50790,51790,A
Sprite,Foreground,Centre,"sb\h.png",0,0 C,0,50934,,255,54,31 M,0,50934,51934,214,325 F,0,50934,51934,0.7,0 S,0,50934,51934,0.5,0.7 R,0,50934,51934,0 P,0,50934,51934,A
Sprite,Foreground,Centre,"sb\h.png",0,0 C,0,51079,,255,3,39 M,0,51079,52079,107,158 F,0,51079,52079,0.7,0 S,0,51079,52079,0.5,0.7 R,0,51079,52079,0 P,0,51079,52079,A
Sprite,Foreground,Centre,"sb\h.png",0,0 C,0,51222,,255,5,0 M,0,51222,52222,214,325 F,0,51222,52222,0.7,0 S,0,51222,52222,0.5,0.7 R,0,51222,52222,0 P,0,51222,52222,A
Sprite,Foreground,Centre,"sb\h.png",0,0 C,0,51511,,255,50,6 M,0,51511,52511,274,81 F,0,51511,52511,0.7,0 S,0,51511,52511,0.5,0.7 R,0,51511,52511,0 P,0,51511,52511,A
Sprite,Foreground,Centre,"sb\h.png",0,0 C,0,51799,,255,66,2 M,0,51799,52799,434,126 F,0,51799,52799,0.7,0 S,0,51799,52799,0.5,0.7 R,0,51799,52799,0 P,0,51799,52799,A
Sprite,Foreground,Centre,"sb\h.png",0,0 C,0,51944,,255,16,15 M,0,51944,52944,555,237 F,0,51944,52944,0.7,0 S,0,51944,52944,0.5,0.7 R,0,51944,52944,0 P,0,51944,52944,A
Sprite,Foreground,Centre,"sb\h.png",0,0 C,0,52232,,255,5,24 M,0,52232,53232,576,382 F,0,52232,53232,0.7,0 S,0,52232,53232,0.5,0.7 R,0,52232,53232,0 P,0,52232,53232,A
Sprite,Foreground,Centre,"sb\h.png",0,0 C,0,52304,,255,19,17 M,0,52304,53304,576,382 F,0,52304,53304,0.7,0 S,0,52304,53304,0.5,0.7 R,0,52304,53304,0 P,0,52304,53304,A
Sprite,Foreground,Centre,"sb\h.png",0,0 C,0,52376,,255,25,55 M,0,52376,53376,576,382 F,0,52376,53376,0.7,0 S,0,52376,53376,0.5,0.7 R,0,52376,53376,0 P,0,52376,53376,A
Sprite,Foreground,Centre,"sb\h.png",0,0 C,0,52520,,255,36,37 M,0,52520,53520,453,427 F,0,52520,53520,0.7,0 S,0,52520,53520,0.5,0.7 R,0,52520,53520,0 P,0,52520,53520,A
Sprite,Foreground,Centre,"sb\h.png",0,0 C,0,52665,,255,56,55 M,0,52665,53665,298,368 F,0,52665,53665,0.7,0 S,0,52665,53665,0.5,0.7 R,0,52665,53665,0 P,0,52665,53665,A
Sprite,Foreground,Centre,"sb\h.png",0,0 C,0,52953,,255,53,17 M,0,52953,53953,119,402 F,0,52953,53953,0.7,0 S,0,52953,53953,0.5,0.7 R,0,52953,53953,0 P,0,52953,53953,A
Sprite,Foreground,Centre,"sb\h.png",0,0 C,0,53097,,255,55,11 M,0,53097,54097,304,242 F,0,53097,54097,0.7,0 S,0,53097,54097,0.5,0.7 R,0,53097,54097,0 P,0,53097,54097,A
Sprite,Foreground,Centre,"sb\h.png",0,0 C,0,53386,,255,30,18 M,0,53386,54386,369,305 F,0,53386,54386,0.7,0 S,0,53386,54386,0.5,0.7 R,0,53386,54386,0 P,0,53386,54386,A
Sprite,Foreground,Centre,"sb\h.png",0,0 C,0,53530,,255,58,52 M,0,53530,54530,292,139 F,0,53530,54530,0.7,0 S,0,53530,54530,0.5,0.7 R,0,53530,54530,0 P,0,53530,54530,A
Sprite,Foreground,Centre,"sb\h.png",0,0 C,0,53674,,255,33,33 M,0,53674,54674,175,280 F,0,53674,54674,0.7,0 S,0,53674,54674,0.5,0.7 R,0,53674,54674,0 P,0,53674,54674,A
Sprite,Foreground,Centre,"sb\h.png",0,0 C,0,53819,,255,38,41 M,0,53819,54819,304,242 F,0,53819,54819,0.7,0 S,0,53819,54819,0.5,0.7 R,0,53819,54819,0 P,0,53819,54819,A
Sprite,Foreground,Centre,"sb\h.png",0,0 C,0,53963,,255,25,0 M,0,53963,54963,164,131 F,0,53963,54963,0.7,0 S,0,53963,54963,0.5,0.7 R,0,53963,54963,0 P,0,53963,54963,A
Sprite,Foreground,Centre,"sb\h.png",0,0 C,0,54035,,255,37,22 M,0,54035,55035,164,131 F,0,54035,55035,0.7,0 S,0,54035,55035,0.5,0.7 R,0,54035,55035,0 P,0,54035,55035,A
Sprite,Foreground,Centre,"sb\h.png",0,0 C,0,54107,,255,35,23 M,0,54107,55107,164,131 F,0,54107,55107,0.7,0 S,0,54107,55107,0.5,0.7 R,0,54107,55107,0 P,0,54107,55107,A
Sprite,Foreground,Centre,"sb\h.png",0,0 C,0,54251,,255,48,5 M,0,54251,55251,64,208 F,0,54251,55251,0.7,0 S,0,54251,55251,0.5,0.7 R,0,54251,55251,0 P,0,54251,55251,A
Sprite,Foreground,Centre,"sb\h.png",0,0 C,0,54540,,255,47,38 M,0,54540,55540,247,221 F,0,54540,55540,0.7,0 S,0,54540,55540,0.5,0.7 R,0,54540,55540,0 P,0,54540,55540,A
Sprite,Foreground,Centre,"sb\h.png",0,0 C,0,54684,,255,52,2 M,0,54684,55684,106,324 F,0,54684,55684,0.7,0 S,0,54684,55684,0.5,0.7 R,0,54684,55684,0 P,0,54684,55684,A
Sprite,Foreground,Centre,"sb\h.png",0,0 C,0,54828,,255,10,15 M,0,54828,55828,361,331 F,0,54828,55828,0.7,0 S,0,54828,55828,0.5,0.7 R,0,54828,55828,0 P,0,54828,55828,A
Sprite,Foreground,Centre,"sb\h.png",0,0 C,0,54972,,255,17,51 M,0,54972,55972,159,222 F,0,54972,55972,0.7,0 S,0,54972,55972,0.5,0.7 R,0,54972,55972,0 P,0,54972,55972,A
Sprite,Foreground,Centre,"sb\h.png",0,0 C,0,55261,,255,65,61 M,0,55261,56261,355,238 F,0,55261,56261,0.7,0 S,0,55261,56261,0.5,0.7 R,0,55261,56261,0 P,0,55261,56261,A
Sprite,Foreground,Centre,"sb\h.png",0,0 C,0,55405,,255,55,10 M,0,55405,56405,186,419 F,0,55405,56405,0.7,0 S,0,55405,56405,0.5,0.7 R,0,55405,56405,0 P,0,55405,56405,A
Sprite,Foreground,Centre,"sb\h.png",0,0 C,0,55694,,255,20,5 M,0,55694,56694,307,159 F,0,55694,56694,0.7,0 S,0,55694,56694,0.5,0.7 R,0,55694,56694,0 P,0,55694,56694,A
Sprite,Foreground,Centre,"sb\h.png",0,0 C,0,56054,,255,61,8 M,0,56054,57054,506,400 F,0,56054,57054,0.7,0 S,0,56054,57054,0.5,0.7 R,0,56054,57054,0 P,0,56054,57054,A
Sprite,Foreground,Centre,"sb\h.png",0,0 C,0,56126,,255,58,26 M,0,56126,57126,517,414 F,0,56126,57126,0.7,0 S,0,56126,57126,0.5,0.7 R,0,56126,57126,0 P,0,56126,57126,A
Sprite,Foreground,Centre,"sb\h.png",0,0 C,0,56343,,255,12,31 M,0,56343,57343,558,307 F,0,56343,57343,0.7,0 S,0,56343,57343,0.5,0.7 R,0,56343,57343,0 P,0,56343,57343,A
Sprite,Foreground,Centre,"sb\h.png",0,0 C,0,56559,,255,5,50 M,0,56559,57559,207,184 F,0,56559,57559,0.7,0 S,0,56559,57559,0.5,0.7 R,0,56559,57559,0 P,0,56559,57559,A
Sprite,Foreground,Centre,"sb\h.png",0,0 C,0,56847,,255,46,67 M,0,56847,57847,399,205 F,0,56847,57847,0.7,0 S,0,56847,57847,0.5,0.7 R,0,56847,57847,0 P,0,56847,57847,A
Sprite,Foreground,Centre,"sb\h.png",0,0 C,0,57136,,255,52,57 M,0,57136,58136,576,187 F,0,57136,58136,0.7,0 S,0,57136,58136,0.5,0.7 R,0,57136,58136,0 P,0,57136,58136,A
Sprite,Foreground,Centre,"sb\h.png",0,0 C,0,57280,,255,55,58 M,0,57280,58280,478,171 F,0,57280,58280,0.7,0 S,0,57280,58280,0.5,0.7 R,0,57280,58280,0 P,0,57280,58280,A
Sprite,Foreground,Centre,"sb\h.png",0,0 C,0,57569,,255,44,28 M,0,57569,58569,542,380 F,0,57569,58569,0.7,0 S,0,57569,58569,0.5,0.7 R,0,57569,58569,0 P,0,57569,58569,A
Sprite,Foreground,Centre,"sb\h.png",0,0 C,0,57857,,255,29,65 M,0,57857,58857,317,207 F,0,57857,58857,0.7,0 S,0,57857,58857,0.5,0.7 R,0,57857,58857,0 P,0,57857,58857,A
Sprite,Foreground,Centre,"sb\h.png",0,0 C,0,58145,,255,30,1 M,0,58145,59145,246,409 F,0,58145,59145,0.7,0 S,0,58145,59145,0.5,0.7 R,0,58145,59145,0 P,0,58145,59145,A
Sprite,Foreground,Centre,"sb\h.png",0,0 C,0,58218,,255,45,50 M,0,58218,59218,246,409 F,0,58218,59218,0.7,0 S,0,58218,59218,0.5,0.7 R,0,58218,59218,0 P,0,58218,59218,A
Sprite,Foreground,Centre,"sb\h.png",0,0 C,0,58290,,255,62,47 M,0,58290,59290,246,409 F,0,58290,59290,0.7,0 S,0,58290,59290,0.5,0.7 R,0,58290,59290,0 P,0,58290,59290,A
Sprite,Foreground,Centre,"sb\h.png",0,0 C,0,58434,,255,38,9 M,0,58434,59434,252,324 F,0,58434,59434,0.7,0 S,0,58434,59434,0.5,0.7 R,0,58434,59434,0 P,0,58434,59434,A
Sprite,Foreground,Centre,"sb\h.png",0,0 C,0,58722,,255,63,37 M,0,58722,59722,340,389 F,0,58722,59722,0.7,0 S,0,58722,59722,0.5,0.7 R,0,58722,59722,0 P,0,58722,59722,A
Sprite,Foreground,Centre,"sb\h.png",0,0 C,0,58867,,255,57,54 M,0,58867,59867,99,235 F,0,58867,59867,0.7,0 S,0,58867,59867,0.5,0.7 R,0,58867,59867,0 P,0,58867,59867,A
Sprite,Foreground,Centre,"sb\h.png",0,0 C,0,58939,,255,49,44 M,0,58939,59939,88,255 F,0,58939,59939,0.7,0 S,0,58939,59939,0.5,0.7 R,0,58939,59939,0 P,0,58939,59939,A
Sprite,Foreground,Centre,"sb\h.png",0,0 C,0,59011,,255,18,5 M,0,59011,60011,90,273 F,0,59011,60011,0.7,0 S,0,59011,60011,0.5,0.7 R,0,59011,60011,0 P,0,59011,60011,A
Sprite,Foreground,Centre,"sb\h.png",0,0 C,0,59155,,255,63,27 M,0,59155,60155,234,201 F,0,59155,60155,0.7,0 S,0,59155,60155,0.5,0.7 R,0,59155,60155,0 P,0,59155,60155,A
Sprite,Foreground,Centre,"sb\h.png",0,0 C,0,59299,,255,12,13 M,0,59299,60299,67,90 F,0,59299,60299,0.7,0 S,0,59299,60299,0.5,0.7 R,0,59299,60299,0 P,0,59299,60299,A
Sprite,Foreground,Centre,"sb\h.png",0,0 C,0,59444,,255,63,53 M,0,59444,60444,297,131 F,0,59444,60444,0.7,0 S,0,59444,60444,0.5,0.7 R,0,59444,60444,0 P,0,59444,60444,A
Sprite,Foreground,Centre,"sb\h.png",0,0 C,0,59876,,255,35,25 M,0,59876,60876,304,119 F,0,59876,60876,0.7,0 S,0,59876,60876,0.5,0.7 R,0,59876,60876,0 P,0,59876,60876,A
Sprite,Foreground,Centre,"sb\h.png",0,0 C,0,60020,,255,32,57 M,0,60020,61020,125,161 F,0,60020,61020,0.7,0 S,0,60020,61020,0.5,0.7 R,0,60020,61020,0 P,0,60020,61020,A
Sprite,Foreground,Centre,"sb\h.png",0,0 C,0,60381,,255,27,66 M,0,60381,61381,388,144 F,0,60381,61381,0.7,0 S,0,60381,61381,0.5,0.7 R,0,60381,61381,0 P,0,60381,61381,A
Sprite,Foreground,Centre,"sb\h.png",0,0 C,0,60452,,255,31,34 M,0,60452,61452,392,140 F,0,60452,61452,0.7,0 S,0,60452,61452,0.5,0.7 R,0,60452,61452,0 P,0,60452,61452,A
Sprite,Foreground,Centre,"sb\h.png",0,0 C,0,60597,,255,22,31 M,0,60597,61597,517,217 F,0,60597,61597,0.7,0 S,0,60597,61597,0.5,0.7 R,0,60597,61597,0 P,0,60597,61597,A
Sprite,Foreground,Centre,"sb\h.png",0,0 C,0,60886,,255,2,25 M,0,60886,61886,463,376 F,0,60886,61886,0.7,0 S,0,60886,61886,0.5,0.7 R,0,60886,61886,0 P,0,60886,61886,A
Sprite,Foreground,Centre,"sb\h.png",0,0 C,0,60958,,255,27,5 M,0,60958,61958,466,380 F,0,60958,61958,0.7,0 S,0,60958,61958,0.5,0.7 R,0,60958,61958,0 P,0,60958,61958,A
Sprite,Foreground,Centre,"sb\h.png",0,0 C,0,61030,,255,58,5 M,0,61030,62030,469,384 F,0,61030,62030,0.7,0 S,0,61030,62030,0.5,0.7 R,0,61030,62030,0 P,0,61030,62030,A
Sprite,Foreground,Centre,"sb\h.png",0,0 C,0,61319,,255,61,21 M,0,61319,62319,372,184 F,0,61319,62319,0.7,0 S,0,61319,62319,0.5,0.7 R,0,61319,62319,0 P,0,61319,62319,A
Sprite,Foreground,Centre,"sb\h.png",0,0 C,0,61463,,255,25,58 M,0,61463,62463,369,104 F,0,61463,62463,0.7,0 S,0,61463,62463,0.5,0.7 R,0,61463,62463,0 P,0,61463,62463,A
Sprite,Foreground,Centre,"sb\h.png",0,0 C,0,101126,,255,40,63 M,0,101126,102126,359,158 F,0,101126,102126,0.7,0 S,0,101126,102126,0.5,0.7 R,0,101126,102126,0 P,0,101126,102126,A
Sprite,Foreground,Centre,"sb\h.png",0,0 C,0,101414,,255,29,37 M,0,101414,102414,465,66 F,0,101414,102414,0.7,0 S,0,101414,102414,0.5,0.7 R,0,101414,102414,0 P,0,101414,102414,A
Sprite,Foreground,Centre,"sb\h.png",0,0 C,0,101559,,255,26,38 M,0,101559,102559,576,247 F,0,101559,102559,0.7,0 S,0,101559,102559,0.5,0.7 R,0,101559,102559,0 P,0,101559,102559,A
Sprite,Foreground,Centre,"sb\h.png",0,0 C,0,101847,,255,4,28 M,0,101847,102847,360,178 F,0,101847,102847,0.7,0 S,0,101847,102847,0.5,0.7 R,0,101847,102847,0 P,0,101847,102847,A
Sprite,Foreground,Centre,"sb\h.png",0,0 C,0,102135,,255,17,32 M,0,102135,103135,576,111 F,0,102135,103135,0.7,0 S,0,102135,103135,0.5,0.7 R,0,102135,103135,0 P,0,102135,103135,A
Sprite,Foreground,Centre,"sb\h.png",0,0 C,0,102280,,255,12,37 M,0,102280,103280,376,262 F,0,102280,103280,0.7,0 S,0,102280,103280,0.5,0.7 R,0,102280,103280,0 P,0,102280,103280,A
Sprite,Foreground,Centre,"sb\h.png",0,0 C,0,102424,,255,54,67 M,0,102424,103424,494,368 F,0,102424,103424,0.7,0 S,0,102424,103424,0.5,0.7 R,0,102424,103424,0 P,0,102424,103424,A
Sprite,Foreground,Centre,"sb\h.png",0,0 C,0,102496,,255,19,2 M,0,102496,103496,494,368 F,0,102496,103496,0.7,0 S,0,102496,103496,0.5,0.7 R,0,102496,103496,0 P,0,102496,103496,A
Sprite,Foreground,Centre,"sb\h.png",0,0 C,0,102568,,255,34,32 M,0,102568,103568,494,368 F,0,102568,103568,0.7,0 S,0,102568,103568,0.5,0.7 R,0,102568,103568,0 P,0,102568,103568,A
Sprite,Foreground,Centre,"sb\h.png",0,0 C,0,102712,,255,5,42 M,0,102712,103712,407,385 F,0,102712,103712,0.7,0 S,0,102712,103712,0.5,0.7 R,0,102712,103712,0 P,0,102712,103712,A
Sprite,Foreground,Centre,"sb\h.png",0,0 C,0,103001,,255,1,37 M,0,103001,104001,288,305 F,0,103001,104001,0.7,0 S,0,103001,104001,0.5,0.7 R,0,103001,104001,0 P,0,103001,104001,A
Sprite,Foreground,Centre,"sb\h.png",0,0 C,0,103145,,255,32,29 M,0,103145,104145,468,155 F,0,103145,104145,0.7,0 S,0,103145,104145,0.5,0.7 R,0,103145,104145,0 P,0,103145,104145,A
Sprite,Foreground,Centre,"sb\h.png",0,0 C,0,103289,,255,30,29 M,0,103289,104289,418,393 F,0,103289,104289,0.7,0 S,0,103289,104289,0.5,0.7 R,0,103289,104289,0 P,0,103289,104289,A
Sprite,Foreground,Centre,"sb\h.png",0,0 C,0,103361,,255,4,4 M,0,103361,104361,418,393 F,0,103361,104361,0.7,0 S,0,103361,104361,0.5,0.7 R,0,103361,104361,0 P,0,103361,104361,A
Sprite,Foreground,Centre,"sb\h.png",0,0 C,0,103434,,255,24,70 M,0,103434,104434,418,393 F,0,103434,104434,0.7,0 S,0,103434,104434,0.5,0.7 R,0,103434,104434,0 P,0,103434,104434,A
Sprite,Foreground,Centre,"sb\h.png",0,0 C,0,103722,,255,36,25 M,0,103722,104722,395,221 F,0,103722,104722,0.7,0 S,0,103722,104722,0.5,0.7 R,0,103722,104722,0 P,0,103722,104722,A
Sprite,Foreground,Centre,"sb\h.png",0,0 C,0,103866,,255,3,24 M,0,103866,104866,287,89 F,0,103866,104866,0.7,0 S,0,103866,104866,0.5,0.7 R,0,103866,104866,0 P,0,103866,104866,A
Sprite,Foreground,Centre,"sb\h.png",0,0 C,0,104155,,255,13,60 M,0,104155,105155,309,304 F,0,104155,105155,0.7,0 S,0,104155,105155,0.5,0.7 R,0,104155,105155,0 P,0,104155,105155,A
Sprite,Foreground,Centre,"sb\h.png",0,0 C,0,104299,,255,32,30 M,0,104299,105299,399,107 F,0,104299,105299,0.7,0 S,0,104299,105299,0.5,0.7 R,0,104299,105299,0 P,0,104299,105299,A
Sprite,Foreground,Centre,"sb\h.png",0,0 C,0,104587,,255,29,36 M,0,104587,105587,222,287 F,0,104587,105587,0.7,0 S,0,104587,105587,0.5,0.7 R,0,104587,105587,0 P,0,104587,105587,A
Sprite,Foreground,Centre,"sb\h.png",0,0 C,0,104804,,255,3,47 M,0,104804,105804,64,329 F,0,104804,105804,0.7,0 S,0,104804,105804,0.5,0.7 R,0,104804,105804,0 P,0,104804,105804,A
Sprite,Foreground,Centre,"sb\h.png",0,0 C,0,104876,,255,51,30 M,0,104876,105876,68,343 F,0,104876,105876,0.7,0 S,0,104876,105876,0.5,0.7 R,0,104876,105876,0 P,0,104876,105876,A
Sprite,Foreground,Centre,"sb\h.png",0,0 C,0,105020,,255,10,22 M,0,105020,106020,213,268 F,0,105020,106020,0.7,0 S,0,105020,106020,0.5,0.7 R,0,105020,106020,0 P,0,105020,106020,A
Sprite,Foreground,Centre,"sb\h.png",0,0 C,0,105309,,255,66,54 M,0,105309,106309,532,222 F,0,105309,106309,0.7,0 S,0,105309,106309,0.5,0.7 R,0,105309,106309,0 P,0,105309,106309,A
Sprite,Foreground,Centre,"sb\h.png",0,0 C,0,105597,,255,59,13 M,0,105597,106597,510,381 F,0,105597,106597,0.7,0 S,0,105597,106597,0.5,0.7 R,0,105597,106597,0 P,0,105597,106597,A
Sprite,Foreground,Centre,"sb\h.png",0,0 C,0,105741,,255,12,30 M,0,105741,106741,557,309 F,0,105741,106741,0.7,0 S,0,105741,106741,0.5,0.7 R,0,105741,106741,0 P,0,105741,106741,A
Sprite,Foreground,Centre,"sb\h.png",0,0 C,0,106030,,255,70,55 M,0,106030,107030,326,440 F,0,106030,107030,0.7,0 S,0,106030,107030,0.5,0.7 R,0,106030,107030,0 P,0,106030,107030,A
Sprite,Foreground,Centre,"sb\h.png",0,0 C,0,106318,,255,13,49 M,0,106318,107318,155,176 F,0,106318,107318,0.7,0 S,0,106318,107318,0.5,0.7 R,0,106318,107318,0 P,0,106318,107318,A
Sprite,Foreground,Centre,"sb\h.png",0,0 C,0,106607,,255,64,14 M,0,106607,107607,205,380 F,0,106607,107607,0.7,0 S,0,106607,107607,0.5,0.7 R,0,106607,107607,0 P,0,106607,107607,A
Sprite,Foreground,Centre,"sb\h.png",0,0 C,0,106895,,255,17,24 M,0,106895,107895,160,181 F,0,106895,107895,0.7,0 S,0,106895,107895,0.5,0.7 R,0,106895,107895,0 P,0,106895,107895,A
Sprite,Foreground,Centre,"sb\h.png",0,0 C,0,107039,,255,63,55 M,0,107039,108039,356,247 F,0,107039,108039,0.7,0 S,0,107039,108039,0.5,0.7 R,0,107039,108039,0 P,0,107039,108039,A
Sprite,Foreground,Centre,"sb\h.png",0,0 C,0,107328,,255,69,13 M,0,107328,108328,217,387 F,0,107328,108328,0.7,0 S,0,107328,108328,0.5,0.7 R,0,107328,108328,0 P,0,107328,108328,A
Sprite,Foreground,Centre,"sb\h.png",0,0 C,0,107616,,255,34,1 M,0,107616,108616,420,427 F,0,107616,108616,0.7,0 S,0,107616,108616,0.5,0.7 R,0,107616,108616,0 P,0,107616,108616,A
Sprite,Foreground,Centre,"sb\h.png",0,0 C,0,107905,,255,16,50 M,0,107905,108905,319,126 F,0,107905,108905,0.7,0 S,0,107905,108905,0.5,0.7 R,0,107905,108905,0 P,0,107905,108905,A
Sprite,Foreground,Centre,"sb\h.png",0,0 C,0,108193,,255,30,68 M,0,108193,109193,489,155 F,0,108193,109193,0.7,0 S,0,108193,109193,0.5,0.7 R,0,108193,109193,0 P,0,108193,109193,A
Sprite,Foreground,Centre,"sb\h.png",0,0 C,0,108337,,255,65,57 M,0,108337,109337,269,309 F,0,108337,109337,0.7,0 S,0,108337,109337,0.5,0.7 R,0,108337,109337,0 P,0,108337,109337,A
Sprite,Foreground,Centre,"sb\h.png",0,0 C,0,108482,,255,1,59 M,0,108482,109482,385,181 F,0,108482,109482,0.7,0 S,0,108482,109482,0.5,0.7 R,0,108482,109482,0 P,0,108482,109482,A
Sprite,Foreground,Centre,"sb\h.png",0,0 C,0,108626,,255,23,40 M,0,108626,109626,436,310 F,0,108626,109626,0.7,0 S,0,108626,109626,0.5,0.7 R,0,108626,109626,0 P,0,108626,109626,A
Sprite,Foreground,Centre,"sb\h.png",0,0 C,0,108770,,255,5,52 M,0,108770,109770,247,205 F,0,108770,109770,0.7,0 S,0,108770,109770,0.5,0.7 R,0,108770,109770,0 P,0,108770,109770,A
Sprite,Foreground,Centre,"sb\h.png",0,0 C,0,108914,,255,15,61 M,0,108914,109914,520,268 F,0,108914,109914,0.7,0 S,0,108914,109914,0.5,0.7 R,0,108914,109914,0 P,0,108914,109914,A
Sprite,Foreground,Centre,"sb\h.png",0,0 C,0,109203,,255,14,19 M,0,109203,110203,118,404 F,0,109203,110203,0.7,0 S,0,109203,110203,0.5,0.7 R,0,109203,110203,0 P,0,109203,110203,A
Sprite,Foreground,Centre,"sb\h.png",0,0 C,0,109491,,255,61,27 M,0,109491,110491,290,357 F,0,109491,110491,0.7,0 S,0,109491,110491,0.5,0.7 R,0,109491,110491,0 P,0,109491,110491,A
Sprite,Foreground,Centre,"sb\h.png",0,0 C,0,109635,,255,27,19 M,0,109635,110635,324,146 F,0,109635,110635,0.7,0 S,0,109635,110635,0.5,0.7 R,0,109635,110635,0 P,0,109635,110635,A
Sprite,Foreground,Centre,"sb\h.png",0,0 C,0,109780,,255,5,9 M,0,109780,110780,313,197 F,0,109780,110780,0.7,0 S,0,109780,110780,0.5,0.7 R,0,109780,110780,0 P,0,109780,110780,A
Sprite,Foreground,Centre,"sb\h.png",0,0 C,0,109996,,255,69,59 M,0,109996,110996,159,211 F,0,109996,110996,0.7,0 S,0,109996,110996,0.5,0.7 R,0,109996,110996,0 P,0,109996,110996,A
Sprite,Foreground,Centre,"sb\h.png",0,0 C,0,110068,,255,21,34 M,0,110068,111068,200,195 F,0,110068,111068,0.7,0 S,0,110068,111068,0.5,0.7 R,0,110068,111068,0 P,0,110068,111068,A
Sprite,Foreground,Centre,"sb\h.png",0,0 C,0,110140,,255,24,69 M,0,110140,111140,243,201 F,0,110140,111140,0.7,0 S,0,110140,111140,0.5,0.7 R,0,110140,111140,0 P,0,110140,111140,A
Sprite,Foreground,Centre,"sb\h.png",0,0 C,0,110212,,255,42,10 M,0,110212,111212,278,227 F,0,110212,111212,0.7,0 S,0,110212,111212,0.5,0.7 R,0,110212,111212,0 P,0,110212,111212,A
Sprite,Foreground,Centre,"sb\h.png",0,0 C,0,110285,,255,10,55 M,0,110285,111285,293,268 F,0,110285,111285,0.7,0 S,0,110285,111285,0.5,0.7 R,0,110285,111285,0 P,0,110285,111285,A
Sprite,Foreground,Centre,"sb\h.png",0,0 C,0,110357,,255,39,52 M,0,110357,111357,273,290 F,0,110357,111357,0.7,0 S,0,110357,111357,0.5,0.7 R,0,110357,111357,0 P,0,110357,111357,A
Sprite,Foreground,Centre,"sb\h.png",0,0 C,0,110645,,255,56,47 M,0,110645,111645,309,97 F,0,110645,111645,0.7,0 S,0,110645,111645,0.5,0.7 R,0,110645,111645,0 P,0,110645,111645,A
Sprite,Foreground,Centre,"sb\h.png",0,0 C,0,110789,,255,11,66 M,0,110789,111789,436,290 F,0,110789,111789,0.7,0 S,0,110789,111789,0.5,0.7 R,0,110789,111789,0 P,0,110789,111789,A
Sprite,Foreground,Centre,"sb\h.png",0,0 C,0,111078,,255,48,33 M,0,111078,112078,565,183 F,0,111078,112078,0.7,0 S,0,111078,112078,0.5,0.7 R,0,111078,112078,0 P,0,111078,112078,A
Sprite,Foreground,Centre,"sb\h.png",0,0 C,0,111222,,255,50,56 M,0,111222,112222,474,161 F,0,111222,112222,0.7,0 S,0,111222,112222,0.5,0.7 R,0,111222,112222,0 P,0,111222,112222,A
Sprite,Foreground,Centre,"sb\h.png",0,0 C,0,111510,,255,16,54 M,0,111510,112510,343,402 F,0,111510,112510,0.7,0 S,0,111510,112510,0.5,0.7 R,0,111510,112510,0 P,0,111510,112510,A
Sprite,Foreground,Centre,"sb\h.png",0,0 C,0,111655,,255,34,31 M,0,111655,112655,539,301 F,0,111655,112655,0.7,0 S,0,111655,112655,0.5,0.7 R,0,111655,112655,0 P,0,111655,112655,A
Sprite,Foreground,Centre,"sb\h.png",0,0 C,0,111727,,255,59,10 M,0,111727,112727,539,301 F,0,111727,112727,0.7,0 S,0,111727,112727,0.5,0.7 R,0,111727,112727,0 P,0,111727,112727,A
Sprite,Foreground,Centre,"sb\h.png",0,0 C,0,111799,,255,18,3 M,0,111799,112799,539,301 F,0,111799,112799,0.7,0 S,0,111799,112799,0.5,0.7 R,0,111799,112799,0 P,0,111799,112799,A
Sprite,Foreground,Centre,"sb\h.png",0,0 C,0,111943,,255,61,32 M,0,111943,112943,532,385 F,0,111943,112943,0.7,0 S,0,111943,112943,0.5,0.7 R,0,111943,112943,0 P,0,111943,112943,A
Sprite,Foreground,Centre,"sb\h.png",0,0 C,0,112232,,255,12,63 M,0,112232,113232,381,203 F,0,112232,113232,0.7,0 S,0,112232,113232,0.5,0.7 R,0,112232,113232,0 P,0,112232,113232,A
Sprite,Foreground,Centre,"sb\h.png",0,0 C,0,112520,,255,2,21 M,0,112520,113520,80,402 F,0,112520,113520,0.7,0 S,0,112520,113520,0.5,0.7 R,0,112520,113520,0 P,0,112520,113520,A
Sprite,Foreground,Centre,"sb\h.png",0,0 C,0,112664,,255,46,16 M,0,112664,113664,144,243 F,0,112664,113664,0.7,0 S,0,112664,113664,0.5,0.7 R,0,112664,113664,0 P,0,112664,113664,A
Sprite,Foreground,Centre,"sb\h.png",0,0 C,0,112953,,255,50,60 M,0,112953,113953,218,374 F,0,112953,113953,0.7,0 S,0,112953,113953,0.5,0.7 R,0,112953,113953,0 P,0,112953,113953,A
Sprite,Foreground,Centre,"sb\h.png",0,0 C,0,113097,,255,69,18 M,0,113097,114097,422,287 F,0,113097,114097,0.7,0 S,0,113097,114097,0.5,0.7 R,0,113097,114097,0 P,0,113097,114097,A
Sprite,Foreground,Centre,"sb\h.png",0,0 C,0,113385,,255,17,44 M,0,113385,114385,576,285 F,0,113385,114385,0.7,0 S,0,113385,114385,0.5,0.7 R,0,113385,114385,0 P,0,113385,114385,A
Sprite,Foreground,Centre,"sb\h.png",0,0 C,0,113746,,255,52,45 M,0,113746,114746,344,75 F,0,113746,114746,0.7,0 S,0,113746,114746,0.5,0.7 R,0,113746,114746,0 P,0,113746,114746,A
Sprite,Foreground,Centre,"sb\h.png",0,0 C,0,113818,,255,16,44 M,0,113818,114818,359,67 F,0,113818,114818,0.7,0 S,0,113818,114818,0.5,0.7 R,0,113818,114818,0 P,0,113818,114818,A
Sprite,Foreground,Centre,"sb\h.png",0,0 C,0,114035,,255,3,29 M,0,114035,115035,339,173 F,0,114035,115035,0.7,0 S,0,114035,115035,0.5,0.7 R,0,114035,115035,0 P,0,114035,115035,A
Sprite,Foreground,Centre,"sb\h.png",0,0 C,0,114251,,255,2,31 M,0,114251,115251,362,422 F,0,114251,115251,0.7,0 S,0,114251,115251,0.5,0.7 R,0,114251,115251,0 P,0,114251,115251,A
Sprite,Foreground,Centre,"sb\h.png",0,0 C,0,114539,,255,42,52 M,0,114539,115539,568,253 F,0,114539,115539,0.7,0 S,0,114539,115539,0.5,0.7 R,0,114539,115539,0 P,0,114539,115539,A
Sprite,Foreground,Centre,"sb\h.png",0,0 C,0,114828,,255,15,1 M,0,114828,115828,362,186 F,0,114828,115828,0.7,0 S,0,114828,115828,0.5,0.7 R,0,114828,115828,0 P,0,114828,115828,A
Sprite,Foreground,Centre,"sb\h.png",0,0 C,0,114972,,255,45,53 M,0,114972,115972,448,348 F,0,114972,115972,0.7,0 S,0,114972,115972,0.5,0.7 R,0,114972,115972,0 P,0,114972,115972,A
Sprite,Foreground,Centre,"sb\h.png",0,0 C,0,115260,,255,15,38 M,0,115260,116260,233,350 F,0,115260,116260,0.7,0 S,0,115260,116260,0.5,0.7 R,0,115260,116260,0 P,0,115260,116260,A
Sprite,Foreground,Centre,"sb\h.png",0,0 C,0,115549,,255,13,28 M,0,115549,116549,282,116 F,0,115549,116549,0.7,0 S,0,115549,116549,0.5,0.7 R,0,115549,116549,0 P,0,115549,116549,A
Sprite,Foreground,Centre,"sb\h.png",0,0 C,0,115837,,255,63,14 M,0,115837,116837,446,137 F,0,115837,116837,0.7,0 S,0,115837,116837,0.5,0.7 R,0,115837,116837,0 P,0,115837,116837,A
Sprite,Foreground,Centre,"sb\h.png",0,0 C,0,115982,,255,27,67 M,0,115982,116982,283,92 F,0,115982,116982,0.7,0 S,0,115982,116982,0.5,0.7 R,0,115982,116982,0 P,0,115982,116982,A
Sprite,Foreground,Centre,"sb\h.png",0,0 C,0,116126,,255,48,26 M,0,116126,117126,446,137 F,0,116126,117126,0.7,0 S,0,116126,117126,0.5,0.7 R,0,116126,117126,0 P,0,116126,117126,A
Sprite,Foreground,Centre,"sb\h.png",0,0 C,0,116559,,255,13,41 M,0,116559,117559,154,143 F,0,116559,117559,0.7,0 S,0,116559,117559,0.5,0.7 R,0,116559,117559,0 P,0,116559,117559,A
Sprite,Foreground,Centre,"sb\h.png",0,0 C,0,116703,,255,44,59 M,0,116703,117703,195,297 F,0,116703,117703,0.7,0 S,0,116703,117703,0.5,0.7 R,0,116703,117703,0 P,0,116703,117703,A
Sprite,Foreground,Centre,"sb\h.png",0,0 C,0,117135,,255,39,37 M,0,117135,118135,316,275 F,0,117135,118135,0.7,0 S,0,117135,118135,0.5,0.7 R,0,117135,118135,0 P,0,117135,118135,A
Sprite,Foreground,Centre,"sb\h.png",0,0 C,0,117568,,255,42,28 M,0,117568,118568,319,266 F,0,117568,118568,0.7,0 S,0,117568,118568,0.5,0.7 R,0,117568,118568,0 P,0,117568,118568,A
Sprite,Foreground,Centre,"sb\h.png",0,0 C,0,117712,,255,1,30 M,0,117712,118712,553,344 F,0,117712,118712,0.7,0 S,0,117712,118712,0.5,0.7 R,0,117712,118712,0 P,0,117712,118712,A
Sprite,Foreground,Centre,"sb\h.png",0,0 C,0,118073,,255,43,68 M,0,118073,119073,390,438 F,0,118073,119073,0.7,0 S,0,118073,119073,0.5,0.7 R,0,118073,119073,0 P,0,118073,119073,A
Sprite,Foreground,Centre,"sb\h.png",0,0 C,0,118145,,255,8,2 M,0,118145,119145,390,438 F,0,118145,119145,0.7,0 S,0,118145,119145,0.5,0.7 R,0,118145,119145,0 P,0,118145,119145,A
Sprite,Foreground,Centre,"sb\h.png",0,0 C,0,118289,,255,59,19 M,0,118289,119289,518,157 F,0,118289,119289,0.7,0 S,0,118289,119289,0.5,0.7 R,0,118289,119289,0 P,0,118289,119289,A
Sprite,Foreground,Centre,"sb\h.png",0,0 C,0,118578,,255,12,66 M,0,118578,119578,553,260 F,0,118578,119578,0.7,0 S,0,118578,119578,0.5,0.7 R,0,118578,119578,0 P,0,118578,119578,A
Sprite,Foreground,Centre,"sb\h.png",0,0 C,0,118650,,255,28,47 M,0,118650,119650,553,260 F,0,118650,119650,0.7,0 S,0,118650,119650,0.5,0.7 R,0,118650,119650,0 P,0,118650,119650,A
Sprite,Foreground,Centre,"sb\h.png",0,0 C,0,118722,,255,40,54 M,0,118722,119722,553,260 F,0,118722,119722,0.7,0 S,0,118722,119722,0.5,0.7 R,0,118722,119722,0 P,0,118722,119722,A
Sprite,Foreground,Centre,"sb\h.png",0,0 C,0,119010,,255,26,1 M,0,119010,120010,279,159 F,0,119010,120010,0.7,0 S,0,119010,120010,0.5,0.7 R,0,119010,120010,0 P,0,119010,120010,A
Sprite,Foreground,Centre,"sb\h.png",0,0 C,0,119155,,255,11,43 M,0,119155,120155,430,154 F,0,119155,120155,0.7,0 S,0,119155,120155,0.5,0.7 R,0,119155,120155,0 P,0,119155,120155,A
Sprite,Foreground,Centre,"sb\h.png",0,0 C,0,101126,,255,1,40 M,0,101126,102126,359,158 F,0,101126,102126,0.7,0 S,0,101126,102126,0.5,0.7 R,0,101126,102126,0 P,0,101126,102126,A
Sprite,Foreground,Centre,"sb\h.png",0,0 C,0,101414,,255,25,15 M,0,101414,102414,465,66 F,0,101414,102414,0.7,0 S,0,101414,102414,0.5,0.7 R,0,101414,102414,0 P,0,101414,102414,A
Sprite,Foreground,Centre,"sb\h.png",0,0 C,0,101559,,255,35,59 M,0,101559,102559,576,247 F,0,101559,102559,0.7,0 S,0,101559,102559,0.5,0.7 R,0,101559,102559,0 P,0,101559,102559,A
Sprite,Foreground,Centre,"sb\h.png",0,0 C,0,101847,,255,65,63 M,0,101847,102847,360,178 F,0,101847,102847,0.7,0 S,0,101847,102847,0.5,0.7 R,0,101847,102847,0 P,0,101847,102847,A
Sprite,Foreground,Centre,"sb\h.png",0,0 C,0,102135,,255,4,60 M,0,102135,103135,576,111 F,0,102135,103135,0.7,0 S,0,102135,103135,0.5,0.7 R,0,102135,103135,0 P,0,102135,103135,A
Sprite,Foreground,Centre,"sb\h.png",0,0 C,0,102280,,255,14,16 M,0,102280,103280,376,262 F,0,102280,103280,0.7,0 S,0,102280,103280,0.5,0.7 R,0,102280,103280,0 P,0,102280,103280,A
Sprite,Foreground,Centre,"sb\h.png",0,0 C,0,102424,,255,57,44 M,0,102424,103424,494,368 F,0,102424,103424,0.7,0 S,0,102424,103424,0.5,0.7 R,0,102424,103424,0 P,0,102424,103424,A
Sprite,Foreground,Centre,"sb\h.png",0,0 C,0,102496,,255,55,66 M,0,102496,103496,494,368 F,0,102496,103496,0.7,0 S,0,102496,103496,0.5,0.7 R,0,102496,103496,0 P,0,102496,103496,A
Sprite,Foreground,Centre,"sb\h.png",0,0 C,0,102568,,255,48,4 M,0,102568,103568,494,368 F,0,102568,103568,0.7,0 S,0,102568,103568,0.5,0.7 R,0,102568,103568,0 P,0,102568,103568,A
Sprite,Foreground,Centre,"sb\h.png",0,0 C,0,102712,,255,25,37 M,0,102712,103712,407,385 F,0,102712,103712,0.7,0 S,0,102712,103712,0.5,0.7 R,0,102712,103712,0 P,0,102712,103712,A
Sprite,Foreground,Centre,"sb\h.png",0,0 C,0,103001,,255,43,33 M,0,103001,104001,288,305 F,0,103001,104001,0.7,0 S,0,103001,104001,0.5,0.7 R,0,103001,104001,0 P,0,103001,104001,A
Sprite,Foreground,Centre,"sb\h.png",0,0 C,0,103145,,255,18,36 M,0,103145,104145,468,155 F,0,103145,104145,0.7,0 S,0,103145,104145,0.5,0.7 R,0,103145,104145,0 P,0,103145,104145,A
Sprite,Foreground,Centre,"sb\h.png",0,0 C,0,103289,,255,65,44 M,0,103289,104289,418,393 F,0,103289,104289,0.7,0 S,0,103289,104289,0.5,0.7 R,0,103289,104289,0 P,0,103289,104289,A
Sprite,Foreground,Centre,"sb\h.png",0,0 C,0,103361,,255,11,26 M,0,103361,104361,418,393 F,0,103361,104361,0.7,0 S,0,103361,104361,0.5,0.7 R,0,103361,104361,0 P,0,103361,104361,A
Sprite,Foreground,Centre,"sb\h.png",0,0 C,0,103434,,255,6,23 M,0,103434,104434,418,393 F,0,103434,104434,0.7,0 S,0,103434,104434,0.5,0.7 R,0,103434,104434,0 P,0,103434,104434,A
Sprite,Foreground,Centre,"sb\h.png",0,0 C,0,103722,,255,32,35 M,0,103722,104722,395,221 F,0,103722,104722,0.7,0 S,0,103722,104722,0.5,0.7 R,0,103722,104722,0 P,0,103722,104722,A
Sprite,Foreground,Centre,"sb\h.png",0,0 C,0,103866,,255,39,46 M,0,103866,104866,287,89 F,0,103866,104866,0.7,0 S,0,103866,104866,0.5,0.7 R,0,103866,104866,0 P,0,103866,104866,A
Sprite,Foreground,Centre,"sb\h.png",0,0 C,0,104155,,255,64,4 M,0,104155,105155,309,304 F,0,104155,105155,0.7,0 S,0,104155,105155,0.5,0.7 R,0,104155,105155,0 P,0,104155,105155,A
Sprite,Foreground,Centre,"sb\h.png",0,0 C,0,104299,,255,7,66 M,0,104299,105299,399,107 F,0,104299,105299,0.7,0 S,0,104299,105299,0.5,0.7 R,0,104299,105299,0 P,0,104299,105299,A
Sprite,Foreground,Centre,"sb\h.png",0,0 C,0,104587,,255,13,61 M,0,104587,105587,222,287 F,0,104587,105587,0.7,0 S,0,104587,105587,0.5,0.7 R,0,104587,105587,0 P,0,104587,105587,A
Sprite,Foreground,Centre,"sb\h.png",0,0 C,0,104804,,255,9,33 M,0,104804,105804,64,329 F,0,104804,105804,0.7,0 S,0,104804,105804,0.5,0.7 R,0,104804,105804,0 P,0,104804,105804,A
Sprite,Foreground,Centre,"sb\h.png",0,0 C,0,104876,,255,51,62 M,0,104876,105876,68,343 F,0,104876,105876,0.7,0 S,0,104876,105876,0.5,0.7 R,0,104876,105876,0 P,0,104876,105876,A
Sprite,Foreground,Centre,"sb\h.png",0,0 C,0,105020,,255,19,49 M,0,105020,106020,213,268 F,0,105020,106020,0.7,0 S,0,105020,106020,0.5,0.7 R,0,105020,106020,0 P,0,105020,106020,A
Sprite,Foreground,Centre,"sb\h.png",0,0 C,0,105309,,255,39,7 M,0,105309,106309,532,222 F,0,105309,106309,0.7,0 S,0,105309,106309,0.5,0.7 R,0,105309,106309,0 P,0,105309,106309,A
Sprite,Foreground,Centre,"sb\h.png",0,0 C,0,105597,,255,56,54 M,0,105597,106597,510,381 F,0,105597,106597,0.7,0 S,0,105597,106597,0.5,0.7 R,0,105597,106597,0 P,0,105597,106597,A
Sprite,Foreground,Centre,"sb\h.png",0,0 C,0,105741,,255,42,25 M,0,105741,106741,557,309 F,0,105741,106741,0.7,0 S,0,105741,106741,0.5,0.7 R,0,105741,106741,0 P,0,105741,106741,A
Sprite,Foreground,Centre,"sb\h.png",0,0 C,0,106030,,255,4,41 M,0,106030,107030,326,440 F,0,106030,107030,0.7,0 S,0,106030,107030,0.5,0.7 R,0,106030,107030,0 P,0,106030,107030,A
Sprite,Foreground,Centre,"sb\h.png",0,0 C,0,106318,,255,11,53 M,0,106318,107318,155,176 F,0,106318,107318,0.7,0 S,0,106318,107318,0.5,0.7 R,0,106318,107318,0 P,0,106318,107318,A
Sprite,Foreground,Centre,"sb\h.png",0,0 C,0,106607,,255,26,56 M,0,106607,107607,205,380 F,0,106607,107607,0.7,0 S,0,106607,107607,0.5,0.7 R,0,106607,107607,0 P,0,106607,107607,A
Sprite,Foreground,Centre,"sb\h.png",0,0 C,0,106895,,255,7,63 M,0,106895,107895,160,181 F,0,106895,107895,0.7,0 S,0,106895,107895,0.5,0.7 R,0,106895,107895,0 P,0,106895,107895,A
Sprite,Foreground,Centre,"sb\h.png",0,0 C,0,107039,,255,24,66 M,0,107039,108039,356,247 F,0,107039,108039,0.7,0 S,0,107039,108039,0.5,0.7 R,0,107039,108039,0 P,0,107039,108039,A
Sprite,Foreground,Centre,"sb\h.png",0,0 C,0,107328,,255,36,61 M,0,107328,108328,217,387 F,0,107328,108328,0.7,0 S,0,107328,108328,0.5,0.7 R,0,107328,108328,0 P,0,107328,108328,A
Sprite,Foreground,Centre,"sb\h.png",0,0 C,0,107616,,255,0,44 M,0,107616,108616,420,427 F,0,107616,108616,0.7,0 S,0,107616,108616,0.5,0.7 R,0,107616,108616,0 P,0,107616,108616,A
Sprite,Foreground,Centre,"sb\h.png",0,0 C,0,107905,,255,40,32 M,0,107905,108905,319,126 F,0,107905,108905,0.7,0 S,0,107905,108905,0.5,0.7 R,0,107905,108905,0 P,0,107905,108905,A
Sprite,Foreground,Centre,"sb\h.png",0,0 C,0,108193,,255,48,69 M,0,108193,109193,489,155 F,0,108193,109193,0.7,0 S,0,108193,109193,0.5,0.7 R,0,108193,109193,0 P,0,108193,109193,A
Sprite,Foreground,Centre,"sb\h.png",0,0 C,0,108337,,255,58,21 M,0,108337,109337,269,309 F,0,108337,109337,0.7,0 S,0,108337,109337,0.5,0.7 R,0,108337,109337,0 P,0,108337,109337,A
Sprite,Foreground,Centre,"sb\h.png",0,0 C,0,108482,,255,66,65 M,0,108482,109482,385,181 F,0,108482,109482,0.7,0 S,0,108482,109482,0.5,0.7 R,0,108482,109482,0 P,0,108482,109482,A
Sprite,Foreground,Centre,"sb\h.png",0,0 C,0,108626,,255,19,49 M,0,108626,109626,436,310 F,0,108626,109626,0.7,0 S,0,108626,109626,0.5,0.7 R,0,108626,109626,0 P,0,108626,109626,A
Sprite,Foreground,Centre,"sb\h.png",0,0 C,0,108770,,255,34,22 M,0,108770,109770,247,205 F,0,108770,109770,0.7,0 S,0,108770,109770,0.5,0.7 R,0,108770,109770,0 P,0,108770,109770,A
Sprite,Foreground,Centre,"sb\h.png",0,0 C,0,108914,,255,62,60 M,0,108914,109914,520,268 F,0,108914,109914,0.7,0 S,0,108914,109914,0.5,0.7 R,0,108914,109914,0 P,0,108914,109914,A
Sprite,Foreground,Centre,"sb\h.png",0,0 C,0,109203,,255,22,16 M,0,109203,110203,118,404 F,0,109203,110203,0.7,0 S,0,109203,110203,0.5,0.7 R,0,109203,110203,0 P,0,109203,110203,A
Sprite,Foreground,Centre,"sb\h.png",0,0 C,0,109491,,255,37,20 M,0,109491,110491,290,357 F,0,109491,110491,0.7,0 S,0,109491,110491,0.5,0.7 R,0,109491,110491,0 P,0,109491,110491,A
Sprite,Foreground,Centre,"sb\h.png",0,0 C,0,109635,,255,20,14 M,0,109635,110635,324,146 F,0,109635,110635,0.7,0 S,0,109635,110635,0.5,0.7 R,0,109635,110635,0 P,0,109635,110635,A
Sprite,Foreground,Centre,"sb\h.png",0,0 C,0,109780,,255,69,54 M,0,109780,110780,313,197 F,0,109780,110780,0.7,0 S,0,109780,110780,0.5,0.7 R,0,109780,110780,0 P,0,109780,110780,A
Sprite,Foreground,Centre,"sb\h.png",0,0 C,0,109996,,255,5,31 M,0,109996,110996,159,211 F,0,109996,110996,0.7,0 S,0,109996,110996,0.5,0.7 R,0,109996,110996,0 P,0,109996,110996,A
Sprite,Foreground,Centre,"sb\h.png",0,0 C,0,110068,,255,32,25 M,0,110068,111068,200,195 F,0,110068,111068,0.7,0 S,0,110068,111068,0.5,0.7 R,0,110068,111068,0 P,0,110068,111068,A
Sprite,Foreground,Centre,"sb\h.png",0,0 C,0,110140,,255,2,56 M,0,110140,111140,243,201 F,0,110140,111140,0.7,0 S,0,110140,111140,0.5,0.7 R,0,110140,111140,0 P,0,110140,111140,A
Sprite,Foreground,Centre,"sb\h.png",0,0 C,0,110212,,255,45,38 M,0,110212,111212,278,227 F,0,110212,111212,0.7,0 S,0,110212,111212,0.5,0.7 R,0,110212,111212,0 P,0,110212,111212,A
Sprite,Foreground,Centre,"sb\h.png",0,0 C,0,110285,,255,33,53 M,0,110285,111285,293,268 F,0,110285,111285,0.7,0 S,0,110285,111285,0.5,0.7 R,0,110285,111285,0 P,0,110285,111285,A
Sprite,Foreground,Centre,"sb\h.png",0,0 C,0,110357,,255,60,23 M,0,110357,111357,273,290 F,0,110357,111357,0.7,0 S,0,110357,111357,0.5,0.7 R,0,110357,111357,0 P,0,110357,111357,A
Sprite,Foreground,Centre,"sb\h.png",0,0 C,0,110645,,255,60,2 M,0,110645,111645,309,97 F,0,110645,111645,0.7,0 S,0,110645,111645,0.5,0.7 R,0,110645,111645,0 P,0,110645,111645,A
Sprite,Foreground,Centre,"sb\h.png",0,0 C,0,110789,,255,69,49 M,0,110789,111789,436,290 F,0,110789,111789,0.7,0 S,0,110789,111789,0.5,0.7 R,0,110789,111789,0 P,0,110789,111789,A
Sprite,Foreground,Centre,"sb\h.png",0,0 C,0,111078,,255,63,38 M,0,111078,112078,565,183 F,0,111078,112078,0.7,0 S,0,111078,112078,0.5,0.7 R,0,111078,112078,0 P,0,111078,112078,A
Sprite,Foreground,Centre,"sb\h.png",0,0 C,0,111222,,255,43,22 M,0,111222,112222,474,161 F,0,111222,112222,0.7,0 S,0,111222,112222,0.5,0.7 R,0,111222,112222,0 P,0,111222,112222,A
Sprite,Foreground,Centre,"sb\h.png",0,0 C,0,111510,,255,33,26 M,0,111510,112510,343,402 F,0,111510,112510,0.7,0 S,0,111510,112510,0.5,0.7 R,0,111510,112510,0 P,0,111510,112510,A
Sprite,Foreground,Centre,"sb\h.png",0,0 C,0,111655,,255,36,12 M,0,111655,112655,539,301 F,0,111655,112655,0.7,0 S,0,111655,112655,0.5,0.7 R,0,111655,112655,0 P,0,111655,112655,A
Sprite,Foreground,Centre,"sb\h.png",0,0 C,0,111727,,255,3,64 M,0,111727,112727,539,301 F,0,111727,112727,0.7,0 S,0,111727,112727,0.5,0.7 R,0,111727,112727,0 P,0,111727,112727,A
Sprite,Foreground,Centre,"sb\h.png",0,0 C,0,111799,,255,55,66 M,0,111799,112799,539,301 F,0,111799,112799,0.7,0 S,0,111799,112799,0.5,0.7 R,0,111799,112799,0 P,0,111799,112799,A
Sprite,Foreground,Centre,"sb\h.png",0,0 C,0,111943,,255,51,44 M,0,111943,112943,532,385 F,0,111943,112943,0.7,0 S,0,111943,112943,0.5,0.7 R,0,111943,112943,0 P,0,111943,112943,A
Sprite,Foreground,Centre,"sb\h.png",0,0 C,0,112232,,255,23,37 M,0,112232,113232,381,203 F,0,112232,113232,0.7,0 S,0,112232,113232,0.5,0.7 R,0,112232,113232,0 P,0,112232,113232,A
Sprite,Foreground,Centre,"sb\h.png",0,0 C,0,112520,,255,25,39 M,0,112520,113520,80,402 F,0,112520,113520,0.7,0 S,0,112520,113520,0.5,0.7 R,0,112520,113520,0 P,0,112520,113520,A
Sprite,Foreground,Centre,"sb\h.png",0,0 C,0,112664,,255,28,58 M,0,112664,113664,144,243 F,0,112664,113664,0.7,0 S,0,112664,113664,0.5,0.7 R,0,112664,113664,0 P,0,112664,113664,A
Sprite,Foreground,Centre,"sb\h.png",0,0 C,0,112953,,255,31,51 M,0,112953,113953,218,374 F,0,112953,113953,0.7,0 S,0,112953,113953,0.5,0.7 R,0,112953,113953,0 P,0,112953,113953,A
Sprite,Foreground,Centre,"sb\h.png",0,0 C,0,113097,,255,39,45 M,0,113097,114097,422,287 F,0,113097,114097,0.7,0 S,0,113097,114097,0.5,0.7 R,0,113097,114097,0 P,0,113097,114097,A
Sprite,Foreground,Centre,"sb\h.png",0,0 C,0,113385,,255,27,49 M,0,113385,114385,576,285 F,0,113385,114385,0.7,0 S,0,113385,114385,0.5,0.7 R,0,113385,114385,0 P,0,113385,114385,A
Sprite,Foreground,Centre,"sb\h.png",0,0 C,0,113746,,255,26,8 M,0,113746,114746,344,75 F,0,113746,114746,0.7,0 S,0,113746,114746,0.5,0.7 R,0,113746,114746,0 P,0,113746,114746,A
Sprite,Foreground,Centre,"sb\h.png",0,0 C,0,113818,,255,57,5 M,0,113818,114818,359,67 F,0,113818,114818,0.7,0 S,0,113818,114818,0.5,0.7 R,0,113818,114818,0 P,0,113818,114818,A
Sprite,Foreground,Centre,"sb\h.png",0,0 C,0,114035,,255,56,7 M,0,114035,115035,339,173 F,0,114035,115035,0.7,0 S,0,114035,115035,0.5,0.7 R,0,114035,115035,0 P,0,114035,115035,A
Sprite,Foreground,Centre,"sb\h.png",0,0 C,0,114251,,255,65,28 M,0,114251,115251,362,422 F,0,114251,115251,0.7,0 S,0,114251,115251,0.5,0.7 R,0,114251,115251,0 P,0,114251,115251,A
Sprite,Foreground,Centre,"sb\h.png",0,0 C,0,114539,,255,8,58 M,0,114539,115539,568,253 F,0,114539,115539,0.7,0 S,0,114539,115539,0.5,0.7 R,0,114539,115539,0 P,0,114539,115539,A
Sprite,Foreground,Centre,"sb\h.png",0,0 C,0,114828,,255,42,50 M,0,114828,115828,362,186 F,0,114828,115828,0.7,0 S,0,114828,115828,0.5,0.7 R,0,114828,115828,0 P,0,114828,115828,A
Sprite,Foreground,Centre,"sb\h.png",0,0 C,0,114972,,255,40,31 M,0,114972,115972,448,348 F,0,114972,115972,0.7,0 S,0,114972,115972,0.5,0.7 R,0,114972,115972,0 P,0,114972,115972,A
Sprite,Foreground,Centre,"sb\h.png",0,0 C,0,115260,,255,42,45 M,0,115260,116260,233,350 F,0,115260,116260,0.7,0 S,0,115260,116260,0.5,0.7 R,0,115260,116260,0 P,0,115260,116260,A
Sprite,Foreground,Centre,"sb\h.png",0,0 C,0,115549,,255,51,14 M,0,115549,116549,282,116 F,0,115549,116549,0.7,0 S,0,115549,116549,0.5,0.7 R,0,115549,116549,0 P,0,115549,116549,A
Sprite,Foreground,Centre,"sb\h.png",0,0 C,0,115837,,255,18,5 M,0,115837,116837,446,137 F,0,115837,116837,0.7,0 S,0,115837,116837,0.5,0.7 R,0,115837,116837,0 P,0,115837,116837,A
Sprite,Foreground,Centre,"sb\h.png",0,0 C,0,115982,,255,27,67 M,0,115982,116982,283,92 F,0,115982,116982,0.7,0 S,0,115982,116982,0.5,0.7 R,0,115982,116982,0 P,0,115982,116982,A
Sprite,Foreground,Centre,"sb\h.png",0,0 C,0,116126,,255,68,61 M,0,116126,117126,446,137 F,0,116126,117126,0.7,0 S,0,116126,117126,0.5,0.7 R,0,116126,117126,0 P,0,116126,117126,A
Sprite,Foreground,Centre,"sb\h.png",0,0 C,0,116559,,255,12,17 M,0,116559,117559,154,143 F,0,116559,117559,0.7,0 S,0,116559,117559,0.5,0.7 R,0,116559,117559,0 P,0,116559,117559,A
Sprite,Foreground,Centre,"sb\h.png",0,0 C,0,116703,,255,36,36 M,0,116703,117703,195,297 F,0,116703,117703,0.7,0 S,0,116703,117703,0.5,0.7 R,0,116703,117703,0 P,0,116703,117703,A
Sprite,Foreground,Centre,"sb\h.png",0,0 C,0,117135,,255,26,60 M,0,117135,118135,316,275 F,0,117135,118135,0.7,0 S,0,117135,118135,0.5,0.7 R,0,117135,118135,0 P,0,117135,118135,A
Sprite,Foreground,Centre,"sb\h.png",0,0 C,0,117568,,255,48,37 M,0,117568,118568,319,266 F,0,117568,118568,0.7,0 S,0,117568,118568,0.5,0.7 R,0,117568,118568,0 P,0,117568,118568,A
Sprite,Foreground,Centre,"sb\h.png",0,0 C,0,117712,,255,23,40 M,0,117712,118712,553,344 F,0,117712,118712,0.7,0 S,0,117712,118712,0.5,0.7 R,0,117712,118712,0 P,0,117712,118712,A
Sprite,Foreground,Centre,"sb\h.png",0,0 C,0,118073,,255,58,35 M,0,118073,119073,390,438 F,0,118073,119073,0.7,0 S,0,118073,119073,0.5,0.7 R,0,118073,119073,0 P,0,118073,119073,A
Sprite,Foreground,Centre,"sb\h.png",0,0 C,0,118145,,255,31,28 M,0,118145,119145,390,438 F,0,118145,119145,0.7,0 S,0,118145,119145,0.5,0.7 R,0,118145,119145,0 P,0,118145,119145,A
Sprite,Foreground,Centre,"sb\h.png",0,0 C,0,118289,,255,0,14 M,0,118289,119289,518,157 F,0,118289,119289,0.7,0 S,0,118289,119289,0.5,0.7 R,0,118289,119289,0 P,0,118289,119289,A
Sprite,Foreground,Centre,"sb\h.png",0,0 C,0,118578,,255,50,54 M,0,118578,119578,553,260 F,0,118578,119578,0.7,0 S,0,118578,119578,0.5,0.7 R,0,118578,119578,0 P,0,118578,119578,A
Sprite,Foreground,Centre,"sb\h.png",0,0 C,0,118650,,255,67,19 M,0,118650,119650,553,260 F,0,118650,119650,0.7,0 S,0,118650,119650,0.5,0.7 R,0,118650,119650,0 P,0,118650,119650,A
Sprite,Foreground,Centre,"sb\h.png",0,0 C,0,118722,,255,25,4 M,0,118722,119722,553,260 F,0,118722,119722,0.7,0 S,0,118722,119722,0.5,0.7 R,0,118722,119722,0 P,0,118722,119722,A
Sprite,Foreground,Centre,"sb\h.png",0,0 C,0,119010,,255,9,60 M,0,119010,120010,279,159 F,0,119010,120010,0.7,0 S,0,119010,120010,0.5,0.7 R,0,119010,120010,0 P,0,119010,120010,A
Sprite,Foreground,Centre,"sb\h.png",0,0 C,0,119155,,255,26,54 M,0,119155,120155,430,154 F,0,119155,120155,0.7,0 S,0,119155,120155,0.5,0.7 R,0,119155,120155,0 P,0,119155,120155,A
Sprite,Foreground,Centre,"sb\h.png",0,0 C,0,165741,,255,51,27 M,0,165741,166741,257,84 F,0,165741,166741,0.7,0 S,0,165741,166741,0.5,0.7 R,0,165741,166741,0 P,0,165741,166741,A
Sprite,Foreground,Centre,"sb\h.png",0,0 C,0,166029,,255,8,0 M,0,166029,167029,348,185 F,0,166029,167029,0.7,0 S,0,166029,167029,0.5,0.7 R,0,166029,167029,0 P,0,166029,167029,A
Sprite,Foreground,Centre,"sb\h.png",0,0 C,0,166173,,255,9,70 M,0,166173,167173,526,291 F,0,166173,167173,0.7,0 S,0,166173,167173,0.5,0.7 R,0,166173,167173,0 P,0,166173,167173,A
Sprite,Foreground,Centre,"sb\h.png",0,0 C,0,166462,,255,65,62 M,0,166462,167462,357,388 F,0,166462,167462,0.7,0 S,0,166462,167462,0.5,0.7 R,0,166462,167462,0 P,0,166462,167462,A
Sprite,Foreground,Centre,"sb\h.png",0,0 C,0,166606,,255,36,25 M,0,166606,167606,572,184 F,0,166606,167606,0.7,0 S,0,166606,167606,0.5,0.7 R,0,166606,167606,0 P,0,166606,167606,A
Sprite,Foreground,Centre,"sb\h.png",0,0 C,0,166895,,255,47,69 M,0,166895,167895,336,263 F,0,166895,167895,0.7,0 S,0,166895,167895,0.5,0.7 R,0,166895,167895,0 P,0,166895,167895,A
Sprite,Foreground,Centre,"sb\h.png",0,0 C,0,167039,,255,59,18 M,0,167039,168039,426,440 F,0,167039,168039,0.7,0 S,0,167039,168039,0.5,0.7 R,0,167039,168039,0 P,0,167039,168039,A
Sprite,Foreground,Centre,"sb\h.png",0,0 C,0,167111,,255,55,46 M,0,167111,168111,436,419 F,0,167111,168111,0.7,0 S,0,167111,168111,0.5,0.7 R,0,167111,168111,0 P,0,167111,168111,A
Sprite,Foreground,Centre,"sb\h.png",0,0 C,0,167183,,255,36,12 M,0,167183,168183,434,392 F,0,167183,168183,0.7,0 S,0,167183,168183,0.5,0.7 R,0,167183,168183,0 P,0,167183,168183,A
Sprite,Foreground,Centre,"sb\h.png",0,0 C,0,167327,,255,46,13 M,0,167327,168327,265,212 F,0,167327,168327,0.7,0 S,0,167327,168327,0.5,0.7 R,0,167327,168327,0 P,0,167327,168327,A
Sprite,Foreground,Centre,"sb\h.png",0,0 C,0,167616,,255,0,3 M,0,167616,168616,323,407 F,0,167616,168616,0.7,0 S,0,167616,168616,0.5,0.7 R,0,167616,168616,0 P,0,167616,168616,A
Sprite,Foreground,Centre,"sb\h.png",0,0 C,0,167760,,255,43,9 M,0,167760,168760,265,212 F,0,167760,168760,0.7,0 S,0,167760,168760,0.5,0.7 R,0,167760,168760,0 P,0,167760,168760,A
Sprite,Foreground,Centre,"sb\h.png",0,0 C,0,167904,,255,50,46 M,0,167904,168904,113,357 F,0,167904,168904,0.7,0 S,0,167904,168904,0.5,0.7 R,0,167904,168904,0 P,0,167904,168904,A
Sprite,Foreground,Centre,"sb\h.png",0,0 C,0,167976,,255,56,64 M,0,167976,168976,113,357 F,0,167976,168976,0.7,0 S,0,167976,168976,0.5,0.7 R,0,167976,168976,0 P,0,167976,168976,A
Sprite,Foreground,Centre,"sb\h.png",0,0 C,0,168048,,255,5,25 M,0,168048,169048,113,357 F,0,168048,169048,0.7,0 S,0,168048,169048,0.5,0.7 R,0,168048,169048,0 P,0,168048,169048,A
Sprite,Foreground,Centre,"sb\h.png",0,0 C,0,168337,,255,42,45 M,0,168337,169337,279,311 F,0,168337,169337,0.7,0 S,0,168337,169337,0.5,0.7 R,0,168337,169337,0 P,0,168337,169337,A
Sprite,Foreground,Centre,"sb\h.png",0,0 C,0,168481,,255,3,1 M,0,168481,169481,512,155 F,0,168481,169481,0.7,0 S,0,168481,169481,0.5,0.7 R,0,168481,169481,0 P,0,168481,169481,A
Sprite,Foreground,Centre,"sb\h.png",0,0 C,0,168698,,255,38,65 M,0,168698,169698,427,122 F,0,168698,169698,0.7,0 S,0,168698,169698,0.5,0.7 R,0,168698,169698,0 P,0,168698,169698,A
Sprite,Foreground,Centre,"sb\h.png",0,0 C,0,168770,,255,10,43 M,0,168770,169770,427,122 F,0,168770,169770,0.7,0 S,0,168770,169770,0.5,0.7 R,0,168770,169770,0 P,0,168770,169770,A
Sprite,Foreground,Centre,"sb\h.png",0,0 C,0,168914,,255,55,10 M,0,168914,169914,514,293 F,0,168914,169914,0.7,0 S,0,168914,169914,0.5,0.7 R,0,168914,169914,0 P,0,168914,169914,A
Sprite,Foreground,Centre,"sb\h.png",0,0 C,0,169058,,255,0,43 M,0,169058,170058,319,141 F,0,169058,170058,0.7,0 S,0,169058,170058,0.5,0.7 R,0,169058,170058,0 P,0,169058,170058,A
Sprite,Foreground,Centre,"sb\h.png",0,0 C,0,169202,,255,63,12 M,0,169202,170202,519,172 F,0,169202,170202,0.7,0 S,0,169202,170202,0.5,0.7 R,0,169202,170202,0 P,0,169202,170202,A
Sprite,Foreground,Centre,"sb\h.png",0,0 C,0,169347,,255,30,11 M,0,169347,170347,347,286 F,0,169347,170347,0.7,0 S,0,169347,170347,0.5,0.7 R,0,169347,170347,0 P,0,169347,170347,A
Sprite,Foreground,Centre,"sb\h.png",0,0 C,0,169635,,255,1,69 M,0,169635,170635,567,398 F,0,169635,170635,0.7,0 S,0,169635,170635,0.5,0.7 R,0,169635,170635,0 P,0,169635,170635,A
Sprite,Foreground,Centre,"sb\h.png",0,0 C,0,169923,,255,62,70 M,0,169923,170923,341,391 F,0,169923,170923,0.7,0 S,0,169923,170923,0.5,0.7 R,0,169923,170923,0 P,0,169923,170923,A
Sprite,Foreground,Centre,"sb\h.png",0,0 C,0,170212,,255,22,32 M,0,170212,171212,374,272 F,0,170212,171212,0.7,0 S,0,170212,171212,0.5,0.7 R,0,170212,171212,0 P,0,170212,171212,A
Sprite,Foreground,Centre,"sb\h.png",0,0 C,0,170356,,255,31,32 M,0,170356,171356,279,315 F,0,170356,171356,0.7,0 S,0,170356,171356,0.5,0.7 R,0,170356,171356,0 P,0,170356,171356,A
Sprite,Foreground,Centre,"sb\h.png",0,0 C,0,170645,,255,69,48 M,0,170645,171645,127,292 F,0,170645,171645,0.7,0 S,0,170645,171645,0.5,0.7 R,0,170645,171645,0 P,0,170645,171645,A
Sprite,Foreground,Centre,"sb\h.png",0,0 C,0,170933,,255,44,21 M,0,170933,171933,325,386 F,0,170933,171933,0.7,0 S,0,170933,171933,0.5,0.7 R,0,170933,171933,0 P,0,170933,171933,A
Sprite,Foreground,Centre,"sb\h.png",0,0 C,0,171222,,255,12,69 M,0,171222,172222,556,440 F,0,171222,172222,0.7,0 S,0,171222,172222,0.5,0.7 R,0,171222,172222,0 P,0,171222,172222,A
Sprite,Foreground,Centre,"sb\h.png",0,0 C,0,171510,,255,50,65 M,0,171510,172510,415,168 F,0,171510,172510,0.7,0 S,0,171510,172510,0.5,0.7 R,0,171510,172510,0 P,0,171510,172510,A
Sprite,Foreground,Centre,"sb\h.png",0,0 C,0,171654,,255,36,48 M,0,171654,172654,321,255 F,0,171654,172654,0.7,0 S,0,171654,172654,0.5,0.7 R,0,171654,172654,0 P,0,171654,172654,A
Sprite,Foreground,Centre,"sb\h.png",0,0 C,0,171943,,255,21,70 M,0,171943,172943,510,110 F,0,171943,172943,0.7,0 S,0,171943,172943,0.5,0.7 R,0,171943,172943,0 P,0,171943,172943,A
Sprite,Foreground,Centre,"sb\h.png",0,0 C,0,172231,,255,10,44 M,0,172231,173231,538,300 F,0,172231,173231,0.7,0 S,0,172231,173231,0.5,0.7 R,0,172231,173231,0 P,0,172231,173231,A
Sprite,Foreground,Centre,"sb\h.png",0,0 C,0,172375,,255,33,17 M,0,172375,173375,417,126 F,0,172375,173375,0.7,0 S,0,172375,173375,0.5,0.7 R,0,172375,173375,0 P,0,172375,173375,A
Sprite,Foreground,Centre,"sb\h.png",0,0 C,0,172520,,255,54,61 M,0,172520,173520,550,246 F,0,172520,173520,0.7,0 S,0,172520,173520,0.5,0.7 R,0,172520,173520,0 P,0,172520,173520,A
Sprite,Foreground,Centre,"sb\h.png",0,0 C,0,172808,,255,44,2 M,0,172808,173808,370,281 F,0,172808,173808,0.7,0 S,0,172808,173808,0.5,0.7 R,0,172808,173808,0 P,0,172808,173808,A
Sprite,Foreground,Centre,"sb\h.png",0,0 C,0,172952,,255,71,22 M,0,172952,173952,248,140 F,0,172952,173952,0.7,0 S,0,172952,173952,0.5,0.7 R,0,172952,173952,0 P,0,172952,173952,A
Sprite,Foreground,Centre,"sb\h.png",0,0 C,0,173097,,255,20,28 M,0,173097,174097,338,387 F,0,173097,174097,0.7,0 S,0,173097,174097,0.5,0.7 R,0,173097,174097,0 P,0,173097,174097,A
Sprite,Foreground,Centre,"sb\h.png",0,0 C,0,173241,,255,30,9 M,0,173241,174241,215,420 F,0,173241,174241,0.7,0 S,0,173241,174241,0.5,0.7 R,0,173241,174241,0 P,0,173241,174241,A
Sprite,Foreground,Centre,"sb\h.png",0,0 C,0,173385,,255,8,15 M,0,173385,174385,348,181 F,0,173385,174385,0.7,0 S,0,173385,174385,0.5,0.7 R,0,173385,174385,0 P,0,173385,174385,A
Sprite,Foreground,Centre,"sb\h.png",0,0 C,0,173529,,255,42,53 M,0,173529,174529,386,297 F,0,173529,174529,0.7,0 S,0,173529,174529,0.5,0.7 R,0,173529,174529,0 P,0,173529,174529,A
Sprite,Foreground,Centre,"sb\h.png",0,0 C,0,173673,,255,65,60 M,0,173673,174673,171,195 F,0,173673,174673,0.7,0 S,0,173673,174673,0.5,0.7 R,0,173673,174673,0 P,0,173673,174673,A
Sprite,Foreground,Centre,"sb\h.png",0,0 C,0,173818,,255,32,28 M,0,173818,174818,339,91 F,0,173818,174818,0.7,0 S,0,173818,174818,0.5,0.7 R,0,173818,174818,0 P,0,173818,174818,A
Sprite,Foreground,Centre,"sb\h.png",0,0 C,0,173962,,255,63,16 M,0,173962,174962,173,360 F,0,173962,174962,0.7,0 S,0,173962,174962,0.5,0.7 R,0,173962,174962,0 P,0,173962,174962,A
Sprite,Foreground,Centre,"sb\h.png",0,0 C,0,174034,,255,6,70 M,0,174034,175034,158,331 F,0,174034,175034,0.7,0 S,0,174034,175034,0.5,0.7 R,0,174034,175034,0 P,0,174034,175034,A
Sprite,Foreground,Centre,"sb\h.png",0,0 C,0,174106,,255,46,50 M,0,174106,175106,163,293 F,0,174106,175106,0.7,0 S,0,174106,175106,0.5,0.7 R,0,174106,175106,0 P,0,174106,175106,A
Sprite,Foreground,Centre,"sb\h.png",0,0 C,0,174250,,255,20,57 M,0,174250,175250,360,203 F,0,174250,175250,0.7,0 S,0,174250,175250,0.5,0.7 R,0,174250,175250,0 P,0,174250,175250,A
Sprite,Foreground,Centre,"sb\h.png",0,0 C,0,174323,,255,58,69 M,0,174323,175323,347,192 F,0,174323,175323,0.7,0 S,0,174323,175323,0.5,0.7 R,0,174323,175323,0 P,0,174323,175323,A
Sprite,Foreground,Centre,"sb\h.png",0,0 C,0,174539,,255,37,22 M,0,174539,175539,516,182 F,0,174539,175539,0.7,0 S,0,174539,175539,0.5,0.7 R,0,174539,175539,0 P,0,174539,175539,A
Sprite,Foreground,Centre,"sb\h.png",0,0 C,0,174683,,255,61,39 M,0,174683,175683,345,300 F,0,174683,175683,0.7,0 S,0,174683,175683,0.5,0.7 R,0,174683,175683,0 P,0,174683,175683,A
Sprite,Foreground,Centre,"sb\h.png",0,0 C,0,174827,,255,49,33 M,0,174827,175827,480,417 F,0,174827,175827,0.7,0 S,0,174827,175827,0.5,0.7 R,0,174827,175827,0 P,0,174827,175827,A
Sprite,Foreground,Centre,"sb\h.png",0,0 C,0,174972,,255,29,37 M,0,174972,175972,566,359 F,0,174972,175972,0.7,0 S,0,174972,175972,0.5,0.7 R,0,174972,175972,0 P,0,174972,175972,A
Sprite,Foreground,Centre,"sb\h.png",0,0 C,0,175260,,255,1,23 M,0,175260,176260,377,384 F,0,175260,176260,0.7,0 S,0,175260,176260,0.5,0.7 R,0,175260,176260,0 P,0,175260,176260,A
Sprite,Foreground,Centre,"sb\h.png",0,0 C,0,175404,,255,28,11 M,0,175404,176404,211,237 F,0,175404,176404,0.7,0 S,0,175404,176404,0.5,0.7 R,0,175404,176404,0 P,0,175404,176404,A
Sprite,Foreground,Centre,"sb\h.png",0,0 C,0,175693,,255,18,34 M,0,175693,176693,314,280 F,0,175693,176693,0.7,0 S,0,175693,176693,0.5,0.7 R,0,175693,176693,0 P,0,175693,176693,A
Sprite,Foreground,Centre,"sb\h.png",0,0 C,0,175981,,255,35,29 M,0,175981,176981,246,421 F,0,175981,176981,0.7,0 S,0,175981,176981,0.5,0.7 R,0,175981,176981,0 P,0,175981,176981,A
Sprite,Foreground,Centre,"sb\h.png",0,0 C,0,176125,,255,55,41 M,0,176125,177125,381,205 F,0,176125,177125,0.7,0 S,0,176125,177125,0.5,0.7 R,0,176125,177125,0 P,0,176125,177125,A
Sprite,Foreground,Centre,"sb\h.png",0,0 C,0,176414,,255,15,65 M,0,176414,177414,357,56 F,0,176414,177414,0.7,0 S,0,176414,177414,0.5,0.7 R,0,176414,177414,0 P,0,176414,177414,A
Sprite,Foreground,Centre,"sb\h.png",0,0 C,0,176558,,255,21,45 M,0,176558,177558,483,189 F,0,176558,177558,0.7,0 S,0,176558,177558,0.5,0.7 R,0,176558,177558,0 P,0,176558,177558,A
Sprite,Foreground,Centre,"sb\h.png",0,0 C,0,176774,,255,3,2 M,0,176774,177774,570,199 F,0,176774,177774,0.7,0 S,0,176774,177774,0.5,0.7 R,0,176774,177774,0 P,0,176774,177774,A
Sprite,Foreground,Centre,"sb\h.png",0,0 C,0,176847,,255,65,37 M,0,176847,177847,570,199 F,0,176847,177847,0.7,0 S,0,176847,177847,0.5,0.7 R,0,176847,177847,0 P,0,176847,177847,A
Sprite,Foreground,Centre,"sb\h.png",0,0 C,0,176991,,255,41,66 M,0,176991,177991,392,236 F,0,176991,177991,0.7,0 S,0,176991,177991,0.5,0.7 R,0,176991,177991,0 P,0,176991,177991,A
Sprite,Foreground,Centre,"sb\h.png",0,0 C,0,177135,,255,39,20 M,0,177135,178135,569,427 F,0,177135,178135,0.7,0 S,0,177135,178135,0.5,0.7 R,0,177135,178135,0 P,0,177135,178135,A
Sprite,Foreground,Centre,"sb\h.png",0,0 C,0,177207,,255,54,27 M,0,177207,178207,569,427 F,0,177207,178207,0.7,0 S,0,177207,178207,0.5,0.7 R,0,177207,178207,0 P,0,177207,178207,A
Sprite,Foreground,Centre,"sb\h.png",0,0 C,0,177279,,255,38,65 M,0,177279,178279,569,427 F,0,177279,178279,0.7,0 S,0,177279,178279,0.5,0.7 R,0,177279,178279,0 P,0,177279,178279,A
Sprite,Foreground,Centre,"sb\h.png",0,0 C,0,177568,,255,27,23 M,0,177568,178568,419,336 F,0,177568,178568,0.7,0 S,0,177568,178568,0.5,0.7 R,0,177568,178568,0 P,0,177568,178568,A
Sprite,Foreground,Centre,"sb\h.png",0,0 C,0,177712,,255,49,30 M,0,177712,178712,282,187 F,0,177712,178712,0.7,0 S,0,177712,178712,0.5,0.7 R,0,177712,178712,0 P,0,177712,178712,A
Sprite,Foreground,Centre,"sb\h.png",0,0 C,0,177928,,255,53,66 M,0,177928,178928,373,169 F,0,177928,178928,0.7,0 S,0,177928,178928,0.5,0.7 R,0,177928,178928,0 P,0,177928,178928,A
Sprite,Foreground,Centre,"sb\h.png",0,0 C,0,178000,,255,9,58 M,0,178000,179000,373,169 F,0,178000,179000,0.7,0 S,0,178000,179000,0.5,0.7 R,0,178000,179000,0 P,0,178000,179000,A
Sprite,Foreground,Centre,"sb\h.png",0,0 C,0,178145,,255,0,3 M,0,178145,179145,278,306 F,0,178145,179145,0.7,0 S,0,178145,179145,0.5,0.7 R,0,178145,179145,0 P,0,178145,179145,A
Sprite,Foreground,Centre,"sb\h.png",0,0 C,0,178289,,255,68,25 M,0,178289,179289,429,73 F,0,178289,179289,0.7,0 S,0,178289,179289,0.5,0.7 R,0,178289,179289,0 P,0,178289,179289,A
Sprite,Foreground,Centre,"sb\h.png",0,0 C,0,178433,,255,68,39 M,0,178433,179433,218,162 F,0,178433,179433,0.7,0 S,0,178433,179433,0.5,0.7 R,0,178433,179433,0 P,0,178433,179433,A
Sprite,Foreground,Centre,"sb\h.png",0,0 C,0,178577,,255,70,39 M,0,178577,179577,483,281 F,0,178577,179577,0.7,0 S,0,178577,179577,0.5,0.7 R,0,178577,179577,0 P,0,178577,179577,A
Sprite,Foreground,Centre,"sb\h.png",0,0 C,0,178649,,255,35,39 M,0,178649,179649,494,265 F,0,178649,179649,0.7,0 S,0,178649,179649,0.5,0.7 R,0,178649,179649,0 P,0,178649,179649,A
Sprite,Foreground,Centre,"sb\h.png",0,0 C,0,178722,,255,26,26 M,0,178722,179722,491,236 F,0,178722,179722,0.7,0 S,0,178722,179722,0.5,0.7 R,0,178722,179722,0 P,0,178722,179722,A
Sprite,Foreground,Centre,"sb\h.png",0,0 C,0,178866,,255,40,45 M,0,178866,179866,211,250 F,0,178866,179866,0.7,0 S,0,178866,179866,0.5,0.7 R,0,178866,179866,0 P,0,178866,179866,A
Sprite,Foreground,Centre,"sb\h.png",0,0 C,0,179154,,255,19,42 M,0,179154,180154,410,254 F,0,179154,180154,0.7,0 S,0,179154,180154,0.5,0.7 R,0,179154,180154,0 P,0,179154,180154,A
Sprite,Foreground,Centre,"sb\h.png",0,0 C,0,179226,,255,35,53 M,0,179226,180226,410,254 F,0,179226,180226,0.7,0 S,0,179226,180226,0.5,0.7 R,0,179226,180226,0 P,0,179226,180226,A
Sprite,Foreground,Centre,"sb\h.png",0,0 C,0,179298,,255,57,64 M,0,179298,180298,410,254 F,0,179298,180298,0.7,0 S,0,179298,180298,0.5,0.7 R,0,179298,180298,0 P,0,179298,180298,A
Sprite,Foreground,Centre,"sb\h.png",0,0 C,0,179443,,255,13,46 M,0,179443,180443,124,153 F,0,179443,180443,0.7,0 S,0,179443,180443,0.5,0.7 R,0,179443,180443,0 P,0,179443,180443,A
Sprite,Foreground,Centre,"sb\h.png",0,0 C,0,179587,,255,64,6 M,0,179587,180587,278,179 F,0,179587,180587,0.7,0 S,0,179587,180587,0.5,0.7 R,0,179587,180587,0 P,0,179587,180587,A
Sprite,Foreground,Centre,"sb\h.png",0,0 C,0,179875,,255,68,5 M,0,179875,180875,96,348 F,0,179875,180875,0.7,0 S,0,179875,180875,0.5,0.7 R,0,179875,180875,0 P,0,179875,180875,A
Sprite,Foreground,Centre,"sb\h.png",0,0 C,0,180164,,255,44,33 M,0,180164,181164,306,56 F,0,180164,181164,0.7,0 S,0,180164,181164,0.5,0.7 R,0,180164,181164,0 P,0,180164,181164,A
Sprite,Foreground,Centre,"sb\h.png",0,0 C,0,180452,,255,52,63 M,0,180452,181452,555,63 F,0,180452,181452,0.7,0 S,0,180452,181452,0.5,0.7 R,0,180452,181452,0 P,0,180452,181452,A
Sprite,Foreground,Centre,"sb\h.png",0,0 C,0,180741,,255,67,55 M,0,180741,181741,360,422 F,0,180741,181741,0.7,0 S,0,180741,181741,0.5,0.7 R,0,180741,181741,0 P,0,180741,181741,A
Sprite,Foreground,Centre,"sb\h.png",0,0 C,0,181029,,255,46,56 M,0,181029,182029,366,253 F,0,181029,182029,0.7,0 S,0,181029,182029,0.5,0.7 R,0,181029,182029,0 P,0,181029,182029,A
Sprite,Foreground,Centre,"sb\h.png",0,0 C,0,181173,,255,59,31 M,0,181173,182173,513,376 F,0,181173,182173,0.7,0 S,0,181173,182173,0.5,0.7 R,0,181173,182173,0 P,0,181173,182173,A
Sprite,Foreground,Centre,"sb\h.png",0,0 C,0,181246,,255,12,60 M,0,181246,182246,513,376 F,0,181246,182246,0.7,0 S,0,181246,182246,0.5,0.7 R,0,181246,182246,0 P,0,181246,182246,A
Sprite,Foreground,Centre,"sb\h.png",0,0 C,0,181318,,255,14,70 M,0,181318,182318,513,376 F,0,181318,182318,0.7,0 S,0,181318,182318,0.5,0.7 R,0,181318,182318,0 P,0,181318,182318,A
Sprite,Foreground,Centre,"sb\h.png",0,0 C,0,181462,,255,21,40 M,0,181462,182462,439,212 F,0,181462,182462,0.7,0 S,0,181462,182462,0.5,0.7 R,0,181462,182462,0 P,0,181462,182462,A
Sprite,Foreground,Centre,"sb\h.png",0,0 C,0,181606,,255,48,0 M,0,181606,182606,333,425 F,0,181606,182606,0.7,0 S,0,181606,182606,0.5,0.7 R,0,181606,182606,0 P,0,181606,182606,A
Sprite,Foreground,Centre,"sb\h.png",0,0 C,0,181750,,255,31,55 M,0,181750,182750,359,158 F,0,181750,182750,0.7,0 S,0,181750,182750,0.5,0.7 R,0,181750,182750,0 P,0,181750,182750,A
Sprite,Foreground,Centre,"sb\h.png",0,0 C,0,182039,,255,65,17 M,0,182039,183039,552,184 F,0,182039,183039,0.7,0 S,0,182039,183039,0.5,0.7 R,0,182039,183039,0 P,0,182039,183039,A
Sprite,Foreground,Centre,"sb\h.png",0,0 C,0,182111,,255,56,0 M,0,182111,183111,552,184 F,0,182111,183111,0.7,0 S,0,182111,183111,0.5,0.7 R,0,182111,183111,0 P,0,182111,183111,A
Sprite,Foreground,Centre,"sb\h.png",0,0 C,0,182183,,255,62,40 M,0,182183,183183,552,184 F,0,182183,183183,0.7,0 S,0,182183,183183,0.5,0.7 R,0,182183,183183,0 P,0,182183,183183,A
Sprite,Foreground,Centre,"sb\h.png",0,0 C,0,182327,,255,60,18 M,0,182327,183327,300,254 F,0,182327,183327,0.7,0 S,0,182327,183327,0.5,0.7 R,0,182327,183327,0 P,0,182327,183327,A
Sprite,Foreground,Centre,"sb\h.png",0,0 C,0,182616,,255,15,25 M,0,182616,183616,94,280 F,0,182616,183616,0.7,0 S,0,182616,183616,0.5,0.7 R,0,182616,183616,0 P,0,182616,183616,A
Sprite,Foreground,Centre,"sb\h.png",0,0 C,0,182760,,255,22,30 M,0,182760,183760,282,344 F,0,182760,183760,0.7,0 S,0,182760,183760,0.5,0.7 R,0,182760,183760,0 P,0,182760,183760,A
Sprite,Foreground,Centre,"sb\h.png",0,0 C,0,182904,,255,71,12 M,0,182904,183904,418,56 F,0,182904,183904,0.7,0 S,0,182904,183904,0.5,0.7 R,0,182904,183904,0 P,0,182904,183904,A
Sprite,Foreground,Centre,"sb\h.png",0,0 C,0,183193,,255,14,43 M,0,183193,184193,461,303 F,0,183193,184193,0.7,0 S,0,183193,184193,0.5,0.7 R,0,183193,184193,0 P,0,183193,184193,A
Sprite,Foreground,Centre,"sb\h.png",0,0 C,0,183265,,255,69,7 M,0,183265,184265,466,292 F,0,183265,184265,0.7,0 S,0,183265,184265,0.5,0.7 R,0,183265,184265,0 P,0,183265,184265,A
Sprite,Foreground,Centre,"sb\h.png",0,0 C,0,183337,,255,45,54 M,0,183337,184337,473,280 F,0,183337,184337,0.7,0 S,0,183337,184337,0.5,0.7 R,0,183337,184337,0 P,0,183337,184337,A
Sprite,Foreground,Centre,"sb\h.png",0,0 C,0,183625,,255,9,29 M,0,183625,184625,310,418 F,0,183625,184625,0.7,0 S,0,183625,184625,0.5,0.7 R,0,183625,184625,0 P,0,183625,184625,A
Sprite,Foreground,Centre,"sb\h.png",0,0 C,0,183770,,255,6,57 M,0,183770,184770,533,332 F,0,183770,184770,0.7,0 S,0,183770,184770,0.5,0.7 R,0,183770,184770,0 P,0,183770,184770,A
Sprite,Foreground,Centre,"sb\h.png",0,0 C,0,165741,,255,53,2 M,0,165741,166741,257,84 F,0,165741,166741,0.7,0 S,0,165741,166741,0.5,0.7 R,0,165741,166741,0 P,0,165741,166741,A
Sprite,Foreground,Centre,"sb\h.png",0,0 C,0,166029,,255,22,53 M,0,166029,167029,348,185 F,0,166029,167029,0.7,0 S,0,166029,167029,0.5,0.7 R,0,166029,167029,0 P,0,166029,167029,A
Sprite,Foreground,Centre,"sb\h.png",0,0 C,0,166173,,255,28,32 M,0,166173,167173,526,291 F,0,166173,167173,0.7,0 S,0,166173,167173,0.5,0.7 R,0,166173,167173,0 P,0,166173,167173,A
Sprite,Foreground,Centre,"sb\h.png",0,0 C,0,166462,,255,13,59 M,0,166462,167462,357,388 F,0,166462,167462,0.7,0 S,0,166462,167462,0.5,0.7 R,0,166462,167462,0 P,0,166462,167462,A
Sprite,Foreground,Centre,"sb\h.png",0,0 C,0,166606,,255,21,27 M,0,166606,167606,572,184 F,0,166606,167606,0.7,0 S,0,166606,167606,0.5,0.7 R,0,166606,167606,0 P,0,166606,167606,A
Sprite,Foreground,Centre,"sb\h.png",0,0 C,0,166895,,255,52,41 M,0,166895,167895,336,263 F,0,166895,167895,0.7,0 S,0,166895,167895,0.5,0.7 R,0,166895,167895,0 P,0,166895,167895,A
Sprite,Foreground,Centre,"sb\h.png",0,0 C,0,167039,,255,47,40 M,0,167039,168039,426,440 F,0,167039,168039,0.7,0 S,0,167039,168039,0.5,0.7 R,0,167039,168039,0 P,0,167039,168039,A
Sprite,Foreground,Centre,"sb\h.png",0,0 C,0,167111,,255,24,69 M,0,167111,168111,436,419 F,0,167111,168111,0.7,0 S,0,167111,168111,0.5,0.7 R,0,167111,168111,0 P,0,167111,168111,A
Sprite,Foreground,Centre,"sb\h.png",0,0 C,0,167183,,255,14,17 M,0,167183,168183,434,392 F,0,167183,168183,0.7,0 S,0,167183,168183,0.5,0.7 R,0,167183,168183,0 P,0,167183,168183,A
Sprite,Foreground,Centre,"sb\h.png",0,0 C,0,167327,,255,25,32 M,0,167327,168327,265,212 F,0,167327,168327,0.7,0 S,0,167327,168327,0.5,0.7 R,0,167327,168327,0 P,0,167327,168327,A
Sprite,Foreground,Centre,"sb\h.png",0,0 C,0,167616,,255,62,57 M,0,167616,168616,323,407 F,0,167616,168616,0.7,0 S,0,167616,168616,0.5,0.7 R,0,167616,168616,0 P,0,167616,168616,A
Sprite,Foreground,Centre,"sb\h.png",0,0 C,0,167760,,255,19,6 M,0,167760,168760,265,212 F,0,167760,168760,0.7,0 S,0,167760,168760,0.5,0.7 R,0,167760,168760,0 P,0,167760,168760,A
Sprite,Foreground,Centre,"sb\h.png",0,0 C,0,167904,,255,28,17 M,0,167904,168904,113,357 F,0,167904,168904,0.7,0 S,0,167904,168904,0.5,0.7 R,0,167904,168904,0 P,0,167904,168904,A
Sprite,Foreground,Centre,"sb\h.png",0,0 C,0,167976,,255,23,67 M,0,167976,168976,113,357 F,0,167976,168976,0.7,0 S,0,167976,168976,0.5,0.7 R,0,167976,168976,0 P,0,167976,168976,A
Sprite,Foreground,Centre,"sb\h.png",0,0 C,0,168048,,255,7,22 M,0,168048,169048,113,357 F,0,168048,169048,0.7,0 S,0,168048,169048,0.5,0.7 R,0,168048,169048,0 P,0,168048,169048,A
Sprite,Foreground,Centre,"sb\h.png",0,0 C,0,168337,,255,12,28 M,0,168337,169337,279,311 F,0,168337,169337,0.7,0 S,0,168337,169337,0.5,0.7 R,0,168337,169337,0 P,0,168337,169337,A
Sprite,Foreground,Centre,"sb\h.png",0,0 C,0,168481,,255,10,12 M,0,168481,169481,512,155 F,0,168481,169481,0.7,0 S,0,168481,169481,0.5,0.7 R,0,168481,169481,0 P,0,168481,169481,A
Sprite,Foreground,Centre,"sb\h.png",0,0 C,0,168698,,255,14,68 M,0,168698,169698,427,122 F,0,168698,169698,0.7,0 S,0,168698,169698,0.5,0.7 R,0,168698,169698,0 P,0,168698,169698,A
Sprite,Foreground,Centre,"sb\h.png",0,0 C,0,168770,,255,61,38 M,0,168770,169770,427,122 F,0,168770,169770,0.7,0 S,0,168770,169770,0.5,0.7 R,0,168770,169770,0 P,0,168770,169770,A
Sprite,Foreground,Centre,"sb\h.png",0,0 C,0,168914,,255,55,57 M,0,168914,169914,514,293 F,0,168914,169914,0.7,0 S,0,168914,169914,0.5,0.7 R,0,168914,169914,0 P,0,168914,169914,A
Sprite,Foreground,Centre,"sb\h.png",0,0 C,0,169058,,255,60,14 M,0,169058,170058,319,141 F,0,169058,170058,0.7,0 S,0,169058,170058,0.5,0.7 R,0,169058,170058,0 P,0,169058,170058,A
Sprite,Foreground,Centre,"sb\h.png",0,0 C,0,169202,,255,55,18 M,0,169202,170202,519,172 F,0,169202,170202,0.7,0 S,0,169202,170202,0.5,0.7 R,0,169202,170202,0 P,0,169202,170202,A
Sprite,Foreground,Centre,"sb\h.png",0,0 C,0,169347,,255,24,52 M,0,169347,170347,347,286 F,0,169347,170347,0.7,0 S,0,169347,170347,0.5,0.7 R,0,169347,170347,0 P,0,169347,170347,A
Sprite,Foreground,Centre,"sb\h.png",0,0 C,0,169635,,255,61,51 M,0,169635,170635,567,398 F,0,169635,170635,0.7,0 S,0,169635,170635,0.5,0.7 R,0,169635,170635,0 P,0,169635,170635,A
Sprite,Foreground,Centre,"sb\h.png",0,0 C,0,169923,,255,25,23 M,0,169923,170923,341,391 F,0,169923,170923,0.7,0 S,0,169923,170923,0.5,0.7 R,0,169923,170923,0 P,0,169923,170923,A
Sprite,Foreground,Centre,"sb\h.png",0,0 C,0,170212,,255,53,16 M,0,170212,171212,374,272 F,0,170212,171212,0.7,0 S,0,170212,171212,0.5,0.7 R,0,170212,171212,0 P,0,170212,171212,A
Sprite,Foreground,Centre,"sb\h.png",0,0 C,0,170356,,255,19,16 M,0,170356,171356,279,315 F,0,170356,171356,0.7,0 S,0,170356,171356,0.5,0.7 R,0,170356,171356,0 P,0,170356,171356,A
Sprite,Foreground,Centre,"sb\h.png",0,0 C,0,170645,,255,5,11 M,0,170645,171645,127,292 F,0,170645,171645,0.7,0 S,0,170645,171645,0.5,0.7 R,0,170645,171645,0 P,0,170645,171645,A
Sprite,Foreground,Centre,"sb\h.png",0,0 C,0,170933,,255,34,36 M,0,170933,171933,325,386 F,0,170933,171933,0.7,0 S,0,170933,171933,0.5,0.7 R,0,170933,171933,0 P,0,170933,171933,A
Sprite,Foreground,Centre,"sb\h.png",0,0 C,0,171222,,255,65,50 M,0,171222,172222,556,440 F,0,171222,172222,0.7,0 S,0,171222,172222,0.5,0.7 R,0,171222,172222,0 P,0,171222,172222,A
Sprite,Foreground,Centre,"sb\h.png",0,0 C,0,171510,,255,35,31 M,0,171510,172510,415,168 F,0,171510,172510,0.7,0 S,0,171510,172510,0.5,0.7 R,0,171510,172510,0 P,0,171510,172510,A
Sprite,Foreground,Centre,"sb\h.png",0,0 C,0,171654,,255,35,60 M,0,171654,172654,321,255 F,0,171654,172654,0.7,0 S,0,171654,172654,0.5,0.7 R,0,171654,172654,0 P,0,171654,172654,A
Sprite,Foreground,Centre,"sb\h.png",0,0 C,0,171943,,255,12,58 M,0,171943,172943,510,110 F,0,171943,172943,0.7,0 S,0,171943,172943,0.5,0.7 R,0,171943,172943,0 P,0,171943,172943,A
Sprite,Foreground,Centre,"sb\h.png",0,0 C,0,172231,,255,51,21 M,0,172231,173231,538,300 F,0,172231,173231,0.7,0 S,0,172231,173231,0.5,0.7 R,0,172231,173231,0 P,0,172231,173231,A
Sprite,Foreground,Centre,"sb\h.png",0,0 C,0,172375,,255,36,5 M,0,172375,173375,417,126 F,0,172375,173375,0.7,0 S,0,172375,173375,0.5,0.7 R,0,172375,173375,0 P,0,172375,173375,A
Sprite,Foreground,Centre,"sb\h.png",0,0 C,0,172520,,255,51,61 M,0,172520,173520,550,246 F,0,172520,173520,0.7,0 S,0,172520,173520,0.5,0.7 R,0,172520,173520,0 P,0,172520,173520,A
Sprite,Foreground,Centre,"sb\h.png",0,0 C,0,172808,,255,46,23 M,0,172808,173808,370,281 F,0,172808,173808,0.7,0 S,0,172808,173808,0.5,0.7 R,0,172808,173808,0 P,0,172808,173808,A
Sprite,Foreground,Centre,"sb\h.png",0,0 C,0,172952,,255,63,43 M,0,172952,173952,248,140 F,0,172952,173952,0.7,0 S,0,172952,173952,0.5,0.7 R,0,172952,173952,0 P,0,172952,173952,A
Sprite,Foreground,Centre,"sb\h.png",0,0 C,0,173097,,255,9,37 M,0,173097,174097,338,387 F,0,173097,174097,0.7,0 S,0,173097,174097,0.5,0.7 R,0,173097,174097,0 P,0,173097,174097,A
Sprite,Foreground,Centre,"sb\h.png",0,0 C,0,173241,,255,54,67 M,0,173241,174241,215,420 F,0,173241,174241,0.7,0 S,0,173241,174241,0.5,0.7 R,0,173241,174241,0 P,0,173241,174241,A
Sprite,Foreground,Centre,"sb\h.png",0,0 C,0,173385,,255,68,68 M,0,173385,174385,348,181 F,0,173385,174385,0.7,0 S,0,173385,174385,0.5,0.7 R,0,173385,174385,0 P,0,173385,174385,A
Sprite,Foreground,Centre,"sb\h.png",0,0 C,0,173529,,255,69,69 M,0,173529,174529,386,297 F,0,173529,174529,0.7,0 S,0,173529,174529,0.5,0.7 R,0,173529,174529,0 P,0,173529,174529,A
Sprite,Foreground,Centre,"sb\h.png",0,0 C,0,173673,,255,32,20 M,0,173673,174673,171,195 F,0,173673,174673,0.7,0 S,0,173673,174673,0.5,0.7 R,0,173673,174673,0 P,0,173673,174673,A
Sprite,Foreground,Centre,"sb\h.png",0,0 C,0,173818,,255,23,8 M,0,173818,174818,339,91 F,0,173818,174818,0.7,0 S,0,173818,174818,0.5,0.7 R,0,173818,174818,0 P,0,173818,174818,A
Sprite,Foreground,Centre,"sb\h.png",0,0 C,0,173962,,255,26,50 M,0,173962,174962,173,360 F,0,173962,174962,0.7,0 S,0,173962,174962,0.5,0.7 R,0,173962,174962,0 P,0,173962,174962,A
Sprite,Foreground,Centre,"sb\h.png",0,0 C,0,174034,,255,46,18 M,0,174034,175034,158,331 F,0,174034,175034,0.7,0 S,0,174034,175034,0.5,0.7 R,0,174034,175034,0 P,0,174034,175034,A
Sprite,Foreground,Centre,"sb\h.png",0,0 C,0,174106,,255,39,30 M,0,174106,175106,163,293 F,0,174106,175106,0.7,0 S,0,174106,175106,0.5,0.7 R,0,174106,175106,0 P,0,174106,175106,A
Sprite,Foreground,Centre,"sb\h.png",0,0 C,0,174250,,255,46,24 M,0,174250,175250,360,203 F,0,174250,175250,0.7,0 S,0,174250,175250,0.5,0.7 R,0,174250,175250,0 P,0,174250,175250,A
Sprite,Foreground,Centre,"sb\h.png",0,0 C,0,174323,,255,59,0 M,0,174323,175323,347,192 F,0,174323,175323,0.7,0 S,0,174323,175323,0.5,0.7 R,0,174323,175323,0 P,0,174323,175323,A
Sprite,Foreground,Centre,"sb\h.png",0,0 C,0,174539,,255,19,48 M,0,174539,175539,516,182 F,0,174539,175539,0.7,0 S,0,174539,175539,0.5,0.7 R,0,174539,175539,0 P,0,174539,175539,A
Sprite,Foreground,Centre,"sb\h.png",0,0 C,0,174683,,255,1,50 M,0,174683,175683,345,300 F,0,174683,175683,0.7,0 S,0,174683,175683,0.5,0.7 R,0,174683,175683,0 P,0,174683,175683,A
Sprite,Foreground,Centre,"sb\h.png",0,0 C,0,174827,,255,49,37 M,0,174827,175827,480,417 F,0,174827,175827,0.7,0 S,0,174827,175827,0.5,0.7 R,0,174827,175827,0 P,0,174827,175827,A
Sprite,Foreground,Centre,"sb\h.png",0,0 C,0,174972,,255,25,35 M,0,174972,175972,566,359 F,0,174972,175972,0.7,0 S,0,174972,175972,0.5,0.7 R,0,174972,175972,0 P,0,174972,175972,A
Sprite,Foreground,Centre,"sb\h.png",0,0 C,0,175260,,255,18,47 M,0,175260,176260,377,384 F,0,175260,176260,0.7,0 S,0,175260,176260,0.5,0.7 R,0,175260,176260,0 P,0,175260,176260,A
Sprite,Foreground,Centre,"sb\h.png",0,0 C,0,175404,,255,53,44 M,0,175404,176404,211,237 F,0,175404,176404,0.7,0 S,0,175404,176404,0.5,0.7 R,0,175404,176404,0 P,0,175404,176404,A
Sprite,Foreground,Centre,"sb\h.png",0,0 C,0,175693,,255,45,45 M,0,175693,176693,314,280 F,0,175693,176693,0.7,0 S,0,175693,176693,0.5,0.7 R,0,175693,176693,0 P,0,175693,176693,A
Sprite,Foreground,Centre,"sb\h.png",0,0 C,0,175981,,255,34,70 M,0,175981,176981,246,421 F,0,175981,176981,0.7,0 S,0,175981,176981,0.5,0.7 R,0,175981,176981,0 P,0,175981,176981,A
Sprite,Foreground,Centre,"sb\h.png",0,0 C,0,176125,,255,12,37 M,0,176125,177125,381,205 F,0,176125,177125,0.7,0 S,0,176125,177125,0.5,0.7 R,0,176125,177125,0 P,0,176125,177125,A
Sprite,Foreground,Centre,"sb\h.png",0,0 C,0,176414,,255,3,12 M,0,176414,177414,357,56 F,0,176414,177414,0.7,0 S,0,176414,177414,0.5,0.7 R,0,176414,177414,0 P,0,176414,177414,A
Sprite,Foreground,Centre,"sb\h.png",0,0 C,0,176558,,255,64,1 M,0,176558,177558,483,189 F,0,176558,177558,0.7,0 S,0,176558,177558,0.5,0.7 R,0,176558,177558,0 P,0,176558,177558,A
Sprite,Foreground,Centre,"sb\h.png",0,0 C,0,176774,,255,60,17 M,0,176774,177774,570,199 F,0,176774,177774,0.7,0 S,0,176774,177774,0.5,0.7 R,0,176774,177774,0 P,0,176774,177774,A
Sprite,Foreground,Centre,"sb\h.png",0,0 C,0,176847,,255,47,68 M,0,176847,177847,570,199 F,0,176847,177847,0.7,0 S,0,176847,177847,0.5,0.7 R,0,176847,177847,0 P,0,176847,177847,A
Sprite,Foreground,Centre,"sb\h.png",0,0 C,0,176991,,255,7,36 M,0,176991,177991,392,236 F,0,176991,177991,0.7,0 S,0,176991,177991,0.5,0.7 R,0,176991,177991,0 P,0,176991,177991,A
Sprite,Foreground,Centre,"sb\h.png",0,0 C,0,177135,,255,33,16 M,0,177135,178135,569,427 F,0,177135,178135,0.7,0 S,0,177135,178135,0.5,0.7 R,0,177135,178135,0 P,0,177135,178135,A
Sprite,Foreground,Centre,"sb\h.png",0,0 C,0,177207,,255,69,9 M,0,177207,178207,569,427 F,0,177207,178207,0.7,0 S,0,177207,178207,0.5,0.7 R,0,177207,178207,0 P,0,177207,178207,A
Sprite,Foreground,Centre,"sb\h.png",0,0 C,0,177279,,255,19,54 M,0,177279,178279,569,427 F,0,177279,178279,0.7,0 S,0,177279,178279,0.5,0.7 R,0,177279,178279,0 P,0,177279,178279,A
Sprite,Foreground,Centre,"sb\h.png",0,0 C,0,177568,,255,14,51 M,0,177568,178568,419,336 F,0,177568,178568,0.7,0 S,0,177568,178568,0.5,0.7 R,0,177568,178568,0 P,0,177568,178568,A
Sprite,Foreground,Centre,"sb\h.png",0,0 C,0,177712,,255,36,53 M,0,177712,178712,282,187 F,0,177712,178712,0.7,0 S,0,177712,178712,0.5,0.7 R,0,177712,178712,0 P,0,177712,178712,A
Sprite,Foreground,Centre,"sb\h.png",0,0 C,0,177928,,255,1,34 M,0,177928,178928,373,169 F,0,177928,178928,0.7,0 S,0,177928,178928,0.5,0.7 R,0,177928,178928,0 P,0,177928,178928,A
Sprite,Foreground,Centre,"sb\h.png",0,0 C,0,178000,,255,59,28 M,0,178000,179000,373,169 F,0,178000,179000,0.7,0 S,0,178000,179000,0.5,0.7 R,0,178000,179000,0 P,0,178000,179000,A
Sprite,Foreground,Centre,"sb\h.png",0,0 C,0,178145,,255,53,36 M,0,178145,179145,278,306 F,0,178145,179145,0.7,0 S,0,178145,179145,0.5,0.7 R,0,178145,179145,0 P,0,178145,179145,A
Sprite,Foreground,Centre,"sb\h.png",0,0 C,0,178289,,255,35,43 M,0,178289,179289,429,73 F,0,178289,179289,0.7,0 S,0,178289,179289,0.5,0.7 R,0,178289,179289,0 P,0,178289,179289,A
Sprite,Foreground,Centre,"sb\h.png",0,0 C,0,178433,,255,27,66 M,0,178433,179433,218,162 F,0,178433,179433,0.7,0 S,0,178433,179433,0.5,0.7 R,0,178433,179433,0 P,0,178433,179433,A
Sprite,Foreground,Centre,"sb\h.png",0,0 C,0,178577,,255,19,37 M,0,178577,179577,483,281 F,0,178577,179577,0.7,0 S,0,178577,179577,0.5,0.7 R,0,178577,179577,0 P,0,178577,179577,A
Sprite,Foreground,Centre,"sb\h.png",0,0 C,0,178649,,255,23,20 M,0,178649,179649,494,265 F,0,178649,179649,0.7,0 S,0,178649,179649,0.5,0.7 R,0,178649,179649,0 P,0,178649,179649,A
Sprite,Foreground,Centre,"sb\h.png",0,0 C,0,178722,,255,16,28 M,0,178722,179722,491,236 F,0,178722,179722,0.7,0 S,0,178722,179722,0.5,0.7 R,0,178722,179722,0 P,0,178722,179722,A
Sprite,Foreground,Centre,"sb\h.png",0,0 C,0,178866,,255,62,1 M,0,178866,179866,211,250 F,0,178866,179866,0.7,0 S,0,178866,179866,0.5,0.7 R,0,178866,179866,0 P,0,178866,179866,A
Sprite,Foreground,Centre,"sb\h.png",0,0 C,0,179154,,255,32,24 M,0,179154,180154,410,254 F,0,179154,180154,0.7,0 S,0,179154,180154,0.5,0.7 R,0,179154,180154,0 P,0,179154,180154,A
Sprite,Foreground,Centre,"sb\h.png",0,0 C,0,179226,,255,70,35 M,0,179226,180226,410,254 F,0,179226,180226,0.7,0 S,0,179226,180226,0.5,0.7 R,0,179226,180226,0 P,0,179226,180226,A
Sprite,Foreground,Centre,"sb\h.png",0,0 C,0,179298,,255,23,4 M,0,179298,180298,410,254 F,0,179298,180298,0.7,0 S,0,179298,180298,0.5,0.7 R,0,179298,180298,0 P,0,179298,180298,A
Sprite,Foreground,Centre,"sb\h.png",0,0 C,0,179443,,255,38,47 M,0,179443,180443,124,153 F,0,179443,180443,0.7,0 S,0,179443,180443,0.5,0.7 R,0,179443,180443,0 P,0,179443,180443,A
Sprite,Foreground,Centre,"sb\h.png",0,0 C,0,179587,,255,36,65 M,0,179587,180587,278,179 F,0,179587,180587,0.7,0 S,0,179587,180587,0.5,0.7 R,0,179587,180587,0 P,0,179587,180587,A
Sprite,Foreground,Centre,"sb\h.png",0,0 C,0,179875,,255,66,0 M,0,179875,180875,96,348 F,0,179875,180875,0.7,0 S,0,179875,180875,0.5,0.7 R,0,179875,180875,0 P,0,179875,180875,A
Sprite,Foreground,Centre,"sb\h.png",0,0 C,0,180164,,255,64,0 M,0,180164,181164,306,56 F,0,180164,181164,0.7,0 S,0,180164,181164,0.5,0.7 R,0,180164,181164,0 P,0,180164,181164,A
Sprite,Foreground,Centre,"sb\h.png",0,0 C,0,180452,,255,67,43 M,0,180452,181452,555,63 F,0,180452,181452,0.7,0 S,0,180452,181452,0.5,0.7 R,0,180452,181452,0 P,0,180452,181452,A
Sprite,Foreground,Centre,"sb\h.png",0,0 C,0,180741,,255,48,7 M,0,180741,181741,360,422 F,0,180741,181741,0.7,0 S,0,180741,181741,0.5,0.7 R,0,180741,181741,0 P,0,180741,181741,A
Sprite,Foreground,Centre,"sb\h.png",0,0 C,0,181029,,255,41,5 M,0,181029,182029,366,253 F,0,181029,182029,0.7,0 S,0,181029,182029,0.5,0.7 R,0,181029,182029,0 P,0,181029,182029,A
Sprite,Foreground,Centre,"sb\h.png",0,0 C,0,181173,,255,4,36 M,0,181173,182173,513,376 F,0,181173,182173,0.7,0 S,0,181173,182173,0.5,0.7 R,0,181173,182173,0 P,0,181173,182173,A
Sprite,Foreground,Centre,"sb\h.png",0,0 C,0,181246,,255,46,64 M,0,181246,182246,513,376 F,0,181246,182246,0.7,0 S,0,181246,182246,0.5,0.7 R,0,181246,182246,0 P,0,181246,182246,A
Sprite,Foreground,Centre,"sb\h.png",0,0 C,0,181318,,255,22,24 M,0,181318,182318,513,376 F,0,181318,182318,0.7,0 S,0,181318,182318,0.5,0.7 R,0,181318,182318,0 P,0,181318,182318,A
Sprite,Foreground,Centre,"sb\h.png",0,0 C,0,181462,,255,64,55 M,0,181462,182462,439,212 F,0,181462,182462,0.7,0 S,0,181462,182462,0.5,0.7 R,0,181462,182462,0 P,0,181462,182462,A
Sprite,Foreground,Centre,"sb\h.png",0,0 C,0,181606,,255,65,46 M,0,181606,182606,333,425 F,0,181606,182606,0.7,0 S,0,181606,182606,0.5,0.7 R,0,181606,182606,0 P,0,181606,182606,A
Sprite,Foreground,Centre,"sb\h.png",0,0 C,0,181750,,255,7,70 M,0,181750,182750,359,158 F,0,181750,182750,0.7,0 S,0,181750,182750,0.5,0.7 R,0,181750,182750,0 P,0,181750,182750,A
Sprite,Foreground,Centre,"sb\h.png",0,0 C,0,182039,,255,13,16 M,0,182039,183039,552,184 F,0,182039,183039,0.7,0 S,0,182039,183039,0.5,0.7 R,0,182039,183039,0 P,0,182039,183039,A
Sprite,Foreground,Centre,"sb\h.png",0,0 C,0,182111,,255,52,57 M,0,182111,183111,552,184 F,0,182111,183111,0.7,0 S,0,182111,183111,0.5,0.7 R,0,182111,183111,0 P,0,182111,183111,A
Sprite,Foreground,Centre,"sb\h.png",0,0 C,0,182183,,255,52,43 M,0,182183,183183,552,184 F,0,182183,183183,0.7,0 S,0,182183,183183,0.5,0.7 R,0,182183,183183,0 P,0,182183,183183,A
Sprite,Foreground,Centre,"sb\h.png",0,0 C,0,182327,,255,17,37 M,0,182327,183327,300,254 F,0,182327,183327,0.7,0 S,0,182327,183327,0.5,0.7 R,0,182327,183327,0 P,0,182327,183327,A
Sprite,Foreground,Centre,"sb\h.png",0,0 C,0,182616,,255,25,48 M,0,182616,183616,94,280 F,0,182616,183616,0.7,0 S,0,182616,183616,0.5,0.7 R,0,182616,183616,0 P,0,182616,183616,A
Sprite,Foreground,Centre,"sb\h.png",0,0 C,0,182760,,255,38,25 M,0,182760,183760,282,344 F,0,182760,183760,0.7,0 S,0,182760,183760,0.5,0.7 R,0,182760,183760,0 P,0,182760,183760,A
Sprite,Foreground,Centre,"sb\h.png",0,0 C,0,182904,,255,60,3 M,0,182904,183904,418,56 F,0,182904,183904,0.7,0 S,0,182904,183904,0.5,0.7 R,0,182904,183904,0 P,0,182904,183904,A
Sprite,Foreground,Centre,"sb\h.png",0,0 C,0,183193,,255,26,16 M,0,183193,184193,461,303 F,0,183193,184193,0.7,0 S,0,183193,184193,0.5,0.7 R,0,183193,184193,0 P,0,183193,184193,A
Sprite,Foreground,Centre,"sb\h.png",0,0 C,0,183265,,255,49,47 M,0,183265,184265,466,292 F,0,183265,184265,0.7,0 S,0,183265,184265,0.5,0.7 R,0,183265,184265,0 P,0,183265,184265,A
Sprite,Foreground,Centre,"sb\h.png",0,0 C,0,183337,,255,9,28 M,0,183337,184337,473,280 F,0,183337,184337,0.7,0 S,0,183337,184337,0.5,0.7 R,0,183337,184337,0 P,0,183337,184337,A
Sprite,Foreground,Centre,"sb\h.png",0,0 C,0,183625,,255,17,60 M,0,183625,184625,310,418 F,0,183625,184625,0.7,0 S,0,183625,184625,0.5,0.7 R,0,183625,184625,0 P,0,183625,184625,A
Sprite,Foreground,Centre,"sb\h.png",0,0 C,0,183770,,255,33,19 M,0,183770,184770,533,332 F,0,183770,184770,0.7,0 S,0,183770,184770,0.5,0.7 R,0,183770,184770,0 P,0,183770,184770,A
Sprite,Foreground,Centre,"sb\h.png",0,0 C,0,193433,,255,31,63 M,0,193433,194433,576,189 F,0,193433,194433,0.7,0 S,0,193433,194433,0.5,0.7 R,0,193433,194433,0 P,0,193433,194433,A
Sprite,Foreground,Centre,"sb\h.png",0,0 C,0,193722,,255,49,64 M,0,193722,194722,522,352 F,0,193722,194722,0.7,0 S,0,193722,194722,0.5,0.7 R,0,193722,194722,0 P,0,193722,194722,A
Sprite,Foreground,Centre,"sb\h.png",0,0 C,0,194010,,255,46,69 M,0,194010,195010,379,303 F,0,194010,195010,0.7,0 S,0,194010,195010,0.5,0.7 R,0,194010,195010,0 P,0,194010,195010,A
Sprite,Foreground,Centre,"sb\h.png",0,0 C,0,194226,,255,27,48 M,0,194226,195226,159,90 F,0,194226,195226,0.7,0 S,0,194226,195226,0.5,0.7 R,0,194226,195226,0 P,0,194226,195226,A
Sprite,Foreground,Centre,"sb\h.png",0,0 C,0,194298,,255,27,40 M,0,194298,195298,165,92 F,0,194298,195298,0.7,0 S,0,194298,195298,0.5,0.7 R,0,194298,195298,0 P,0,194298,195298,A
Sprite,Foreground,Centre,"sb\h.png",0,0 C,0,194443,,255,35,67 M,0,194443,195443,298,120 F,0,194443,195443,0.7,0 S,0,194443,195443,0.5,0.7 R,0,194443,195443,0 P,0,194443,195443,A
Sprite,Foreground,Centre,"sb\h.png",0,0 C,0,194587,,255,67,50 M,0,194587,195587,88,176 F,0,194587,195587,0.7,0 S,0,194587,195587,0.5,0.7 R,0,194587,195587,0 P,0,194587,195587,A
Sprite,Foreground,Centre,"sb\h.png",0,0 C,0,194803,,255,20,38 M,0,194803,195803,162,286 F,0,194803,195803,0.7,0 S,0,194803,195803,0.5,0.7 R,0,194803,195803,0 P,0,194803,195803,A
Sprite,Foreground,Centre,"sb\h.png",0,0 C,0,194875,,255,15,12 M,0,194875,195875,151,298 F,0,194875,195875,0.7,0 S,0,194875,195875,0.5,0.7 R,0,194875,195875,0 P,0,194875,195875,A
Sprite,Foreground,Centre,"sb\h.png",0,0 C,0,195020,,255,23,53 M,0,195020,196020,269,237 F,0,195020,196020,0.7,0 S,0,195020,196020,0.5,0.7 R,0,195020,196020,0 P,0,195020,196020,A
Sprite,Foreground,Centre,"sb\h.png",0,0 C,0,195308,,255,2,2 M,0,195308,196308,125,423 F,0,195308,196308,0.7,0 S,0,195308,196308,0.5,0.7 R,0,195308,196308,0 P,0,195308,196308,A
Sprite,Foreground,Centre,"sb\h.png",0,0 C,0,195452,,255,69,8 M,0,195452,196452,373,283 F,0,195452,196452,0.7,0 S,0,195452,196452,0.5,0.7 R,0,195452,196452,0 P,0,195452,196452,A
Sprite,Foreground,Centre,"sb\h.png",0,0 C,0,195597,,255,1,4 M,0,195597,196597,337,381 F,0,195597,196597,0.7,0 S,0,195597,196597,0.5,0.7 R,0,195597,196597,0 P,0,195597,196597,A
Sprite,Foreground,Centre,"sb\h.png",0,0 C,0,195669,,255,54,7 M,0,195669,196669,337,381 F,0,195669,196669,0.7,0 S,0,195669,196669,0.5,0.7 R,0,195669,196669,0 P,0,195669,196669,A
Sprite,Foreground,Centre,"sb\h.png",0,0 C,0,195741,,255,68,39 M,0,195741,196741,337,381 F,0,195741,196741,0.7,0 S,0,195741,196741,0.5,0.7 R,0,195741,196741,0 P,0,195741,196741,A
Sprite,Foreground,Centre,"sb\h.png",0,0 C,0,196029,,255,36,47 M,0,196029,197029,273,81 F,0,196029,197029,0.7,0 S,0,196029,197029,0.5,0.7 R,0,196029,197029,0 P,0,196029,197029,A
Sprite,Foreground,Centre,"sb\h.png",0,0 C,0,196318,,255,3,28 M,0,196318,197318,504,210 F,0,196318,197318,0.7,0 S,0,196318,197318,0.5,0.7 R,0,196318,197318,0 P,0,196318,197318,A
Sprite,Foreground,Centre,"sb\h.png",0,0 C,0,196606,,255,48,33 M,0,196606,197606,214,361 F,0,196606,197606,0.7,0 S,0,196606,197606,0.5,0.7 R,0,196606,197606,0 P,0,196606,197606,A
Sprite,Foreground,Centre,"sb\h.png",0,0 C,0,196750,,255,66,9 M,0,196750,197750,306,431 F,0,196750,197750,0.7,0 S,0,196750,197750,0.5,0.7 R,0,196750,197750,0 P,0,196750,197750,A
Sprite,Foreground,Centre,"sb\h.png",0,0 C,0,196895,,255,40,2 M,0,196895,197895,136,359 F,0,196895,197895,0.7,0 S,0,196895,197895,0.5,0.7 R,0,196895,197895,0 P,0,196895,197895,A
Sprite,Foreground,Centre,"sb\h.png",0,0 C,0,197111,,255,28,52 M,0,197111,198111,339,252 F,0,197111,198111,0.7,0 S,0,197111,198111,0.5,0.7 R,0,197111,198111,0 P,0,197111,198111,A
Sprite,Foreground,Centre,"sb\h.png",0,0 C,0,197183,,255,49,56 M,0,197183,198183,359,248 F,0,197183,198183,0.7,0 S,0,197183,198183,0.5,0.7 R,0,197183,198183,0 P,0,197183,198183,A
Sprite,Foreground,Centre,"sb\h.png",0,0 C,0,197327,,255,6,19 M,0,197327,198327,486,337 F,0,197327,198327,0.7,0 S,0,197327,198327,0.5,0.7 R,0,197327,198327,0 P,0,197327,198327,A
Sprite,Foreground,Centre,"sb\h.png",0,0 C,0,197616,,255,37,60 M,0,197616,198616,100,269 F,0,197616,198616,0.7,0 S,0,197616,198616,0.5,0.7 R,0,197616,198616,0 P,0,197616,198616,A
Sprite,Foreground,Centre,"sb\h.png",0,0 C,0,197760,,255,25,20 M,0,197760,198760,376,153 F,0,197760,198760,0.7,0 S,0,197760,198760,0.5,0.7 R,0,197760,198760,0 P,0,197760,198760,A
Sprite,Foreground,Centre,"sb\h.png",0,0 C,0,197832,,255,52,31 M,0,197832,198832,342,109 F,0,197832,198832,0.7,0 S,0,197832,198832,0.5,0.7 R,0,197832,198832,0 P,0,197832,198832,A
Sprite,Foreground,Centre,"sb\h.png",0,0 C,0,197904,,255,23,5 M,0,197904,198904,290,95 F,0,197904,198904,0.7,0 S,0,197904,198904,0.5,0.7 R,0,197904,198904,0 P,0,197904,198904,A
Sprite,Foreground,Centre,"sb\h.png",0,0 C,0,197976,,255,54,32 M,0,197976,198976,238,111 F,0,197976,198976,0.7,0 S,0,197976,198976,0.5,0.7 R,0,197976,198976,0 P,0,197976,198976,A
Sprite,Foreground,Centre,"sb\h.png",0,0 C,0,198048,,255,63,4 M,0,198048,199048,196,146 F,0,198048,199048,0.7,0 S,0,198048,199048,0.5,0.7 R,0,198048,199048,0 P,0,198048,199048,A
Sprite,Foreground,Centre,"sb\h.png",0,0 C,0,198337,,255,36,63 M,0,198337,199337,181,377 F,0,198337,199337,0.7,0 S,0,198337,199337,0.5,0.7 R,0,198337,199337,0 P,0,198337,199337,A
Sprite,Foreground,Centre,"sb\h.png",0,0 C,0,198625,,255,59,46 M,0,198625,199625,251,428 F,0,198625,199625,0.7,0 S,0,198625,199625,0.5,0.7 R,0,198625,199625,0 P,0,198625,199625,A
Sprite,Foreground,Centre,"sb\h.png",0,0 C,0,198842,,255,54,6 M,0,198842,199842,531,149 F,0,198842,199842,0.7,0 S,0,198842,199842,0.5,0.7 R,0,198842,199842,0 P,0,198842,199842,A
Sprite,Foreground,Centre,"sb\h.png",0,0 C,0,198914,,255,58,16 M,0,198914,199914,527,153 F,0,198914,199914,0.7,0 S,0,198914,199914,0.5,0.7 R,0,198914,199914,0 P,0,198914,199914,A
Sprite,Foreground,Centre,"sb\h.png",0,0 C,0,199058,,255,26,26 M,0,199058,200058,516,294 F,0,199058,200058,0.7,0 S,0,199058,200058,0.5,0.7 R,0,199058,200058,0 P,0,199058,200058,A
Sprite,Foreground,Centre,"sb\h.png",0,0 C,0,199202,,255,12,38 M,0,199202,200202,403,96 F,0,199202,200202,0.7,0 S,0,199202,200202,0.5,0.7 R,0,199202,200202,0 P,0,199202,200202,A
Sprite,Foreground,Centre,"sb\h.png",0,0 C,0,199419,,255,57,11 M,0,199419,200419,401,280 F,0,199419,200419,0.7,0 S,0,199419,200419,0.5,0.7 R,0,199419,200419,0 P,0,199419,200419,A
Sprite,Foreground,Centre,"sb\h.png",0,0 C,0,199491,,255,70,47 M,0,199491,200491,409,294 F,0,199491,200491,0.7,0 S,0,199491,200491,0.5,0.7 R,0,199491,200491,0 P,0,199491,200491,A
Sprite,Foreground,Centre,"sb\h.png",0,0 C,0,199635,,255,47,40 M,0,199635,200635,417,118 F,0,199635,200635,0.7,0 S,0,199635,200635,0.5,0.7 R,0,199635,200635,0 P,0,199635,200635,A
Sprite,Foreground,Centre,"sb\h.png",0,0 C,0,199923,,255,20,36 M,0,199923,200923,68,307 F,0,199923,200923,0.7,0 S,0,199923,200923,0.5,0.7 R,0,199923,200923,0 P,0,199923,200923,A
Sprite,Foreground,Centre,"sb\h.png",0,0 C,0,200068,,255,38,70 M,0,200068,201068,280,336 F,0,200068,201068,0.7,0 S,0,200068,201068,0.5,0.7 R,0,200068,201068,0 P,0,200068,201068,A
Sprite,Foreground,Centre,"sb\h.png",0,0 C,0,200212,,255,4,37 M,0,200212,201212,131,440 F,0,200212,201212,0.7,0 S,0,200212,201212,0.5,0.7 R,0,200212,201212,0 P,0,200212,201212,A
Sprite,Foreground,Centre,"sb\h.png",0,0 C,0,200284,,255,49,29 M,0,200284,201284,131,440 F,0,200284,201284,0.7,0 S,0,200284,201284,0.5,0.7 R,0,200284,201284,0 P,0,200284,201284,A
Sprite,Foreground,Centre,"sb\h.png",0,0 C,0,200356,,255,69,36 M,0,200356,201356,131,440 F,0,200356,201356,0.7,0 S,0,200356,201356,0.5,0.7 R,0,200356,201356,0 P,0,200356,201356,A
Sprite,Foreground,Centre,"sb\h.png",0,0 C,0,200645,,255,45,68 M,0,200645,201645,378,389 F,0,200645,201645,0.7,0 S,0,200645,201645,0.5,0.7 R,0,200645,201645,0 P,0,200645,201645,A
Sprite,Foreground,Centre,"sb\h.png",0,0 C,0,200789,,255,47,42 M,0,200789,201789,451,153 F,0,200789,201789,0.7,0 S,0,200789,201789,0.5,0.7 R,0,200789,201789,0 P,0,200789,201789,A
Sprite,Foreground,Centre,"sb\h.png",0,0 C,0,200933,,255,3,68 M,0,200933,201933,403,300 F,0,200933,201933,0.7,0 S,0,200933,201933,0.5,0.7 R,0,200933,201933,0 P,0,200933,201933,A
Sprite,Foreground,Centre,"sb\h.png",0,0 C,0,201077,,255,7,27 M,0,201077,202077,533,147 F,0,201077,202077,0.7,0 S,0,201077,202077,0.5,0.7 R,0,201077,202077,0 P,0,201077,202077,A
Sprite,Foreground,Centre,"sb\h.png",0,0 C,0,201222,,255,34,60 M,0,201222,202222,403,300 F,0,201222,202222,0.7,0 S,0,201222,202222,0.5,0.7 R,0,201222,202222,0 P,0,201222,202222,A
Sprite,Foreground,Centre,"sb\h.png",0,0 C,0,201366,,255,39,67 M,0,201366,202366,528,228 F,0,201366,202366,0.7,0 S,0,201366,202366,0.5,0.7 R,0,201366,202366,0 P,0,201366,202366,A
Sprite,Foreground,Centre,"sb\h.png",0,0 C,0,201510,,255,58,1 M,0,201510,202510,575,376 F,0,201510,202510,0.7,0 S,0,201510,202510,0.5,0.7 R,0,201510,202510,0 P,0,201510,202510,A
Sprite,Foreground,Centre,"sb\h.png",0,0 C,0,201654,,255,38,7 M,0,201654,202654,445,223 F,0,201654,202654,0.7,0 S,0,201654,202654,0.5,0.7 R,0,201654,202654,0 P,0,201654,202654,A
Sprite,Foreground,Centre,"sb\h.png",0,0 C,0,201799,,255,40,7 M,0,201799,202799,575,376 F,0,201799,202799,0.7,0 S,0,201799,202799,0.5,0.7 R,0,201799,202799,0 P,0,201799,202799,A
Sprite,Foreground,Centre,"sb\h.png",0,0 C,0,201943,,255,53,69 M,0,201943,202943,570,268 F,0,201943,202943,0.7,0 S,0,201943,202943,0.5,0.7 R,0,201943,202943,0 P,0,201943,202943,A
Sprite,Foreground,Centre,"sb\h.png",0,0 C,0,202015,,255,1,10 M,0,202015,203015,570,268 F,0,202015,203015,0.7,0 S,0,202015,203015,0.5,0.7 R,0,202015,203015,0 P,0,202015,203015,A
Sprite,Foreground,Centre,"sb\h.png",0,0 C,0,202087,,255,26,31 M,0,202087,203087,570,268 F,0,202087,203087,0.7,0 S,0,202087,203087,0.5,0.7 R,0,202087,203087,0 P,0,202087,203087,A
Sprite,Foreground,Centre,"sb\h.png",0,0 C,0,202231,,255,52,25 M,0,202231,203231,336,410 F,0,202231,203231,0.7,0 S,0,202231,203231,0.5,0.7 R,0,202231,203231,0 P,0,202231,203231,A
Sprite,Foreground,Centre,"sb\h.png",0,0 C,0,202375,,255,60,23 M,0,202375,203375,461,346 F,0,202375,203375,0.7,0 S,0,202375,203375,0.5,0.7 R,0,202375,203375,0 P,0,202375,203375,A
Sprite,Foreground,Centre,"sb\h.png",0,0 C,0,202664,,255,3,34 M,0,202664,203664,86,71 F,0,202664,203664,0.7,0 S,0,202664,203664,0.5,0.7 R,0,202664,203664,0 P,0,202664,203664,A
Sprite,Foreground,Centre,"sb\h.png",0,0 C,0,202952,,255,68,60 M,0,202952,203952,205,173 F,0,202952,203952,0.7,0 S,0,202952,203952,0.5,0.7 R,0,202952,203952,0 P,0,202952,203952,A
Sprite,Foreground,Centre,"sb\h.png",0,0 C,0,203241,,255,47,41 M,0,203241,204241,94,270 F,0,203241,204241,0.7,0 S,0,203241,204241,0.5,0.7 R,0,203241,204241,0 P,0,203241,204241,A
Sprite,Foreground,Centre,"sb\h.png",0,0 C,0,203313,,255,43,58 M,0,203313,204313,135,247 F,0,203313,204313,0.7,0 S,0,203313,204313,0.5,0.7 R,0,203313,204313,0 P,0,203313,204313,A
Sprite,Foreground,Centre,"sb\h.png",0,0 C,0,203385,,255,58,0 M,0,203385,204385,182,247 F,0,203385,204385,0.7,0 S,0,203385,204385,0.5,0.7 R,0,203385,204385,0 P,0,203385,204385,A
Sprite,Foreground,Centre,"sb\h.png",0,0 C,0,203457,,255,67,6 M,0,203457,204457,221,273 F,0,203457,204457,0.7,0 S,0,203457,204457,0.5,0.7 R,0,203457,204457,0 P,0,203457,204457,A
Sprite,Foreground,Centre,"sb\h.png",0,0 C,0,203529,,255,36,3 M,0,203529,204529,251,316 F,0,203529,204529,0.7,0 S,0,203529,204529,0.5,0.7 R,0,203529,204529,0 P,0,203529,204529,A
Sprite,Foreground,Centre,"sb\h.png",0,0 C,0,203601,,255,53,11 M,0,203601,204601,281,359 F,0,203601,204601,0.7,0 S,0,203601,204601,0.5,0.7 R,0,203601,204601,0 P,0,203601,204601,A
Sprite,Foreground,Centre,"sb\h.png",0,0 C,0,203673,,255,47,1 M,0,203673,204673,327,385 F,0,203673,204673,0.7,0 S,0,203673,204673,0.5,0.7 R,0,203673,204673,0 P,0,203673,204673,A
Sprite,Foreground,Centre,"sb\h.png",0,0 C,0,203746,,255,59,35 M,0,203746,204746,380,375 F,0,203746,204746,0.7,0 S,0,203746,204746,0.5,0.7 R,0,203746,204746,0 P,0,203746,204746,A
Sprite,Foreground,Centre,"sb\h.png",0,0 C,0,193433,,255,35,51 M,0,193433,194433,576,189 F,0,193433,194433,0.7,0 S,0,193433,194433,0.5,0.7 R,0,193433,194433,0 P,0,193433,194433,A
Sprite,Foreground,Centre,"sb\h.png",0,0 C,0,193722,,255,55,44 M,0,193722,194722,522,352 F,0,193722,194722,0.7,0 S,0,193722,194722,0.5,0.7 R,0,193722,194722,0 P,0,193722,194722,A
Sprite,Foreground,Centre,"sb\h.png",0,0 C,0,194010,,255,60,23 M,0,194010,195010,379,303 F,0,194010,195010,0.7,0 S,0,194010,195010,0.5,0.7 R,0,194010,195010,0 P,0,194010,195010,A
Sprite,Foreground,Centre,"sb\h.png",0,0 C,0,194226,,255,4,59 M,0,194226,195226,159,90 F,0,194226,195226,0.7,0 S,0,194226,195226,0.5,0.7 R,0,194226,195226,0 P,0,194226,195226,A
Sprite,Foreground,Centre,"sb\h.png",0,0 C,0,194298,,255,39,20 M,0,194298,195298,165,92 F,0,194298,195298,0.7,0 S,0,194298,195298,0.5,0.7 R,0,194298,195298,0 P,0,194298,195298,A
Sprite,Foreground,Centre,"sb\h.png",0,0 C,0,194443,,255,31,45 M,0,194443,195443,298,120 F,0,194443,195443,0.7,0 S,0,194443,195443,0.5,0.7 R,0,194443,195443,0 P,0,194443,195443,A
Sprite,Foreground,Centre,"sb\h.png",0,0 C,0,194587,,255,28,19 M,0,194587,195587,88,176 F,0,194587,195587,0.7,0 S,0,194587,195587,0.5,0.7 R,0,194587,195587,0 P,0,194587,195587,A
Sprite,Foreground,Centre,"sb\h.png",0,0 C,0,194803,,255,11,70 M,0,194803,195803,162,286 F,0,194803,195803,0.7,0 S,0,194803,195803,0.5,0.7 R,0,194803,195803,0 P,0,194803,195803,A
Sprite,Foreground,Centre,"sb\h.png",0,0 C,0,194875,,255,63,59 M,0,194875,195875,151,298 F,0,194875,195875,0.7,0 S,0,194875,195875,0.5,0.7 R,0,194875,195875,0 P,0,194875,195875,A
Sprite,Foreground,Centre,"sb\h.png",0,0 C,0,195020,,255,24,61 M,0,195020,196020,269,237 F,0,195020,196020,0.7,0 S,0,195020,196020,0.5,0.7 R,0,195020,196020,0 P,0,195020,196020,A
Sprite,Foreground,Centre,"sb\h.png",0,0 C,0,195308,,255,48,30 M,0,195308,196308,125,423 F,0,195308,196308,0.7,0 S,0,195308,196308,0.5,0.7 R,0,195308,196308,0 P,0,195308,196308,A
Sprite,Foreground,Centre,"sb\h.png",0,0 C,0,195452,,255,39,13 M,0,195452,196452,373,283 F,0,195452,196452,0.7,0 S,0,195452,196452,0.5,0.7 R,0,195452,196452,0 P,0,195452,196452,A
Sprite,Foreground,Centre,"sb\h.png",0,0 C,0,195597,,255,21,70 M,0,195597,196597,337,381 F,0,195597,196597,0.7,0 S,0,195597,196597,0.5,0.7 R,0,195597,196597,0 P,0,195597,196597,A
Sprite,Foreground,Centre,"sb\h.png",0,0 C,0,195669,,255,56,2 M,0,195669,196669,337,381 F,0,195669,196669,0.7,0 S,0,195669,196669,0.5,0.7 R,0,195669,196669,0 P,0,195669,196669,A
Sprite,Foreground,Centre,"sb\h.png",0,0 C,0,195741,,255,29,56 M,0,195741,196741,337,381 F,0,195741,196741,0.7,0 S,0,195741,196741,0.5,0.7 R,0,195741,196741,0 P,0,195741,196741,A
Sprite,Foreground,Centre,"sb\h.png",0,0 C,0,196029,,255,40,19 M,0,196029,197029,273,81 F,0,196029,197029,0.7,0 S,0,196029,197029,0.5,0.7 R,0,196029,197029,0 P,0,196029,197029,A
Sprite,Foreground,Centre,"sb\h.png",0,0 C,0,196318,,255,46,52 M,0,196318,197318,504,210 F,0,196318,197318,0.7,0 S,0,196318,197318,0.5,0.7 R,0,196318,197318,0 P,0,196318,197318,A
Sprite,Foreground,Centre,"sb\h.png",0,0 C,0,196606,,255,62,15 M,0,196606,197606,214,361 F,0,196606,197606,0.7,0 S,0,196606,197606,0.5,0.7 R,0,196606,197606,0 P,0,196606,197606,A
Sprite,Foreground,Centre,"sb\h.png",0,0 C,0,196750,,255,27,11 M,0,196750,197750,306,431 F,0,196750,197750,0.7,0 S,0,196750,197750,0.5,0.7 R,0,196750,197750,0 P,0,196750,197750,A
Sprite,Foreground,Centre,"sb\h.png",0,0 C,0,196895,,255,27,40 M,0,196895,197895,136,359 F,0,196895,197895,0.7,0 S,0,196895,197895,0.5,0.7 R,0,196895,197895,0 P,0,196895,197895,A
Sprite,Foreground,Centre,"sb\h.png",0,0 C,0,197111,,255,50,23 M,0,197111,198111,339,252 F,0,197111,198111,0.7,0 S,0,197111,198111,0.5,0.7 R,0,197111,198111,0 P,0,197111,198111,A
Sprite,Foreground,Centre,"sb\h.png",0,0 C,0,197183,,255,20,11 M,0,197183,198183,359,248 F,0,197183,198183,0.7,0 S,0,197183,198183,0.5,0.7 R,0,197183,198183,0 P,0,197183,198183,A
Sprite,Foreground,Centre,"sb\h.png",0,0 C,0,197327,,255,40,46 M,0,197327,198327,486,337 F,0,197327,198327,0.7,0 S,0,197327,198327,0.5,0.7 R,0,197327,198327,0 P,0,197327,198327,A
Sprite,Foreground,Centre,"sb\h.png",0,0 C,0,197616,,255,7,20 M,0,197616,198616,100,269 F,0,197616,198616,0.7,0 S,0,197616,198616,0.5,0.7 R,0,197616,198616,0 P,0,197616,198616,A
Sprite,Foreground,Centre,"sb\h.png",0,0 C,0,197760,,255,11,2 M,0,197760,198760,376,153 F,0,197760,198760,0.7,0 S,0,197760,198760,0.5,0.7 R,0,197760,198760,0 P,0,197760,198760,A
Sprite,Foreground,Centre,"sb\h.png",0,0 C,0,197832,,255,63,13 M,0,197832,198832,342,109 F,0,197832,198832,0.7,0 S,0,197832,198832,0.5,0.7 R,0,197832,198832,0 P,0,197832,198832,A
Sprite,Foreground,Centre,"sb\h.png",0,0 C,0,197904,,255,0,0 M,0,197904,198904,290,95 F,0,197904,198904,0.7,0 S,0,197904,198904,0.5,0.7 R,0,197904,198904,0 P,0,197904,198904,A
Sprite,Foreground,Centre,"sb\h.png",0,0 C,0,197976,,255,65,43 M,0,197976,198976,238,111 F,0,197976,198976,0.7,0 S,0,197976,198976,0.5,0.7 R,0,197976,198976,0 P,0,197976,198976,A
Sprite,Foreground,Centre,"sb\h.png",0,0 C,0,198048,,255,3,67 M,0,198048,199048,196,146 F,0,198048,199048,0.7,0 S,0,198048,199048,0.5,0.7 R,0,198048,199048,0 P,0,198048,199048,A
Sprite,Foreground,Centre,"sb\h.png",0,0 C,0,198337,,255,9,32 M,0,198337,199337,181,377 F,0,198337,199337,0.7,0 S,0,198337,199337,0.5,0.7 R,0,198337,199337,0 P,0,198337,199337,A
Sprite,Foreground,Centre,"sb\h.png",0,0 C,0,198625,,255,32,57 M,0,198625,199625,251,428 F,0,198625,199625,0.7,0 S,0,198625,199625,0.5,0.7 R,0,198625,199625,0 P,0,198625,199625,A
Sprite,Foreground,Centre,"sb\h.png",0,0 C,0,198842,,255,19,4 M,0,198842,199842,531,149 F,0,198842,199842,0.7,0 S,0,198842,199842,0.5,0.7 R,0,198842,199842,0 P,0,198842,199842,A
Sprite,Foreground,Centre,"sb\h.png",0,0 C,0,198914,,255,29,46 M,0,198914,199914,527,153 F,0,198914,199914,0.7,0 S,0,198914,199914,0.5,0.7 R,0,198914,199914,0 P,0,198914,199914,A
Sprite,Foreground,Centre,"sb\h.png",0,0 C,0,199058,,255,17,57 M,0,199058,200058,516,294 F,0,199058,200058,0.7,0 S,0,199058,200058,0.5,0.7 R,0,199058,200058,0 P,0,199058,200058,A
Sprite,Foreground,Centre,"sb\h.png",0,0 C,0,199202,,255,38,8 M,0,199202,200202,403,96 F,0,199202,200202,0.7,0 S,0,199202,200202,0.5,0.7 R,0,199202,200202,0 P,0,199202,200202,A
Sprite,Foreground,Centre,"sb\h.png",0,0 C,0,199419,,255,57,50 M,0,199419,200419,401,280 F,0,199419,200419,0.7,0 S,0,199419,200419,0.5,0.7 R,0,199419,200419,0 P,0,199419,200419,A
Sprite,Foreground,Centre,"sb\h.png",0,0 C,0,199491,,255,63,24 M,0,199491,200491,409,294 F,0,199491,200491,0.7,0 S,0,199491,200491,0.5,0.7 R,0,199491,200491,0 P,0,199491,200491,A
Sprite,Foreground,Centre,"sb\h.png",0,0 C,0,199635,,255,56,12 M,0,199635,200635,417,118 F,0,199635,200635,0.7,0 S,0,199635,200635,0.5,0.7 R,0,199635,200635,0 P,0,199635,200635,A
Sprite,Foreground,Centre,"sb\h.png",0,0 C,0,199923,,255,0,26 M,0,199923,200923,68,307 F,0,199923,200923,0.7,0 S,0,199923,200923,0.5,0.7 R,0,199923,200923,0 P,0,199923,200923,A
Sprite,Foreground,Centre,"sb\h.png",0,0 C,0,200068,,255,67,20 M,0,200068,201068,280,336 F,0,200068,201068,0.7,0 S,0,200068,201068,0.5,0.7 R,0,200068,201068,0 P,0,200068,201068,A
Sprite,Foreground,Centre,"sb\h.png",0,0 C,0,200212,,255,67,1 M,0,200212,201212,131,440 F,0,200212,201212,0.7,0 S,0,200212,201212,0.5,0.7 R,0,200212,201212,0 P,0,200212,201212,A
Sprite,Foreground,Centre,"sb\h.png",0,0 C,0,200284,,255,32,40 M,0,200284,201284,131,440 F,0,200284,201284,0.7,0 S,0,200284,201284,0.5,0.7 R,0,200284,201284,0 P,0,200284,201284,A
Sprite,Foreground,Centre,"sb\h.png",0,0 C,0,200356,,255,67,58 M,0,200356,201356,131,440 F,0,200356,201356,0.7,0 S,0,200356,201356,0.5,0.7 R,0,200356,201356,0 P,0,200356,201356,A
Sprite,Foreground,Centre,"sb\h.png",0,0 C,0,200645,,255,23,55 M,0,200645,201645,378,389 F,0,200645,201645,0.7,0 S,0,200645,201645,0.5,0.7 R,0,200645,201645,0 P,0,200645,201645,A
Sprite,Foreground,Centre,"sb\h.png",0,0 C,0,200789,,255,4,54 M,0,200789,201789,451,153 F,0,200789,201789,0.7,0 S,0,200789,201789,0.5,0.7 R,0,200789,201789,0 P,0,200789,201789,A
Sprite,Foreground,Centre,"sb\h.png",0,0 C,0,200933,,255,10,6 M,0,200933,201933,403,300 F,0,200933,201933,0.7,0 S,0,200933,201933,0.5,0.7 R,0,200933,201933,0 P,0,200933,201933,A
Sprite,Foreground,Centre,"sb\h.png",0,0 C,0,201077,,255,56,26 M,0,201077,202077,533,147 F,0,201077,202077,0.7,0 S,0,201077,202077,0.5,0.7 R,0,201077,202077,0 P,0,201077,202077,A
Sprite,Foreground,Centre,"sb\h.png",0,0 C,0,201222,,255,32,50 M,0,201222,202222,403,300 F,0,201222,202222,0.7,0 S,0,201222,202222,0.5,0.7 R,0,201222,202222,0 P,0,201222,202222,A
Sprite,Foreground,Centre,"sb\h.png",0,0 C,0,201366,,255,16,47 M,0,201366,202366,528,228 F,0,201366,202366,0.7,0 S,0,201366,202366,0.5,0.7 R,0,201366,202366,0 P,0,201366,202366,A
Sprite,Foreground,Centre,"sb\h.png",0,0 C,0,201510,,255,57,67 M,0,201510,202510,575,376 F,0,201510,202510,0.7,0 S,0,201510,202510,0.5,0.7 R,0,201510,202510,0 P,0,201510,202510,A
Sprite,Foreground,Centre,"sb\h.png",0,0 C,0,201654,,255,52,14 M,0,201654,202654,445,223 F,0,201654,202654,0.7,0 S,0,201654,202654,0.5,0.7 R,0,201654,202654,0 P,0,201654,202654,A
Sprite,Foreground,Centre,"sb\h.png",0,0 C,0,201799,,255,29,65 M,0,201799,202799,575,376 F,0,201799,202799,0.7,0 S,0,201799,202799,0.5,0.7 R,0,201799,202799,0 P,0,201799,202799,A
Sprite,Foreground,Centre,"sb\h.png",0,0 C,0,201943,,255,4,23 M,0,201943,202943,570,268 F,0,201943,202943,0.7,0 S,0,201943,202943,0.5,0.7 R,0,201943,202943,0 P,0,201943,202943,A
Sprite,Foreground,Centre,"sb\h.png",0,0 C,0,202015,,255,29,63 M,0,202015,203015,570,268 F,0,202015,203015,0.7,0 S,0,202015,203015,0.5,0.7 R,0,202015,203015,0 P,0,202015,203015,A
Sprite,Foreground,Centre,"sb\h.png",0,0 C,0,202087,,255,29,19 M,0,202087,203087,570,268 F,0,202087,203087,0.7,0 S,0,202087,203087,0.5,0.7 R,0,202087,203087,0 P,0,202087,203087,A
Sprite,Foreground,Centre,"sb\h.png",0,0 C,0,202231,,255,35,12 M,0,202231,203231,336,410 F,0,202231,203231,0.7,0 S,0,202231,203231,0.5,0.7 R,0,202231,203231,0 P,0,202231,203231,A
Sprite,Foreground,Centre,"sb\h.png",0,0 C,0,202375,,255,52,27 M,0,202375,203375,461,346 F,0,202375,203375,0.7,0 S,0,202375,203375,0.5,0.7 R,0,202375,203375,0 P,0,202375,203375,A
Sprite,Foreground,Centre,"sb\h.png",0,0 C,0,202664,,255,44,7 M,0,202664,203664,86,71 F,0,202664,203664,0.7,0 S,0,202664,203664,0.5,0.7 R,0,202664,203664,0 P,0,202664,203664,A
Sprite,Foreground,Centre,"sb\h.png",0,0 C,0,202952,,255,22,46 M,0,202952,203952,205,173 F,0,202952,203952,0.7,0 S,0,202952,203952,0.5,0.7 R,0,202952,203952,0 P,0,202952,203952,A
Sprite,Foreground,Centre,"sb\h.png",0,0 C,0,203241,,255,45,33 M,0,203241,204241,94,270 F,0,203241,204241,0.7,0 S,0,203241,204241,0.5,0.7 R,0,203241,204241,0 P,0,203241,204241,A
Sprite,Foreground,Centre,"sb\h.png",0,0 C,0,203313,,255,10,53 M,0,203313,204313,135,247 F,0,203313,204313,0.7,0 S,0,203313,204313,0.5,0.7 R,0,203313,204313,0 P,0,203313,204313,A
Sprite,Foreground,Centre,"sb\h.png",0,0 C,0,203385,,255,36,38 M,0,203385,204385,182,247 F,0,203385,204385,0.7,0 S,0,203385,204385,0.5,0.7 R,0,203385,204385,0 P,0,203385,204385,A
Sprite,Foreground,Centre,"sb\h.png",0,0 C,0,203457,,255,12,41 M,0,203457,204457,221,273 F,0,203457,204457,0.7,0 S,0,203457,204457,0.5,0.7 R,0,203457,204457,0 P,0,203457,204457,A
Sprite,Foreground,Centre,"sb\h.png",0,0 C,0,203529,,255,37,37 M,0,203529,204529,251,316 F,0,203529,204529,0.7,0 S,0,203529,204529,0.5,0.7 R,0,203529,204529,0 P,0,203529,204529,A
Sprite,Foreground,Centre,"sb\h.png",0,0 C,0,203601,,255,64,16 M,0,203601,204601,281,359 F,0,203601,204601,0.7,0 S,0,203601,204601,0.5,0.7 R,0,203601,204601,0 P,0,203601,204601,A
Sprite,Foreground,Centre,"sb\h.png",0,0 C,0,203673,,255,25,63 M,0,203673,204673,327,385 F,0,203673,204673,0.7,0 S,0,203673,204673,0.5,0.7 R,0,203673,204673,0 P,0,203673,204673,A
Sprite,Foreground,Centre,"sb\h.png",0,0 C,0,203746,,255,8,13 M,0,203746,204746,380,375 F,0,203746,204746,0.7,0 S,0,203746,204746,0.5,0.7 R,0,203746,204746,0 P,0,203746,204746,A
//Storyboard Sound Samples

[TimingPoints]
1463,288.461538461538,4,2,1,30,1,0
1463,-125,4,2,1,30,0,0
1896,288.461538461538,4,2,1,55,1,0
1896,-100,4,2,1,55,0,0
2472,-142.857142857143,4,2,1,55,0,0
3049,-117.647058823529,4,2,1,55,0,0
4203,-100,4,1,1,70,0,0
6078,-83.3333333333333,4,1,1,70,0,0
6367,-100,4,1,1,70,0,0
8386,-83.3333333333333,4,1,1,70,0,0
8819,-71.4285714285714,4,1,1,70,0,0
9107,-83.3333333333333,4,1,1,70,0,0
9395,-71.4285714285714,4,1,1,70,0,0
9684,-83.3333333333333,4,1,1,70,0,0
11559,-71.4285714285714,4,1,1,70,0,0
13001,-86.9565217391303,4,1,1,70,0,0
13434,-83.3333333333333,4,1,1,65,0,0
13686,-83.3333333333333,4,1,1,5,0,0
13722,-83.3333333333333,4,1,1,65,0,0
13975,-83.3333333333333,4,1,1,5,0,0
14011,-83.3333333333333,4,1,1,65,0,0
14263,-83.3333333333333,4,1,1,5,0,0
14299,-83.3333333333333,4,1,1,65,0,0
14444,-100,4,1,2,65,0,0
16895,-83.3333333333333,4,1,1,70,0,0
17184,-71.4285714285714,4,1,1,65,0,0
17328,-83.3333333333333,4,1,1,60,0,0
18049,-83.3333333333333,4,1,1,65,0,0
18302,-83.3333333333333,4,1,1,5,0,0
18338,-83.3333333333333,4,1,1,65,0,0
18590,-83.3333333333333,4,1,1,5,0,0
18626,-83.3333333333333,4,1,1,65,0,0
18879,-100,4,1,1,5,0,0
18915,-100,4,1,1,65,0,0
19059,-100,4,1,2,65,0,0
20790,-90.9090909090909,4,1,2,65,0,0
21367,-83.3333333333333,4,1,2,65,0,0
22088,-76.9230769230769,4,1,1,70,0,0
22665,-83.3333333333333,4,1,1,65,0,0
22917,-83.3333333333333,4,1,1,5,0,0
22953,-83.3333333333333,4,1,1,65,0,0
23206,-83.3333333333333,4,1,1,5,0,0
23242,-83.3333333333333,4,1,1,65,0,0
23494,-83.3333333333333,4,1,1,5,0,0
23530,-83.3333333333333,4,1,1,65,0,0
23674,-100,4,1,2,65,0,0
26126,-83.3333333333333,4,1,1,65,0,0
27533,-83.3333333333333,4,1,1,5,0,0
27569,-83.3333333333333,4,1,1,65,0,0
27821,-83.3333333333333,4,1,1,5,0,0
27857,-83.3333333333333,4,1,1,65,0,0
28109,-83.3333333333333,4,1,1,5,0,0
28145,-83.3333333333333,4,1,1,65,0,0
28290,-100,4,1,2,65,0,0
29444,-86.9565217391304,4,1,1,65,0,0
30020,-74.0740740740741,4,1,1,75,0,0
30742,-117.647058823529,4,2,1,40,0,0
31030,-222.222222222222,4,2,1,40,0,0
31463,-400,4,2,1,35,0,0
31895,-200,4,1,3,60,0,0
33626,-200,4,1,3,30,0,0
34347,-200,4,1,3,65,0,0
35934,-200,4,1,3,30,0,0
36655,-200,4,1,3,70,0,0
38226,288.461538461538,4,1,1,55,1,0
38226,-83.3333333333333,4,1,1,55,0,0
38819,288.461538461538,4,1,1,70,1,0
38819,-90.9090909090909,4,1,1,70,0,0
40405,-111.111111111111,4,1,1,75,0,0
40694,-142.857142857143,4,1,1,70,0,0
41270,-142.857142857143,4,1,1,55,0,0
42713,-666.666666666667,4,1,1,40,0,0
43434,-71.4285714285714,4,2,10,75,0,0
43470,-71.4285714285714,4,1,1,75,0,0
43722,-90.9090909090909,4,1,1,75,0,0
45742,-76.9230769230769,4,1,1,75,0,0
45958,-90.9090909090909,4,1,1,75,0,0
46607,-76.9230769230769,4,1,1,75,0,0
46895,-100,4,1,1,75,0,0
47328,-71.4285714285714,4,1,1,75,0,0
47617,-125,4,1,1,75,0,0
47905,-90.9090909090909,4,1,1,75,0,0
48049,-76.9230769230769,4,1,1,75,0,0
51222,-100,4,1,1,75,0,0
51511,-76.9230769230769,4,1,1,75,0,0
52665,-71.4285714285714,4,1,1,75,0,0
52953,-90.9090909090909,4,1,1,75,0,0
54828,-80,4,1,1,75,0,0
54972,-66.6666666666667,4,1,1,75,0,0
55261,-90.9090909090909,4,1,1,75,0,0
56559,-71.4285714285714,4,1,1,75,0,0
56847,-125,4,1,1,75,0,0
57136,-90.9090909090909,4,1,1,75,0,0
57280,-76.9230769230769,4,1,1,75,0,0
59444,-100,4,1,1,75,0,0
60020,-83.3333333333333,4,1,1,75,0,0
60597,-76.9230769230769,4,1,1,75,0,0
60886,-142.857142857143,4,1,1,75,0,0
61319,-66.6666666666667,4,1,1,75,0,0
61463,-76.9230769230769,4,1,1,75,0,0
61895,-76.9230769230769,4,1,1,65,0,0
64203,-76.9230769230769,4,1,1,60,0,0
65069,-250,4,1,1,60,0,0
65357,-76.9230769230769,4,1,1,60,0,0
67376,-200,4,1,1,60,0,0
68242,-111.111111111111,4,1,1,60,0,0
68819,-100,4,1,1,65,0,0
69251,-83.3333333333333,4,1,1,70,0,0
69828,-142.857142857143,4,1,1,65,0,0
70694,-66.6666666666667,4,1,1,75,0,0
71126,-83.3333333333333,4,1,1,65,0,0
71379,-83.3333333333333,4,1,1,5,0,0
71415,-83.3333333333333,4,1,1,65,0,0
71667,-83.3333333333333,4,1,1,5,0,0
71703,-83.3333333333333,4,1,1,65,0,0
71956,-83.3333333333333,4,1,1,5,0,0
71992,-100,4,1,2,65,0,0
74588,-83.3333333333333,4,1,2,65,0,0
75020,-100,4,1,2,65,0,0
75597,-76.9230769230769,4,1,1,50,0,0
75742,-83.3333333333333,4,1,1,65,0,0
75994,-83.3333333333333,4,1,1,5,0,0
76030,-83.3333333333333,4,1,1,65,0,0
76282,-83.3333333333333,4,1,1,5,0,0
76318,-83.3333333333333,4,1,1,65,0,0
76571,-83.3333333333333,4,1,1,5,0,0
76607,-83.3333333333333,4,1,1,65,0,0
76751,-90.9090909090909,4,1,2,65,0,0
77184,-100,4,1,2,65,0,0
79780,-71.4285714285714,4,1,1,70,0,0
80357,-83.3333333333333,4,1,1,65,0,0
80609,-83.3333333333333,4,1,1,5,0,0
80645,-83.3333333333333,4,1,1,65,0,0
80898,-83.3333333333333,4,1,1,5,0,0
80934,-83.3333333333333,4,1,1,65,0,0
81186,-83.3333333333333,4,1,1,5,0,0
81222,-100,4,1,2,65,0,0
84972,-83.3333333333333,4,1,1,65,0,0
85225,-83.3333333333333,4,1,1,5,0,0
85261,-83.3333333333333,4,1,1,65,0,0
85513,-83.3333333333333,4,1,1,5,0,0
85549,-83.3333333333333,4,1,1,65,0,0
85982,-100,4,1,2,60,0,0
87280,-83.3333333333333,4,1,1,65,0,0
88434,-76.9230769230769,4,1,1,70,0,0
89588,-200,4,1,3,60,0,0
91318,-200,4,2,1,30,0,0
92040,-200,4,1,3,60,0,0
93626,-200,4,1,3,30,0,0
94347,-200,4,1,3,60,0,0
95926,288.461538461538,4,1,1,55,1,0
96511,288.461538461538,4,1,1,70,1,0
96511,-86.9565217391304,4,1,1,70,0,0
98097,-111.111111111111,4,1,1,65,0,0
98386,-142.857142857143,4,1,1,55,0,0
101126,-71.4285714285714,4,1,1,75,0,0
101414,-90.9090909090909,4,1,1,75,0,0
103434,-76.9230769230769,4,1,1,75,0,0
103722,-90.9090909090909,4,1,1,75,0,0
104299,-76.9230769230769,4,1,1,75,0,0
104587,-100,4,1,1,75,0,0
105020,-71.4285714285714,4,1,1,75,0,0
105309,-125,4,1,1,75,0,0
105597,-90.9090909090909,4,1,1,75,0,0
105741,-76.9230769230769,4,1,1,75,0,0
110357,-71.4285714285714,4,1,1,75,0,0
110645,-90.9090909090909,4,1,1,75,0,0
112520,-83.3333333333333,4,1,1,75,0,0
112664,-76.9230769230769,4,1,1,75,0,0
112953,-90.9090909090909,4,1,1,75,0,0
114251,-71.4285714285714,4,1,1,75,0,0
114539,-125,4,1,1,75,0,0
114828,-90.9090909090909,4,1,1,75,0,0
114972,-76.9230769230769,4,1,1,75,0,0
117135,-100,4,1,1,75,0,0
117712,-83.3333333333333,4,1,1,75,0,0
118289,-66.6666666666667,4,1,1,75,0,0
118578,-142.857142857143,4,1,1,75,0,0
119010,-66.6666666666667,4,1,1,75,0,0
119155,-76.9230769230769,4,1,1,75,0,0
120453,-125,4,1,3,50,0,0
123482,-100,4,1,1,55,0,0
123770,-83.3333333333333,4,1,1,60,0,0
123914,-50,4,1,1,70,0,0
124203,-55.5555555555556,4,1,1,60,0,0
124455,-55.5555555555556,4,1,1,5,0,0
124491,-55.5555555555556,4,1,1,70,0,0
124744,-55.5555555555556,4,1,1,5,0,0
124780,-55.5555555555556,4,1,1,70,0,0
125032,-55.5555555555556,4,1,1,5,0,0
125068,-55.5555555555556,4,1,3,60,0,0
128674,-55.5555555555556,4,1,1,60,0,0
128794,288.461538461538,4,1,1,75,1,0
128794,-55.5555555555556,4,1,1,75,0,0
129046,-55.5555555555556,4,1,1,5,0,0
129082,-55.5555555555556,4,1,1,75,0,0
129334,-55.5555555555556,4,1,1,5,0,0
129370,-55.5555555555556,4,1,1,75,0,0
129623,-55.5555555555556,4,1,1,5,0,0
129659,-55.5555555555556,4,1,1,65,0,0
129839,-66.6666666666667,4,1,1,65,0,0
131101,-55.5555555555556,4,1,1,75,0,0
131354,-55.5555555555556,4,1,1,5,0,0
131390,-55.5555555555556,4,1,1,75,0,0
131642,-55.5555555555556,4,1,1,5,0,0
131678,-55.5555555555556,4,1,1,75,0,0
132832,-83.3333333333333,4,1,1,70,0,0
133409,-55.5555555555556,4,1,1,75,0,0
133661,-55.5555555555556,4,1,1,5,0,0
133697,-55.5555555555556,4,1,1,75,0,0
133950,-55.5555555555556,4,1,1,5,0,0
133986,-55.5555555555556,4,1,1,70,0,0
137592,-55.5555555555556,4,1,3,70,0,0
137880,-76.9230769230769,4,1,1,75,0,0
138049,288.461538461538,4,2,10,60,1,0
138049,-200,4,2,10,60,0,0
138625,-200,4,2,1,30,0,0
139779,-222.222222222221,4,2,1,30,0,0
141510,-133.333333333333,4,2,1,30,0,0
142087,-133.333333333333,4,2,1,55,0,0
142664,-222.222222222221,4,2,1,30,0,0
143385,-222.222222222221,4,2,1,35,0,0
143529,-222.222222222221,4,2,1,40,0,0
143674,-222.222222222221,4,2,1,45,0,0
143818,-222.222222222221,4,2,1,50,0,0
144635,-222.222222222221,4,2,1,35,0,0
144972,-153.846153846153,4,2,1,40,0,0
145549,-153.846153846153,4,2,1,44,0,0
146053,-153.846153846153,4,2,1,5,0,0
146125,-117.647058823529,4,2,1,48,0,0
146558,-117.647058823529,4,2,1,20,0,0
146702,-95.2380952380951,4,2,1,40,0,0
147135,-105.263157894737,4,2,1,30,0,0
147712,-142.857142857143,4,2,1,30,0,0
148433,-117.64705882353,4,2,1,30,0,0
149010,-153.846153846154,4,2,1,45,0,0
149226,-153.846153846154,4,2,1,5,0,0
149298,-153.846153846154,4,2,1,45,0,0
149515,-153.846153846154,4,2,1,5,0,0
149587,-125,4,2,1,50,0,0
150741,-125,4,1,1,55,0,0
151606,-86.9565217391306,4,2,1,55,0,0
151895,-100,4,2,1,55,0,0
152039,-90.9090909090909,4,1,1,60,0,0
152183,-90.9090909090909,4,1,3,60,0,0
154779,-90.9090909090909,4,1,1,60,0,0
154923,-90.9090909090909,4,1,3,60,0,0
155789,-90.9090909090909,4,1,1,60,0,0
156510,-83.3333333333333,4,1,1,60,0,0
156798,-83.3333333333333,4,1,3,65,0,0
158097,-83.3333333333333,4,1,1,65,0,0
158818,-71.4285714285714,4,1,1,70,0,0
159972,-62.5,4,1,1,75,0,0
160404,-50,4,1,1,75,0,0
160693,-58.8235294117647,4,1,1,75,0,0
161270,-58.8235294117647,4,1,1,65,0,0
162568,-83.3333333333333,4,1,1,70,0,0
163577,-111.111111111111,4,1,1,40,0,0
163866,-100,4,1,1,45,0,0
164154,-90.9090909090909,4,1,1,50,0,0
164443,-83.3333333333333,4,1,1,55,0,0
164731,-76.9230769230769,4,1,1,60,0,0
164875,-58.8235294117647,4,1,1,70,0,0
165452,-500,4,1,1,40,0,0
165741,-71.4285714285714,4,1,1,75,0,0
166029,-90.9090909090909,4,1,1,75,0,0
168048,-76.9230769230769,4,1,1,75,0,0
168337,-90.9090909090909,4,1,1,75,0,0
169635,-76.9230769230769,4,1,1,75,0,0
169923,-111.111111111111,4,1,1,75,0,0
170212,-90.9090909090909,4,1,1,75,0,0
170356,-76.9230769230769,4,1,1,75,0,0
172520,-71.4285714285714,4,1,1,75,0,0
172808,-76.9230769230769,4,1,1,75,0,0
174323,-68.9655172413793,4,1,1,75,0,0
174539,-76.9230769230769,4,1,1,75,0,0
174972,-71.4285714285714,4,1,1,75,0,0
175260,-90.9090909090909,4,1,1,75,0,0
177279,-76.9230769230769,4,1,1,75,0,0
177568,-90.9090909090909,4,1,1,75,0,0
178433,-66.6666666666667,4,1,1,75,0,0
178866,-58.8235294117647,4,1,1,75,0,0
179154,-66.6666666666667,4,1,1,75,0,0
179587,-76.9230769230769,4,1,1,75,0,0
181750,-71.4285714285714,4,1,1,75,0,0
183337,-133.333333333333,4,1,1,75,0,0
183625,-66.6666666666667,4,1,1,75,0,0
183770,-76.9230769230769,4,1,1,75,0,0
184923,-100,4,1,1,75,0,0
185068,-76.9230769230769,4,1,1,70,0,0
188818,-66.6666666666667,4,1,1,75,0,0
189683,-285.714285714284,4,1,1,50,0,0
189972,-83.3333333333333,4,1,1,75,0,0
193145,-66.6666666666667,4,1,1,70,0,0
193433,-66.6666666666667,4,1,1,80,0,1
193686,-66.6666666666667,4,1,1,5,0,1
193722,-66.6666666666667,4,1,1,80,0,1
193974,-66.6666666666667,4,1,1,5,0,1
194010,-90.9090909090909,4,1,1,80,0,1
194154,-66.6666666666667,4,1,1,80,0,1
194226,-66.6666666666667,4,1,1,60,0,1
194587,-66.6666666666667,4,1,1,80,0,1
195020,-47.6190476190476,4,1,1,80,0,1
195741,-52.6315789473684,4,1,1,80,0,1
197327,-45.4545454545455,4,1,1,80,0,1
197616,-62.5,4,1,1,80,0,1
198301,-62.5,4,1,1,5,0,1
198337,-62.5,4,1,1,80,0,1
198589,-62.5,4,1,1,5,0,1
198625,-62.5,4,1,1,80,0,1
198842,-62.5,4,1,1,60,0,1
199202,-62.5,4,1,1,80,0,1
199635,-47.6190476190476,4,1,1,80,0,1
200356,-52.6315789473684,4,1,1,80,0,1
200645,-62.5,4,1,1,80,0,1
202087,-66.6666666666667,4,1,1,80,0,1
202664,-100,4,1,1,80,0,1
202952,-71.4285714285714,4,1,1,80,0,1
203818,-153.846153846153,4,2,10,50,0,0
204395,-153.846153846153,4,2,1,50,0,0
208000,-111.111111111111,4,2,1,40,0,0
208361,-111.111111111111,4,2,1,5,0,0
208433,-76.9230769230769,4,1,1,65,0,0
209010,-76.9230769230769,4,1,3,65,0,0
209587,-500,4,2,1,40,0,0
209731,-500,4,2,1,15,0,0

[Colours]
Combo1 : 172,91,158
Combo2 : 201,203,188
Combo3 : 155,163,174
Combo4 : 236,32,32
Combo5 : 250,73,14
Combo6 : 157,60,255

[HitObjects]
478,141,1463,6,0,P|516:189|460:162,1,170,2|0,0:0|0:0,0:0:0:0:
495,172,1896,6,0,B|439:185|439:185|414:227|414:227|340:239,1,170,4|0,3:2|0:0,0:0:0:0:
75,87,2472,2,0,L|134:103,1,59.4999981842042,2|0,0:0|0:0,0:0:0:0:
132,102,2761,2,0,P|121:127|111:201,1,89.2499972763062,2|0,0:0|0:0,0:0:0:0:
110,187,3049,69,4,0:0:0:0:
27,326,3194,2,0,P|50:299|94:284,1,72.2500013780594,2|0,0:0|0:0,0:0:0:0:
230,133,3482,2,0,P|253:160|297:175,1,72.2500013780594,2|0,0:0|0:0,0:0:0:0:
345,238,3770,6,0,B|447:225|406:305|530:278,1,180.625003445149,2|0,0:1|0:0,0:0:0:0:
512,281,4203,37,4,0:0:0:0:
362,65,4347,2,0,L|371:125,2,42.5,2|0|8,0:0|3:0|0:0,0:0:0:0:
455,96,4636,2,0,B|392:114|392:114|365:148|365:148|298:165,1,170,2|0,0:0|3:0,0:0:0:0:
125,15,5069,2,0,B|166:8|166:8|212:33,1,85,8|0,0:0|0:0,0:0:0:0:
218,38,5285,1,2,0:2:0:0:
228,49,5357,5,0,0:0:0:0:
163,183,5501,1,2,3:0:0:0:
374,296,5645,69,8,0:0:0:0:
294,151,5790,2,0,P|293:180|274:241,1,85,2|0,0:0|2:0,0:0:0:0:
30,384,6078,2,0,P|59:336|170:339,1,152.999995330811,10|0,0:0|2:0,0:0:0:0:
250,366,6367,5,8,0:0:0:0:
250,366,6439,1,8,3:0:0:0:
250,366,6511,2,0,P|289:373|336:384,1,85,4|0,0:0|0:0,0:0:0:0:
230,221,6799,1,8,0:0:0:0:
451,102,6944,2,0,B|367:110|400:174|264:147,1,170,2|0,0:0|3:0,0:0:0:0:
118,14,7376,2,0,P|158:30|200:37,1,85,8|0,0:0|0:0,0:0:0:0:
417,95,7665,69,4,0:0:0:0:
341,48,7809,2,0,B|318:84|318:84|334:133,1,85,2|8,0:2|0:0,0:0:0:0:
480,163,8097,2,0,B|512:109|512:109|492:38,1,127.5,2|0,0:0|0:0,0:0:0:0:
422,12,8386,6,0,L|409:86,1,50.9999984436036,0|8,3:0|3:0,0:0:0:0:
285,136,8530,1,8,3:0:0:0:
292,144,8602,1,8,3:0:0:0:
292,144,8674,2,0,L|308:218,1,50.9999984436036,4|0,3:0|0:0,0:0:0:0:
431,274,8819,70,0,B|394:261|381:213|381:213|356:271|297:273,1,178.499994552612,4|0,0:0|2:0,0:0:0:0:
385,195,9107,2,0,B|427:183|427:183|435:174|435:174|491:159,1,101.999996887207,10|0,0:0|0:0,0:0:0:0:
185,280,9395,6,0,P|139:245|219:212,1,178.499994552612,4|0,0:0|2:0,0:0:0:0:
160,293,9684,2,0,B|117:308|117:308|113:317|113:317|58:339,1,101.999996887207,10|0,0:0|0:0,0:0:0:0:
280,384,9972,69,4,0:0:0:0:
383,210,10117,2,0,B|359:168|359:168|389:113,1,101.999996887207,2|8,0:0|0:0,0:0:0:0:
482,203,10405,2,0,B|381:206|419:290|296:265,1,203.999993774414,2|0,0:0|2:0,0:0:0:0:
137,191,10838,2,0,L|150:127,1,50.9999984436036,8|0,0:0|0:0,0:0:0:0:
147,141,10982,6,0,B|105:137|66:122|66:122|53:157|27:198,1,152.999995330811,4|0,0:0|0:0,0:0:0:0:
86,267,11270,2,0,B|87:285|87:285|94:297|94:297|97:332,2,50.9999984436036,2|0|8,0:0|3:0|0:0,0:0:0:0:
362,74,11559,70,0,B|404:77|454:51|454:51|456:90|488:128,1,178.499994552612,4|0,0:0|0:0,0:0:0:0:
393,220,11847,1,8,0:0:0:0:
393,220,11920,1,8,0:0:0:0:
393,220,11992,2,0,P|401:176|402:137,1,59.4999981842042,8|4,3:0|3:0,0:0:0:0:
299,9,12136,6,0,P|257:52|276:115,1,118.999996368408,6|0,0:0|2:0,0:0:0:0:
483,338,12424,69,8,3:0:0:0:
488,339,12496,1,8,0:0:0:0:
493,340,12569,2,0,B|530:315|530:315|508:234,1,118.999996368408,4|0,1:2|2:0,0:0:0:0:
384,193,12857,5,8,3:0:0:0:
384,193,12929,1,8,0:0:0:0:
384,193,13001,2,0,B|344:190|312:176|312:176|273:236|273:236|226:224|226:224|198:251|172:253,1,244.375004661083,4|0,0:0|2:0,0:0:0:0:
132,320,13434,38,0,B|94:210|94:210|49:258,1,178.499994552612,10|0,0:0|2:0,0:0:0:0:
51,255,13722,2,0,B|159:220|159:220|107:169,1,178.499994552612,10|0,0:0|2:0,0:0:0:0:
112,174,14011,2,0,B|69:214|69:214|184:250,1,178.499994552612,10|0,0:0|2:0,0:0:0:0:
191,254,14299,1,2,0:0:0:0:
385,183,14444,53,2,3:0:0:0:
280,335,14588,2,0,P|289:294|293:252,1,85,0|0,0:0|3:0,0:0:0:0:
437,323,14876,1,8,0:0:0:0:
476,174,15020,2,0,B|413:195|413:195|431:297,1,170,0|0,3:0|0:0,0:0:0:0:
305,160,15453,2,0,L|210:143,1,85,8|0,0:0|0:0,0:0:0:0:
305,160,15742,5,0,3:0:0:0:
138,254,15886,1,2,0:2:0:0:
221,145,16030,69,8,0:0:0:0:
241,310,16174,2,0,B|227:271|227:271|251:220,1,85,2|0,0:0|3:0,0:0:0:0:
296,76,16463,1,2,0:2:0:0:
379,61,16607,2,0,L|288:77,1,85,8|0,0:0|0:0,0:0:0:0:
34,200,16895,53,8,3:0:0:0:
31,204,16968,1,4,3:0:0:0:
28,208,17040,2,0,P|51:200|91:194,1,50.9999984436036,0|8,3:0|3:0,0:0:0:0:
175,102,17184,6,0,P|155:131|152:155,1,59.4999981842042,0|8,3:0|3:0,0:0:0:0:
214,297,17328,2,0,P|194:268|191:244,1,50.9999984436036,8|0,0:0|3:0,0:0:0:0:
266,139,17472,69,4,3:0:0:0:
304,125,17545,1,8,3:0:0:0:
340,143,17617,1,4,3:0:0:0:
358,179,17689,1,2,3:0:0:0:
362,224,17761,1,8,0:0:0:0:
389,260,17833,1,0,3:0:0:0:
434,281,17905,1,6,3:0:0:0:
482,265,17977,1,4,3:0:0:0:
507,226,18049,54,0,P|491:159|397:170,1,178.499994552612,10|0,0:0|2:0,0:0:0:0:
405,176,18338,2,0,P|484:194|513:118,1,178.499994552612,10|0,0:0|2:0,0:0:0:0:
512,116,18626,2,0,P|451:170|498:238,1,178.499994552612,10|0,0:0|2:0,0:0:0:0:
506,241,18915,1,2,0:0:0:0:
300,301,19059,53,8,0:0:0:0:
414,363,19203,2,0,P|371:368|318:385,1,85,2|0,0:2|0:0,0:0:0:0:
331,379,19492,1,8,0:0:0:0:
185,237,19636,2,0,B|288:271|288:271|320:247|303:211,1,170,2|0,3:0|0:0,0:0:0:0:
297,202,19996,1,2,0:2:0:0:
285,194,20069,1,8,0:0:0:0:
167,254,20213,1,2,0:3:0:0:
249,358,20357,5,0,3:0:0:0:
198,143,20501,2,0,P|158:157|93:166,1,85,2|8,0:0|0:0,0:0:0:0:
161,288,20790,69,2,3:0:0:0:
161,288,20862,1,0,3:0:0:0:
161,288,20934,1,0,3:0:0:0:
292,82,21078,2,0,B|333:104|333:104|382:93,1,93.5000028533936,2|8,0:0|0:0,0:0:0:0:
339,237,21367,5,4,3:0:0:0:
339,237,21439,1,4,3:0:0:0:
339,237,21511,1,0,3:0:0:0:
205,22,21655,2,0,L|94:42,1,101.999996887207,2|8,0:0|0:0,0:0:0:0:
89,189,21944,38,0,L|103:119,1,50.9999984436036,2|0,2:0|0:0,0:0:0:0:
374,0,22088,6,0,B|392:61|418:99|418:99|383:85|343:92,1,165.749992412568,6|0,0:0|2:0,0:0:0:0:
232,37,22376,2,0,B|214:98|188:136|188:136|223:122|263:129,1,165.749992412568,6|0,0:0|2:0,0:0:0:0:
325,170,22665,38,0,B|354:255|354:255|326:298|266:282,1,178.499994552612,12|0,0:0|2:0,0:0:0:0:
276,285,22953,2,0,B|361:256|361:256|405:284|389:344,1,178.499994552612,12|0,0:0|2:0,0:0:0:0:
391,333,23242,2,0,B|362:248|362:248|390:204|450:220,1,178.499994552612,12|0,0:0|2:0,0:0:0:0:
446,223,23530,1,2,0:0:0:0:
272,168,23674,53,8,0:0:0:0:
365,30,23819,2,0,P|352:70|346:112,1,85,2|0,0:0|0:0,0:0:0:0:
264,6,24107,1,8,0:0:0:0:
426,112,24251,2,0,B|347:107|366:193|245:163,1,170,2|0,0:0|0:0,0:0:0:0:
174,83,24684,2,0,L|76:70,1,85,8|0,0:0|0:0,0:0:0:0:
39,246,24972,5,4,3:0:0:0:
177,184,25117,1,2,0:2:0:0:
172,264,25261,69,8,0:0:0:0:
47,167,25405,1,0,0:2:0:0:
172,264,25549,6,0,B|160:226|160:226|181:175,1,85,4|0,3:0|0:0,0:0:0:0:
21,338,25838,1,8,0:0:0:0:
275,220,25982,1,2,3:0:0:0:
278,218,26054,1,0,3:0:0:0:
282,216,26126,38,0,B|300:211|300:211|315:215|315:215|346:208,3,50.9999984436036,8|8|0|8,3:0|3:0|3:0|3:0,0:0:0:0:
435,261,26415,6,0,B|455:266|455:266|470:262|470:262|500:268,1,50.9999984436036,2|0,3:0|3:0,0:0:0:0:
512,306,26559,69,0,3:0:0:0:
474,289,26631,1,8,3:0:0:0:
433,293,26703,1,0,3:0:0:0:
396,310,26775,1,0,3:0:0:0:
376,345,26847,1,8,3:0:0:0:
209,139,26992,5,8,3:0:0:0:
239,172,27064,1,0,3:0:0:0:
284,180,27136,1,4,3:0:0:0:
327,165,27208,1,4,3:0:0:0:
335,156,27280,38,0,B|270:179|270:179|251:225|251:225|184:252,1,178.499994552612,10|0,0:0|2:0,0:0:0:0:
195,247,27569,2,0,B|248:288|248:288|297:280|297:280|355:323,1,178.499994552612,10|0,0:0|2:0,3:0:0:0:
346,316,27857,2,0,B|356:247|356:247|324:209|324:209|332:137,1,178.499994552612,10|0,0:0|0:0,3:0:0:0:
332,140,28145,1,10,0:0:0:0:
254,312,28290,53,8,3:0:0:0:
452,213,28434,2,0,P|410:221|359:236,1,85,0|0,3:0|0:0,0:0:0:0:
236,157,28722,1,8,0:0:0:0:
291,0,28867,2,0,B|349:44|349:44|329:152,1,170,2|0,0:0|0:0,0:0:0:0:
331,139,29299,1,8,0:0:0:0:
127,136,29444,53,2,0:3:0:0:
123,133,29516,1,2,0:3:0:0:
119,130,29588,2,0,P|141:89|238:76,1,146.62500279665,4|0,0:0|2:0,0:0:0:0:
244,79,29876,1,8,0:0:0:0:
391,199,30020,6,0,B|412:203|412:203|432:212|432:212|484:218,1,57.3750002188683,12|8,3:0|0:0,0:0:0:0:
493,312,30165,69,8,0:0:0:0:
370,350,30309,1,2,0:0:0:0:
291,241,30453,5,8,3:0:0:0:
390,281,30597,1,0,3:0:0:0:
370,350,30742,6,0,P|377:316|395:272,1,72.2500013780594,6|0,0:0|0:0,0:0:0:0:
226,185,31030,6,0,P|221:159|212:137,1,38.2499988327027,2|2,0:0|0:0,0:0:0:0:
483,81,31463,70,0,P|487:61|495:39,1,42.5,2|0,0:0|0:0,0:0:0:0:
494,40,31895,1,0,3:0:0:0:
364,173,32040,53,0,3:0:0:0:
332,96,32184,1,8,3:0:0:0:
259,135,32328,1,2,1:0:0:0:
480,201,32472,5,4,1:0:0:0:
480,201,32905,1,4,0:0:0:0:
381,312,33049,69,2,0:0:0:0:
257,257,33194,1,2,1:0:0:0:
85,352,33338,5,4,0:0:0:0:
70,358,33626,6,0,P|58:338|56:308,1,42.5,2|0,2:0|2:0,2:0:0:0:
0,263,33915,2,0,P|0:240|14:213,1,42.5,2|0,2:0|2:0,2:0:0:0:
58,161,34203,1,0,2:0:0:0:
23,15,34347,53,8,3:3:0:0:
58,161,34492,1,2,0:0:0:0:
175,69,34636,1,2,0:0:0:0:
386,250,34780,5,4,0:0:0:0:
386,250,35213,1,4,0:0:0:0:
431,154,35357,69,2,0:0:0:0:
287,210,35501,1,2,0:0:0:0:
440,369,35645,5,4,0:0:0:0:
450,374,35934,6,0,P|463:352|463:328,1,42.5,2|0,2:0|2:0,0:0:0:0:
425,269,36222,2,0,P|422:248|410:230,1,42.5,2|0,2:0|2:0,0:0:0:0:
336,202,36511,1,0,2:0:0:0:
382,86,36655,53,12,3:0:0:0:
204,208,36799,1,2,0:0:0:0:
382,334,36944,1,2,0:0:0:0:
269,37,37088,5,4,0:0:0:0:
269,37,37520,1,4,0:0:0:0:
345,239,37665,69,2,0:0:0:0:
402,68,37809,1,2,0:0:0:0:
230,341,37953,5,4,0:0:0:0:
214,367,38226,2,0,L|202:302,1,50.9999984436036,0|8,0:0|3:0,0:0:0:0:
318,263,38370,69,0,1:0:0:0:
318,263,38442,1,8,3:0:0:0:
318,263,38514,2,0,L|331:199,1,50.9999984436036,8|8,0:0|3:0,0:0:0:0:
332,193,38658,1,8,3:0:0:0:
108,180,38819,6,0,L|251:202,1,140.25000428009,6|0,0:0|0:0,0:0:0:0:
250,190,39107,1,8,0:0:0:0:
116,168,39251,1,0,3:0:0:0:
466,241,39395,70,0,L|312:274,1,140.25000428009,6|0,0:0|0:0,0:0:0:0:
322,254,39684,1,8,0:0:0:0:
462,230,39828,1,0,3:0:0:0:
195,328,39972,5,6,0:0:0:0:
360,59,40117,1,8,3:0:0:0:
400,82,40189,1,8,3:0:0:0:
418,124,40261,1,8,3:0:0:0:
403,168,40333,1,4,3:0:0:0:
403,168,40405,6,0,B|354:157|354:157|347:144|347:144|295:132,1,114.749996498108,6|0,2:0|2:0,0:0:0:0:
212,150,40694,6,0,B|328:164|314:70|410:83,1,208.249993644715,4|0,1:0|2:0,0:0:0:0:
421,97,41270,37,2,2:0:0:0:
479,193,41415,1,2,2:3:0:0:
410,231,41559,5,2,2:0:0:0:
363,356,41703,1,2,2:3:0:0:
301,301,41847,69,2,2:0:0:0:
479,193,41992,1,2,2:3:0:0:
495,277,42136,5,2,2:0:0:0:
328,139,42280,1,2,2:3:0:0:
421,97,42424,69,2,2:0:0:0:
296,360,42569,1,2,2:3:0:0:
385,192,42713,22,0,L|416:186,1,31.8749990272522,2|0,0:0|2:0,0:0:0:0:
417,186,43434,22,0,B|339:175|350:255|247:226,1,178.499994552612,4|0,1:0|2:0,0:0:0:0:
228,208,43722,1,8,0:0:0:0:
370,320,43867,2,0,L|355:381,2,46.7500014266968,2|2|0,0:0|2:0|0:0,0:0:0:0:
418,174,44155,2,0,P|371:179|322:214,1,93.5000028533936,2|8,0:0|0:0,0:0:0:0:
477,263,44444,1,0,0:0:0:0:
271,130,44588,5,4,0:0:0:0:
421,51,44732,1,0,3:0:0:0:
421,51,44804,1,0,3:0:0:0:
421,51,44876,1,8,0:0:0:0:
328,36,45020,70,0,L|429:52,1,93.5000028533936,2|0,0:0|0:0,0:0:0:0:
264,278,45309,1,2,0:0:0:0:
424,192,45453,1,8,0:0:0:0:
289,109,45597,1,2,2:0:0:0:
289,109,45670,1,2,2:0:0:0:
289,109,45742,6,0,B|231:132|231:132|216:167|216:167|147:194,1,165.749992412568,2|0,0:0|2:0,0:0:0:0:
138,196,46030,1,8,0:0:0:0:
260,362,46174,2,0,B|241:322|241:322|265:274,1,93.5000028533936,2|0,0:0|0:0,0:0:0:0:
331,191,46463,1,0,3:0:0:0:
240,378,46607,2,0,P|281:322|389:340,1,165.749992412568,10|0,0:0|2:0,0:0:0:0:
464,240,46895,70,0,P|458:196|454:139,1,85,4|0,0:0|0:0,0:0:0:0:
441,83,47112,1,8,3:0:0:0:
438,70,47184,1,8,0:0:0:0:
480,259,47328,6,0,B|415:246|415:246|399:212|399:212|313:192,1,178.499994552612,4|0,0:0|2:0,0:0:0:0:
252,95,47617,70,0,B|231:102|231:102|203:98|203:98|177:111|177:111|150:108,1,102,6|0,0:0|0:0,0:0:0:0:
132,93,47905,2,0,L|125:146,1,46.7500014266968,8|8,0:0|0:0,0:0:0:0:
5,327,48049,6,0,B|49:329|69:283|69:283|36:192,1,165.749992412568,4|0,0:0|0:0,0:0:0:0:
24,219,48338,2,0,L|148:241,1,110.499994941712,8|0,0:0|0:0,0:0:0:0:
369,69,48626,70,0,B|302:56|302:56|240:89|262:152,1,165.749992412568,2|0,0:0|0:0,0:0:0:0:
233,139,48915,2,0,P|265:183|332:172,1,110.499994941712,8|0,0:0|0:0,0:0:0:0:
482,339,49203,5,4,0:0:0:0:
408,171,49347,2,0,P|400:200|393:242,2,55.2499974708558,2|8|8,2:0|3:0|0:0,0:0:0:0:
224,373,49636,2,0,P|268:319|380:329,1,165.749992412568,2|0,0:2|0:0,0:0:0:0:
351,337,49924,2,0,B|379:337|379:337|402:350|402:350|432:346|432:346|471:358,1,110.499994941712,2|8,0:0|0:0,0:0:0:0:
150,269,50213,70,0,B|94:253|94:253|77:208|77:208|1:183,1,165.749992412568,4|0,0:0|2:0,0:0:0:0:
1,185,50501,1,2,0:0:0:0:
0,303,50645,5,8,0:0:0:0:
171,168,50790,1,0,0:0:0:0:
150,269,50934,69,2,3:0:0:0:
43,102,51079,1,0,0:0:0:0:
150,269,51222,2,0,L|170:182,1,85,8|0,0:0|0:0,0:0:0:0:
210,25,51511,6,0,B|303:21|275:87|374:66,1,165.749992412568,2|8,0:0|3:0,0:0:0:0:
370,70,51799,1,8,0:0:0:0:
491,181,51944,70,0,B|449:182|416:167|416:167|412:214|387:279,1,165.749992412568,4|0,0:0|3:0,0:0:0:0:
512,326,52232,5,12,3:0:0:0:
512,326,52304,1,8,3:0:0:0:
512,326,52376,2,0,B|486:325|486:325|458:310,1,55.2499974708558,8|0,0:0|3:0,0:0:0:0:
389,371,52520,2,0,B|363:371|363:371|327:390,1,55.2499974708558,8|0,0:0|3:0,0:0:0:0:
234,312,52665,70,0,B|146:304|173:379|58:352,1,178.499994552612,4|0,0:0|0:0,0:0:0:0:
55,346,52953,1,8,0:0:0:0:
240,186,53097,2,0,L|223:237,2,46.7500014266968,2|0|0,0:0|0:0|0:0,0:0:0:0:
305,249,53386,1,2,0:0:0:0:
228,83,53530,1,8,0:0:0:0:
111,224,53674,1,0,0:0:0:0:
240,186,53819,5,4,0:0:0:0:
100,75,53963,1,0,3:0:0:0:
100,75,54035,1,0,3:0:0:0:
100,75,54107,1,8,0:0:0:0:
0,152,54251,70,0,P|47:85|115:79,1,140.25000428009,2|0,0:0|2:0,0:0:0:0:
183,165,54540,2,0,L|172:222,1,46.7500014266968,2|0,0:0|2:0,0:0:0:0:
42,268,54684,1,8,0:0:0:0:
297,275,54828,6,0,B|279:277|279:277|262:287|262:287|208:291,1,53.125,2|0,2:0|0:0,0:0:0:0:
95,166,54972,2,0,B|200:149|160:236|286:194,1,191.250007295609,6|0,0:0|0:0,0:0:0:0:
291,182,55261,1,8,0:0:0:0:
122,363,55405,2,0,B|145:322|145:322|126:273,1,93.5000028533936,2|0,0:0|0:0,0:0:0:0:
243,103,55694,2,0,L|233:45,2,46.7500014266968,8|0|10,3:0|3:0|0:0,0:0:0:0:
442,344,56054,69,2,0:0:0:0:
453,358,56126,2,0,B|464:331|464:331|460:312|460:312|469:293|469:293|467:263,1,93.5000028533936,2|0,0:2|0:0,0:0:0:0:
494,251,56343,2,0,L|430:242,1,46.7500014266968,0|8,3:0|0:0,0:0:0:0:
143,128,56559,6,0,B|185:146|231:123|231:123|209:173|244:213,1,178.499994552612,4|0,3:2|0:0,0:0:0:0:
335,149,56847,70,0,B|380:140|380:140|388:145|388:145|441:136,1,102,10|0,0:0|2:0,0:0:0:0:
512,131,57136,2,0,B|530:116|530:116|499:105,1,46.7500014266968,8|8,0:0|0:0,0:0:0:0:
414,115,57280,6,0,P|346:178|395:258,1,165.749992412568,4|0,0:0|2:0,0:0:0:0:
478,324,57569,2,0,B|519:306|533:263|500:228,1,110.499994941712,10|0,0:0|0:0,0:0:0:0:
253,151,57857,70,0,B|210:141|178:167|178:167|154:217|88:210,1,165.749992412568,2|0,0:0|2:0,0:0:0:0:
182,353,58145,1,8,3:0:0:0:
182,353,58218,1,8,3:0:0:0:
182,353,58290,2,0,L|196:282,1,55.2499974708558,4|4,3:0|3:0,0:0:0:0:
188,268,58434,6,0,B|161:309|161:309|281:334,1,165.749992412568,4|0,0:0|2:0,0:0:0:0:
276,333,58722,1,8,0:0:0:0:
35,179,58867,1,0,0:0:0:0:
24,199,58939,1,8,3:0:0:0:
26,217,59011,1,4,3:0:0:0:
170,145,59155,1,2,3:0:0:0:
3,34,59299,1,8,0:0:0:0:
233,75,59444,70,0,B|150:66|179:150|55:114,1,170,4|0,0:0|0:0,0:0:0:0:
240,63,59876,1,8,0:0:0:0:
61,105,60020,6,0,B|173:83|136:178|264:147,1,203.999993774414,6|8,0:0|0:0,0:0:0:0:
324,88,60381,1,8,0:0:0:0:
328,84,60452,2,0,L|400:96,1,50.9999984436036,8|0,3:0|3:0,0:0:0:0:
453,161,60597,70,0,B|409:157|384:116|384:116|386:165|346:199,1,165.749992412568,6|0,0:0|1:0,0:0:0:0:
399,320,60886,1,4,3:0:0:0:
402,324,60958,1,4,3:0:0:0:
405,328,61030,2,0,P|409:284|423:227,1,89.2499972763062,12|0,3:0|0:0,0:0:0:0:
308,128,61319,6,0,P|294:100|299:62,1,63.7500024318696,10|8,0:0|3:0,0:0:0:0:
305,48,61463,2,0,P|328:120|189:104,1,276.249987354279,4|0,3:2|2:0,0:0:0:0:
201,102,61895,37,4,0:0:0:0:
435,152,62184,1,8,0:0:0:0:
416,77,62472,1,0,3:0:0:0:
212,180,62761,1,10,0:0:0:0:
416,77,63049,53,0,3:0:0:0:
435,152,63194,1,0,3:0:0:0:
201,102,63338,1,8,0:0:0:0:
212,180,63482,2,0,L|179:389,1,165.749992412568,2|0,0:1|2:0,0:0:0:0:
174,359,63770,5,0,3:0:0:0:
98,335,63915,1,8,0:0:0:0:
123,260,64059,1,8,0:0:0:0:
365,339,64203,5,4,0:0:0:0:
305,122,64492,1,8,0:0:0:0:
374,149,64780,1,4,3:0:0:0:
297,305,65069,2,0,L|309:249,1,51,10|0,0:0|2:0,0:0:0:0:
338,222,65357,53,0,3:0:0:0:
301,233,65429,1,0,3:0:0:0:
264,220,65501,1,0,3:0:0:0:
240,189,65573,1,0,3:0:0:0:
229,170,65645,2,0,P|198:181|155:189,1,55.2499974708558,8|0,3:1|0:0,0:0:0:0:
61,266,65790,2,0,P|87:259|113:249,1,55.2499974708558,2|0,3:1|0:0,0:0:0:0:
309,149,65934,5,8,0:0:0:0:
340,126,66006,1,0,3:0:0:0:
378,124,66078,1,0,3:0:0:0:
413,140,66150,1,8,3:0:0:0:
442,180,66222,1,8,3:0:0:0:
486,204,66295,1,8,3:0:0:0:
512,196,66367,1,4,3:0:0:0:
512,60,66511,5,4,0:0:0:0:
309,149,66799,1,8,0:0:0:0:
286,74,67088,1,4,3:0:0:0:
497,141,67376,1,10,0:0:0:0:
484,217,67665,53,4,3:0:0:0:
428,109,67809,1,0,3:0:0:0:
283,310,67953,5,8,0:0:0:0:
327,182,68097,1,0,3:0:0:0:
327,182,68170,1,2,3:0:0:0:
327,182,68242,1,0,0:0:0:0:
252,197,68386,2,0,L|327:183,1,76.4999976654053,2|8,0:0|0:0,0:0:0:0:
403,170,68674,1,0,3:0:0:0:
145,324,68819,5,4,0:0:0:0:
160,241,68963,2,0,P|156:282|144:329,1,85,2|8,0:0|0:0,0:0:0:0:
406,192,69251,5,2,3:0:0:0:
501,230,69396,1,0,3:0:0:0:
486,129,69540,2,0,P|489:185|501:232,1,101.999996887207,2|8,0:0|0:0,0:0:0:0:
249,83,69828,37,4,3:0:0:0:
160,241,69972,1,8,3:0:0:0:
159,22,70117,5,0,3:0:0:0:
151,39,70189,1,8,0:0:0:0:
245,237,70333,1,8,3:0:0:0:
257,221,70405,2,0,P|259:192|269:156,1,59.4999981842042,4|0,3:0|2:0,0:0:0:0:
60,195,70694,38,0,B|13:257|93:322|163:285|173:198|145:115|82:102,1,318.750012159348,14|0,0:0|2:0,0:0:0:0:
82,111,71126,6,0,P|133:181|223:151,1,178.499994552612,6|0,0:0|0:0,0:0:0:0:
226,166,71415,2,0,P|143:149|94:218,1,178.499994552612,10|0,0:0|0:0,0:0:0:0:
100,229,71703,2,0,P|170:182|155:99,1,178.499994552612,10|0,0:0|0:0,0:0:0:0:
144,91,71992,1,8,0:3:0:0:
231,262,72136,37,2,0:2:0:0:
328,139,72280,2,0,P|318:178|313:229,1,85,0|0,3:0|0:0,0:0:0:0:
347,304,72568,1,4,3:0:0:0:
485,154,72713,5,8,0:0:0:0:
418,120,72857,1,2,3:0:0:0:
399,194,73001,1,0,3:0:0:0:
470,241,73145,1,8,0:0:0:0:
489,163,73290,1,0,0:0:0:0:
387,36,73434,69,2,3:0:0:0:
305,70,73578,1,8,3:0:0:0:
120,85,73722,5,2,0:2:0:0:
189,154,73867,2,0,B|232:148|232:148|277:170,1,85,8|0,0:0|3:0,0:0:0:0:
401,236,74155,2,0,L|397:177,2,42.5,0|2|8,0:0|0:2|0:0,0:0:0:0:
308,289,74443,1,0,3:0:0:0:
494,237,74588,70,0,B|401:226|441:329|289:284,1,203.999993774414,2|0,0:0|3:0,0:0:0:0:
189,372,75020,2,0,P|201:320|200:282,1,85,8|8,0:0|3:0,0:0:0:0:
403,135,75309,53,2,0:2:0:0:
404,131,75381,1,2,0:2:0:0:
406,128,75453,2,0,L|419:190,1,42.5,2|0,3:0|0:0,0:0:0:0:
287,322,75597,6,0,B|293:301|293:301|292:284|297:264,1,55.2499974708558,2|0,2:3|2:0,0:0:0:0:
274,162,75742,38,0,P|207:188|213:104,1,178.499994552612,6|0,0:0|2:0,0:0:0:0:
217,101,76030,2,0,P|243:34|159:40,1,178.499994552612,10|0,0:0|2:0,0:0:0:0:
154,42,76318,2,0,B|237:54|237:54|251:71|251:71|336:88,1,178.499994552612,10|0,0:0|2:0,0:0:0:0:
336,89,76607,1,8,3:0:0:0:
174,189,76751,53,2,0:0:0:0:
138,281,76895,2,0,B|237:252|237:252|225:307|257:339,1,187.000005706787,0|4,3:0|3:0,0:0:0:0:
319,256,77328,2,0,B|258:244|258:244|233:206|233:206|168:187,1,170,8|0,0:0|3:0,0:0:0:0:
173,188,77761,1,8,0:0:0:0:
250,331,78049,53,8,0:0:0:0:
342,153,78193,1,8,0:0:0:0:
347,158,78482,21,4,3:0:0:0:
319,256,78626,53,8,0:0:0:0:
249,54,78770,1,8,0:0:0:0:
243,59,79059,21,4,3:0:0:0:
250,194,79203,53,8,0:0:0:0:
381,0,79347,1,8,0:0:0:0:
390,12,79564,21,2,2:0:0:0:
390,12,79636,2,0,L|399:74,1,42.5,8|0,0:0|2:0,0:0:0:0:
430,225,79780,54,0,B|423:174|451:123|451:123|418:148|384:143,1,178.499994552612,6|0,0:0|2:0,0:0:0:0:
267,4,80068,2,0,B|274:55|246:106|246:106|279:81|313:86,1,178.499994552612,6|0,0:0|2:0,0:0:0:0:
306,172,80357,54,0,P|269:109|157:125,1,178.499994552612,6|0,0:0|2:0,0:0:0:0:
159,114,80645,2,0,P|243:122|292:52,1,178.499994552612,10|0,0:0|2:0,0:0:0:0:
282,44,80934,2,0,P|209:100|237:200,1,203.999993774414,10|0,0:0|3:0,0:0:0:0:
375,245,81367,53,8,0:0:0:0:
307,172,81511,2,0,P|253:178|186:283,1,170,2|0,0:0|3:0,0:0:0:0:
402,162,81943,2,0,P|408:122|425:68,1,85,8|2,0:0|0:2,0:0:0:0:
318,182,82232,1,0,3:0:0:0:
318,182,82304,1,0,3:0:0:0:
318,182,82376,1,8,0:0:0:0:
420,79,82520,1,8,0:0:0:0:
511,295,82665,6,0,P|469:300|411:316,1,85,4|0,0:0|0:0,0:0:0:0:
326,87,82953,2,0,P|284:82|226:66,1,85,10|0,0:0|0:0,0:0:0:0:
114,242,83242,2,0,P|72:247|14:263,1,85,2|0,0:0|0:0,0:0:0:0:
114,242,83530,1,8,0:0:0:0:
4,87,83674,1,2,0:2:0:0:
4,87,83746,1,2,0:2:0:0:
4,87,83818,38,0,B|102:89|63:149|179:123,1,170,4|0,0:0|3:0,0:0:0:0:
239,214,84251,2,0,B|216:254|216:254|232:300,1,85,8|0,0:0|0:0,0:0:0:0:
331,130,84540,1,4,3:0:0:0:
331,130,84612,1,8,3:0:0:0:
331,130,84684,1,2,3:0:0:0:
123,228,84828,1,2,0:0:0:0:
309,384,84972,54,0,B|366:297|366:297|298:256,1,178.499994552612,6|0,0:0|0:0,0:0:0:0:
288,260,85261,2,0,B|375:317|375:317|416:249,1,178.499994552612,10|0,0:0|0:0,0:0:0:0:
406,241,85549,2,0,B|349:328|349:328|445:380,1,203.999993774414,10|0,0:0|3:0,0:0:0:0:
341,184,85982,1,8,1:0:0:0:
356,100,86126,54,0,P|346:140|340:189,1,85,4|0,0:0|0:0,0:0:0:0:
300,33,86415,1,0,3:0:0:0:
443,108,86559,2,0,B|378:91|378:91|362:58|362:58|287:28,1,170,8|0,0:0|3:0,0:0:0:0:
448,89,86992,5,8,0:0:0:0:
241,195,87136,1,8,0:0:0:0:
340,184,87280,38,0,P|291:194|263:286,1,152.999995330811,2|0,0:0|2:0,0:0:0:0:
321,367,87568,2,0,P|324:340|337:307,2,50.9999984436036,8|0|2,0:0|3:0|3:0,0:0:0:0:
165,262,87857,2,0,P|110:278|47:290,1,101.999996887207,2|0,3:2|0:0,0:0:0:0:
294,115,88145,1,8,0:0:0:0:
134,157,88290,5,2,0:2:0:0:
138,152,88362,1,2,0:2:0:0:
144,149,88434,2,0,P|191:146|246:250,1,165.749992412568,10|0,0:0|0:0,0:0:0:0:
267,264,88722,70,0,P|283:233|292:184,1,55.2499974708558,8|0,0:0|3:0,0:0:0:0:
440,83,88867,1,0,3:0:0:0:
440,83,88939,1,8,3:0:0:0:
440,83,89011,2,0,P|409:99|360:108,1,55.2499974708558,12|0,3:0|3:0,0:0:0:0:
390,234,89155,6,0,P|376:209|368:183,1,55.2499974708558,8|0,3:0|3:0,0:0:0:0:
241,78,89299,1,8,3:0:0:0:
241,78,89371,1,0,3:0:0:0:
241,78,89443,2,0,P|272:94|321:103,1,55.2499974708558,4|0,3:0|3:0,0:0:0:0:
448,170,89588,5,4,0:2:0:0:
333,321,89732,53,12,3:0:0:0:
403,376,89876,1,2,0:0:0:0:
458,306,90020,1,2,0:0:0:0:
237,361,90165,5,4,0:0:0:0:
237,361,90597,1,4,0:0:0:0:
166,269,90742,69,2,0:0:0:0:
286,206,90886,1,2,0:0:0:0:
176,96,91030,5,4,0:0:0:0:
170,92,91318,6,0,L|157:43,1,42.5,2|0,2:0|2:0,2:0:0:0:
251,128,91607,2,0,L|261:86,1,42.5,2|0,2:0|2:0,2:0:0:0:
162,174,91895,1,0,2:0:0:0:
366,297,92040,53,4,0:0:0:0:
351,184,92184,1,2,0:0:0:0:
342,52,92328,1,2,0:0:0:0:
512,173,92472,5,4,0:0:0:0:
512,173,92905,1,4,0:0:0:0:
399,115,93049,69,2,0:0:0:0:
246,207,93193,1,2,0:0:0:0:
53,148,93338,5,4,0:0:0:0:
59,145,93626,6,0,P|64:123|70:91,1,42.5,2|0,2:0|2:0,2:0:0:0:
8,52,93915,2,0,P|3:30|-3:-2,1,42.5,2|0,2:0|2:0,2:0:0:0:
130,49,94203,1,0,2:0:0:0:
27,274,94347,53,4,0:0:0:0:
168,175,94492,1,2,0:0:0:0:
67,103,94636,1,2,0:0:0:0:
110,355,94780,5,4,0:0:0:0:
110,355,95213,1,4,0:0:0:0:
335,270,95357,69,2,0:0:0:0:
142,191,95501,1,2,0:0:0:0:
447,99,95645,5,4,0:0:0:0:
450,93,95926,69,4,3:0:0:0:
246,215,96070,1,0,3:0:0:0:
246,215,96142,1,8,3:0:0:0:
246,215,96214,1,8,0:0:0:0:
382,351,96358,1,8,0:0:0:0:
450,93,96511,6,0,P|405:101|332:189,1,146.62500279665,6|0,0:0|0:0,0:0:0:0:
330,184,96799,1,8,0:0:0:0:
463,269,96943,1,0,0:0:0:0:
239,186,97087,70,0,P|284:194|357:282,1,146.62500279665,6|0,0:0|0:0,0:0:0:0:
359,277,97375,1,8,0:0:0:0:
226,362,97519,1,0,0:0:0:0:
360,87,97664,5,8,0:0:0:0:
471,272,97809,1,8,3:0:0:0:
484,249,97881,1,8,0:0:0:0:
481,222,97953,1,8,0:0:0:0:
449,45,98097,6,0,P|436:100|426:157,1,114.749996498108,6|0,2:0|2:0,0:0:0:0:
481,222,98386,6,0,P|377:216|377:310,1,208.249993644715,4|0,0:0|2:0,0:0:0:0:
382,315,98962,37,2,2:0:0:0:
481,222,99107,1,2,2:3:0:0:
425,157,99251,5,2,2:0:0:0:
272,83,99395,1,2,2:3:0:0:
341,23,99539,69,2,2:0:0:0:
227,215,99684,1,2,2:3:0:0:
445,69,99828,53,8,3:0:0:0:
432,72,99900,1,8,0:0:0:0:
420,76,99972,1,8,0:0:0:0:
198,144,100116,21,8,1:3:0:0:
307,234,100261,1,8,0:0:0:0:
59,268,100405,22,0,P|86:256|114:247,1,59.4999981842042,4|0,2:3|2:0,2:0:0:0:
295,102,100693,6,0,P|323:111|351:123,1,59.4999981842042,4|0,2:3|2:0,2:0:0:0:
295,102,101126,6,0,P|351:112|422:22,1,178.499994552612,4|0,0:0|0:0,0:0:0:0:
401,10,101414,1,8,0:0:0:0:
512,191,101559,2,0,L|496:247,2,46.7500014266968,2|0|0,0:0|3:2|0:0,0:0:0:0:
296,122,101847,2,0,P|342:130|386:115,1,93.5000028533936,0|8,0:0|0:0,0:0:0:0:
512,55,102135,1,0,0:0:0:0:
312,206,102280,5,0,0:0:0:0:
430,312,102424,1,0,3:0:0:0:
430,312,102496,1,0,3:0:0:0:
430,312,102568,1,8,0:0:0:0:
343,329,102712,70,0,B|383:307|383:307|436:313,1,93.5000028533936,2|0,0:0|0:0,0:0:0:0:
224,249,103001,1,2,0:0:0:0:
404,99,103145,1,8,0:0:0:0:
354,337,103289,1,2,2:0:0:0:
354,337,103361,1,2,2:0:0:0:
354,337,103434,6,0,B|336:280|336:280|359:244|359:244|337:172,1,165.749992412568,0|0,0:0|2:0,0:0:0:0:
331,165,103722,1,8,0:0:0:0:
223,33,103866,2,0,P|270:51|315:57,1,93.5000028533936,2|0,3:0|0:0,0:0:0:0:
245,248,104155,1,2,0:0:0:0:
335,51,104299,70,0,P|264:54|216:143,1,165.749992412568,8|0,0:0|0:0,0:0:0:0:
158,231,104587,6,0,P|117:241|59:260,1,85,6|0,0:0|0:0,0:0:0:0:
0,273,104804,1,0,3:0:0:0:
4,287,104876,1,8,0:0:0:0:
149,212,105020,70,0,B|193:226|219:228|219:228|232:264|232:264|264:268|306:287,1,178.499994552612,6|0,0:0|0:0,0:0:0:0:
468,166,105309,6,0,B|443:163|443:163|421:180|421:180|394:176|394:176|362:190,1,102,10|0,0:0|0:0,0:0:0:0:
446,325,105597,2,0,L|451:371,1,46.7500014266968,8|8,3:0|3:0,0:0:0:0:
493,253,105741,70,0,B|461:256|425:219|425:219|409:268|368:284,1,165.749992412568,4|0,0:0|2:0,0:0:0:0:
262,384,106030,2,0,P|314:367|381:360,1,110.499994941712,8|0,0:0|0:0,0:0:0:0:
91,120,106318,6,0,B|31:155|31:155|62:259,1,165.749992412568,0|0,0:0|2:0,0:0:0:0:
141,324,106607,2,0,B|170:266|170:266|141:226,1,110.499994941712,8|0,0:0|0:0,0:0:0:0:
96,125,106895,69,2,0:2:0:0:
292,191,107039,2,0,P|321:198|357:210,2,55.2499974708558,2|0|8,0:0|3:0|0:0,0:0:0:0:
153,331,107328,2,0,P|197:282|309:293,1,165.749992412568,2|0,0:0|2:0,0:0:0:0:
356,371,107616,2,0,P|394:334|382:275,1,110.499994941712,2|8,0:2|0:0,0:0:0:0:
255,70,107905,6,0,B|339:62|316:132|426:109,1,165.749992412568,4|0,0:0|0:0,0:0:0:0:
425,99,108193,1,0,3:0:0:0:
205,253,108337,69,8,0:0:0:0:
321,125,108482,1,2,2:0:0:0:
372,254,108626,5,8,3:0:0:0:
183,149,108770,1,2,2:0:0:0:
456,212,108914,70,0,B|401:205|401:205|351:239,1,110.499994941712,8|0,0:0|2:0,0:0:0:0:
54,348,109203,6,0,B|123:328|123:328|138:300|138:300|206:281,1,165.749992412568,4|0,0:2|0:0,0:0:0:0:
226,301,109491,2,0,B|217:275|217:275|220:236,1,55.2499974708558,8|0,0:0|0:0,0:0:0:0:
260,90,109635,70,0,P|246:114|250:143,1,55.2499974708558,2|0,0:0|3:0,0:0:0:0:
249,141,109780,2,0,L|119:167,1,110.499994941712,4|2,3:0|3:0,0:0:0:0:
95,155,109996,1,0,3:0:0:0:
136,139,110068,1,8,3:0:0:0:
179,145,110140,1,8,3:0:0:0:
214,171,110212,1,0,3:0:0:0:
229,212,110285,1,0,3:0:0:0:
209,234,110357,6,0,B|230:166|230:166|211:133|211:133|236:63,1,178.499994552612,4|0,0:0|2:0,0:0:0:0:
245,41,110645,1,8,0:0:0:0:
372,234,110789,2,0,L|382:287,2,46.7500014266968,2|2|0,0:0|0:2|0:0,0:0:0:0:
501,127,111078,1,2,0:0:0:0:
410,105,111222,2,0,L|515:130,1,93.5000028533936,8|0,0:0|0:0,0:0:0:0:
279,346,111510,69,4,0:2:0:0:
475,245,111655,1,0,3:0:0:0:
475,245,111727,1,0,3:0:0:0:
475,245,111799,1,8,0:0:0:0:
468,329,111943,6,0,B|491:288|491:288|471:235,1,93.5000028533936,2|0,0:0|0:0,0:0:0:0:
317,147,112232,2,0,P|274:157|199:169,1,93.5000028533936,2|8,0:0|0:0,0:0:0:0:
16,346,112520,2,0,P|25:326|38:287,1,50.9999984436036,2|0,2:0|0:0,0:0:0:0:
80,187,112664,70,0,B|122:213|163:225|163:225|140:255|137:304,1,165.749992412568,4|0,0:2|2:0,0:0:0:0:
154,318,112953,1,8,0:0:0:0:
358,231,113097,2,0,B|432:236|419:194|496:203,1,140.25000428009,2|0,3:0|0:0,0:0:0:0:
512,229,113385,2,0,L|497:290,2,46.7500014266968,2|2|8,0:2|0:0|0:0,0:0:0:0:
280,19,113746,5,2,0:2:0:0:
295,11,113818,2,0,B|317:51|317:51|299:99,1,93.5000028533936,8|0,3:0|0:0,0:0:0:0:
275,117,114035,2,0,L|201:132,1,46.7500014266968,2|8,3:0|0:0,0:0:0:0:
298,366,114251,70,0,B|321:332|342:255|342:255|361:295|407:296,1,178.499994552612,6|0,0:0|0:0,0:0:0:0:
504,197,114539,2,0,B|484:204|465:231|465:231|440:221|400:224,1,102,6|0,0:0|0:0,0:0:0:0:
298,130,114828,2,0,L|356:147,1,46.7500014266968,0|8,3:0|3:0,0:0:0:0:
384,292,114972,6,0,P|363:243|251:253,1,165.749992412568,4|0,0:0|2:0,0:0:0:0:
169,294,115260,2,0,L|44:323,1,110.499994941712,8|0,0:0|0:0,0:0:0:0:
218,60,115549,70,0,L|391:83,1,165.749992412568,2|0,0:0|2:0,0:0:0:0:
382,81,115837,1,8,0:0:0:0:
219,36,115982,1,2,3:0:0:0:
382,81,116126,6,0,B|280:83|322:186|165:165,1,220.999989883423,4|8,0:0|0:0,0:0:0:0:
90,87,116559,1,0,0:0:0:0:
131,241,116703,70,0,B|172:122|172:122|134:68|80:91,1,220.999989883423,8|8,3:0|0:0,0:0:0:0:
252,219,117135,6,0,B|321:239|321:239|331:272|331:272|417:300,1,170,4|0,0:0|0:0,0:0:0:0:
255,210,117568,1,8,0:0:0:0:
489,288,117712,70,0,B|420:308|420:308|399:351|399:351|308:380,1,203.999993774414,4|8,0:0|3:0,0:0:0:0:
326,382,118073,1,8,3:0:0:0:
326,382,118145,2,0,L|342:311,1,50.9999984436036,8|0,0:0|3:0,0:0:0:0:
454,101,118289,6,0,B|402:115|402:115|415:199|415:199|468:184,1,191.250007295609,6|0,0:0|0:0,0:0:0:0:
489,204,118578,1,0,3:0:0:0:
489,204,118650,1,0,3:0:0:0:
489,204,118722,2,0,L|398:228,1,89.2499972763062,4|0,3:0|2:0,0:0:0:0:
215,103,119010,70,0,P|239:118|280:124,1,63.7500024318696,2|8,3:0|3:0,0:0:0:0:
366,98,119155,2,0,P|264:87|302:214,1,276.249987354279,4|0,0:0|2:0,0:0:0:0:
318,202,119587,53,4,0:0:0:0:
379,381,119876,1,8,0:0:0:0:
319,335,120164,2,0,L|358:161,1,165.749992412568,6|0,0:0|2:0,0:0:0:0:
365,176,120453,1,2,0:0:0:0:
439,203,120597,1,0,3:0:0:0:
318,261,120741,5,0,3:0:0:0:
292,336,120885,1,2,0:0:0:0:
258,196,121030,69,2,0:0:0:0:
136,275,121174,2,0,L|61:297,1,68,8|2,0:0|0:0,0:0:0:0:
78,300,121462,1,0,3:0:0:0:
197,182,121607,2,0,L|262:201,1,68,8|0,0:0|2:0,0:0:0:0:
410,353,121895,5,4,0:0:0:0:
460,298,122039,1,2,0:0:0:0:
409,243,122184,1,2,0:0:0:0:
356,296,122328,1,0,3:0:0:0:
446,259,122472,69,2,0:0:0:0:
371,255,122616,1,0,3:0:0:0:
375,330,122760,1,8,0:0:0:0:
451,335,122905,1,0,3:0:0:0:
414,159,123049,6,0,P|410:122|410:81,1,68,4|0,0:0|0:0,0:0:0:0:
421,163,123337,1,2,0:0:0:0:
305,100,123482,2,0,P|260:112|195:119,1,85,8|0,0:0|3:0,0:0:0:0:
222,117,123698,1,2,2:0:0:0:
222,117,123770,2,0,L|214:182,1,50.9999984436036,2|0,0:0|0:0,0:0:0:0:
214,348,123914,6,0,B|278:253|170:183|170:183|183:223|152:258,1,255,10|0,0:0|2:0,0:0:0:0:
94,206,124203,6,0,B|217:222|217:222|224:244|224:244|349:265,1,267.749991828919,4|0,1:0|2:0,0:0:0:0:
365,254,124491,2,0,P|395:146|276:157,1,267.749991828919,12|0,0:0|2:0,0:0:0:0:
277,171,124780,2,0,B|426:194|380:39|506:66,1,267.749991828919,6|0,0:0|2:0,0:0:0:0:
512,83,125068,1,2,0:0:0:0:
374,13,125212,1,0,3:0:0:0:
365,254,125357,37,4,0:0:0:0:
437,267,125501,1,2,0:0:0:0:
460,197,125645,1,0,3:0:0:0:
323,142,125789,5,8,0:0:0:0:
261,258,125934,69,2,0:0:0:0:
190,275,126078,1,0,3:0:0:0:
323,142,126222,5,8,0:0:0:0:
40,241,126510,69,4,0:0:0:0:
110,204,126655,1,2,0:0:0:0:
180,169,126799,1,0,3:0:0:0:
113,299,126943,5,8,0:0:0:0:
42,159,127087,1,2,0:0:0:0:
0,241,127376,38,0,B|140:218|80:325|216:287,1,229.499992996216,4|0,0:2|0:0,0:0:0:0:
226,280,127664,5,8,3:0:0:0:
293,320,127809,1,2,3:0:0:0:
371,240,127953,69,8,3:0:0:0:
461,210,128097,1,2,0:0:0:0:
324,75,128241,5,8,0:0:0:0:
448,122,128385,1,0,3:0:0:0:
448,122,128458,1,8,3:0:0:0:
448,122,128530,1,8,0:0:0:0:
252,136,128674,37,10,0:0:0:0:
512,58,128793,6,0,B|401:36|426:198|270:146,1,267.749991828919,6|0,0:0|2:0,0:0:0:0:
252,136,129082,2,0,P|320:115|312:255,1,267.749991828919,12|0,0:0|2:0,0:0:0:0:
297,275,129370,2,0,B|292:223|276:180|276:180|325:135|325:135|304:86|299:14,1,267.749991828919,14|0,0:0|2:0,0:0:0:0:
294,12,129659,1,0,0:0:0:0:
95,159,129803,5,8,0:0:0:0:
215,125,129947,2,0,B|155:102|155:102|98:149,1,127.500004863739,2|0,0:3|0:0,0:0:0:0:
146,250,130163,1,2,0:2:0:0:
153,264,130235,2,0,L|168:196,1,63.7500024318696,8|0,0:0|3:0,0:0:0:0:
22,279,130380,5,8,3:0:0:0:
22,279,130452,1,0,3:0:0:0:
22,279,130524,2,0,B|71:268|71:268|90:245|90:245|155:228,1,127.500004863739,0|2,3:0|3:0,0:0:0:0:
401,82,130813,2,0,B|466:106|466:106|439:227,1,191.250007295609,2|0,0:2|2:0,0:0:0:0:
493,338,131101,38,0,B|440:313|440:223|440:223|412:311|339:323,1,267.749991828919,6|0,0:0|2:0,0:0:0:0:
309,262,131390,2,0,P|387:233|405:381,1,267.749991828919,12|0,0:0|0:0,0:0:0:0:
355,319,131678,2,0,P|323:262|419:151,1,229.499992996216,14|8,0:0|3:0,0:0:0:0:
479,185,131966,1,10,0:0:0:0:
419,376,132110,1,8,0:0:0:0:
294,280,132255,5,6,0:2:0:0:
493,338,132399,2,0,B|321:355|401:224|222:234,1,305.999990661621,2|8,0:0|3:0,0:0:0:0:
153,271,132760,1,0,3:0:0:0:
144,283,132832,1,8,0:0:0:0:
144,306,132904,5,8,3:0:0:0:
164,304,132976,1,0,3:0:0:0:
156,288,133048,1,0,3:0:0:0:
126,290,133120,1,0,3:0:0:0:
108,310,133192,1,2,3:0:0:0:
115,341,133264,1,2,3:0:0:0:
149,358,133336,1,2,3:0:0:0:
184,332,133409,54,0,P|187:204|54:161,1,267.749991828919,6|0,0:0|2:0,0:0:0:0:
17,211,133697,2,0,P|145:214|188:81,1,267.749991828919,12|0,0:0|2:0,0:0:0:0:
131,52,133985,2,0,P|128:180|284:203,1,305.999990661621,14|2,0:0|3:0,0:0:0:0:
418,67,134418,5,8,0:0:0:0:
338,19,134562,2,0,B|319:52|319:52|328:105,1,76.4999976654053,2|0,3:0|2:0,0:0:0:0:
493,202,134707,1,0,3:0:0:0:
493,202,134779,1,8,3:0:0:0:
493,202,134851,2,0,B|512:169|512:169|503:116,1,76.4999976654053,8|2,0:0|0:0,0:0:0:0:
418,67,134995,70,0,B|408:96|408:96|412:120|412:120|402:154,1,76.4999976654053,2|0,0:2|3:0,0:0:0:0:
396,166,135139,1,4,3:0:0:0:
379,374,135284,5,8,3:0:0:0:
379,374,135356,1,8,0:0:0:0:
379,374,135428,2,0,B|389:345|389:345|388:327|388:327|406:292,1,76.4999976654053,10|0,0:0|2:0,0:0:0:0:
241,115,135572,2,0,B|251:144|251:144|250:162|250:162|268:197,1,76.4999976654053,10|0,0:0|2:0,0:0:0:0:
293,294,135716,69,4,3:2:0:0:
493,202,135860,2,0,B|422:191|447:142|354:136,1,152.999995330811,10|8,0:0|3:0,0:0:0:0:
470,370,136149,21,0,3:0:0:0:
490,346,136221,1,8,3:0:0:0:
488,315,136293,1,8,0:0:0:0:
366,215,136437,1,8,3:0:0:0:
332,283,136582,1,4,3:0:0:0:
511,198,136726,1,10,3:0:0:0:
364,43,136870,54,0,B|277:22|277:22|275:62|246:83,1,152.999995330811,12|0,0:0|2:0,0:0:0:0:
184,154,137086,1,8,3:0:0:0:
191,164,137159,2,0,P|231:169|276:180,1,76.4999976654053,8|4,0:0|3:0,0:0:0:0:
450,303,137303,5,2,0:2:0:0:
460,273,137375,1,8,3:0:0:0:
460,273,137447,69,8,3:0:0:0:
422,260,137519,1,0,3:0:0:0:
371,265,137591,1,2,0:0:0:0:
312,292,137663,1,2,0:0:0:0:
245,315,137735,1,0,3:0:0:0:
215,312,137808,1,0,3:0:0:0:
199,296,137880,2,0,P|205:271|211:236,1,55.2499974708558,2|2,3:0|2:0,0:0:0:0:
245,92,138049,53,4,0:0:0:0:
245,92,138625,6,0,P|210:117|155:111,1,85,2|2,0:0|0:0,0:0:0:0:
163,113,139202,2,0,P|243:116|286:196,1,170,2|2,0:0|0:3,0:0:0:0:
467,96,140356,70,0,P|426:101|391:113,1,76.4999976654053,2|0,0:3|0:0,0:0:0:0:
124,312,140933,2,0,P|160:300|198:295,1,76.4999976654053
356,227,141510,2,0,B|253:215|308:161|193:141,1,191.250007295609,2|0,0:3|0:0,0:0:0:0:
356,227,142087,1,2,0:0:0:0:
60,23,142664,6,0,P|58:62|50:104,1,76.4999976654053,2|0,0:0|0:0,0:0:0:0:
51,98,143241,1,0,0:0:0:0:
114,143,143385,69,2,0:0:0:0:
197,163,143529,5,2,0:0:0:0:
298,139,143674,53,2,0:0:0:0:
403,37,143818,69,2,0:0:0:0:
403,37,144635,2,0,L|409:68,2,25.4999992218018,2|2|2,0:0|0:0|0:0,0:0:0:0:
498,73,144972,22,0,P|423:82|389:171,1,165.749992412568,2|0,0:3|0:0,0:0:0:0:
216,259,145549,6,0,B|246:257|290:225|290:225|340:275|311:334,1,193.374991147995,0|0,0:3|0:0,0:0:0:0:
301,342,146125,38,0,B|281:263|281:263|315:210|315:210|292:139,1,216.750004134178,2|0,0:3|0:0,0:0:0:0:
98,22,146702,6,0,P|145:41|202:42,1,89.2499972763062,2|0,0:0|0:0,0:0:0:0:
212,63,146919,2,0,L|203:4,1,44.6249986381531
437,174,147135,70,0,L|424:106,1,40.3749989218712
512,214,147279,2,0,P|449:212|385:295,2,161.499995687485,2|2|2,0:0|0:0|0:0,0:0:0:0:
512,214,148145,1,0,0:0:0:0:
388,59,148289,21,0,1:0:0:0:
429,134,148433,2,0,B|377:117|377:117|357:87|357:87|279:59,1,144.500002756119,2|2,0:0|0:3,0:0:0:0:
186,126,149010,54,0,B|156:136|156:136|135:132|135:132|96:146,1,82.8749962062838,2|0,0:3|0:0,0:0:0:0:
0,232,149298,2,0,B|31:229|31:229|52:217|52:217|83:214,1,82.8749962062838,2|0,0:3|0:0,0:0:0:0:
164,152,149587,22,0,L|90:167,1,68,2|0,0:0|0:0,0:0:0:0:
33,212,149875,2,0,L|101:196,1,68,2|0,0:0|0:0,0:0:0:0:
211,247,150164,2,0,P|195:291|194:389,1,136,0|2,1:0|0:0,0:0:0:0:
389,329,150741,53,8,3:0:0:0:
219,235,150885,1,8,3:0:0:0:
211,247,150957,1,8,3:0:0:0:
222,254,151029,1,0,3:0:0:0:
327,225,151173,5,4,3:0:0:0:
105,313,151318,69,8,3:0:0:0:
94,320,151390,1,8,3:0:0:0:
102,332,151462,1,0,3:0:0:0:
342,234,151606,2,0,P|411:227|464:171,1,146.62500279665,2|0,1:0|0:0,0:0:0:0:
512,118,151895,22,0,L|375:143,1,127.5,4|0,3:0|2:0,0:0:0:0:
402,125,152183,53,8,0:0:0:0:
419,52,152327,1,0,3:0:0:0:
302,60,152472,5,2,0:0:0:0:
342,234,152616,1,2,0:0:0:0:
209,39,152760,69,4,0:0:0:0:
209,39,153048,1,4,0:0:0:0:
342,234,153193,5,2,0:0:0:0:
302,60,153337,1,2,0:0:0:0:
47,138,153481,69,4,0:0:0:0:
47,138,154202,22,0,B|71:182|71:182|37:286,1,140.25000428009,8|0,0:0|2:0,0:0:0:0:
55,347,154491,53,2,0:0:0:0:
172,260,154635,1,2,0:0:0:0:
286,327,154779,5,12,0:0:0:0:
206,153,154923,1,2,0:0:0:0:
444,248,155068,69,4,0:0:0:0:
444,248,155356,1,4,0:0:0:0:
206,153,155500,5,2,0:0:0:0:
286,327,155645,1,2,0:0:0:0:
430,64,155789,69,4,0:0:0:0:
430,64,156510,22,0,B|352:57|377:15|281:1,1,152.999995330811,4|0,0:0|2:0,0:0:0:0:
184,47,156798,53,2,0:0:0:0:
290,97,156943,1,2,0:0:0:0:
162,220,157087,5,8,0:0:0:0:
377,138,157231,1,2,0:0:0:0:
294,384,157375,69,4,0:0:0:0:
294,384,157664,1,4,0:0:0:0:
377,138,157808,5,2,0:0:0:0:
162,220,157952,1,2,0:0:0:0:
434,351,158097,69,4,0:0:0:0:
434,351,158529,1,8,3:0:0:0:
431,325,158601,1,8,3:0:0:0:
428,299,158673,1,8,3:0:0:0:
425,273,158746,1,8,3:0:0:0:
432,254,158818,54,0,L|365:246,1,59.4999981842042,4|0,0:0|0:0,0:0:0:0:
242,112,158962,1,0,3:0:0:0:
235,118,159034,1,8,3:0:0:0:
229,124,159106,2,0,B|281:168|344:134,1,118.999996368408,8|0,0:0|0:0,0:0:0:0:
443,88,159323,1,8,3:0:0:0:
436,102,159395,6,0,B|426:126|429:142|429:142|421:162,1,59.4999981842042,2|0,0:0|0:0,0:0:0:0:
293,326,159539,2,0,B|283:302|286:286|286:286|278:266,1,59.4999981842042,2|0,0:0|0:0,0:0:0:0:
155,197,159683,2,0,B|131:207|115:204|115:204|95:212,1,59.4999981842042,10|0,0:0|0:0,0:0:0:0:
26,321,159827,1,2,3:2:0:0:
26,321,159899,1,2,3:2:0:0:
26,321,159972,70,0,B|78:196|78:196|156:238,1,204,6|0,0:0|2:0,0:0:0:0:
154,240,160260,1,8,3:0:0:0:
311,74,160404,6,0,B|335:25|271:-18|209:20|196:93|216:141|257:165,1,255,12|0,0:0|2:0,0:0:0:0:
290,303,160693,2,0,P|320:272|327:231,1,72.2500013780594,12|0,0:0|0:0,0:0:0:0:
413,38,160837,2,0,P|443:69|450:110,1,72.2500013780594,12|0,0:0|0:0,0:0:0:0:
512,228,160981,1,12,3:0:0:0:
497,209,161053,1,12,3:0:0:0:
472,207,161125,1,6,0:0:0:0:
311,74,161270,5,2,0:0:0:0:
349,230,161414,1,2,3:0:0:0:
342,234,161558,1,2,3:0:0:0:
170,297,161702,5,2,0:0:0:0:
217,107,161847,1,2,3:0:0:0:
201,100,161991,1,2,3:0:0:0:
32,50,162135,69,2,0:0:0:0:
87,269,162279,1,2,3:0:0:0:
61,282,162423,1,2,3:0:0:0:
0,181,162568,53,2,0:0:0:0:
302,310,162712,1,12,0:0:0:0:
308,315,163000,22,0,P|314:282|324:244,1,50.9999984436036,2|0,0:2|3:0,0:0:0:0:
441,98,163145,1,8,0:0:0:0:
441,98,163217,1,8,3:0:0:0:
441,98,163289,2,0,P|447:132|453:171,1,50.9999984436036,2|0,0:3|0:0,0:0:0:0:
419,283,163433,37,8,3:0:0:0:
494,266,163577,2,0,L|413:285,1,76.4999976654053,2|0,3:0|2:0,0:0:0:0:
361,123,163866,70,0,B|323:128|323:128|317:132|317:132|273:140,1,85,2|0,3:0|2:0,0:0:0:0:
346,345,164154,70,0,B|307:352|307:352|301:356|301:356|251:367,1,93.5000028533936,2|0,3:0|2:0,0:0:0:0:
197,99,164443,70,0,B|151:109|151:109|145:113|145:113|93:124,1,101.999996887207,2|0,3:0|2:0,0:0:0:0:
171,362,164731,70,0,B|145:368|145:368|137:373|137:373|101:382,1,55.2499974708558,2|0,3:0|2:0,0:0:0:0:
55,214,164875,70,0,P|43:248|60:286,1,72.2500013780594,2|0,0:0|3:0,0:0:0:0:
55,280,165020,2,0,B|167:219|186:120|136:34|65:39|13:107|58:145,1,361.250006890297,2|0,3:0|2:0,0:0:0:0:
254,110,165452,54,2,L|282:99,1,25.5,2|0,0:0|0:0,0:0:0:0:
193,28,165741,22,0,B|259:-3|259:-3|279:106,1,178.499994552612,4|0,0:0|2:0,0:0:0:0:
284,129,166029,1,8,0:0:0:0:
462,235,166173,2,0,L|447:291,2,46.7500014266968,2|2|0,0:0|0:2|0:0,0:0:0:0:
293,332,166462,1,2,0:0:0:0:
508,128,166606,2,0,L|385:153,1,93.5000028533936,8|0,0:0|0:0,0:0:0:0:
272,207,166895,5,0,0:0:0:0:
362,384,167039,1,2,0:2:0:0:
372,363,167111,1,2,0:2:0:0:
370,336,167183,1,8,0:0:0:0:
201,156,167327,70,0,B|175:197|175:197|189:242,1,93.5000028533936,2|0,0:0|0:0,0:0:0:0:
259,351,167616,1,2,0:0:0:0:
201,156,167760,1,8,0:0:0:0:
49,301,167904,1,2,0:2:0:0:
49,301,167976,1,2,0:2:0:0:
49,301,168048,6,0,P|91:253|226:260,1,165.749992412568,4|0,0:0|0:0,0:0:0:0:
215,255,168337,1,8,0:0:0:0:
448,99,168481,2,0,P|405:93|358:60,1,93.5000028533936,2|2,0:0|0:3,0:0:0:0:
363,66,168698,1,2,2:0:0:0:
363,66,168770,2,0,L|347:126,1,46.7500014266968,2|0,0:0|2:0,0:0:0:0:
450,237,168914,1,8,0:0:0:0:
255,85,169058,1,2,0:0:0:0:
455,116,169202,69,4,0:0:0:0:
283,230,169347,2,0,P|261:238|241:250,2,46.7500014266968,8|0|2,3:0|3:0|3:0,0:0:0:0:
503,342,169635,6,0,P|450:276|353:299,1,165.749992412568,10|0,0:0|0:0,0:0:0:0:
277,335,169923,70,0,P|260:374|286:337,1,114.749996498108,14|0,0:0|0:0,0:0:0:0:
310,216,170212,6,0,B|306:199|306:199|307:179|307:179|298:154,1,46.7500014266968,10|8,0:0|3:0,0:0:0:0:
215,259,170356,70,0,B|180:250|142:270|142:270|114:315|52:318,1,165.749992412568,4|0,0:0|0:0,0:0:0:0:
63,236,170645,2,0,B|76:193|76:193|65:167|65:167|82:120,1,110.499994941712,10|0,0:0|0:0,0:0:0:0:
261,330,170933,6,0,B|336:341|336:341|346:361|346:361|419:375,1,165.749992412568,2|0,0:0|0:0,0:0:0:0:
492,384,171222,2,0,P|529:338|498:284,1,110.499994941712,10|0,0:0|0:0,0:0:0:0:
351,112,171510,69,4,0:0:0:0:
257,199,171654,2,0,L|185:224,2,55.2499974708558,2|0|8,0:0|3:0|0:0,0:0:0:0:
446,54,171943,2,0,B|383:83|383:83|402:195,1,165.749992412568,2|0,0:0|2:0,0:0:0:0:
474,244,172231,2,0,P|479:216|491:172,1,55.2499974708558,2|0,0:0|3:0,0:0:0:0:
353,70,172375,1,8,0:0:0:0:
486,190,172520,6,0,B|391:197|430:261|313:239,1,178.499994552612,4|0,0:0|0:0,0:0:0:0:
306,225,172808,1,2,0:0:0:0:
184,84,172952,69,8,0:0:0:0:
274,331,173097,1,0,3:0:0:0:
151,364,173241,5,6,3:0:0:0:
284,125,173385,1,0,3:0:0:0:
322,241,173529,69,8,0:0:0:0:
107,139,173673,1,8,3:0:0:0:
275,35,173818,5,10,0:0:0:0:
109,304,173962,1,2,2:0:0:0:
94,275,174034,1,8,3:1:0:0:
99,237,174106,1,8,0:0:0:0:
296,147,174250,69,8,3:0:0:0:
283,136,174323,2,0,B|332:146|332:146|343:164|343:164|409:180,1,123.250003761292,8|0,0:0|2:0,0:0:0:0:
452,126,174539,6,0,B|441:127|441:127|427:136|399:139,1,55.2499974708558,8|0,3:0|0:0,0:0:0:0:
281,244,174683,2,0,B|253:248|239:256|239:256|227:257,1,55.2499974708558,4|2,3:0|3:0,0:0:0:0:
416,361,174827,70,0,B|422:375|425:387|425:387|432:378|451:369,1,55.2499974708558,8|0,3:0|3:0,0:0:0:0:
502,303,174972,6,0,B|459:291|421:319|421:319|383:352|333:338,1,178.499994552612,4|0,0:0|2:0,0:0:0:0:
313,328,175260,1,8,0:0:0:0:
147,181,175404,2,0,L|90:197,2,46.7500014266968,2|0|0,0:0|0:0|0:0,0:0:0:0:
250,224,175693,2,0,P|296:230|352:246,1,93.5000028533936,2|8,3:0|0:0,0:0:0:0:
182,365,175981,1,2,0:0:0:0:
317,149,176125,70,0,B|303:100|303:100|325:66|325:66|304:4,1,140.25000428009,4|0,0:0|2:0,0:0:0:0:
293,0,176414,1,8,0:0:0:0:
419,133,176558,2,0,B|464:123|464:123|521:151,1,93.5000028533936,2|0,0:0|2:0,0:0:0:0:
506,143,176774,1,2,2:0:0:0:
506,143,176847,2,0,L|515:80,1,46.7500014266968,2|0,0:0|2:0,0:0:0:0:
328,180,176991,1,8,0:0:0:0:
505,371,177135,1,2,0:2:0:0:
505,371,177207,1,2,0:2:0:0:
505,371,177279,6,0,B|445:343|445:343|431:306|431:306|373:284,1,165.749992412568,4|0,0:0|2:0,0:0:0:0:
355,280,177568,1,8,0:0:0:0:
218,131,177712,2,0,L|313:113,1,93.5000028533936,2|0,0:0|2:0,0:0:0:0:
309,113,177928,1,2,2:0:0:0:
309,113,178000,2,0,P|309:136|313:169,1,46.7500014266968,2|0,0:0|2:0,0:0:0:0:
214,250,178145,1,10,0:0:0:0:
365,17,178289,1,0,3:0:0:0:
154,106,178433,70,0,B|185:112|185:112|196:120|196:120|228:126,1,63.7500024318696,10|0,0:0|0:0,0:0:0:0:
419,225,178577,1,8,3:0:0:0:
430,209,178649,1,8,3:0:0:0:
427,180,178722,1,10,0:0:0:0:
147,194,178866,6,0,B|180:187|212:141|212:141|178:222|226:268,1,216.750004134178,6|0,0:0|0:0,0:0:0:0:
346,198,179154,1,8,0:0:0:0:
346,198,179226,1,8,0:0:0:0:
346,198,179298,2,0,B|319:190|319:190|303:191|267:180,1,63.7500024318696,4|0,3:0|3:0,0:0:0:0:
60,97,179443,70,0,B|87:105|87:105|103:104|139:115,1,63.7500024318696,2|8,3:0|0:1,0:0:0:0:
214,123,179587,6,0,B|171:139|127:131|127:131|143:179|114:215,1,165.749992412568,6|0,0:0|0:0,0:0:0:0:
32,292,179875,2,0,B|-5:279|-20:232|21:196,1,110.499994941712,10|0,0:0|0:0,0:0:0:0:
242,0,180164,70,0,B|328:10|305:62|394:53,1,165.749992412568,4|0,0:0|0:0,0:0:0:0:
491,7,180452,2,0,P|475:67|484:134,1,110.499994941712,10|0,0:0|0:0,0:0:0:0:
296,366,180741,6,0,P|347:275|306:196,1,165.749992412568,4|0,0:0|0:0,0:0:0:0:
302,197,181029,1,8,0:0:0:0:
449,320,181173,1,0,3:0:0:0:
449,320,181246,1,0,3:0:0:0:
449,320,181318,1,10,0:0:0:0:
375,156,181462,69,8,3:0:0:0:
269,369,181606,1,0,3:0:0:0:
295,102,181750,6,0,L|476:146,1,178.499994552612,4|0,0:0|0:0,0:0:0:0:
488,128,182039,1,8,0:0:0:0:
488,128,182111,1,8,0:0:0:0:
488,128,182183,2,0,L|405:107,1,59.4999981842042,8|0,0:0|3:0,0:0:0:0:
236,198,182327,70,0,L|45:244,1,178.499994552612,4|0,0:0|0:0,0:0:0:0:
30,224,182616,2,0,L|123:210,1,59.4999981842042,8|0,3:0|3:0,0:0:0:0:
218,288,182760,1,12,3:0:0:0:
354,0,182904,6,0,B|292:26|292:26|314:148,1,178.499994552612,6|0,0:0|0:0,0:0:0:0:
397,247,183193,1,8,3:0:0:0:
402,236,183265,1,8,3:0:0:0:
409,224,183337,2,0,B|368:230|368:230|354:223|354:223|309:231,1,95.6250036478044,4|0,0:0|2:0,0:0:0:0:
246,362,183625,70,0,B|281:355|275:344|315:338,1,63.7500024318696,2|8,3:0|3:0,0:0:0:0:
469,276,183770,2,0,B|325:289|382:178|218:184,1,276.249987354279,6|0,0:0|0:0,0:0:0:0:
146,211,184202,53,4,0:0:0:0:
265,19,184491,1,8,0:0:0:0:
194,49,184779,1,4,3:0:0:0:
289,255,184923,2,0,L|299:207,1,42.5,2|0,2:0|2:0,0:0:0:0:
371,154,185068,2,0,B|330:155|330:155|298:185|298:185|264:173|264:173|203:188,1,165.749992412568,10|0,0:0|0:0,0:0:0:0:
192,191,185356,53,8,3:0:0:0:
289,255,185500,1,0,3:0:0:0:
371,154,185645,1,8,0:0:0:0:
268,97,185789,2,0,L|227:330,1,220.999989883423,2|2,0:0|0:2,0:0:0:0:
226,328,186149,1,2,0:2:0:0:
223,340,186222,1,8,0:0:0:0:
299,361,186366,1,8,0:0:0:0:
121,274,186510,21,4,0:0:0:0:
97,201,186798,1,8,0:0:0:0:
27,237,187087,1,4,3:0:0:0:
35,241,187375,2,0,B|90:225|90:225|120:231|120:231|156:213|156:213|202:214,1,165.749992412568,10|0,0:0|0:0,0:0:0:0:
263,250,187664,53,0,3:0:0:0:
268,228,187736,1,0,3:0:0:0:
273,206,187808,1,0,3:0:0:0:
278,184,187880,1,0,3:0:0:0:
268,163,187952,2,0,P|289:171|341:183,1,55.2499974708558,8|0,3:1|0:0,0:0:0:0:
504,313,188097,2,0,P|483:305|431:293,1,55.2499974708558,2|0,3:1|0:0,0:0:0:0:
349,368,188241,5,8,0:0:0:0:
329,339,188313,1,0,3:0:0:0:
321,298,188385,1,2,3:0:0:0:
338,251,188457,1,8,3:0:0:0:
376,213,188529,1,8,0:0:0:0:
418,173,188601,1,8,0:0:0:0:
430,118,188673,1,8,0:0:0:0:
408,62,188746,1,8,0:0:0:0:
417,52,188818,38,0,B|366:69|304:78|304:78|281:122|315:149,1,191.250007295609,6|0,0:0|2:0,0:0:0:0:
304,287,189106,2,0,B|328:238|365:188|365:188|350:141|307:146,1,191.250007295609,10|0,0:0|2:0,0:0:0:0:
181,90,189395,2,0,B|217:129|252:181|252:181|301:183|312:141,1,191.250007295609,10|0,0:0|2:0,0:0:0:0:
291,4,189683,54,0,L|283:54,1,44.6249986381531,6|0,0:0|2:0,0:0:0:0:
283,62,189972,53,8,3:0:0:0:
384,230,190116,1,0,3:0:0:0:
512,82,190260,1,8,0:0:0:0:
398,103,190404,6,0,B|294:116|331:198|204:174,1,203.999993774414,2|0,0:0|2:0,0:0:0:0:
224,184,190765,1,2,2:0:0:0:
224,184,190837,2,0,L|198:256,1,50.9999984436036,8|0,0:0|2:0,0:0:0:0:
336,384,190981,2,0,L|324:334,1,50.9999984436036,2|0,0:0|2:0,0:0:0:0:
324,334,191125,2,0,L|221:358,1,101.999996887207,4|0,3:0|0:0,0:0:0:0:
401,282,191414,37,8,0:0:0:0:
236,213,191558,1,2,0:0:0:0:
378,160,191702,5,2,3:0:0:0:
236,213,191847,1,2,0:0:0:0:
86,61,191991,69,8,0:0:0:0:
236,127,192135,1,2,0:0:0:0:
59,220,192279,5,2,3:0:0:0:
236,127,192423,1,0,3:0:0:0:
236,127,192496,1,0,3:0:0:0:
236,127,192568,1,8,0:0:0:0:
61,36,192712,1,2,0:0:0:0:
139,283,192856,37,8,0:0:0:0:
144,270,192928,2,0,B|151:239|151:239|140:220|155:205|155:205|157:159,1,101.999996887207,2|8,0:0|3:0,0:0:0:0:
256,224,193145,54,0,B|280:230|280:230|297:242|297:242|332:250,1,63.7500024318696,8|8,0:0|3:0,0:0:0:0:
450,155,193289,6,0,B|473:148|473:148|499:151|499:151|532:144,1,63.7500024318696,8|4,3:0|3:0,0:0:0:0:
512,133,193433,38,0,P|425:155|448:265,1,223.125008511544,6|0,0:0|0:0,0:0:0:0:
458,296,193722,2,0,P|436:209|326:232,1,223.125008511544,10|0,0:0|0:0,0:0:0:0:
315,247,194010,1,10,0:0:0:0:
95,34,194226,5,2,0:2:0:0:
101,36,194298,2,0,B|133:45|133:45|168:40,1,63.7500024318696,10|0,0:0|2:0,0:0:0:0:
234,64,194443,2,0,B|204:54|204:54|169:58,1,63.7500024318696,2|0,0:0|2:0,0:0:0:0:
24,120,194587,70,0,P|85:119|136:165,1,127.500004863739,4|0,0:0|0:0,0:0:0:0:
98,230,194803,1,2,0:0:0:0:
87,242,194875,2,0,B|72:244|53:255|53:255|70:238|81:217,1,63.7500024318696,8|0,0:0|2:0,0:0:0:0:
205,181,195020,6,0,P|110:195|-3:320,1,267.749991828919,6|0,0:0|0:0,0:0:0:0:
61,367,195308,2,0,B|126:345|126:345|82:332,1,89.2499972763062,4|2,0:0|0:0,0:0:0:0:
309,227,195452,2,0,B|374:249|374:249|330:262,1,89.2499972763062,10|2,0:0|2:0,0:0:0:0:
273,325,195597,1,2,2:3:0:0:
273,325,195669,1,2,2:3:0:0:
273,325,195741,70,0,B|224:198|361:232|294:88,1,242.249993531227,6|0,0:0|0:0,0:0:0:0:
209,25,196029,2,0,B|169:42|118:30|118:30|167:46|188:69,1,161.499995687485,10|4,0:0|3:0,0:0:0:0:
440,154,196318,2,0,B|480:171|531:159|531:159|482:175|461:198,1,161.499995687485,2|4,0:0|3:0,0:0:0:0:
150,305,196606,6,0,B|122:319|107:318|107:318|129:324|143:339,1,80.7499978437424,10|2,0:0|2:0,0:0:0:0:
242,375,196750,2,0,B|270:361|285:362|285:362|263:356|249:341,1,80.7499978437424,2|2,0:0|2:0,0:0:0:0:
72,303,196895,70,0,L|249:270,1,161.499995687485,6|0,0:0|3:0,0:0:0:0:
275,196,197111,1,8,3:0:0:0:
295,192,197183,1,8,0:0:0:0:
422,281,197327,6,0,B|378:258|335:251|335:251|308:185|308:185|237:177|184:144,1,280.500008560181,6|0,0:0|3:0,0:0:0:0:
36,213,197616,70,0,B|62:205|62:205|75:196|75:196|107:186,1,68,8|8,0:0|0:0,0:0:0:0:
312,97,197760,1,0,3:0:0:0:
278,53,197832,1,4,3:0:0:0:
226,39,197904,1,8,0:0:0:0:
174,55,197976,1,8,3:0:0:0:
132,90,198048,6,0,B|97:154|129:212|129:212|170:279|126:324,1,238,6|0,0:0|2:0,0:0:0:0:
117,321,198337,2,0,P|192:261|197:364,1,238,10|0,0:0|2:0,0:0:0:0:
187,372,198625,1,10,0:0:0:0:
467,93,198842,69,2,0:2:0:0:
463,97,198914,2,0,B|446:130|446:130|453:177,1,68,10|0,0:0|2:0,0:0:0:0:
452,238,199058,2,0,B|469:205|469:205|462:158,1,68,2|0,0:0|2:0,0:0:0:0:
339,40,199202,6,0,P|301:77|320:176,1,136,6|0,0:0|3:0,0:0:0:0:
337,224,199419,1,8,3:0:0:0:
345,238,199491,1,8,0:0:0:0:
353,62,199635,70,0,P|271:58|151:191,1,267.749991828919,6|0,0:0|0:0,0:0:0:0:
4,251,199923,2,0,B|-5:226|-5:226|88:265,1,89.2499972763062,4|2,0:0|0:0,0:0:0:0:
216,280,200068,2,0,B|225:255|225:255|132:294,1,89.2499972763062,10|0,0:0|3:0,0:0:0:0:
67,384,200212,1,2,2:3:0:0:
67,384,200284,1,2,2:3:0:0:
67,384,200356,6,0,B|126:371|149:295|149:295|189:362|250:359,1,242.249993531227,6|0,0:0|2:0,0:0:0:0:
314,333,200645,2,0,L|388:317,1,68,8|0,0:0|0:0,0:0:0:0:
387,97,200789,70,0,P|389:132|382:177,1,68,2|0,0:0|2:0,0:0:0:0:
339,244,200933,1,2,0:0:0:0:
469,91,201077,1,2,0:0:0:0:
339,244,201222,1,8,0:0:0:0:
464,172,201366,6,0,P|462:207|469:252,1,68,2|0,0:0|2:0,0:0:0:0:
511,320,201510,1,6,0:0:0:0:
381,167,201654,1,2,0:0:0:0:
511,320,201799,1,8,0:0:0:0:
506,212,201943,69,8,3:0:0:0:
506,212,202015,1,8,3:0:0:0:
506,212,202087,2,0,B|475:222|475:222|426:227,1,63.7500024318696,8|0,0:0|3:0,0:0:0:0:
272,354,202231,2,0,B|303:342|303:342|334:340,1,63.7500024318696,0|0,3:0|3:0,0:0:0:0:
397,290,202375,1,8,0:0:0:0:
22,15,202664,6,0,P|16:39|4:67,3,42.5,0|0|0|0,3:0|3:0|3:0|3:0,0:0:0:0:
141,117,202952,2,0,P|144:148|153:174,3,59.4999981842042,2|0|2|0,0:0|3:0|0:0|3:0,0:0:0:0:
30,214,203241,69,2,0:0:0:0:
71,191,203313,1,8,3:0:0:0:
118,191,203385,1,8,3:0:0:0:
157,217,203457,1,0,3:0:0:0:
187,260,203529,1,8,0:0:0:0:
217,303,203601,1,0,0:0:0:0:
263,329,203673,1,8,3:0:0:0:
316,319,203746,1,4,3:0:0:0:
339,299,203818,53,4,0:1:0:0:
471,108,204395,2,0,L|398:96,1,55.2499974708558,2|0,0:0|0:0,0:0:0:0:
416,99,204683,2,0,L|422:214,1,110.499994941712,2|2,0:0|0:3,0:0:0:0:
390,358,205116,6,0,P|366:334|340:326,1,55.2499974708558,2|0,0:0|0:0,0:0:0:0:
279,159,205404,2,0,P|255:182|229:191,1,55.2499974708558,2|0,0:0|0:3,0:0:0:0:
180,278,205693,2,0,P|120:283|30:355,1,165.749992412568,2|2,0:0|0:3,0:0:0:0:
12,54,206702,70,0,P|39:63|73:69,1,55.2499974708558,2|0,0:0|0:0,0:0:0:0:
65,68,206991,2,0,P|56:105|44:182,1,110.499994941712,2|2,0:0|0:3,0:0:0:0:
93,287,207423,6,0,P|109:272|99:292,1,55.2499974708558,2|0,0:0|0:0,0:0:0:0:
323,193,207712,2,0,P|307:177|316:197,1,55.2499974708558,2|0,0:0|0:0,0:0:0:0:
162,85,208000,2,0,P|199:35|168:91,1,191.250007295609,2|0,0:0|2:0,0:0:0:0:
96,161,208433,5,8,3:0:0:0:
137,135,208505,1,0,3:0:0:0:
185,132,208577,1,0,3:0:0:0:
224,160,208649,1,0,3:0:0:0:
241,206,208722,1,2,3:0:0:0:
272,243,208794,1,0,3:0:0:0:
317,261,208866,1,0,3:0:0:0:
363,247,208938,1,0,3:0:0:0:
379,223,209010,6,0,B|374:197|374:197|374:174|368:145,1,55.2499974708558,2|0,0:0|3:0,0:0:0:0:
381,95,209154,2,0,B|383:100|383:124|383:124|388:149,1,55.2499974708558,2|0,0:0|3:0,0:0:0:0:
243,334,209298,70,0,B|247:309|247:309|248:285|254:256,1,55.2499974708558,4|0,0:0|3:0,0:0:0:0:
241,206,209442,2,0,B|238:211|238:235|238:235|233:260,1,55.2499974708558,4|0,0:0|3:0,0:0:0:0:
376,327,209587,54,0,B|453:328|509:379|509:379|553:352|539:308|509:287|480:308|487:328,1,272,2|0,0:2|0:0,0:0:0:0:
