osu file format v14

[General]
AudioFilename: L.mp3
AudioLeadIn: 0
PreviewTime: 42166
Countdown: 0
SampleSet: Soft
StackLeniency: 0.6
Mode: 3
LetterboxInBreaks: 0
SpecialStyle: 0
WidescreenStoryboard: 0

[Editor]
Bookmarks: 51807,70000,87885
DistanceSpacing: 0.8
BeatDivisor: 4
GridSize: 16
TimelineZoom: 1.5

[Metadata]
Title:L.L.L.
TitleUnicode:L.L.L.
Artist:MYTH & ROID
ArtistUnicode:MYTH & ROID
Creator:Fuuyu
Version:Hard
Source:オーバーロード
Tags:overlord ending tv_size
BeatmapID:829884
BeatmapSetID:379121

[Difficulty]
HPDrainRate:8
CircleSize:4
OverallDifficulty:8
ApproachRate:5
SliderMultiplier:1.4
SliderTickRate:1

[Events]
//Background and Video events
0,0,"albedoL.jpg",0,0
//Break Periods
//Storyboard Layer 0 (Background)
//Storyboard Layer 1 (Fail)
//Storyboard Layer 2 (Pass)
//Storyboard Layer 3 (Foreground)
//Storyboard Sound Samples

[TimingPoints]
778,288.461538461538,4,2,0,60,1,0
42310,-100,4,2,0,60,0,1
60771,-100,4,2,0,60,0,0

[HitObjects]
320,192,778,5,0,0:0:0:0:
64,192,778,1,0,0:0:0:0:
192,192,778,128,0,1066:0:0:0:0:
448,192,1066,128,0,1354:0:0:0:0:
64,192,1354,1,0,0:0:0:0:
192,192,1499,1,0,0:0:0:0:
320,192,1643,128,0,1931:0:0:0:0:
64,192,1931,1,0,0:0:0:0:
448,192,1931,1,0,0:0:0:0:
192,192,2076,1,0,0:0:0:0:
320,192,2364,1,0,0:0:0:0:
192,192,2652,128,0,3085:0:0:0:0:
448,192,3085,1,0,0:0:0:0:
320,192,3085,1,0,0:0:0:0:
64,192,3374,1,8,0:0:0:0:
192,192,3374,1,0,0:0:0:0:
320,192,3518,1,0,0:0:0:0:
64,192,3806,1,0,0:0:0:0:
192,192,3951,1,0,0:0:0:0:
320,192,3951,1,8,0:0:0:0:
448,192,4095,1,0,0:0:0:0:
64,192,4239,1,0,0:0:0:0:
192,192,4383,1,0,0:0:0:0:
320,192,4527,1,8,0:0:0:0:
448,192,4527,1,0,0:0:0:0:
64,192,4672,1,0,0:0:0:0:
192,192,4960,1,8,0:0:0:0:
448,192,4960,1,8,0:0:0:0:
320,192,5104,1,0,0:0:0:0:
192,192,5249,1,8,0:0:0:0:
64,192,5249,1,8,0:0:0:0:
448,192,5393,1,0,0:0:0:0:
320,192,5393,1,0,0:0:0:0:
64,192,5537,1,0,0:0:0:0:
192,192,5681,1,8,0:0:0:0:
320,192,5681,1,8,0:0:0:0:
448,192,5826,1,0,0:0:0:0:
320,192,6114,1,0,0:0:0:0:
64,192,6258,1,8,0:0:0:0:
192,192,6258,1,8,0:0:0:0:
448,192,6402,1,0,0:0:0:0:
192,192,6547,1,0,0:0:0:0:
320,192,6547,1,0,0:0:0:0:
64,192,6691,1,0,0:0:0:0:
448,192,6835,1,0,0:0:0:0:
320,192,6835,1,0,0:0:0:0:
192,192,6979,1,0,0:0:0:0:
448,192,7268,1,0,0:0:0:0:
320,192,7340,1,0,0:0:0:0:
64,192,7412,1,0,0:0:0:0:
192,192,7484,1,0,0:0:0:0:
448,192,7556,1,0,0:0:0:0:
320,192,7628,1,0,0:0:0:0:
192,192,7701,1,0,0:0:0:0:
64,192,7701,1,0,0:0:0:0:
320,192,7989,1,8,0:0:0:0:
448,192,7989,1,8,0:0:0:0:
192,192,8133,1,0,0:0:0:0:
448,192,8277,1,0,0:0:0:0:
64,192,8277,1,0,0:0:0:0:
320,192,8422,1,0,0:0:0:0:
64,192,8566,1,8,0:0:0:0:
192,192,8566,1,8,0:0:0:0:
320,192,8710,1,0,0:0:0:0:
192,192,8854,1,0,0:0:0:0:
448,192,8854,1,0,0:0:0:0:
64,192,8999,1,0,0:0:0:0:
192,192,9143,1,8,0:0:0:0:
320,192,9143,1,8,0:0:0:0:
448,192,9287,1,0,0:0:0:0:
64,192,9431,1,0,0:0:0:0:
320,192,9431,1,0,0:0:0:0:
192,192,9576,1,0,0:0:0:0:
64,192,9720,1,8,0:0:0:0:
448,192,9720,1,8,0:0:0:0:
192,192,9864,1,0,0:0:0:0:
320,192,9864,128,0,10297:0:0:0:0:
64,192,10297,1,8,0:0:0:0:
192,192,10297,1,8,0:0:0:0:
320,192,10441,1,0,0:0:0:0:
448,192,10441,128,0,11018:0:0:0:0:
64,192,10729,1,0,0:0:0:0:
192,192,10802,1,0,0:0:0:0:
320,192,10874,1,0,0:0:0:0:
64,192,11018,1,8,0:0:0:0:
192,192,11018,1,8,0:0:0:0:
64,192,11306,1,0,0:0:0:0:
192,192,11378,1,0,0:0:0:0:
320,192,11451,1,8,0:0:0:0:
448,192,11451,1,8,0:0:0:0:
448,192,11739,1,0,0:0:0:0:
64,192,11739,1,0,0:0:0:0:
320,192,11811,1,0,0:0:0:0:
192,192,11883,128,0,12172:0:0:0:0:
320,192,12172,1,0,0:0:0:0:
64,192,12316,1,0,0:0:0:0:
448,192,12316,1,0,0:0:0:0:
192,192,12604,1,0,0:0:0:0:
448,192,12604,1,0,0:0:0:0:
320,192,12893,1,0,0:0:0:0:
448,192,12893,1,0,0:0:0:0:
64,192,13181,1,8,0:0:0:0:
192,192,13181,1,8,0:0:0:0:
448,192,13326,1,0,0:0:0:0:
320,192,13470,1,0,0:0:0:0:
192,192,13614,1,0,0:0:0:0:
64,192,13758,1,8,0:0:0:0:
320,192,13758,1,8,0:0:0:0:
192,192,13902,1,0,0:0:0:0:
448,192,14047,1,0,0:0:0:0:
192,192,14191,1,0,0:0:0:0:
448,192,14335,1,8,0:0:0:0:
320,192,14335,1,8,0:0:0:0:
64,192,14479,1,0,0:0:0:0:
320,192,14624,1,0,0:0:0:0:
64,192,14768,1,0,0:0:0:0:
192,192,14912,1,8,0:0:0:0:
320,192,14912,1,8,0:0:0:0:
448,192,15056,1,0,0:0:0:0:
320,192,15201,1,0,0:0:0:0:
192,192,15345,1,0,0:0:0:0:
64,192,15489,1,8,0:0:0:0:
448,192,15489,1,8,0:0:0:0:
320,192,15633,1,0,0:0:0:0:
192,192,15777,1,0,0:0:0:0:
64,192,15777,1,0,0:0:0:0:
448,192,15850,1,0,0:0:0:0:
320,192,15922,1,0,0:0:0:0:
192,192,15994,1,0,0:0:0:0:
64,192,16066,1,0,0:0:0:0:
448,192,16138,1,0,0:0:0:0:
320,192,16210,1,0,0:0:0:0:
192,192,16282,1,0,0:0:0:0:
64,192,16354,1,0,0:0:0:0:
448,192,16427,1,0,0:0:0:0:
320,192,16499,1,0,0:0:0:0:
192,192,16571,1,0,0:0:0:0:
64,192,16643,1,0,0:0:0:0:
192,192,16715,1,0,0:0:0:0:
320,192,16787,1,0,0:0:0:0:
448,192,16859,1,0,0:0:0:0:
64,192,16931,1,0,0:0:0:0:
192,192,16931,1,0,0:0:0:0:
320,192,17220,1,0,0:0:0:0:
448,192,17220,1,0,0:0:0:0:
192,192,17508,1,0,0:0:0:0:
64,192,17508,1,0,0:0:0:0:
64,192,17797,1,8,0:0:0:0:
448,192,17797,1,8,0:0:0:0:
192,192,17941,1,0,0:0:0:0:
320,192,18085,1,0,0:0:0:0:
448,192,18229,1,0,0:0:0:0:
320,192,18374,1,8,0:0:0:0:
192,192,18374,1,8,0:0:0:0:
64,192,18518,1,0,0:0:0:0:
448,192,18662,1,0,0:0:0:0:
64,192,18806,1,0,0:0:0:0:
192,192,18951,1,8,0:0:0:0:
320,192,18951,1,8,0:0:0:0:
448,192,19095,1,0,0:0:0:0:
320,192,19239,1,0,0:0:0:0:
192,192,19383,1,0,0:0:0:0:
64,192,19527,1,8,0:0:0:0:
448,192,19527,1,8,0:0:0:0:
320,192,19672,1,0,0:0:0:0:
192,192,19816,1,0,0:0:0:0:
320,192,19960,1,0,0:0:0:0:
64,192,20104,1,8,0:0:0:0:
192,192,20104,1,8,0:0:0:0:
448,192,20249,1,0,0:0:0:0:
320,192,20393,1,0,0:0:0:0:
64,192,20537,1,0,0:0:0:0:
192,192,20681,1,8,0:0:0:0:
320,192,20681,1,8,0:0:0:0:
448,192,20826,1,0,0:0:0:0:
64,192,20970,1,8,0:0:0:0:
320,192,20970,1,8,0:0:0:0:
192,192,21258,1,8,0:0:0:0:
448,192,21258,1,8,0:0:0:0:
64,192,21547,1,4,0:0:0:0:
320,192,21547,1,8,0:0:0:0:
448,192,21547,1,8,0:0:0:0:
64,192,21835,1,8,0:0:0:0:
448,192,21835,1,4,0:0:0:0:
192,192,21835,1,8,0:0:0:0:
64,192,22124,1,4,0:0:0:0:
448,192,22124,1,8,0:0:0:0:
320,192,22124,1,8,0:0:0:0:
192,192,22412,1,0,0:0:0:0:
448,192,22412,1,0,0:0:0:0:
64,192,22556,1,0,0:0:0:0:
320,192,22701,1,0,0:0:0:0:
448,192,22845,1,0,0:0:0:0:
64,192,22989,1,8,0:0:0:0:
320,192,22989,1,8,0:0:0:0:
192,192,23133,1,0,0:0:0:0:
64,192,23277,1,0,0:0:0:0:
320,192,23422,1,0,0:0:0:0:
192,192,23566,1,8,0:0:0:0:
448,192,23566,1,8,0:0:0:0:
320,192,23854,1,0,0:0:0:0:
448,192,23999,1,0,0:0:0:0:
64,192,24143,1,8,0:0:0:0:
192,192,24143,1,8,0:0:0:0:
320,192,24287,1,0,0:0:0:0:
64,192,24431,1,0,0:0:0:0:
192,192,24576,1,0,0:0:0:0:
320,192,24720,1,8,0:0:0:0:
448,192,24720,1,8,0:0:0:0:
192,192,24864,1,0,0:0:0:0:
64,192,25008,1,0,0:0:0:0:
192,192,25080,1,0,0:0:0:0:
320,192,25152,1,0,0:0:0:0:
448,192,25225,1,0,0:0:0:0:
64,192,25441,1,0,0:0:0:0:
192,192,25513,1,0,0:0:0:0:
320,192,25585,1,0,0:0:0:0:
448,192,25657,1,0,0:0:0:0:
320,192,25729,1,0,0:0:0:0:
64,192,25802,1,0,0:0:0:0:
192,192,25874,1,0,0:0:0:0:
448,192,25946,1,0,0:0:0:0:
320,192,26018,1,0,0:0:0:0:
64,192,26090,1,0,0:0:0:0:
192,192,26162,1,0,0:0:0:0:
448,192,26162,1,8,0:0:0:0:
320,192,26162,1,8,0:0:0:0:
320,192,26451,1,0,0:0:0:0:
64,192,26451,1,8,0:0:0:0:
192,192,26451,1,8,0:0:0:0:
64,192,26739,1,0,0:0:0:0:
448,192,26739,1,8,0:0:0:0:
320,192,26739,1,8,0:0:0:0:
192,192,26883,1,0,0:0:0:0:
448,192,27027,1,0,0:0:0:0:
64,192,27027,1,0,0:0:0:0:
320,192,27172,1,0,0:0:0:0:
192,192,27316,1,0,0:0:0:0:
448,192,27460,1,0,0:0:0:0:
192,192,27604,1,8,0:0:0:0:
64,192,27604,1,8,0:0:0:0:
320,192,27749,1,0,0:0:0:0:
448,192,27893,1,0,0:0:0:0:
64,192,28037,1,0,0:0:0:0:
192,192,28181,1,8,0:0:0:0:
320,192,28181,1,8,0:0:0:0:
448,192,28326,1,0,0:0:0:0:
192,192,28470,128,0,28758:0:0:0:0:
64,192,28758,1,8,0:0:0:0:
320,192,28758,1,8,0:0:0:0:
448,192,28902,1,0,0:0:0:0:
320,192,28975,1,0,0:0:0:0:
192,192,29047,1,0,0:0:0:0:
64,192,29047,1,0,0:0:0:0:
320,192,29191,1,0,0:0:0:0:
448,192,29191,1,0,0:0:0:0:
64,192,29335,1,0,0:0:0:0:
192,192,29335,1,0,0:0:0:0:
320,192,29479,1,0,0:0:0:0:
448,192,29479,1,0,0:0:0:0:
64,192,29624,1,4,0:0:0:0:
448,192,29624,1,4,0:0:0:0:
192,192,29624,128,0,30777:0:0:0:0:
320,192,29912,1,0,0:0:0:0:
448,192,30056,1,0,0:0:0:0:
320,192,30345,128,0,30777:0:0:0:0:
64,192,30777,1,0,0:0:0:0:
448,192,30777,1,0,0:0:0:0:
192,192,30922,1,0,0:0:0:0:
320,192,31066,1,0,0:0:0:0:
320,192,31210,1,0,0:0:0:0:
192,192,31354,1,0,0:0:0:0:
64,192,31354,1,0,0:0:0:0:
64,192,31787,1,0,0:0:0:0:
320,192,31787,1,0,0:0:0:0:
192,192,31931,1,0,0:0:0:0:
192,192,32076,1,0,0:0:0:0:
448,192,32220,1,0,0:0:0:0:
320,192,32220,1,0,0:0:0:0:
64,192,32508,128,0,32652:0:0:0:0:
448,192,32797,128,0,32941:0:0:0:0:
192,192,33229,1,0,0:0:0:0:
320,192,33229,1,0,0:0:0:0:
64,192,33374,1,0,0:0:0:0:
192,192,33374,1,0,0:0:0:0:
448,192,33518,1,0,0:0:0:0:
320,192,33518,1,0,0:0:0:0:
320,192,33662,1,0,0:0:0:0:
192,192,33662,1,0,0:0:0:0:
192,192,34095,1,0,0:0:0:0:
448,192,34095,1,0,0:0:0:0:
320,192,34239,1,0,0:0:0:0:
64,192,34239,1,0,0:0:0:0:
192,192,34383,1,0,0:0:0:0:
448,192,34383,1,0,0:0:0:0:
64,192,34527,1,0,0:0:0:0:
320,192,34527,1,0,0:0:0:0:
192,192,34816,128,0,34960:0:0:0:0:
320,192,35104,128,0,35249:0:0:0:0:
192,192,35537,1,0,0:0:0:0:
320,192,35537,1,0,0:0:0:0:
448,192,35681,1,0,0:0:0:0:
192,192,35681,1,0,0:0:0:0:
64,192,35826,1,0,0:0:0:0:
320,192,35826,1,0,0:0:0:0:
320,192,35970,1,0,0:0:0:0:
192,192,35970,1,0,0:0:0:0:
448,192,36402,1,0,0:0:0:0:
64,192,36402,1,0,0:0:0:0:
192,192,36547,1,0,0:0:0:0:
320,192,36547,1,0,0:0:0:0:
64,192,36691,1,0,0:0:0:0:
448,192,36691,1,0,0:0:0:0:
320,192,36835,1,0,0:0:0:0:
192,192,36835,1,0,0:0:0:0:
448,192,37124,1,0,0:0:0:0:
320,192,37196,1,0,0:0:0:0:
64,192,37268,1,0,0:0:0:0:
192,192,37340,1,0,0:0:0:0:
448,192,37412,1,0,0:0:0:0:
320,192,37484,1,0,0:0:0:0:
192,192,37556,1,0,0:0:0:0:
320,192,37701,1,0,0:0:0:0:
448,192,37701,128,0,38277:0:0:0:0:
192,192,37989,1,0,0:0:0:0:
64,192,37989,1,0,0:0:0:0:
64,192,38277,128,0,38854:0:0:0:0:
320,192,38277,1,0,0:0:0:0:
448,192,38566,1,0,0:0:0:0:
192,192,38566,1,0,0:0:0:0:
320,192,38854,1,0,0:0:0:0:
64,192,38999,1,0,0:0:0:0:
192,192,39071,1,0,0:0:0:0:
320,192,39143,1,0,0:0:0:0:
64,192,39287,1,0,0:0:0:0:
448,192,39287,1,0,0:0:0:0:
448,192,39576,1,0,0:0:0:0:
320,192,39576,1,0,0:0:0:0:
192,192,39576,1,0,0:0:0:0:
64,192,39576,1,0,0:0:0:0:
448,192,40152,128,0,40297:0:0:0:0:
320,192,40297,128,0,40441:0:0:0:0:
192,192,40441,128,0,40585:0:0:0:0:
64,192,40585,128,0,40729:0:0:0:0:
448,192,40729,128,0,40874:0:0:0:0:
320,192,40874,128,0,41018:0:0:0:0:
192,192,41018,128,0,41162:0:0:0:0:
64,192,41162,128,0,41306:0:0:0:0:
192,192,41306,128,0,41451:0:0:0:0:
320,192,41451,128,0,41595:0:0:0:0:
448,192,41595,128,0,42027:0:0:0:0:
64,192,42316,1,0,0:0:0:0:
192,192,42316,1,0,0:0:0:0:
320,192,42316,1,0,0:0:0:0:
448,192,42316,1,0,0:0:0:0:
320,192,42604,1,8,0:0:0:0:
448,192,42604,1,8,0:0:0:0:
64,192,42749,1,0,0:0:0:0:
448,192,43037,1,0,0:0:0:0:
64,192,43181,1,8,0:0:0:0:
192,192,43181,1,8,0:0:0:0:
320,192,43326,1,0,0:0:0:0:
64,192,43470,1,0,0:0:0:0:
448,192,43470,1,0,0:0:0:0:
192,192,43614,1,0,0:0:0:0:
320,192,43758,1,8,0:0:0:0:
64,192,43758,1,8,0:0:0:0:
448,192,43902,128,0,44191:0:0:0:0:
64,192,44191,1,0,0:0:0:0:
192,192,44335,1,8,0:0:0:0:
320,192,44335,1,8,0:0:0:0:
448,192,44479,1,0,0:0:0:0:
64,192,44624,1,0,0:0:0:0:
320,192,44624,1,0,0:0:0:0:
192,192,44912,1,8,0:0:0:0:
448,192,44912,1,8,0:0:0:0:
320,192,45056,1,0,0:0:0:0:
64,192,45201,1,0,0:0:0:0:
192,192,45345,1,0,0:0:0:0:
320,192,45489,1,8,0:0:0:0:
448,192,45489,1,8,0:0:0:0:
64,192,45633,1,0,0:0:0:0:
192,192,45777,1,0,0:0:0:0:
320,192,45777,128,0,46066:0:0:0:0:
448,192,46066,1,8,0:0:0:0:
64,192,46066,1,8,0:0:0:0:
192,192,46210,1,0,0:0:0:0:
64,192,46499,1,8,0:0:0:0:
448,192,46499,1,8,0:0:0:0:
192,192,46643,1,0,0:0:0:0:
320,192,46787,1,8,0:0:0:0:
448,192,46787,1,8,0:0:0:0:
64,192,46931,1,0,0:0:0:0:
192,192,46931,128,0,48085:0:0:0:0:
320,192,47220,1,8,0:0:0:0:
448,192,47220,1,8,0:0:0:0:
64,192,47508,1,0,0:0:0:0:
320,192,47797,1,8,0:0:0:0:
448,192,47797,1,8,0:0:0:0:
320,192,48085,128,0,48951:0:0:0:0:
64,192,48374,1,8,0:0:0:0:
192,192,48374,1,8,0:0:0:0:
448,192,48518,1,0,0:0:0:0:
448,192,48806,1,0,0:0:0:0:
64,192,48951,1,8,0:0:0:0:
192,192,48951,1,8,0:0:0:0:
448,192,49095,1,0,0:0:0:0:
320,192,49095,1,0,0:0:0:0:
192,192,49383,1,0,0:0:0:0:
64,192,49527,1,8,0:0:0:0:
448,192,49527,1,8,0:0:0:0:
320,192,49672,1,0,0:0:0:0:
448,192,49816,128,0,50104:0:0:0:0:
192,192,49816,1,0,0:0:0:0:
192,192,50104,1,8,0:0:0:0:
64,192,50104,1,8,0:0:0:0:
320,192,50393,1,0,0:0:0:0:
448,192,50393,1,0,0:0:0:0:
192,192,50537,1,0,0:0:0:0:
64,192,50681,1,0,0:0:0:0:
320,192,50681,1,0,0:0:0:0:
448,192,50826,1,0,0:0:0:0:
320,192,50970,1,0,0:0:0:0:
192,192,51042,1,0,0:0:0:0:
64,192,51114,1,0,0:0:0:0:
192,192,51186,1,0,0:0:0:0:
320,192,51258,1,0,0:0:0:0:
448,192,51330,1,0,0:0:0:0:
64,192,51402,1,0,0:0:0:0:
192,192,51475,1,0,0:0:0:0:
320,192,51547,1,0,0:0:0:0:
448,192,51547,1,0,0:0:0:0:
192,192,51691,1,0,0:0:0:0:
320,192,51835,1,8,0:0:0:0:
64,192,51835,1,8,0:0:0:0:
448,192,51979,1,0,0:0:0:0:
448,192,52268,1,0,0:0:0:0:
320,192,52412,1,0,0:0:0:0:
64,192,52412,1,0,0:0:0:0:
192,192,52556,1,0,0:0:0:0:
320,192,52701,1,0,0:0:0:0:
448,192,52845,1,0,0:0:0:0:
320,192,52989,1,0,0:0:0:0:
192,192,53133,128,0,53422:0:0:0:0:
64,192,53422,1,0,0:0:0:0:
448,192,53422,1,0,0:0:0:0:
320,192,53566,1,0,0:0:0:0:
192,192,53566,1,0,0:0:0:0:
320,192,53710,1,0,0:0:0:0:
448,192,53854,1,0,0:0:0:0:
64,192,53854,1,0,0:0:0:0:
192,192,54143,1,0,0:0:0:0:
320,192,54143,1,0,0:0:0:0:
448,192,54287,1,0,0:0:0:0:
64,192,54431,1,0,0:0:0:0:
192,192,54576,1,0,0:0:0:0:
320,192,54720,1,0,0:0:0:0:
448,192,54720,1,0,0:0:0:0:
192,192,54864,1,0,0:0:0:0:
64,192,55008,1,0,0:0:0:0:
448,192,55008,1,0,0:0:0:0:
320,192,55152,1,0,0:0:0:0:
192,192,55297,1,0,0:0:0:0:
64,192,55297,1,0,0:0:0:0:
448,192,55441,1,0,0:0:0:0:
320,192,55441,128,0,55729:0:0:0:0:
64,192,55729,1,0,0:0:0:0:
192,192,55729,1,0,0:0:0:0:
448,192,56018,1,0,0:0:0:0:
192,192,56018,1,0,0:0:0:0:
64,192,56162,1,0,0:0:0:0:
320,192,56162,1,0,0:0:0:0:
192,192,56451,1,0,0:0:0:0:
448,192,56451,128,0,56739:0:0:0:0:
64,192,56739,1,0,0:0:0:0:
320,192,56739,128,0,57027:0:0:0:0:
192,192,57027,1,0,0:0:0:0:
448,192,57027,1,0,0:0:0:0:
64,192,57172,1,0,0:0:0:0:
448,192,57316,1,0,0:0:0:0:
192,192,57316,1,0,0:0:0:0:
320,192,57604,1,0,0:0:0:0:
64,192,57604,1,0,0:0:0:0:
448,192,57821,1,0,0:0:0:0:
320,192,57893,1,0,0:0:0:0:
192,192,58037,1,0,0:0:0:0:
448,192,58181,1,0,0:0:0:0:
64,192,58181,1,0,0:0:0:0:
320,192,58326,1,0,0:0:0:0:
192,192,58326,1,0,0:0:0:0:
64,192,58758,1,0,0:0:0:0:
320,192,58758,1,0,0:0:0:0:
448,192,58902,1,0,0:0:0:0:
192,192,58902,1,0,0:0:0:0:
448,192,59191,1,0,0:0:0:0:
320,192,59263,1,0,0:0:0:0:
192,192,59335,1,0,0:0:0:0:
64,192,59335,1,0,0:0:0:0:
320,192,59479,1,0,0:0:0:0:
448,192,59479,1,0,0:0:0:0:
320,192,59768,1,0,0:0:0:0:
192,192,59840,1,0,0:0:0:0:
448,192,59912,1,0,0:0:0:0:
64,192,59912,1,0,0:0:0:0:
64,192,60201,1,0,0:0:0:0:
192,192,60273,1,0,0:0:0:0:
448,192,60345,1,0,0:0:0:0:
320,192,60345,128,0,60777:0:0:0:0:
192,192,60777,128,0,61066:0:0:0:0:
64,192,60777,1,0,0:0:0:0:
448,192,61066,1,0,0:0:0:0:
320,192,61066,1,0,0:0:0:0:
64,192,61066,128,0,61354:0:0:0:0:
320,192,61354,1,0,0:0:0:0:
192,192,61354,128,0,61643:0:0:0:0:
448,192,61643,128,0,61931:0:0:0:0:
64,192,61931,1,0,0:0:0:0:
448,192,62076,1,0,0:0:0:0:
192,192,62220,1,0,0:0:0:0:
320,192,62220,1,0,0:0:0:0:
64,192,62364,1,0,0:0:0:0:
320,192,62508,1,0,0:0:0:0:
448,192,62508,1,0,0:0:0:0:
192,192,62652,1,0,0:0:0:0:
64,192,62797,1,0,0:0:0:0:
448,192,62797,1,0,0:0:0:0:
320,192,62941,1,0,0:0:0:0:
192,192,63085,1,0,0:0:0:0:
448,192,63085,128,0,63374:0:0:0:0:
64,192,63374,1,0,0:0:0:0:
320,192,63374,128,0,63662:0:0:0:0:
192,192,63662,128,0,63951:0:0:0:0:
448,192,63662,1,0,0:0:0:0:
320,192,63951,128,0,64239:0:0:0:0:
64,192,64239,1,0,0:0:0:0:
192,192,64311,1,0,0:0:0:0:
320,192,64383,1,0,0:0:0:0:
448,192,64455,1,0,0:0:0:0:
320,192,64527,1,0,0:0:0:0:
192,192,64600,1,0,0:0:0:0:
64,192,64672,1,0,0:0:0:0:
448,192,64744,1,0,0:0:0:0:
320,192,64816,1,0,0:0:0:0:
64,192,64888,1,0,0:0:0:0:
192,192,64960,1,0,0:0:0:0:
448,192,65032,1,0,0:0:0:0:
320,192,65104,1,0,0:0:0:0:
64,192,65177,1,0,0:0:0:0:
192,192,65249,1,0,0:0:0:0:
448,192,65321,1,0,0:0:0:0:
320,192,65393,1,0,0:0:0:0:
64,192,65393,128,0,65681:0:0:0:0:
448,192,65681,1,0,0:0:0:0:
192,192,65681,128,0,65970:0:0:0:0:
320,192,65970,128,0,66258:0:0:0:0:
64,192,65970,1,0,0:0:0:0:
64,192,66258,128,0,66547:0:0:0:0:
448,192,66547,1,0,0:0:0:0:
320,192,66691,1,0,0:0:0:0:
192,192,66835,1,0,0:0:0:0:
64,192,66835,1,0,0:0:0:0:
448,192,66979,1,0,0:0:0:0:
320,192,67124,1,0,0:0:0:0:
192,192,67268,1,0,0:0:0:0:
64,192,67412,1,0,0:0:0:0:
448,192,67412,1,0,0:0:0:0:
320,192,67556,1,0,0:0:0:0:
448,192,67701,1,0,0:0:0:0:
64,192,67701,1,0,0:0:0:0:
192,192,67845,1,0,0:0:0:0:
320,192,67989,1,0,0:0:0:0:
448,192,67989,1,0,0:0:0:0:
64,192,68133,1,0,0:0:0:0:
320,192,68277,1,0,0:0:0:0:
320,192,68422,1,0,0:0:0:0:
64,192,68566,1,0,0:0:0:0:
192,192,68566,1,0,0:0:0:0:
448,192,68710,1,0,0:0:0:0:
64,192,68854,1,0,0:0:0:0:
64,192,68999,1,0,0:0:0:0:
192,192,69143,1,0,0:0:0:0:
320,192,69143,1,0,0:0:0:0:
448,192,69287,1,0,0:0:0:0:
64,192,69431,1,0,0:0:0:0:
192,192,69503,1,0,0:0:0:0:
320,192,69576,1,0,0:0:0:0:
448,192,69648,1,0,0:0:0:0:
64,192,69720,1,0,0:0:0:0:
192,192,69792,1,0,0:0:0:0:
448,192,69864,1,0,0:0:0:0:
320,192,69936,1,0,0:0:0:0:
192,192,70008,1,0,0:0:0:0:
64,192,70008,1,0,0:0:0:0:
64,192,70297,1,0,0:0:0:0:
320,192,70297,1,0,0:0:0:0:
192,192,70585,1,0,0:0:0:0:
448,192,70585,1,0,0:0:0:0:
64,192,70874,1,0,0:0:0:0:
448,192,70874,1,0,0:0:0:0:
320,192,71018,1,0,0:0:0:0:
64,192,71162,1,0,0:0:0:0:
448,192,71162,1,0,0:0:0:0:
192,192,71306,1,0,0:0:0:0:
320,192,71451,1,0,0:0:0:0:
448,192,71451,1,0,0:0:0:0:
64,192,71595,1,0,0:0:0:0:
192,192,71739,1,0,0:0:0:0:
320,192,71739,1,0,0:0:0:0:
448,192,71883,1,0,0:0:0:0:
192,192,72027,1,0,0:0:0:0:
64,192,72027,1,0,0:0:0:0:
320,192,72172,1,0,0:0:0:0:
192,192,72316,1,0,0:0:0:0:
448,192,72316,1,0,0:0:0:0:
64,192,72604,1,0,0:0:0:0:
320,192,72604,1,0,0:0:0:0:
192,192,72893,1,0,0:0:0:0:
448,192,72893,1,0,0:0:0:0:
448,192,73181,1,0,0:0:0:0:
320,192,73181,1,0,0:0:0:0:
448,192,73470,1,0,0:0:0:0:
320,192,73542,1,0,0:0:0:0:
192,192,73614,1,0,0:0:0:0:
64,192,73686,1,0,0:0:0:0:
448,192,73758,1,0,0:0:0:0:
320,192,73830,1,0,0:0:0:0:
192,192,73902,1,0,0:0:0:0:
64,192,73975,1,0,0:0:0:0:
448,192,74047,1,0,0:0:0:0:
320,192,74119,1,0,0:0:0:0:
64,192,74191,1,0,0:0:0:0:
192,192,74263,1,0,0:0:0:0:
448,192,74335,1,0,0:0:0:0:
320,192,74407,1,0,0:0:0:0:
64,192,74479,1,0,0:0:0:0:
192,192,74552,1,0,0:0:0:0:
320,192,74624,1,0,0:0:0:0:
448,192,74624,1,0,0:0:0:0:
192,192,74912,1,0,0:0:0:0:
320,192,74912,1,0,0:0:0:0:
64,192,75201,1,0,0:0:0:0:
192,192,75201,1,0,0:0:0:0:
192,192,75489,1,0,0:0:0:0:
448,192,75489,1,0,0:0:0:0:
320,192,75633,1,0,0:0:0:0:
192,192,75777,1,0,0:0:0:0:
320,192,75922,1,0,0:0:0:0:
448,192,75922,1,0,0:0:0:0:
64,192,76066,1,0,0:0:0:0:
192,192,76210,1,0,0:0:0:0:
320,192,76210,1,0,0:0:0:0:
448,192,76499,1,0,0:0:0:0:
320,192,76499,1,0,0:0:0:0:
192,192,76643,1,0,0:0:0:0:
64,192,76643,1,0,0:0:0:0:
320,192,76787,1,0,0:0:0:0:
192,192,76931,1,0,0:0:0:0:
448,192,76931,1,0,0:0:0:0:
64,192,77076,1,0,0:0:0:0:
192,192,77220,1,0,0:0:0:0:
320,192,77220,1,0,0:0:0:0:
448,192,77364,1,0,0:0:0:0:
64,192,77508,1,0,0:0:0:0:
320,192,77508,1,0,0:0:0:0:
192,192,77652,1,0,0:0:0:0:
64,192,77797,1,0,0:0:0:0:
448,192,77797,1,0,0:0:0:0:
320,192,77941,1,0,0:0:0:0:
192,192,78085,1,0,0:0:0:0:
448,192,78085,1,0,0:0:0:0:
320,192,78229,1,0,0:0:0:0:
192,192,78374,1,0,0:0:0:0:
64,192,78374,1,0,0:0:0:0:
448,192,78518,1,0,0:0:0:0:
320,192,78662,1,0,0:0:0:0:
192,192,78662,1,0,0:0:0:0:
64,192,78806,1,0,0:0:0:0:
320,192,78951,1,0,0:0:0:0:
448,192,78951,1,0,0:0:0:0:
192,192,79095,1,0,0:0:0:0:
448,192,79239,1,0,0:0:0:0:
320,192,79311,1,0,0:0:0:0:
192,192,79383,1,0,0:0:0:0:
64,192,79455,1,0,0:0:0:0:
192,192,79527,1,0,0:0:0:0:
320,192,79600,1,0,0:0:0:0:
448,192,79672,1,0,0:0:0:0:
320,192,79744,1,0,0:0:0:0:
64,192,79816,1,0,0:0:0:0:
192,192,79888,1,0,0:0:0:0:
448,192,79960,1,0,0:0:0:0:
320,192,80032,1,0,0:0:0:0:
64,192,80104,1,0,0:0:0:0:
192,192,80177,1,0,0:0:0:0:
448,192,80249,1,0,0:0:0:0:
320,192,80321,1,0,0:0:0:0:
64,192,80393,128,0,80970:0:0:0:0:
192,192,80393,1,0,0:0:0:0:
320,192,80970,128,0,81547:0:0:0:0:
448,192,80970,1,0,0:0:0:0:
64,192,81547,128,0,82124:0:0:0:0:
192,192,81547,1,0,0:0:0:0:
192,192,82124,128,0,82701:0:0:0:0:
320,192,82124,1,0,0:0:0:0:
320,192,82701,128,0,83277:0:0:0:0:
64,192,82701,128,0,83277:0:0:0:0:
192,192,83277,128,0,83854:0:0:0:0:
448,192,83277,128,0,83854:0:0:0:0:
320,192,83854,128,0,86162:0:0:0:0:
64,192,83854,1,0,0:0:0:0:
64,192,84576,128,0,86162:0:0:0:0:
192,192,85008,128,0,86162:0:0:0:0:
448,192,86162,128,0,87893:0:0:0:0:
