osu file format v14

[General]
AudioFilename: ok.mp3
AudioLeadIn: 1000
PreviewTime: 42145
Countdown: 0
SampleSet: None
StackLeniency: 0.5
Mode: 0
LetterboxInBreaks: 0
WidescreenStoryboard: 1

[Editor]
Bookmarks: 12221,16836,21452,22028,26067,32413,33417,34721,69909,73370,74524
DistanceSpacing: 0.2
BeatDivisor: 4
GridSize: 16
TimelineZoom: 1.9

[Metadata]
Title:L.L.L.
TitleUnicode:L.L.L.
Artist:MYTH & ROID
ArtistUnicode:MYTH & ROID
Creator:CCleanerShot
Version:C.C.
Source:オーバーロード
Tags:Overlord ending ed albedo madhouse tv size ミスアンドロイド
BeatmapID:2019019
BeatmapSetID:964399

[Difficulty]
HPDrainRate:6.1
CircleSize:3.9
OverallDifficulty:8.5
ApproachRate:9.3
SliderMultiplier:1.5
SliderTickRate:1

[Events]
//Background and Video events
0,0,"l.l.l..jpg",0,0
//Break Periods
//Storyboard Layer 0 (Background)
//Storyboard Layer 1 (Fail)
//Storyboard Layer 2 (Pass)
//Storyboard Layer 3 (Foreground)
//Storyboard Sound Samples

[TimingPoints]
678,288.461538461538,4,2,1,50,1,0
678,-133.333333333333,4,2,1,50,0,0
2986,288.461538461538,4,1,1,70,1,0
12215,-100,4,1,1,70,0,0
13081,-100,4,1,1,70,0,0
32408,-200,4,1,1,30,0,0
32696,-200,4,1,1,15,0,0
33129,-100,4,1,1,70,0,0
34715,-100,4,1,1,30,0,0
35004,-200,4,1,1,15,0,0
35436,-100,4,1,1,70,0,0
40052,-100,4,2,1,40,0,0
40484,-111.111111111111,4,2,1,40,0,0
40773,-125,4,2,1,40,0,0
41061,-142.857142857143,4,2,1,40,0,0
41494,-166.666666666667,4,2,1,40,0,0
41927,-166.666666666667,4,2,1,10,0,0
42216,-83.3333333333333,4,1,1,80,0,1
60244,-100,4,1,1,80,0,1
60678,-100,4,1,1,80,0,0
61542,-83.3333333333333,4,1,1,80,0,0
61543,-80,4,1,1,80,0,0
61976,-100,4,1,1,80,0,0
62263,-100,4,1,1,80,0,0
63851,-80,4,1,1,80,0,0
64139,-100,4,1,1,80,0,0
66158,-80,4,1,1,80,0,0
66447,-100,4,1,1,80,0,0
67601,-83.3333333333333,4,1,1,80,0,0
78850,-66.6666666666667,4,1,1,80,0,0
80292,-100,4,1,1,80,0,0
80581,-100,4,2,1,40,0,0
80869,-200,4,2,1,40,0,0
81446,-133.333333333333,4,2,1,40,0,0
82023,-200,4,2,1,40,0,0
82600,-133.333333333333,4,2,1,40,0,0
83177,-200,4,2,1,40,0,0
84764,-200,4,2,1,15,0,0
86062,-200,4,2,1,5,0,0

[Colours]
Combo1 : 255,47,47
Combo2 : 187,176,157
Combo3 : 142,145,98
Combo4 : 113,155,168

[HitObjects]
304,128,678,5,0,0:0:0:0:
325,149,966,1,0,0:0:0:0:
76,156,1254,2,0,P|76:196|98:224,2,56.2500021457673
388,227,1831,2,0,P|429:249|456:252,2,56.2500021457673
211,116,2264,5,0,0:0:0:0:
211,116,2408,2,0,P|163:91|148:92,2,56.2500021457673
256,192,2841,5,0,0:0:0:0:
256,192,2913,1,0,0:0:0:0:
256,80,2986,2,0,P|273:29|292:11,1,75
256,288,3274,2,0,P|286:330|320:351,1,75
128,144,3562,5,0,0:0:0:0:
128,144,3707,2,0,P|178:163|209:162,1,75
384,128,3995,5,0,0:0:0:0:
384,128,4139,1,0,0:0:0:0:
384,128,4284,2,0,P|352:184|350:216,1,75
224,192,4572,5,0,0:0:0:0:
224,192,4644,1,0,0:0:0:0:
128,144,4716,2,0,P|126:153|154:217,1,75
352,304,5005,2,0,P|369:249|362:225,1,75
256,48,5293,5,0,0:0:0:0:
192,160,5437,1,0,0:0:0:0:
288,256,5582,1,0,0:0:0:0:
208,352,5726,2,0,P|150:339|138:316,1,75
224,208,6014,2,0,P|176:188|140:193,1,75
57,190,6303,5,0,0:0:0:0:
57,190,6375,1,0,0:0:0:0:
65,295,6447,2,0,P|27:256|32:219,1,75
179,226,6735,5,0,0:0:0:0:
179,226,6808,1,0,0:0:0:0:
92,260,6880,2,0,P|135:272|168:260,1,75
194,109,7168,5,0,0:0:0:0:
179,134,7240,1,0,0:0:0:0:
247,163,7312,5,0,0:0:0:0:
209,171,7385,1,0,0:0:0:0:
248,234,7457,5,0,0:0:0:0:
210,230,7529,1,0,0:0:0:0:
173,222,7601,2,0,P|106:219|73:198,2,75
175,112,8034,5,0,0:0:0:0:
175,112,8178,1,0,0:0:0:0:
175,112,8322,2,0,P|234:121|261:160,1,75
357,250,8610,6,0,P|339:193|345:167,1,75
405,33,8899,2,0,P|426:84|426:127,1,75
209,138,9187,5,0,0:0:0:0:
286,331,9332,1,0,0:0:0:0:
304,136,9476,5,0,0:0:0:0:
198,315,9620,1,0,0:0:0:0:
198,315,9692,1,0,0:0:0:0:
151,178,9764,2,0,P|137:224|146:279,1,75
287,95,10197,5,0,0:0:0:0:
287,95,10269,1,0,0:0:0:0:
265,246,10341,2,0,P|210:217|192:191,1,75
163,106,10630,5,0,0:0:0:0:
139,134,10702,1,0,0:0:0:0:
124,168,10774,1,0,0:0:0:0:
116,204,10846,1,0,0:0:0:0:
121,241,10918,1,0,0:0:0:0:
234,293,11062,5,0,0:0:0:0:
234,293,11135,1,0,0:0:0:0:
234,293,11207,2,0,L|288:292,1,37.5
151,176,11351,6,0,B|100:215|61:135|12:218,1,150
16,221,11784,5,0,0:0:0:0:
165,221,12216,1,0,0:0:0:0:
314,219,12505,1,0,0:0:0:0:
464,219,12793,1,0,0:0:0:0:
393,129,12937,2,0,P|345:114|296:122,1,75
147,173,13226,5,0,0:0:0:0:
147,173,13370,1,0,0:0:0:0:
147,173,13514,2,0,P|189:211|224:225,1,75
328,237,13803,2,0,P|288:180|257:168,1,75
149,76,14091,6,0,L|106:54,2,37.5
299,306,14524,5,0,0:0:0:0:
299,306,14668,2,0,P|226:291|211:296,1,75
138,227,14957,2,0,P|202:210|230:220,1,75
85,163,15245,2,0,P|36:137|-10:141,1,75
146,58,15534,5,0,0:0:0:0:
285,113,15678,2,0,P|307:171|326:189,1,75
246,312,15966,1,0,0:0:0:0:
117,234,16110,2,0,P|66:272|48:302,1,75
248,186,16399,5,0,0:0:0:0:
211,179,16471,1,0,0:0:0:0:
173,176,16543,1,0,0:0:0:0:
136,110,16615,5,0,0:0:0:0:
135,147,16688,1,0,0:0:0:0:
60,150,16760,5,0,0:0:0:0:
89,172,16832,2,0,P|150:209|169:237,1,75
362,341,17120,2,0,P|339:281|338:250,1,75
367,64,17409,2,0,P|310:96|291:135,1,75
198,207,17697,5,0,0:0:0:0:
198,207,17841,2,0,P|218:258|235:277,2,75
362,176,18274,5,0,0:0:0:0:
362,176,18418,2,0,P|299:164|264:169,1,75
94,96,18707,5,0,0:0:0:0:
161,212,18851,1,0,0:0:0:0:
178,93,18995,1,0,0:0:0:0:
74,220,19139,1,0,0:0:0:0:
343,240,19284,5,0,0:0:0:0:
343,240,19356,1,0,0:0:0:0:
343,240,19428,1,0,0:0:0:0:
88,48,19572,5,0,0:0:0:0:
196,300,19716,1,0,0:0:0:0:
246,142,19860,1,0,0:0:0:0:
246,142,19933,1,0,0:0:0:0:
246,142,20005,1,0,0:0:0:0:
176,18,20149,5,0,0:0:0:0:
76,344,20293,1,0,0:0:0:0:
24,228,20437,1,0,0:0:0:0:
24,228,20510,1,0,0:0:0:0:
24,228,20582,1,0,0:0:0:0:
315,259,20726,5,0,0:0:0:0:
140,189,20870,1,0,0:0:0:0:
388,243,21014,5,0,0:0:0:0:
213,173,21158,1,0,0:0:0:0:
472,191,21448,5,0,0:0:0:0:
248,192,21735,1,0,0:0:0:0:
22,188,22024,1,0,0:0:0:0:
173,128,22457,5,0,0:0:0:0:
173,128,22601,2,0,P|243:108|266:96,1,75
321,215,22889,5,0,0:0:0:0:
321,215,22961,1,0,0:0:0:0:
321,215,23034,2,0,P|298:274|310:308,1,75
159,194,23322,2,0,P|127:150|101:140,1,75
339,141,23755,6,0,P|384:159|417:188,1,75
167,300,24043,2,0,P|118:296|92:264,1,75
135,55,24332,2,0,P|198:68|222:98,1,75
308,219,24620,5,0,0:0:0:0:
308,219,24764,1,0,0:0:0:0:
308,219,24909,2,0,P|284:266|282:298,1,75
189,226,25197,5,0,0:0:0:0:
189,226,25269,1,0,0:0:0:0:
189,226,25341,2,0,P|140:209|120:182,1,75
320,0,25630,5,0,0:0:0:0:
162,366,25774,1,0,0:0:0:0:
40,193,26062,5,0,0:0:0:0:
264,192,26349,1,0,0:0:0:0:
490,196,26638,1,0,0:0:0:0:
384,114,26784,1,0,0:0:0:0:
384,114,26928,2,0,P|352:162|351:196,1,75
352,306,27216,5,0,0:0:0:0:
352,306,27360,1,0,0:0:0:0:
210,160,27505,1,0,0:0:0:0:
210,160,27649,2,0,P|197:211|207:243,1,75
134,333,27937,5,0,0:0:0:0:
134,333,28010,1,0,0:0:0:0:
171,326,28082,2,0,P|237:328|266:321,1,75
346,252,28370,6,0,B|308:200|341:168|390:152|316:90,1,150
189,129,28803,1,0,0:0:0:0:
103,251,28947,5,0,0:0:0:0:
103,251,29091,1,0,0:0:0:0:
232,236,29235,1,0,0:0:0:0:
232,236,29380,1,0,0:0:0:0:
232,236,29524,2,0,P|321:248|325:245,1,75
310,205,30389,5,0,0:0:0:0:
310,205,30461,1,0,0:0:0:0:
298,92,30534,2,0,P|339:129|347:164,1,75
465,123,30822,5,0,0:0:0:0:
393,100,30966,1,0,0:0:0:0:
406,230,31110,1,0,0:0:0:0:
460,281,31255,1,0,0:0:0:0:
201,220,31687,5,0,0:0:0:0:
267,184,31832,1,0,0:0:0:0:
403,202,31976,1,0,0:0:0:0:
355,259,32120,1,0,0:0:0:0:
472,329,32409,2,0,L|502:365,1,37.5
429,372,32697,2,0,L|443:404,1,18.75
319,312,33130,5,0,0:0:0:0:
245,293,33275,1,0,0:0:0:0:
187,142,33418,1,0,0:0:0:0:
240,194,33562,1,0,0:0:0:0:
131,247,33707,1,0,0:0:0:0:
131,247,33779,1,0,0:0:0:0:
131,247,33851,1,0,0:0:0:0:
112,350,33995,5,0,0:0:0:0:
106,275,34139,1,0,0:0:0:0:
114,149,34284,1,0,0:0:0:0:
140,78,34428,1,0,0:0:0:0:
5,59,34716,2,0,L|-37:40,1,37.5
35,4,35005,2,0,L|-7:-10,1,37.5
111,113,35437,5,0,0:0:0:0:
179,81,35582,1,0,0:0:0:0:
318,125,35726,1,0,0:0:0:0:
252,162,35870,2,0,P|187:210|176:230,1,75
175,224,36086,1,0,0:0:0:0:
175,224,36159,1,0,0:0:0:0:
126,317,36303,5,0,0:0:0:0:
126,317,36375,1,0,0:0:0:0:
126,317,36447,2,0,P|186:299|214:286,1,75
389,139,36735,2,0,P|335:179|317:198,1,75
439,195,37024,5,0,0:0:0:0:
473,207,37096,1,0,0:0:0:0:
407,243,37168,5,0,0:0:0:0:
429,272,37240,1,0,0:0:0:0:
354,261,37312,5,0,0:0:0:0:
350,298,37385,1,0,0:0:0:0:
288,255,37457,5,0,0:0:0:0:
270,287,37529,1,0,0:0:0:0:
248,317,37601,2,0,P|186:327|155:313,2,75
140,210,38034,1,0,0:0:0:0:
203,74,38178,2,0,P|275:85|296:103,1,75
265,228,38466,5,0,0:0:0:0:
265,228,38610,1,0,0:0:0:0:
122,278,38755,2,0,P|143:324|171:342,1,75
309,313,39043,5,0,0:0:0:0:
344,167,39187,2,0,P|309:112|280:98,1,75
83,46,39476,2,0,B|82:123|181:130|142:198,1,150
304,215,40053,5,0,0:0:0:0:
318,141,40197,1,0,0:0:0:0:
197,170,40341,5,0,0:0:0:0:
247,125,40485,1,0,0:0:0:0:
134,90,40630,5,0,0:0:0:0:
193,82,40774,1,0,0:0:0:0:
114,6,40918,5,0,0:0:0:0:
164,18,41062,1,0,0:0:0:0:
74,2,41207,5,0,0:0:0:0:
113,14,41351,1,0,0:0:0:0:
0,11,41495,6,0,L|43:11,1,22.4999993133545
265,202,41928,5,0,0:0:0:0:
265,202,42000,1,0,0:0:0:0:
265,202,42072,1,0,0:0:0:0:
265,202,42144,1,0,0:0:0:0:
150,145,42216,2,0,P|141:228|151:256,1,89.9999972534181
252,279,42649,5,0,0:0:0:0:
252,279,42721,1,0,0:0:0:0:
281,121,42793,2,0,P|310:167|310:211,1,89.9999972534181
78,246,43226,5,0,0:0:0:0:
78,246,43298,1,0,0:0:0:0:
1,310,43370,2,0,P|9:238|25:212,1,89.9999972534181
197,221,43803,1,0,0:0:0:0:
325,95,44091,2,0,P|310:151|284:184,1,89.9999972534181
284,312,44380,5,0,0:0:0:0:
284,312,44524,2,0,P|213:300|185:277,1,89.9999972534181
110,92,44812,2,0,P|72:136|64:171,2,89.9999972534181
241,123,45245,5,0,0:0:0:0:
241,123,45317,1,0,0:0:0:0:
241,123,45389,2,0,P|296:141|336:136,1,89.9999972534181
455,59,45678,6,0,P|486:132|484:155,1,89.9999972534181
206,57,45966,5,0,0:0:0:0:
328,299,46110,2,0,P|380:330|416:330,1,89.9999972534181
312,53,46399,5,0,0:0:0:0:
232,260,46543,1,0,0:0:0:0:
232,260,46615,1,0,0:0:0:0:
232,260,46687,1,0,0:0:0:0:
113,200,46832,1,0,0:0:0:0:
218,106,47120,5,0,0:0:0:0:
218,106,47264,1,0,0:0:0:0:
218,106,47409,2,0,P|279:145|294:174,1,89.9999972534181
240,298,47697,2,0,P|217:355|184:372,1,89.9999972534181
163,197,47985,6,0,L|112:199,2,44.999998626709
95,109,48274,5,0,0:0:0:0:
95,109,48418,2,0,P|56:162|47:191,2,89.9999972534181
294,73,48851,5,0,0:0:0:0:
187,290,48995,1,0,0:0:0:0:
147,192,49139,5,0,0:0:0:0:
255,192,49284,1,0,0:0:0:0:
362,195,49428,1,0,0:0:0:0:
229,110,49572,5,0,0:0:0:0:
362,195,49716,1,0,0:0:0:0:
222,58,49860,5,0,0:0:0:0:
362,195,50005,1,0,0:0:0:0:
256,8,50149,5,0,0:0:0:0:
362,195,50293,1,0,0:0:0:0:
362,195,50365,1,0,0:0:0:0:
368,194,50437,1,0,0:0:0:0:
256,330,50582,5,0,0:0:0:0:
256,330,50726,2,0,P|197:297|180:279,1,89.9999972534181
144,190,51014,5,0,0:0:0:0:
197,194,51086,1,0,0:0:0:0:
161,110,51159,1,0,0:0:0:0:
198,135,51231,1,0,0:0:0:0:
217,47,51303,1,0,0:0:0:0:
236,87,51375,1,0,0:0:0:0:
314,174,51447,2,0,P|319:119|312:83,1,89.9999972534181
141,265,51880,5,0,0:0:0:0:
141,265,51952,1,0,0:0:0:0:
48,311,52024,2,0,P|109:265|136:259,1,89.9999972534181
343,192,52457,5,0,0:0:0:0:
343,192,52529,1,0,0:0:0:0:
241,257,52601,2,0,P|278:200|300:190,1,89.9999972534181
129,168,52889,5,0,0:0:0:0:
129,168,53034,2,0,P|73:202|52:232,1,89.9999972534181
294,147,53322,2,0,P|325:99|333:64,2,89.9999972534181
112,271,53755,6,0,P|122:325|153:354,1,89.9999972534181
211,158,54043,2,0,P|198:97|177:72,1,89.9999972534181
68,217,54332,1,0,0:0:0:0:
197,341,54476,2,0,P|259:292|264:263,1,89.9999972534181
330,175,54764,5,0,0:0:0:0:
330,175,54836,1,0,0:0:0:0:
330,175,54909,2,0,P|272:183|232:206,1,89.9999972534181
93,313,55197,5,0,0:0:0:0:
93,313,55341,2,0,P|46:262|28:224,1,89.9999972534181
179,43,55630,2,0,P|197:96|192:136,1,89.9999972534181
256,192,55918,5,0,0:0:0:0:
278,190,55990,1,0,0:0:0:0:
300,188,56062,1,0,0:0:0:0:
322,188,56135,1,0,0:0:0:0:
339,106,56207,5,0,0:0:0:0:
436,356,56351,1,0,0:0:0:0:
445,107,56495,5,0,0:0:0:0:
337,344,56639,1,0,0:0:0:0:
212,290,56784,2,0,P|152:291|117:307,1,89.9999972534181
308,137,57072,5,0,0:0:0:0:
286,138,57144,1,0,0:0:0:0:
264,141,57216,1,0,0:0:0:0:
242,141,57289,1,0,0:0:0:0:
207,53,57360,5,0,0:0:0:0:
90,351,57505,1,0,0:0:0:0:
101,54,57649,5,0,0:0:0:0:
214,351,57793,1,0,0:0:0:0:
318,265,57937,5,0,0:0:0:0:
318,265,58010,1,0,0:0:0:0:
318,265,58082,1,0,0:0:0:0:
261,57,58226,2,0,P|243:107|231:163,1,89.9999972534181
380,322,58514,5,0,0:0:0:0:
380,322,58659,2,0,P|458:318|494:296,1,89.9999972534181
144,143,58948,2,0,P|67:169|37:191,1,89.9999972534181
235,206,59235,5,0,0:0:0:0:
400,132,59380,2,0,P|458:67|471:43,1,89.9999972534181
280,49,59668,5,0,0:0:0:0:
280,49,59812,1,0,0:0:0:0:
132,154,59957,1,0,0:0:0:0:
132,154,60101,2,0,P|123:221|125:258,1,89.9999972534181
223,195,60678,5,0,0:0:0:0:
234,194,60750,1,0,0:0:0:0:
245,193,60822,1,0,0:0:0:0:
256,193,60894,1,0,0:0:0:0:
267,192,60966,1,0,0:0:0:0:
278,191,61038,1,0,0:0:0:0:
289,190,61110,1,0,0:0:0:0:
300,189,61183,1,0,0:0:0:0:
355,109,61255,6,0,L|306:87,7,37.5
181,158,61832,5,0,0:0:0:0:
195,176,61904,1,0,0:0:0:0:
203,192,61976,1,0,0:0:0:0:
210,209,62048,1,0,0:0:0:0:
216,226,62120,1,0,0:0:0:0:
222,243,62192,1,0,0:0:0:0:
227,260,62264,1,0,0:0:0:0:
231,278,62336,1,0,0:0:0:0:
232,296,62409,1,0,0:0:0:0:
231,314,62481,1,0,0:0:0:0:
227,332,62553,1,0,0:0:0:0:
222,350,62625,1,0,0:0:0:0:
208,363,62697,1,0,0:0:0:0:
189,368,62769,1,0,0:0:0:0:
170,364,62841,1,0,0:0:0:0:
151,359,62913,1,0,0:0:0:0:
86,218,62985,5,0,0:0:0:0:
109,205,63058,1,0,0:0:0:0:
134,200,63130,1,0,0:0:0:0:
160,197,63202,1,0,0:0:0:0:
186,198,63274,1,0,0:0:0:0:
211,203,63346,1,0,0:0:0:0:
235,211,63418,1,0,0:0:0:0:
259,220,63490,1,0,0:0:0:0:
346,211,63562,5,0,0:0:0:0:
328,191,63635,1,0,0:0:0:0:
309,172,63707,1,0,0:0:0:0:
291,152,63779,1,0,0:0:0:0:
264,132,63851,2,0,L|193:110,3,46.875
92,152,64139,5,0,0:0:0:0:
131,192,64211,1,0,0:0:0:0:
179,222,64284,1,0,0:0:0:0:
231,240,64356,1,0,0:0:0:0:
289,252,64428,1,0,0:0:0:0:
352,244,64500,1,0,0:0:0:0:
404,201,64572,1,0,0:0:0:0:
430,135,64644,1,0,0:0:0:0:
411,62,64716,2,0,L|392:13,7,37.5
194,82,65293,5,0,0:0:0:0:
180,104,65365,1,0,0:0:0:0:
168,127,65437,1,0,0:0:0:0:
163,153,65510,1,0,0:0:0:0:
240,202,65582,5,0,0:0:0:0:
259,185,65654,1,0,0:0:0:0:
278,169,65726,1,0,0:0:0:0:
292,148,65798,1,0,0:0:0:0:
242,77,65870,6,0,L|289:116,7,37.5
356,140,66447,5,0,0:0:0:0:
321,125,66519,1,0,0:0:0:0:
283,120,66591,1,0,0:0:0:0:
245,120,66663,1,0,0:0:0:0:
207,128,66735,2,0,L|148:147,1,37.5
165,296,66880,5,0,0:0:0:0:
220,291,66952,1,0,0:0:0:0:
265,251,67024,1,0,0:0:0:0:
290,192,67096,1,0,0:0:0:0:
305,126,67168,1,0,0:0:0:0:
356,75,67241,1,0,0:0:0:0:
430,72,67313,1,0,0:0:0:0:
480,132,67385,1,0,0:0:0:0:
455,185,67457,6,0,L|416:257,4,44.999998626709
332,232,67889,5,0,0:0:0:0:
332,232,67961,1,0,0:0:0:0:
332,232,68034,1,0,0:0:0:0:
332,232,68106,2,0,L|258:226,4,44.999998626709
278,117,68466,5,0,0:0:0:0:
278,117,68538,1,0,0:0:0:0:
278,117,68610,1,0,0:0:0:0:
278,117,68683,1,0,0:0:0:0:
278,117,68755,2,0,L|314:72,7,44.999998626709
139,143,69332,5,0,0:0:0:0:
181,183,69404,1,0,0:0:0:0:
229,215,69476,1,0,0:0:0:0:
281,240,69548,1,0,0:0:0:0:
278,298,69620,1,0,0:0:0:0:
307,348,69692,1,0,0:0:0:0:
358,374,69764,1,0,0:0:0:0:
416,367,69836,1,0,0:0:0:0:
448,317,69909,6,0,L|513:299,1,44.999998626709
150,195,70197,2,0,L|96:204,1,44.999998626709
376,43,70485,2,0,L|421:36,1,44.999998626709
214,53,70774,5,0,0:0:0:0:
348,287,70918,1,0,0:0:0:0:
304,46,71062,1,0,0:0:0:0:
220,307,71207,1,0,0:0:0:0:
116,197,71351,1,0,0:0:0:0:
116,197,71495,2,0,P|94:138|100:111,1,89.9999972534181
252,153,71784,5,0,0:0:0:0:
252,153,71856,1,0,0:0:0:0:
252,153,71928,1,0,0:0:0:0:
252,153,72000,1,0,0:0:0:0:
252,153,72072,1,0,0:0:0:0:
252,153,72144,2,0,L|314:169,4,44.999998626709
132,258,72505,5,0,0:0:0:0:
207,286,72577,1,0,0:0:0:0:
292,285,72649,1,0,0:0:0:0:
371,243,72721,1,0,0:0:0:0:
461,216,72793,2,0,L|526:229,3,44.999998626709
434,133,73082,6,0,L|386:135,3,44.999998626709
223,195,73370,5,0,0:0:0:0:
234,194,73442,1,0,0:0:0:0:
245,193,73514,1,0,0:0:0:0:
256,193,73586,1,0,0:0:0:0:
267,192,73658,1,0,0:0:0:0:
278,191,73730,1,0,0:0:0:0:
289,190,73802,1,0,0:0:0:0:
300,189,73875,1,0,0:0:0:0:
355,109,73947,6,0,L|306:87,7,37.5
181,158,74524,5,0,0:0:0:0:
195,176,74596,1,0,0:0:0:0:
203,192,74668,1,0,0:0:0:0:
210,209,74740,1,0,0:0:0:0:
216,226,74812,1,0,0:0:0:0:
222,243,74884,1,0,0:0:0:0:
227,260,74956,1,0,0:0:0:0:
231,278,75028,1,0,0:0:0:0:
232,296,75101,1,0,0:0:0:0:
231,314,75173,1,0,0:0:0:0:
227,332,75245,1,0,0:0:0:0:
222,350,75317,1,0,0:0:0:0:
208,363,75389,1,0,0:0:0:0:
189,368,75461,1,0,0:0:0:0:
170,364,75533,1,0,0:0:0:0:
151,359,75605,1,0,0:0:0:0:
86,218,75677,5,0,0:0:0:0:
109,205,75750,1,0,0:0:0:0:
134,200,75822,1,0,0:0:0:0:
160,197,75894,1,0,0:0:0:0:
186,198,75966,1,0,0:0:0:0:
211,203,76038,1,0,0:0:0:0:
235,211,76110,1,0,0:0:0:0:
259,220,76182,1,0,0:0:0:0:
346,211,76254,5,0,0:0:0:0:
328,191,76327,1,0,0:0:0:0:
309,172,76399,1,0,0:0:0:0:
291,152,76471,1,0,0:0:0:0:
264,132,76543,2,0,L|193:110,3,46.875
92,152,76831,5,0,0:0:0:0:
131,192,76903,1,0,0:0:0:0:
179,222,76976,1,0,0:0:0:0:
231,240,77048,1,0,0:0:0:0:
289,252,77120,1,0,0:0:0:0:
352,244,77192,1,0,0:0:0:0:
404,201,77264,1,0,0:0:0:0:
430,135,77336,1,0,0:0:0:0:
411,62,77408,2,0,L|392:13,7,37.5
194,82,77985,5,0,0:0:0:0:
180,104,78057,1,0,0:0:0:0:
168,127,78129,1,0,0:0:0:0:
163,153,78202,1,0,0:0:0:0:
240,202,78274,5,0,0:0:0:0:
259,185,78346,1,0,0:0:0:0:
278,169,78418,1,0,0:0:0:0:
292,148,78490,1,0,0:0:0:0:
242,77,78562,6,0,L|289:116,7,37.5
356,140,79139,5,0,0:0:0:0:
321,125,79211,1,0,0:0:0:0:
283,120,79283,1,0,0:0:0:0:
245,120,79355,1,0,0:0:0:0:
207,128,79427,2,0,L|148:147,1,37.5
165,296,79572,5,0,0:0:0:0:
220,291,79644,1,0,0:0:0:0:
265,251,79716,1,0,0:0:0:0:
290,192,79788,1,0,0:0:0:0:
305,126,79860,1,0,0:0:0:0:
356,75,79933,1,0,0:0:0:0:
430,72,80005,1,0,0:0:0:0:
480,132,80077,1,0,0:0:0:0:
455,185,80149,6,0,L|416:257,4,44.999998626709
332,232,80581,5,0,0:0:0:0:
332,232,80653,1,0,0:0:0:0:
332,232,80726,1,0,0:0:0:0:
332,232,80798,2,0,L|258:226,4,44.999998626709
278,117,81158,5,0,0:0:0:0:
278,117,81230,1,0,0:0:0:0:
278,117,81302,1,0,0:0:0:0:
278,117,81375,1,0,0:0:0:0:
278,117,81447,2,0,L|314:72,7,44.999998626709
139,143,82024,5,0,0:0:0:0:
181,183,82096,1,0,0:0:0:0:
229,215,82168,1,0,0:0:0:0:
281,240,82240,1,0,0:0:0:0:
278,298,82312,1,0,0:0:0:0:
307,348,82384,1,0,0:0:0:0:
358,374,82456,1,0,0:0:0:0:
416,367,82528,1,0,0:0:0:0:
438,285,82601,6,0,L|451:232,1,28.1250010728836
361,249,82889,2,0,L|349:208,1,28.1250010728836
364,114,83178,2,0,L|364:82,1,18.75
277,116,83466,2,0,L|241:92,1,37.5
223,174,83755,2,0,L|137:179,1,75
