osu file format v14

[General]
AudioFilename: okdad.mp3
AudioLeadIn: 0
PreviewTime: 42217
Countdown: 0
SampleSet: Normal
StackLeniency: 0.7
Mode: 0
LetterboxInBreaks: 0
WidescreenStoryboard: 0

[Editor]
DistanceSpacing: 1.1
BeatDivisor: 4
GridSize: 4
TimelineZoom: 1.6

[Metadata]
Title:L.L.L.
TitleUnicode:L.L.L.
Artist:MYTH & ROID
ArtistUnicode:MYTH & ROID
Creator:Aerous
Version:Easy
Source:オーバーロード
Tags:Jmmxps Gaia overlord ending theme guineaQ -kevincela- Pho
BeatmapID:767252
BeatmapSetID:347111

[Difficulty]
HPDrainRate:3
CircleSize:3
OverallDifficulty:2
ApproachRate:3
SliderMultiplier:0.799999999999999
SliderTickRate:1

[Events]
//Background and Video events
Video,-450,"dude nice.avi"
0,0,"rsz_52190094_p0.jpg",0,0
//Break Periods
//Storyboard Layer 0 (Background)
//Storyboard Layer 1 (Fail)
//Storyboard Layer 2 (Pass)
//Storyboard Layer 3 (Foreground)
//Storyboard Sound Samples

[TimingPoints]
678,288.461538461538,4,2,1,50,1,0
678,-111.111111111111,4,2,1,50,0,0
1831,-100,4,2,1,50,0,0
2986,288.461538461538,4,1,1,70,1,0
13082,-100,4,1,1,60,0,0
16832,-100,4,1,1,70,0,0
17698,-100,4,1,1,60,0,0
21448,-100,4,1,1,70,0,0
22313,-100,4,1,1,60,0,0
26063,-100,4,1,1,70,0,0
26928,-100,4,1,1,60,0,0
29524,-100,4,2,1,60,0,0
30678,-100,4,1,1,70,0,0
32409,-100,4,2,1,30,0,0
33130,-100,4,1,1,75,0,0
34717,-100,4,2,1,30,0,0
35438,-100,4,1,1,80,0,0
37024,-100,4,1,1,60,0,0
37601,-100,4,1,1,70,0,0
39909,-100,4,2,1,20,0,0
40053,-100,4,2,1,60,0,0
41856,-100,4,2,1,30,0,0
41928,-100,4,2,1,30,0,0
42216,-100,4,1,1,80,0,1
60678,-100,4,1,1,70,0,0
69909,-100,4,1,1,80,0,1
79140,-100,4,1,1,70,0,1
79717,-100,4,1,1,80,0,1
80293,-100,4,2,1,60,0,0
83755,-111.111111111111,4,2,1,60,0,0
86063,-100,4,1,1,30,0,0
87409,-100,4,2,1,20,0,0

[Colours]
Combo1 : 255,128,192
Combo2 : 255,128,128
Combo3 : 128,255,255
Combo4 : 255,255,128

[HitObjects]
52,120,678,6,0,B|96:152|140:112|140:112|192:156|192:156|248:108|316:140,1,287.999991210937,0|0,1:0|1:0,0:0:0:0:
472,80,2408,1,0,0:0:0:0:
448,256,2985,6,0,P|344:301|265:220,1,240,6|8,0:0|0:0,0:0:0:0:
232,140,4139,2,0,P|152:59|49:104,1,240,2|0,0:0|0:0,0:0:0:0:
32,192,5293,6,0,B|28:236|40:272|40:272|16:308|22:347,1,160,2|0,0:0|0:0,0:0:0:0:
108,328,6159,1,8,0:0:0:0:
184,284,6447,2,0,P|266:294|352:272,1,160,2|0,0:0|0:0,0:0:0:0:
412,224,7312,1,8,0:0:0:0:
480,168,7601,6,0,P|452:144|336:176,1,160,4|8,0:0|0:0,0:0:0:0:
260,200,8466,1,8,0:0:0:0:
192,256,8755,2,0,P|122:291|53:257,1,160,0|8,0:0|0:0,0:0:0:0:
56,124,9764,6,0,P|124:89|194:122,2,160,6|2|2,0:0|0:0|0:0,0:0:0:0:
53,257,11351,2,0,P|123:290|192:256,1,160,0|0,0:0|0:0,0:0:0:0:
248,188,12216,6,0,P|288:196|332:184,2,79.9999999999999,4|8|2,0:0|0:2|0:0,0:0:0:0:
288,108,13082,1,8,0:2:0:0:
212,64,13370,2,0,P|124:48|44:76,1,160,0|8,0:0|0:2,0:0:0:0:
16,144,14235,1,8,0:2:0:0:
44,228,14524,6,0,P|120:248|198:231,1,160,8|8,0:2|0:2,0:0:0:0:
284,256,15389,1,8,0:2:0:0:
364,220,15678,2,0,P|403:224|460:212,2,79.9999999999999,2|8|0,0:0|0:0|0:0,0:0:0:0:
300,156,16543,1,8,0:2:0:0:
224,116,16832,6,0,P|184:109|144:113,2,79.9999999999999,4|8|2,0:0|0:2|0:0,0:0:0:0:
292,60,17697,1,8,0:2:0:0:
376,32,17985,2,0,B|424:56|464:32|464:32|464:108,1,160,0|8,0:0|0:2,0:0:0:0:
472,188,18851,1,8,0:2:0:0:
416,256,19139,6,0,P|336:236|248:260,2,160,0|0|0,0:0|0:0|0:0,0:0:0:0:
488,308,20582,1,8,0:2:0:0:
488,220,20870,2,0,L|488:132,1,79.9999999999999,4|4,0:2|0:2,0:0:0:0:
400,136,21447,6,0,P|360:133|322:144,2,79.9999999999999,4|8|2,0:0|0:0|0:0,0:0:0:0:
372,220,22312,1,8,0:0:0:0:
312,288,22601,2,0,P|232:296|140:288,1,160,0|0,0:0|0:0,0:0:0:0:
80,240,23466,1,8,0:0:0:0:
128,164,23755,6,0,P|80:152|40:156,2,79.9999999999999,0|8|0,0:0|0:0|0:0,0:0:0:0:
208,196,24620,1,8,0:0:0:0:
296,180,24909,2,0,P|324:90|296:26,1,160,0|8,0:0|0:2,0:0:0:0:
216,48,25774,1,8,0:0:0:0:
128,48,26062,6,0,P|85:51|40:40,2,79.9999999999999,4|8|2,0:0|0:0|0:0,0:0:0:0:
164,128,26928,1,8,0:0:0:0:
104,192,27216,2,0,P|148:216|240:168,1,160,0|0,0:0|0:0,0:0:0:0:
328,164,28082,1,8,0:0:0:0:
376,92,28370,2,0,P|437:46|510:70,2,160,0|0|4,0:0|0:0|0:0,0:0:0:0:
472,312,30678,6,0,P|431:314|376:312,1,79.9999999999999
316,268,31255,1,8,0:0:0:0:
204,336,31687,2,0,P|188:264|200:208,1,120,0|8,0:0|0:0,0:0:0:0:
272,176,32409,2,0,P|274:135|272:80,1,79.9999999999999,2|2,0:0|0:0,0:0:0:0:
140,108,33130,6,0,P|82:95|12:116,1,120,0|8,0:0|0:0,0:0:0:0:
32,240,33995,2,0,B|40:312|40:312|64:352,1,120,0|8,0:0|0:0,0:0:0:0:
144,312,34716,2,0,P|183:314|223:313,1,79.9999999999999,2|2,0:0|0:0,0:0:0:0:
356,336,35437,6,0,P|414:349|484:328,1,120,0|8,0:0|0:0,0:0:0:0:
460,204,36303,2,0,B|468:124|468:124|436:84,1,120,0|8,0:0|0:0,0:0:0:0:
356,96,37024,2,0,P|310:94|264:96,1,79.9999999999999
204,44,37601,2,0,B|188:117|188:117|204:204,1,160,4|8,0:0|0:0,0:0:0:0:
348,304,38755,6,0,B|224:340|224:340|148:312,1,200,0|4,0:0|0:2,0:0:0:0:
12,216,40053,2,0,B|68:148|68:148|124:64|124:64|216:120|216:120|328:100,1,399.999999999999,2|0,0:0|0:0,0:0:0:0:
448,280,42216,6,0,P|371:293|307:249,1,160,4|0,0:0|2:0,0:0:0:0:
236,196,43082,1,10,0:0:0:0:
160,248,43370,2,0,P|148:180|180:128,2,120,0|0|8,0:0|0:0|0:0,0:0:0:0:
124,328,44524,6,0,L|212:324,1,79.9999999999999,0|8,0:0|0:0,0:0:0:0:
288,344,45101,2,0,L|368:341,1,79.9999999999999,0|10,0:0|0:0,0:0:0:0:
408,264,45678,2,0,P|448:300|452:376,2,120,2|0|0,0:0|0:0|0:0,0:0:0:0:
356,192,46832,5,4,0:0:0:0:
320,112,47120,2,0,P|336:72|336:24,2,79.9999999999999,8|0|8,0:0|0:0|0:0,0:0:0:0:
252,56,47985,2,0,P|188:51|120:60,1,120,0|0,0:0|0:0,0:0:0:0:
88,132,48707,1,0,0:0:0:0:
76,220,48995,6,0,P|70:279|72:344,1,120,4|8,0:0|0:0,0:0:0:0:
160,352,49716,2,0,P|240:332|324:368,2,160,0|2|8,0:0|0:0|0:3,0:0:0:0:
152,264,51159,1,8,0:0:0:0:
184,184,51447,6,0,P|182:120|184:92,1,79.9999999999999,4|8,0:0|0:0,0:0:0:0:
272,104,52024,2,0,P|272:143|271:183,1,79.9999999999999,0|10,2:0|0:0,0:0:0:0:
324,252,52601,2,0,P|376:240|440:256,2,120,0|0|8,0:0|0:0|0:0,0:0:0:0:
276,328,53755,6,0,L|180:328,1,79.9999999999999,0|8,0:0|0:0,0:0:0:0:
152,252,54332,2,0,L|56:252,1,79.9999999999999,0|10,2:0|0:0,0:0:0:0:
32,172,54909,2,0,P|8:112|32:52,2,120,0|0|0,0:0|0:0|0:0,0:0:0:0:
96,112,56062,5,4,0:0:0:0:
172,156,56351,2,0,P|180:96|168:64,2,79.9999999999999,8|0|8,0:0|0:0|0:0,0:0:0:0:
128,232,57216,1,0,0:0:0:0:
204,280,57505,2,0,L|246:280|292:280,1,79.9999999999999,8|2,0:0|0:0,0:0:0:0:
408,332,58226,6,0,L|408:200|408:164,1,160,6|4,0:0|0:0,0:0:0:0:
388,84,59091,1,2,0:0:0:0:
308,124,59380,2,0,P|224:132|184:128,1,120,6|10,0:0|0:0,0:0:0:0:
56,124,60245,1,10,0:0:0:0:
256,192,60678,12,0,64139,0:0:0:0:
184,176,65293,6,0,P|264:188|352:164,1,160,4|4,0:0|0:2,0:0:0:0:
408,112,66159,1,10,0:0:0:0:
452,188,66447,2,0,P|484:256|472:304,2,120,0|2|10,0:0|0:0|0:0,0:0:0:0:
396,256,67601,6,0,B|324:252|324:252|232:268,2,160,4|0|0,0:2|0:0|0:0,0:0:0:0:
372,172,69043,2,0,L|372:80,1,79.9999999999999,8|8,0:0|0:0,0:0:0:0:
308,32,69620,1,8,0:0:0:0:
236,84,69909,6,0,P|180:64|68:88,1,160,4|2,0:0|0:0,0:0:0:0:
20,140,70774,1,8,0:0:0:0:
84,204,71062,2,0,P|161:221|237:199,1,160,0|0,0:0|0:0,0:0:0:0:
304,144,71928,1,8,0:0:0:0:
376,196,72216,6,0,L|376:250|376:284,1,79.9999999999999,0|8,0:0|0:0,0:0:0:0:
296,312,72793,2,0,L|241:312|208:312,1,79.9999999999999,0|8,0:0|0:0,0:0:0:0:
160,244,73370,2,0,P|72:236|44:252,2,120,2|0|8,0:0|0:0|0:0,0:0:0:0:
164,156,74524,6,0,P|163:101|164:68,1,79.9999999999999,4|8,0:0|0:0,0:0:0:0:
244,36,75101,2,0,P|298:35|332:36,1,79.9999999999999,2|8,0:0|0:0,0:0:0:0:
384,100,75678,2,0,P|472:92|500:108,2,120,0|0|8,0:0|0:0|0:0,0:0:0:0:
340,176,76832,6,0,L|340:268,1,79.9999999999999,8|8,0:0|0:0,0:0:0:0:
252,256,77409,2,0,L|252:168,1,79.9999999999999,8|8,0:0|0:0,0:0:0:0:
184,124,77985,6,0,P|112:128|64:124,2,120,2|2|8,0:0|0:0|0:0,0:0:0:0:
268,100,79139,2,0,B|300:88|341:118|341:118|373:88|433:98,2,160,4|8|4,0:0|0:0|0:0,0:0:0:0:
148,228,80870,5,2,0:0:0:0:
324,224,81447,1,2,0:0:0:0:
176,128,82024,1,2,0:0:0:0:
232,296,82601,5,2,0:0:0:0:
288,124,83178,1,2,2:0:0:0:
256,192,83755,12,0,87409,0:0:0:0:
