osu file format v14

[General]
AudioFilename: audio.mp3
AudioLeadIn: 0
PreviewTime: -1
Countdown: 0
SampleSet: Soft
StackLeniency: 0.2
Mode: 0
LetterboxInBreaks: 0
WidescreenStoryboard: 0

[Editor]
DistanceSpacing: 0.8
BeatDivisor: 8
GridSize: 4
TimelineZoom: 1

[Metadata]
Title:JINGO JUNGLE
TitleUnicode:JINGO JUNGLE
Artist:MYTH & ROID
ArtistUnicode:MYTH & ROID
Creator:VINXIS
Version:Tanya Degurechaff
Source:幼女戦記
Tags:Youjo Senki
BeatmapID:1285284
BeatmapSetID:608587

[Difficulty]
HPDrainRate:5
CircleSize:4
OverallDifficulty:9
ApproachRate:9
SliderMultiplier:2.9
SliderTickRate:1

[Events]
//Background and Video events
0,0,"61066629_p01.png",0,0
//Break Periods
2,73458,74504
2,75304,76350
2,95611,102196
//Storyboard Layer 0 (Background)
//Storyboard Layer 1 (Fail)
//Storyboard Layer 2 (Pass)
//Storyboard Layer 3 (Foreground)
//Storyboard Sound Samples

[TimingPoints]
1258,461.538461538462,4,2,1,60,1,0
3104,-83.3333333333333,4,2,1,60,0,0
3565,-111.111111111111,4,2,1,60,0,0
4950,-83.3333333333333,4,2,1,60,0,0
5411,-111.111111111111,4,2,1,60,0,0
10488,-83.3333333333333,4,2,1,60,0,0
10950,-111.111111111111,4,2,1,60,0,0
12334,-83.3333333333333,4,2,1,60,0,0
12796,-111.111111111111,4,2,1,60,0,0
19719,-76.9230769230769,4,2,1,60,0,0
23411,-166.666666666667,4,2,1,60,0,0
27104,-76.9230769230769,4,2,1,60,0,0
30796,-166.666666666667,4,2,1,60,0,0
34488,-200,4,2,1,30,0,0
35642,-166.666666666667,4,2,1,30,0,0
36565,-142.857142857143,4,2,1,30,0,0
38181,-200,4,2,1,30,0,0
39334,-166.666666666667,4,2,1,30,0,0
40258,-142.857142857143,4,2,1,30,0,0
48334,-65.2173913043478,4,2,1,40,0,0
48796,-42.2535211268,4,2,1,50,0,0
49258,-31.25,4,2,1,60,0,0
50411,-166.666666666667,4,2,1,30,0,0
51104,-42.2535211268,4,2,1,80,0,1
54334,-65.2173913043478,4,2,1,80,0,1
57565,-43.3931762104,4,2,1,80,0,1
58488,-42.2535211268,4,2,1,80,0,1
61719,-65.2173913043478,4,2,1,80,0,1
64950,-43.3931762104,4,2,1,80,0,1
65873,-111.111111111111,4,2,1,60,0,0
80642,-142.857142857143,4,2,1,60,0,0
84334,-166.666666666667,4,2,1,60,0,0
88027,-76.9230769230769,4,2,1,60,0,0
91719,-166.666666666667,4,2,1,60,0,0
102796,-142.857142857143,4,2,1,30,0,0
109258,-65.2173913043478,4,2,1,40,0,0
109719,-42.2535211268,4,2,1,50,0,0
110181,-31.25,4,2,1,60,0,0
111334,-166.666666666667,4,2,1,30,0,0
112027,-42.2535211268,4,2,1,80,0,1
115258,-65.2173913043478,4,2,1,80,0,1
118488,-43.3931762104,4,2,1,80,0,1
119411,-42.2535211268,4,2,1,80,0,1
122642,-65.2173913043478,4,2,1,80,0,1
125873,-43.3931762104,4,2,1,80,0,1
126796,-111.111111111111,4,2,1,60,0,0

[HitObjects]
256,192,1258,12,0,2988,0:0:0:0:
256,192,3104,6,0,P|336:162|419:182,1,173.999994689942
178,339,3565,6,0,L|37:330,1,130.499996017456
178,339,4027,2,0,L|319:348,1,130.499996017456
438,356,4373,2,0,L|307:347,1,130.499996017456
307,347,4719,1,0,0:0:0:0:
255,191,4950,6,0,P|171:210|91:181,1,173.999994689942
334,45,5411,6,0,L|475:54,1,130.499996017456
334,45,5873,2,0,L|193:36,1,130.499996017456
73,28,6219,2,0,L|203:36,1,130.499996017456
203,36,6565,1,0,0:0:0:0:
238,167,6796,6,0,P|238:199|233:231,1,65.2499980087281
304,96,7027,2,0,P|321:123|332:154,1,65.2499980087281
327,1,7258,2,0,P|355:16|381:36,1,65.2499980087281
304,96,7488,2,0,P|321:123|332:154,1,65.2499980087281
238,167,7719,6,0,P|238:199|199:301,1,130.499996017456
207,43,8065,2,0,P|234:101|238:166,1,130.499996017456
237,166,8411,1,0,0:0:0:0:
237,166,8642,6,0,P|237:198|242:230,1,65.2499980087281
171,95,8873,2,0,P|154:122|143:153,1,65.2499980087281
148,0,9104,2,0,P|120:15|94:35,1,65.2499980087281
171,95,9334,2,0,P|154:122|143:153,1,65.2499980087281
237,166,9565,6,0,P|237:198|276:300,1,130.499996017456
267,42,9911,2,0,P|240:100|236:165,1,130.499996017456
236,165,10257,1,0,0:0:0:0:
458,182,10488,6,0,L|470:-8,1,173.999994689942
268,290,10950,6,0,P|302:343|355:381,1,130.499996017456
268,290,11411,2,0,P|215:252|179:198,1,130.499996017456
268,106,11758,2,0,P|215:143|179:197,1,130.499996017456
179,197,12104,1,0,0:0:0:0:
43,8,12334,6,0,L|54:182,1,173.999994689942
268,290,12796,6,0,P|233:343|180:381,1,130.499996017456
268,290,13257,2,0,P|320:252|356:198,1,130.499996017456
268,106,13604,2,0,P|320:143|356:197,1,130.499996017456
356,197,13950,1,0,0:0:0:0:
260,384,14181,6,0,L|273:307,1,65.2499980087281
363,321,14411,2,0,L|412:260,1,65.2499980087281
451,378,14642,2,0,L|524:350,1,65.2499980087281
363,321,14873,2,0,L|412:260,1,65.2499980087281
260,384,15104,6,0,L|283:245,1,130.499996017456
303,126,15450,2,0,L|281:254,1,130.499996017456
281,254,15796,1,0,0:0:0:0:
252,0,16027,6,0,L|239:77,1,65.2499980087281
149,63,16257,2,0,L|99:123,1,65.2499980087281
61,6,16488,2,0,L|-12:33,1,65.2499980087281
149,63,16719,2,0,L|99:123,1,65.2499980087281
252,0,16950,6,0,L|228:138,1,130.499996017456
209,258,17296,2,0,L|230:129,1,130.499996017456
230,129,17642,1,0,0:0:0:0:
256,192,18104,12,0,19488,0:0:0:0:
293,115,19719,5,0,0:0:0:0:
293,115,19950,2,0,L|399:106,1,94.2499956855776
483,0,20181,2,0,P|423:22|293:2,1,188.499991371155
404,186,20642,2,0,L|510:177,1,94.2499956855776
465,36,20873,2,0,P|405:58|275:38,1,188.499991371155
71,111,21334,1,0,0:0:0:0:
240,276,21565,5,0,0:0:0:0:
145,198,21796,2,0,L|128:294,1,94.2499956855776
305,145,22027,2,0,L|322:241,1,94.2499956855776
219,37,22258,2,0,L|202:133,1,94.2499956855776
301,6,22488,2,0,P|393:25|483:0,1,188.499991371155
512,275,22834,2,0,P|422:249|330:268,1,188.499991371155
399,144,23181,2,0,B|436:138|425:87|504:149,1,94.2499956855776
216,220,23411,5,0,0:0:0:0:
231,341,23642,1,0,0:0:0:0:
216,220,23873,1,0,0:0:0:0:
330,268,24104,1,0,0:0:0:0:
279,53,24334,5,0,0:0:0:0:
117,266,24565,5,0,0:0:0:0:
117,266,24681,2,0,L|128:180,1,86.9999973449708
117,266,25027,2,0,L|106:352,1,86.9999973449708
231,341,25488,5,0,0:0:0:0:
216,220,25719,1,0,0:0:0:0:
330,268,25950,1,0,0:0:0:0:
279,53,26181,5,0,0:0:0:0:
429,218,26411,5,0,0:0:0:0:
429,218,26527,2,0,L|440:304,1,86.9999973449708
429,218,26873,2,0,L|418:132,1,86.9999973449708
224,168,27334,6,0,L|240:287,1,94.2499956855776
339,40,27565,2,0,P|246:65|156:37,1,188.499991371155
329,229,28027,2,0,L|345:348,1,94.2499956855776
316,65,28258,2,0,P|223:90|133:62,1,188.499991371155
32,263,28719,1,0,0:0:0:0:
28,20,28950,5,0,0:0:0:0:
172,294,29181,2,0,L|160:391,1,94.2499956855776
26,170,29411,2,0,L|14:267,1,94.2499956855776
159,39,29642,2,0,L|147:136,1,94.2499956855776
296,8,29873,6,0,P|362:30|486:24,1,188.499991371155
330,138,30219,2,0,P|236:130|146:155,1,188.499991371155
417,194,30565,2,0,B|477:196|423:153|425:105,1,94.2499956855776
296,220,30796,5,0,0:0:0:0:
281,341,31027,1,0,0:0:0:0:
296,220,31258,1,0,0:0:0:0:
182,268,31489,1,0,0:0:0:0:
233,53,31719,5,0,0:0:0:0:
395,266,31950,5,0,0:0:0:0:
395,266,32066,2,0,L|384:180,1,86.9999973449708
395,266,32412,2,0,L|406:352,1,86.9999973449708
281,341,32873,5,0,0:0:0:0:
296,220,33104,1,0,0:0:0:0:
182,268,33335,1,0,0:0:0:0:
233,53,33566,5,0,0:0:0:0:
83,218,33796,5,0,0:0:0:0:
83,218,33912,2,0,L|72:304,1,86.9999973449708
83,218,34258,2,0,L|94:132,1,86.9999973449708
94,131,34719,6,0,L|176:129,2,72.5
94,131,35642,6,0,L|187:128,2,86.9999973449708
94,131,36565,6,0,L|203:128,1,101.499996902466
364,129,37027,1,0,0:0:0:0:
174,339,37258,5,0,0:0:0:0:
160,251,37488,1,0,0:0:0:0:
247,237,37719,1,0,0:0:0:0:
261,325,37950,1,0,0:0:0:0:
174,339,38181,5,0,0:0:0:0:
174,339,38411,2,0,L|92:336,2,72.5
174,339,39334,6,0,L|80:335,2,86.9999973449708
174,339,40258,6,0,B|127:358|127:358|76:362,2,101.499996902466
338,339,41181,2,0,B|385:358|385:358|436:362,2,101.499996902466
215,128,41873,5,0,0:0:0:0:
331,97,42104,2,0,L|318:161,1,50.749998451233
299,245,42334,2,0,L|320:145,1,101.499996902466
215,128,42681,1,0,0:0:0:0:
215,128,42796,2,0,L|202:192,1,50.749998451233
99,159,43027,2,0,L|86:223,1,50.749998451233
67,307,43258,2,0,L|88:207,1,101.499996902466
215,128,43604,1,0,0:0:0:0:
215,128,43719,5,0,0:0:0:0:
189,266,43950,2,0,L|199:216,1,50.749998451233
87,207,44181,2,0,L|97:157,1,50.749998451233
299,245,44411,2,0,L|309:195,1,50.749998451233
215,128,44642,2,0,L|225:78,1,50.749998451233
113,69,44873,2,0,L|123:19,1,50.749998451233
325,107,45103,2,0,L|335:57,1,50.749998451233
204,201,45334,2,0,L|214:151,1,50.749998451233
323,284,45565,5,0,0:0:0:0:
346,7,45796,2,0,L|335:56,1,50.749998451233
324,106,46027,2,0,P|408:147|442:218,1,152.249995353699
436,195,46488,2,0,P|352:236|318:307,1,152.249995353699
323,284,46950,2,0,P|407:325|441:396,1,152.249995353699
435,373,47411,5,0,0:0:0:0:
323,284,47642,1,0,0:0:0:0:
435,195,47873,2,0,P|445:118|434:36,1,152.249995353699
329,132,48334,6,0,B|106:147|106:147|218:93,1,333.499996607463
244,232,48796,6,0,B|11:255|11:255|0:341|0:341|210:322,1,514.750001963615
326,336,49258,6,0,B|387:286|383:217|370:168|329:132|329:132|478:144|478:144|411:94,1,464
313,52,49604,6,0,B|247:73|230:136|269:196|269:196|245:231|245:231|174:252|144:107|208:31,1,464
329,132,49950,6,0,B|328:272|328:272|245:230,1,232
245,230,50181,1,0,0:0:0:0:
98,59,50411,6,0,L|5:70,2,86.9999973449708
222,65,51104,6,0,B|313:102|313:102|247:140|205:148|126:151|87:142|87:142|85:249|286:241|397:137,2,686.333335951487
191,59,52142,1,0,0:0:0:0:
191,59,52258,1,0,0:0:0:0:
449,72,52488,1,0,0:0:0:0:
449,72,52719,2,0,L|267:-1,1,171.583333987872
191,59,52950,6,0,P|28:100|223:140,1,514.750001963615
281,239,53411,2,0,P|473:247|308:346,1,514.750001963615
382,272,53873,2,0,P|378:87|121:136,1,514.750001963615
122,132,54334,2,0,L|102:265,1,111.166665535821
281,239,54565,2,0,L|264:129,1,111.166665535821
197,337,54796,5,0,0:0:0:0:
197,337,54911,1,0,0:0:0:0:
288,367,55027,2,0,L|406:345,1,111.166665535821
88,106,55258,2,0,L|67:238,1,111.166665535821
314,211,55488,2,0,L|298:102,1,111.166665535821
197,337,55719,5,0,0:0:0:0:
197,337,55834,1,0,0:0:0:0:
288,367,55950,2,0,L|406:345,1,111.166665535821
53,79,56181,2,0,L|32:211,1,111.166665535821
348,184,56411,2,0,L|332:75,1,111.166665535821
207,180,56642,6,0,P|277:239|339:252,1,111.166665535821
191,184,56873,2,0,P|219:267|266:309,1,111.166665535821
172,176,57104,2,0,P|154:262|174:322,1,111.166665535821
159,159,57334,2,0,P|101:224|88:287,1,111.166665535821
155,138,57565,6,0,L|495:109,1,334.153915237637
411,373,58027,1,0,0:0:0:0:
79,345,58258,1,0,0:0:0:0:
276,60,58488,6,0,B|295:176|295:176|221:122|157:188|157:188|77:131|13:232|13:232|79:345|79:345|133:303|223:344,2,686.333335951487
272,27,59527,1,0,0:0:0:0:
272,27,59642,1,0,0:0:0:0:
0,109,59873,1,0,0:0:0:0:
0,109,60104,2,0,P|90:70|171:83,1,171.583333987872
296,43,60334,6,0,P|459:84|264:124,1,514.750001963615
205,223,60795,2,0,P|13:231|179:330,1,514.750001963615
105,256,61257,2,0,P|109:71|366:120,1,514.750001963615
364,116,61719,2,0,L|363:238,1,111.166665535821
205,223,61950,2,0,L|203:111,1,111.166665535821
363,227,62181,6,0,L|485:252,1,111.166665535821
179,330,62411,2,0,L|70:352,1,111.166665535821
364,116,62642,2,0,L|486:91,1,111.166665535821
205,223,62872,2,0,L|96:200,1,111.166665535821
363,227,63104,5,0,0:0:0:0:
363,227,63219,1,0,0:0:0:0:
179,330,63334,1,0,0:0:0:0:
179,330,63450,1,0,0:0:0:0:
203,111,63565,2,0,L|205:223,1,111.166665535821
364,115,63796,2,0,L|362:3,1,111.166665535821
363,227,64027,6,0,L|485:202,1,111.166665535821
179,124,64257,2,0,L|70:101,1,111.166665535821
364,338,64488,2,0,L|486:363,1,111.166665535821
205,231,64718,2,0,L|96:253,1,111.166665535821
362,133,64950,6,0,B|277:143|205:232|205:232|328:210|440:277|440:277|348:226|275:259|278:383,2,668.307830475274
256,192,65988,12,0,67719,0:0:0:0:
256,192,67834,12,0,69450,0:0:0:0:
294,106,69565,6,0,P|318:126|338:152,1,65.2499980087281
162,202,69796,2,0,P|168:170|180:139,1,65.2499980087281
311,267,70027,2,0,P|280:279|248:283,1,65.2499980087281
294,106,70258,2,0,P|318:126|338:152,1,65.2499980087281
256,192,70488,2,0,L|119:220,1,130.499996017456
0,192,70834,2,0,L|137:220,1,130.499996017456
127,218,71181,1,0,0:0:0:0:
294,106,71411,6,0,L|338:152,1,65.2499980087281
162,202,71642,2,0,L|180:139,1,65.2499980087281
311,267,71873,2,0,L|248:283,1,65.2499980087281
294,106,72104,2,0,L|338:152,1,65.2499980087281
256,192,72334,2,0,P|180:187|119:220,1,130.499996017456
7,192,72681,2,0,P|66:216|131:209,1,130.499996017456
131,209,73027,1,0,0:0:0:0:
125,23,73258,5,0,0:0:0:0:
387,361,75104,5,0,0:0:0:0:
218,106,76950,6,0,P|194:126|174:152,1,65.2499980087281
350,202,77181,2,0,P|344:170|332:139,1,65.2499980087281
201,267,77412,2,0,P|232:279|264:283,1,65.2499980087281
218,106,77643,2,0,P|194:126|174:152,1,65.2499980087281
256,192,77873,2,0,L|393:220,1,130.499996017456
512,192,78219,2,0,L|375:220,1,130.499996017456
385,218,78566,1,0,0:0:0:0:
218,106,78796,6,0,L|174:152,1,65.2499980087281
350,202,79027,2,0,L|332:139,1,65.2499980087281
201,267,79258,2,0,L|264:283,1,65.2499980087281
218,106,79489,2,0,L|174:152,1,65.2499980087281
256,192,79719,2,0,P|332:187|393:220,1,130.499996017456
505,192,80066,2,0,P|446:216|381:209,1,130.499996017456
381,209,80412,1,0,0:0:0:0:
387,22,80642,6,0,P|415:65|432:113,1,101.499996902466
234,243,81104,2,0,P|250:195|323:113,1,152.249995353699
314,118,81565,5,0,0:0:0:0:
278,333,81796,2,0,P|260:285|233:242,1,101.499996902466
150,158,82258,1,0,0:0:0:0:
201,52,82488,6,0,L|303:67,1,101.499996902466
150,158,82950,1,0,0:0:0:0:
250,172,83180,1,0,0:0:0:0:
150,158,83411,2,0,L|-29:184,2,152.249995353699
296,220,84334,5,0,0:0:0:0:
281,341,84565,1,0,0:0:0:0:
296,220,84796,1,0,0:0:0:0:
182,268,85027,1,0,0:0:0:0:
233,53,85257,5,0,0:0:0:0:
395,266,85488,5,0,0:0:0:0:
395,266,85604,2,0,L|384:180,1,86.9999973449708
395,266,85950,2,0,L|406:352,1,86.9999973449708
281,341,86411,5,0,0:0:0:0:
296,220,86642,1,0,0:0:0:0:
182,268,86873,1,0,0:0:0:0:
233,53,87104,5,0,0:0:0:0:
237,57,87334,5,0,0:0:0:0:
237,57,87450,2,0,L|323:68,1,86.9999973449708
323,68,87796,1,0,0:0:0:0:
120,384,88027,6,0,L|139:180,1,188.499991371155
147,118,88373,1,0,0:0:0:0:
214,167,88488,2,0,B|329:188|329:188|413:163,1,188.499991371155
470,136,88834,1,0,0:0:0:0:
319,64,88950,6,0,L|173:37,1,94.2499956855776
224,291,89181,1,0,0:0:0:0:
224,291,89296,2,0,L|370:318,1,94.2499956855776
158,130,89527,1,0,0:0:0:0:
158,130,89642,2,0,L|131:276,1,94.2499956855776
385,225,89873,6,0,L|432:-30,1,188.499991371155
392,325,90219,1,0,0:0:0:0:
316,308,90334,2,0,B|246:285|246:285|269:172,1,188.499991371155
259,10,90681,1,0,0:0:0:0:
175,64,90796,6,0,L|147:192,1,94.2499956855776
280,78,91027,1,0,0:0:0:0:
364,132,91142,2,0,L|392:260,1,94.2499956855776
259,146,91373,1,0,0:0:0:0:
175,200,91488,2,0,L|147:328,1,94.2499956855776
280,214,91719,5,0,0:0:0:0:
295,335,91950,1,0,0:0:0:0:
280,214,92181,1,0,0:0:0:0:
394,262,92412,1,0,0:0:0:0:
343,47,92642,5,0,0:0:0:0:
181,260,92873,5,0,0:0:0:0:
181,260,92989,2,0,L|192:174,1,86.9999973449708
181,260,93335,2,0,L|170:346,1,86.9999973449708
295,335,93796,5,0,0:0:0:0:
280,214,94027,1,0,0:0:0:0:
394,262,94258,1,0,0:0:0:0:
343,47,94489,5,0,0:0:0:0:
493,212,94719,5,0,0:0:0:0:
493,212,94835,2,0,L|504:298,1,86.9999973449708
493,212,95181,2,0,L|482:126,1,86.9999973449708
297,128,102796,5,0,0:0:0:0:
181,97,103027,2,0,L|194:161,1,50.749998451233
213,245,103257,2,0,L|192:145,1,101.499996902466
297,128,103604,1,0,0:0:0:0:
297,128,103719,2,0,L|310:192,1,50.749998451233
413,159,103950,2,0,L|426:223,1,50.749998451233
445,307,104181,2,0,L|424:207,1,101.499996902466
297,128,104527,1,0,0:0:0:0:
297,128,104642,5,0,0:0:0:0:
323,266,104873,2,0,L|313:216,1,50.749998451233
425,207,105104,2,0,L|415:157,1,50.749998451233
213,245,105334,2,0,L|203:195,1,50.749998451233
297,128,105565,2,0,L|287:78,1,50.749998451233
399,69,105796,2,0,L|389:19,1,50.749998451233
187,107,106026,2,0,L|177:57,1,50.749998451233
308,201,106257,2,0,L|298:151,1,50.749998451233
189,284,106488,5,0,0:0:0:0:
66,190,106719,1,0,0:0:0:0:
189,284,106950,2,0,P|211:191|202:128,1,152.249995353699
204,135,107411,2,0,P|297:157|360:148,1,152.249995353699
352,150,107873,2,0,P|346:225|367:298,1,152.249995353699
367,298,108334,5,0,0:0:0:0:
485,213,108565,1,0,0:0:0:0:
286,58,108796,2,0,P|274:128|204:135,1,152.249995353699
207,225,109258,6,0,P|284:223|354:5,1,333.499996607463
465,5,109719,6,0,P|487:116|148:303,1,514.750001963615
205,325,110181,6,0,P|303:256|107:217,1,464
207,225,110527,6,0,B|257:232|349:199|383:152|383:152|331:227|330:340|482:396,1,464
470,247,110873,6,0,B|486:188|444:73|444:73|347:58|285:67,1,232
390,66,111104,1,0,0:0:0:0:
168,21,111334,6,0,L|74:34,2,86.9999973449708
314,26,112027,6,0,B|379:31|448:45|448:45|476:101|438:165|438:165|463:224|424:297|424:297|359:251|292:250|292:250|243:293|239:381,2,686.333335951487
287,26,113065,1,0,0:0:0:0:
287,26,113181,1,0,0:0:0:0:
33,151,113411,1,0,0:0:0:0:
33,151,113642,2,0,P|85:255|185:308,1,171.583333987872
314,337,113873,6,0,P|477:296|282:256,1,514.750001963615
223,156,114334,2,0,P|31:148|197:50,1,514.750001963615
123,124,114796,2,0,P|127:309|384:260,1,514.750001963615
382,263,115258,2,0,L|399:115,1,111.166665535821
210,45,115488,2,0,L|222:155,1,111.166665535821
315,78,115719,5,0,0:0:0:0:
315,78,115834,1,0,0:0:0:0:
299,229,115950,1,0,0:0:0:0:
299,229,116065,1,0,0:0:0:0:
402,278,116181,2,0,L|419:130,1,111.166665535821
190,60,116411,2,0,L|207:207,1,111.166665535821
315,78,116642,5,0,0:0:0:0:
315,78,116757,1,0,0:0:0:0:
299,229,116873,1,0,0:0:0:0:
299,229,116988,1,0,0:0:0:0:
422,293,117104,2,0,L|439:145,1,111.166665535821
170,75,117334,2,0,L|187:222,1,111.166665535821
413,94,117565,6,0,P|371:58|317:47,1,111.166665535821
392,229,117796,2,0,P|373:177|332:140,1,111.166665535821
306,335,118027,2,0,P|316:280|298:228,1,111.166665535821
178,384,118258,2,0,P|213:342|224:288,1,111.166665535821
119,298,118488,6,0,L|296:0,1,334.153915237637
298,228,118950,1,0,0:0:0:0:
103,135,119181,1,0,0:0:0:0:
350,172,119411,6,0,B|386:199|409:302|306:333|263:298|226:282|226:282|177:273|137:298|137:298|64:340|4:281|4:281|-3:187|105:134,2,686.333335951487
321,147,120450,1,0,0:0:0:0:
321,147,120565,1,0,0:0:0:0:
195,382,120796,1,0,0:0:0:0:
82,202,121027,2,0,P|141:126|228:85,1,171.583333987872
314,47,121258,6,0,P|477:88|282:128,1,514.750001963615
223,228,121719,2,0,P|31:236|197:334,1,514.750001963615
123,260,122181,2,0,P|127:75|384:124,1,514.750001963615
382,120,122642,2,0,L|377:255,1,111.166665535821
227,339,122873,2,0,L|222:227,1,111.166665535821
329,67,123104,6,0,L|194:72,1,111.166665535821
110,222,123335,2,0,L|222:227,1,111.166665535821
282,157,123565,2,0,L|417:162,1,111.166665535821
501,312,123796,2,0,L|389:317,1,111.166665535821
214,312,124027,5,0,0:0:0:0:
214,312,124142,1,0,0:0:0:0:
397,165,124258,1,0,0:0:0:0:
397,165,124373,1,0,0:0:0:0:
238,162,124488,2,0,L|249:32,1,111.166665535821
313,255,124719,2,0,L|303:365,1,111.166665535821
220,325,124950,6,0,L|85:320,1,111.166665535821
1,170,125181,2,0,L|113:165,1,111.166665535821
173,235,125411,2,0,L|308:230,1,111.166665535821
392,80,125642,2,0,L|280:75,1,111.166665535821
359,377,125873,6,0,B|492:295|473:165|473:165|56:143,2,668.307830475274
