osu file format v14

[General]
AudioFilename: audio.mp3
AudioLeadIn: 0
PreviewTime: 50373
Countdown: 1
SampleSet: Normal
StackLeniency: 0.3
Mode: 0
LetterboxInBreaks: 0
WidescreenStoryboard: 0

[Editor]
Bookmarks: 125661
DistanceSpacing: 1
BeatDivisor: 4
GridSize: 16
TimelineZoom: 2.999999

[Metadata]
Title:JINGO JUNGLE
TitleUnicode:JINGO JUNGLE
Artist:MYTH & ROID
ArtistUnicode:MYTH & ROID
Creator:Raikozen
Version:a
Source:
Tags:
BeatmapID:1401018
BeatmapSetID:661780

[Difficulty]
HPDrainRate:5
CircleSize:3.5
OverallDifficulty:8
ApproachRate:9.5
SliderMultiplier:3.5
SliderTickRate:1

[Events]
//Background and Video events
0,0,"thumb-1920-809514.jpg",0,0
//Break Periods
//Storyboard Layer 0 (Background)
//Storyboard Layer 1 (Fail)
//Storyboard Layer 2 (Pass)
//Storyboard Layer 3 (Foreground)
//Storyboard Sound Samples

[TimingPoints]
1277,461.538461538462,4,1,1,50,1,0
2892,-100,4,1,1,5,0,0
3123,-100,4,1,1,50,0,0
6815,-166.666666666667,4,1,1,50,0,0
6930,-166.666666666667,4,1,1,5,0,0
7046,-166.666666666667,4,1,1,50,0,0
7161,-166.666666666667,4,1,1,5,0,0
7277,-166.666666666667,4,1,1,50,0,0
7392,-200,4,1,1,5,0,0
7507,-166.666666666667,4,1,1,50,0,0
7623,-166.666666666667,4,1,1,5,0,0
7738,-166.666666666667,4,1,1,50,0,0
8661,-133.333333333333,4,1,1,50,0,0
8776,-133.333333333333,4,1,1,5,0,0
8892,-133.333333333333,4,1,1,50,0,0
9007,-133.333333333333,4,1,1,5,0,0
9123,-133.333333333333,4,1,1,50,0,0
9238,-133.333333333333,4,1,1,5,0,0
9353,-133.333333333333,4,1,1,50,0,0
9469,-133.333333333333,4,1,1,5,0,0
9584,-133.333333333333,4,1,1,50,0,0
10277,-76.9230769230769,4,1,1,50,0,0
14200,-166.666666666667,4,1,1,50,0,0
14315,-166.666666666667,4,1,1,5,0,0
14430,-166.666666666667,4,1,1,50,0,0
14546,-166.666666666667,4,1,1,5,0,0
14661,-166.666666666667,4,1,1,50,0,0
14777,-166.666666666667,4,1,1,5,0,0
14892,-166.666666666667,4,1,1,50,0,0
15007,-166.666666666667,4,1,1,5,0,0
15123,-166.666666666667,4,1,1,50,0,0
16046,-133.333333333333,4,1,1,50,0,0
16161,-133.333333333333,4,1,1,5,0,0
16277,-133.333333333333,4,1,1,50,0,0
16392,-133.333333333333,4,1,1,5,0,0
16507,-133.333333333333,4,1,1,50,0,0
16623,-133.333333333333,4,1,1,5,0,0
16738,-133.333333333333,4,1,1,50,0,0
16853,-133.333333333333,4,1,1,5,0,0
16969,-133.333333333333,4,1,1,50,0,0
18815,-133.333333333333,4,1,1,20,0,0
19738,-133.333333333333,4,1,1,50,0,0
22277,-100,4,1,1,50,0,0
22507,-83.3333333333333,4,1,1,50,0,0
22853,-111.111111111111,4,1,1,50,0,0
23200,-200,4,1,1,50,0,0
23661,-133.333333333333,4,1,1,50,0,0
24469,-133.333333333333,4,1,1,25,0,0
24584,-133.333333333333,4,1,1,50,0,0
24700,-133.333333333333,4,1,1,50,0,0
24815,-133.333333333333,4,1,1,25,0,0
24930,-133.333333333333,4,1,1,50,0,0
25046,-133.333333333333,4,1,1,50,0,0
25161,-133.333333333333,4,1,1,25,0,0
25277,-133.333333333333,4,1,1,50,0,0
26315,-133.333333333333,4,1,1,25,0,0
26430,-133.333333333333,4,1,1,50,0,0
26661,-133.333333333333,4,1,1,25,0,0
26777,-133.333333333333,4,1,1,50,0,0
26892,-133.333333333333,4,1,1,50,0,0
27007,-133.333333333333,4,1,1,25,0,0
27123,-133.333333333333,4,1,1,50,0,0
29430,-105.263157894737,4,1,1,50,0,0
29661,-95.2380952380951,4,1,1,50,0,0
29892,-79.9999999999999,4,1,1,50,0,0
30238,-105.263157894737,4,1,1,50,0,0
30584,-200,4,1,1,50,0,0
31046,-125,4,1,1,50,0,0
31853,-125,4,1,1,25,0,0
31969,-125,4,1,1,50,0,0
32200,-125,4,1,1,25,0,0
32315,-125,4,1,1,50,0,0
32546,-125,4,1,1,25,0,0
32661,-83.3333333333333,4,1,1,50,0,0
33584,-83.3333333333333,4,1,1,50,0,0
33700,-83.3333333333333,4,1,1,25,0,0
33815,-83.3333333333333,4,1,1,50,0,0
34046,-83.3333333333333,4,1,1,25,0,0
34161,-83.3333333333333,4,1,1,50,0,0
34392,-125,4,1,1,25,0,0
34507,-400,4,1,1,50,0,0
34738,-400,4,2,1,30,0,0
47892,-250,4,2,1,30,0,0
48353,-133.333333333333,4,2,1,30,0,0
49277,-58.8235294117647,4,2,1,50,0,0
49623,-58.8235294117647,4,2,1,50,0,0
49969,-50,4,2,1,50,0,0
50430,-50,4,2,1,30,0,0
51123,-55.5555555555556,4,1,1,60,0,1
51469,-55.5555555555556,4,1,1,5,0,1
51584,-66.6666666666667,4,1,1,60,0,1
51930,-66.6666666666667,4,1,1,5,0,1
52046,-55.5555555555556,4,1,1,60,0,1
52392,-55.5555555555556,4,1,1,5,0,1
52507,-55.5555555555556,4,1,1,60,0,1
52623,-66.6666666666667,4,1,1,5,0,1
52738,-50,4,1,1,60,0,1
53084,-50,4,1,1,5,0,1
53200,-50,4,1,1,60,0,1
53315,-50,4,1,1,5,0,1
53430,-50,4,1,1,60,0,1
53546,-50,4,1,1,5,0,1
53661,-50,4,1,1,60,0,1
53777,-50,4,1,1,5,0,1
53892,-66.6666666666667,4,1,1,60,0,1
54353,-90.9090909090909,4,1,1,60,0,1
54469,-90.9090909090909,4,1,1,5,0,1
54584,-90.9090909090909,4,1,1,60,0,1
54700,-90.9090909090909,4,1,1,5,0,1
54815,-90.9090909090909,4,1,1,60,0,1
55277,-66.6666666666667,4,1,1,60,0,1
55392,-66.6666666666667,4,1,1,5,0,1
55507,-66.6666666666667,4,1,1,60,0,1
55623,-66.6666666666667,4,1,1,5,0,1
55738,-66.6666666666667,4,1,1,60,0,1
56200,-66.6666666666667,4,1,1,60,0,1
56315,-66.6666666666667,4,1,1,5,0,1
56430,-66.6666666666667,4,1,1,60,0,1
56546,-66.6666666666667,4,1,1,5,0,1
56661,-55.5555555555556,4,1,1,60,0,1
56777,-55.5555555555556,4,1,1,5,0,1
56892,-55.5555555555556,4,1,1,60,0,1
57007,-55.5555555555556,4,1,1,5,0,1
57123,-55.5555555555556,4,1,1,60,0,1
57238,-55.5555555555556,4,1,1,5,0,1
57353,-55.5555555555556,4,1,1,60,0,1
57469,-55.5555555555556,4,1,1,5,0,1
57584,-55.5555555555556,4,1,1,60,0,1
57757,-55.5555555555556,4,1,1,5,0,1
57815,-55.5555555555556,4,1,1,60,0,1
58046,-55.5555555555556,4,1,1,60,0,1
58161,-55.5555555555556,4,1,1,5,0,1
58277,-55.5555555555556,4,1,1,60,0,1
58392,-55.5555555555556,4,1,1,5,0,1
58507,-55.5555555555556,4,1,1,60,0,1
58853,-55.5555555555556,4,1,1,5,0,1
58969,-55.5555555555556,4,1,1,60,0,1
59315,-55.5555555555556,4,1,1,5,0,1
59430,-55.5555555555556,4,1,1,60,0,1
59777,-55.5555555555556,4,1,1,5,0,1
59892,-55.5555555555556,4,1,1,60,0,1
60007,-55.5555555555556,4,1,1,5,0,1
60123,-50,4,1,1,60,0,1
60469,-50,4,1,1,5,0,1
60584,-50,4,1,1,60,0,1
60700,-50,4,1,1,5,0,1
60815,-50,4,1,1,60,0,1
60930,-50,4,1,1,5,0,1
61046,-50,4,1,1,60,0,1
61161,-50,4,1,1,5,0,1
61277,-50,4,1,1,60,0,1
61738,-66.6666666666667,4,1,1,60,0,1
61853,-66.6666666666667,4,1,1,5,0,1
61969,-66.6666666666667,4,1,1,60,0,1
62084,-66.6666666666667,4,1,1,5,0,1
62200,-66.6666666666667,4,1,1,60,0,1
62315,-66.6666666666667,4,1,1,5,0,1
62430,-66.6666666666667,4,1,1,60,0,1
62546,-66.6666666666667,4,1,1,5,0,1
62661,-100,4,1,1,60,0,1
62777,-133.333333333333,4,1,1,5,0,1
62892,-100,4,1,1,60,0,1
63007,-133.333333333333,4,1,1,5,0,1
63123,-79.9999999999999,4,1,1,60,0,1
63700,-79.9999999999999,4,1,1,5,0,1
63815,-79.9999999999999,4,1,1,60,0,1
63930,-79.9999999999999,4,1,1,5,0,1
64046,-66.6666666666667,4,1,1,60,0,1
64161,-66.6666666666667,4,1,1,5,0,1
64277,-66.6666666666667,4,1,1,60,0,1
64392,-66.6666666666667,4,1,1,5,0,1
64507,-55.5555555555556,4,1,1,60,0,1
64623,-55.5555555555556,4,1,1,5,0,1
64738,-55.5555555555556,4,1,1,60,0,1
64853,-55.5555555555556,4,1,1,5,0,1
64969,-55.5555555555556,4,1,1,60,0,1
65892,-100,4,1,1,60,0,0
67507,-100,4,1,1,5,0,0
67738,-100,4,1,1,60,0,0
69353,-100,4,1,1,5,0,0
69584,-100,4,1,1,60,0,0
69700,-100,4,1,1,5,0,0
69815,-100,4,1,1,60,0,0
69930,-100,4,1,1,5,0,0
70046,-100,4,1,1,60,0,0
70161,-100,4,1,1,5,0,0
70277,-100,4,1,1,60,0,0
70392,-100,4,1,1,5,0,0
70507,-100,4,1,1,60,0,0
71546,-100,4,1,1,5,0,0
71661,-100,4,1,1,60,0,0
71777,-100,4,1,1,5,0,0
71892,-100,4,1,1,60,0,0
72007,-100,4,1,1,5,0,0
72123,-100,4,1,1,60,0,0
72238,-100,4,1,1,5,0,0
72353,-100,4,1,1,60,0,0
73046,-71.4285714285714,4,1,1,60,0,0
76969,-166.666666666667,4,1,1,60,0,0
77084,-166.666666666667,4,1,1,5,0,0
77200,-166.666666666667,4,1,1,60,0,0
77315,-166.666666666667,4,1,1,5,0,0
77430,-166.666666666667,4,1,1,60,0,0
77546,-166.666666666667,4,1,1,5,0,0
77661,-166.666666666667,4,1,1,60,0,0
77777,-166.666666666667,4,1,1,5,0,0
77892,-166.666666666667,4,1,1,60,0,0
78815,-133.333333333333,4,1,1,60,0,0
78930,-133.333333333333,4,1,1,5,0,0
79046,-133.333333333333,4,1,1,60,0,0
79161,-133.333333333333,4,1,1,5,0,0
79277,-133.333333333333,4,1,1,60,0,0
79392,-133.333333333333,4,1,1,5,0,0
79507,-133.333333333333,4,1,1,60,0,0
79623,-133.333333333333,4,1,1,5,0,0
79738,-133.333333333333,4,1,1,60,0,0
80661,-200,4,1,1,60,0,0
81007,-200,4,1,1,5,0,0
81123,-200,4,2,1,40,0,0
84123,-111.111111111111,4,2,1,40,0,0
84353,-200,4,2,1,40,0,0
87930,-200,4,2,1,5,0,0
88046,-83.3333333333333,4,2,1,50,0,0
91738,-66.6666666666667,4,2,1,50,0,0
93007,-83.3333333333333,4,2,1,50,0,0
93584,-58.8235294117647,4,2,1,50,0,0
95661,-58.8235294117647,4,2,1,15,0,0
102815,-200,4,2,1,22,0,0
106969,-166.666666666667,4,2,1,22,0,0
107430,-125,4,2,1,22,0,0
107892,-111.111111111111,4,2,1,22,0,0
108815,-111.111111111111,4,2,1,22,0,0
109277,-111.111111111111,4,2,1,32,0,0
110200,-58.8235294117647,4,2,1,52,0,0
112046,-55.5555555555556,4,1,1,60,0,1
112392,-55.5555555555556,4,1,1,5,0,1
112507,-55.5555555555556,4,1,1,60,0,1
112853,-55.5555555555556,4,1,1,5,0,1
112969,-50,4,1,1,60,0,1
112969,-55.5555555555556,4,1,1,60,0,1
113315,-55.5555555555556,4,1,1,5,0,1
113430,-55.5555555555556,4,1,1,60,0,1
113546,-55.5555555555556,4,1,1,5,0,1
113661,-55.5555555555556,4,1,1,60,0,1
114007,-55.5555555555556,4,1,1,5,0,1
114123,-55.5555555555556,4,1,1,60,0,1
114238,-55.5555555555556,4,1,1,5,0,1
114353,-55.5555555555556,4,1,1,60,0,1
114469,-55.5555555555556,4,1,1,5,0,1
114584,-55.5555555555556,4,1,1,60,0,1
114700,-55.5555555555556,4,1,1,5,0,1
114815,-55.5555555555556,4,1,1,60,0,1
115161,-66.6666666666667,4,1,1,60,0,1
115392,-66.6666666666667,4,1,1,5,0,1
115507,-66.6666666666667,4,1,1,60,0,1
115623,-66.6666666666667,4,1,1,5,0,1
115738,-66.6666666666667,4,1,1,60,0,1
116315,-66.6666666666667,4,1,1,5,0,1
116430,-66.6666666666667,4,1,1,60,0,1
116546,-66.6666666666667,4,1,1,5,0,1
116661,-58.8235294117647,4,1,1,60,0,1
117238,-58.8235294117647,4,1,1,5,0,1
117353,-58.8235294117647,4,1,1,60,0,1
117469,-58.8235294117647,4,1,1,5,0,1
117584,-58.8235294117647,4,1,1,60,0,1
117700,-58.8235294117647,4,1,1,5,0,1
117815,-58.8235294117647,4,1,1,60,0,1
117930,-58.8235294117647,4,1,1,5,0,1
118046,-58.8235294117647,4,1,1,60,0,1
118161,-58.8235294117647,4,1,1,5,0,1
118277,-58.8235294117647,4,1,1,60,0,1
118392,-58.8235294117647,4,1,1,5,0,1
118507,-58.8235294117647,4,1,1,60,0,1
118680,-58.8235294117647,4,1,1,5,0,1
118738,-58.8235294117647,4,1,1,60,0,1
118853,-58.8235294117647,4,1,1,60,0,1
118969,-58.8235294117647,4,1,1,60,0,1
119084,-58.8235294117647,4,1,1,5,0,1
119200,-58.8235294117647,4,1,1,60,0,1
119315,-58.8235294117647,4,1,1,5,0,1
119430,-58.8235294117647,4,1,1,60,0,1
119777,-58.8235294117647,4,1,1,5,0,1
119892,-58.8235294117647,4,1,1,60,0,1
120238,-58.8235294117647,4,1,1,5,0,1
120353,-58.8235294117647,4,1,1,60,0,1
120700,-58.8235294117647,4,1,1,5,0,1
120815,-58.8235294117647,4,1,1,60,0,1
120930,-58.8235294117647,4,1,1,5,0,1
121046,-50,4,1,1,60,0,1
121392,-50,4,1,1,5,0,1
121507,-50,4,1,1,60,0,1
121623,-50,4,1,1,5,0,1
121738,-50,4,1,1,60,0,1
121853,-50,4,1,1,5,0,1
121969,-50,4,1,1,60,0,1
122084,-50,4,1,1,5,0,1
122200,-50,4,1,1,60,0,1
122661,-50,4,1,1,60,0,1
122777,-50,4,1,1,5,0,1
122892,-50,4,1,1,60,0,1
123007,-50,4,1,1,5,0,1
123123,-66.6666666666667,4,1,1,60,0,1
123238,-66.6666666666667,4,1,1,5,0,1
123353,-66.6666666666667,4,1,1,60,0,1
123469,-66.6666666666667,4,1,1,5,0,1
123584,-66.6666666666667,4,1,1,60,0,1
123930,-66.6666666666667,4,1,1,5,0,1
124046,-66.6666666666667,4,1,1,60,0,1
124623,-66.6666666666667,4,1,1,5,0,1
124738,-66.6666666666667,4,1,1,60,0,1
124853,-66.6666666666667,4,1,1,5,0,1
124969,-66.6666666666667,4,1,1,60,0,1
125084,-66.6666666666667,4,1,1,5,0,1
125200,-66.6666666666667,4,1,1,60,0,1
125315,-66.6666666666667,4,1,1,5,0,1
125430,-58.8235294117647,4,1,1,60,0,1
125546,-58.8235294117647,4,1,1,5,0,1
125661,-58.8235294117647,4,1,1,60,0,1
125777,-58.8235294117647,4,1,1,5,0,1
125892,-58.8235294117647,4,1,1,60,0,1
126815,-58.8235294117647,4,1,1,60,0,0
127277,-83.3333333333333,4,1,1,60,0,0
133969,-66.6666666666667,4,1,1,60,0,0
134546,-66.6666666666667,4,1,1,5,0,0
134661,-66.6666666666667,4,1,1,60,0,0
135238,-66.6666666666667,4,1,1,5,0,0
135353,-66.6666666666667,4,1,1,60,0,0
135930,-66.6666666666667,4,1,1,5,0,0
136046,-66.6666666666667,4,1,1,60,0,0
136392,-66.6666666666667,4,1,1,5,0,0
136507,-66.6666666666667,4,1,1,60,0,0
137084,-66.6666666666667,4,1,1,5,0,0
137200,-66.6666666666667,4,1,1,60,0,0
138238,-66.6666666666667,4,1,1,5,0,0
138353,-66.6666666666667,4,1,1,60,0,0
138930,-66.6666666666667,4,1,1,5,0,0
139046,-66.6666666666667,4,1,1,60,0,0
139623,-66.6666666666667,4,1,1,5,0,0
139738,-66.6666666666667,4,1,1,60,0,0
140084,-66.6666666666667,4,1,1,5,0,0
140200,-50,4,1,1,60,0,0
140315,-50,4,1,1,5,0,0
140430,-50,4,1,1,60,0,0
140546,-50,4,1,1,5,0,0
140661,-50,4,1,1,60,0,0
140777,-50,4,1,1,5,0,0
140892,-50,4,1,1,60,0,0
141007,-50,4,1,1,5,0,0
141123,-50,4,1,1,60,0,0
141238,-50,4,1,1,5,0,0
141353,-50,4,1,1,60,0,0
141584,-50,4,1,1,60,0,1
147353,-100,4,1,1,60,0,1
147411,-100,4,1,1,5,0,1
147584,-100,4,1,1,60,0,1
147642,-100,4,1,1,5,0,1
147815,-100,4,1,1,60,0,1
147873,-100,4,1,1,5,0,1
148046,-100,4,1,1,60,0,1
148103,-100,4,1,1,5,0,1
148277,-100,4,1,1,60,0,1
148334,-100,4,1,1,5,0,1
148507,-100,4,1,1,60,0,1
148565,-100,4,1,1,5,0,1
148738,-100,4,1,1,60,0,1
148796,-100,4,1,1,25,0,1
148853,-100,4,1,1,35,0,1
148911,-100,4,1,1,45,0,1
148969,-66.6666666666667,4,1,1,55,0,0
149315,-66.6666666666667,4,1,1,55,0,0
149430,-66.6666666666667,4,1,1,55,0,0
149546,-66.6666666666667,4,1,1,5,0,0
149661,-66.6666666666667,4,1,1,55,0,0
149777,-66.6666666666667,4,1,1,5,0,0
149892,-66.6666666666667,4,1,1,55,0,0
150700,-66.6666666666667,4,1,1,5,0,0
150815,-66.6666666666667,4,1,1,55,0,0
151392,-66.6666666666667,4,1,1,5,0,0
151507,-66.6666666666667,4,1,1,55,0,0
151623,-66.6666666666667,4,1,1,5,0,0
151738,-66.6666666666667,4,1,1,55,0,0
153238,-66.6666666666667,4,1,1,5,0,0
153353,-66.6666666666667,4,1,1,55,0,0
153469,-66.6666666666667,4,1,1,5,0,0
153584,-66.6666666666667,4,1,1,55,0,0
154392,-66.6666666666667,4,1,1,5,0,0
154507,-66.6666666666667,4,1,1,55,0,0
154738,-50,4,1,1,55,0,0
154853,-50,4,1,1,5,0,0
154969,-33.6666666666667,4,1,1,55,0,0
155084,-33.6666666666667,4,1,1,5,0,0
155200,-33.6666666666667,4,1,1,55,0,0
155315,-33.6666666666667,4,1,1,5,0,0
155430,-33.6666666666667,4,1,1,55,0,0
155546,-33.6666666666667,4,1,1,5,0,0
155661,-33.6666666666667,4,1,1,55,0,0
155777,-33.6666666666667,4,1,1,5,0,0
155892,-33.6666666666667,4,1,1,55,0,0
156007,-33.6666666666667,4,1,1,5,0,0
156123,-33.6666666666667,4,1,1,55,0,0
156238,-33.6666666666667,4,1,1,5,0,0
156353,-45.4545454545455,4,1,1,55,0,1
162123,-100,4,1,1,65,0,1
162180,-100,4,1,1,5,0,1
162353,-100,4,1,1,65,0,1
162411,-100,4,1,1,5,0,1
162584,-100,4,1,1,65,0,1
162642,-100,4,1,1,5,0,1
162815,-100,4,1,1,65,0,1
162873,-100,4,1,1,5,0,1
163046,-100,4,1,1,65,0,1
163103,-100,4,1,1,5,0,1
163277,-100,4,1,1,65,0,1
163334,-100,4,1,1,5,0,1
163507,-100,4,1,1,65,0,1
163565,-100,4,1,1,5,0,1
163738,-200,4,1,1,55,0,0
164200,-100,4,1,1,55,0,0
164661,-66.6666666666667,4,1,1,55,0,0
165123,-50,4,1,1,55,0,0
167200,-100,4,1,1,55,0,0
167661,-66.6666666666667,4,1,1,55,0,0
168353,-400,4,1,1,50,0,0
169277,-50,4,1,1,50,0,0
169507,-50,4,1,1,5,0,0
169623,-50,4,1,1,50,0,0
169853,-50,4,1,1,5,0,0
169969,-50,4,1,1,50,0,0
170084,-50,4,1,1,5,0,0
170200,-50,4,1,1,50,0,0
170430,-200,4,1,1,50,0,0
171123,-700,4,1,1,50,0,0
173661,-357.142857142857,4,1,1,50,0,0
174815,-700,4,1,1,50,0,0
178507,-411.764705882353,4,1,1,50,0,0
184969,-225.806451612903,4,1,1,50,0,0
185315,-225.806451612903,4,1,1,5,0,0
185430,-225.806451612903,4,1,1,50,0,0
185892,-55.5555555555556,4,1,1,65,0,1
186238,-55.5555555555556,4,1,1,5,0,1
186353,-55.5555555555556,4,1,1,65,0,1
186815,-55.5555555555556,4,1,1,65,0,1
187161,-55.5555555555556,4,1,1,5,0,1
187277,-55.5555555555556,4,1,1,65,0,1
187392,-55.5555555555556,4,1,1,5,0,1
187507,-50,4,1,1,65,0,1
188084,-50,4,1,1,5,0,1
188200,-50,4,1,1,65,0,1
188315,-50,4,1,1,5,0,1
188430,-50,4,1,1,65,0,1
188546,-50,4,1,1,5,0,1
188661,-50,4,1,1,65,0,1
189238,-50,4,1,1,5,0,1
189353,-50,4,1,1,65,0,1
189469,-50,4,1,1,5,0,1
189584,-50,4,1,1,65,0,1
190161,-50,4,1,1,5,0,1
190277,-50,4,1,1,65,0,1
190392,-50,4,1,1,5,0,1
190507,-50,4,1,1,65,0,1
191084,-50,4,1,1,5,0,1
191200,-50,4,1,1,65,0,1
191315,-50,4,1,1,5,0,1
191430,-50,4,1,1,65,0,1
193623,-50,4,1,1,5,0,1
193738,-50,4,1,1,65,0,1
194084,-50,4,1,1,5,0,1
194200,-50,4,1,1,65,0,1
194546,-50,4,1,1,5,0,1
194661,-50,4,1,1,65,0,1
194777,-50,4,1,1,5,0,1
194892,-50,4,1,1,65,0,1
195469,-50,4,1,1,5,0,1
195584,-50,4,1,1,65,0,1
195700,-50,4,1,1,5,0,1
195815,-50,4,1,1,65,0,1
195930,-50,4,1,1,5,0,1
196046,-50,4,1,1,65,0,1
196623,-50,4,1,1,5,0,1
196738,-50,4,1,1,65,0,1
196853,-50,4,1,1,5,0,1
196969,-50,4,1,1,65,0,1
197546,-50,4,1,1,75,0,1
197661,-50,4,1,1,65,0,1
197777,-50,4,1,1,5,0,1
197892,-50,4,1,1,65,0,1
198469,-50,4,1,1,5,0,1
198584,-50,4,1,1,65,0,1
198700,-50,4,1,1,5,0,1
198815,-50,4,1,1,65,0,1
200661,-50,4,1,1,65,0,0
202392,-50,4,1,1,5,0,0
202507,-50,4,1,1,65,0,0
207353,-66.6666666666667,4,1,1,65,0,0
208392,-66.6666666666667,4,1,1,5,0,0
208507,-66.6666666666667,4,1,1,65,0,0
208853,-66.6666666666667,4,1,1,5,0,0
208969,-66.6666666666667,4,1,1,65,0,0
210007,-66.6666666666667,4,1,1,5,0,0
210123,-66.6666666666667,4,1,1,65,0,0
210238,-66.6666666666667,4,1,1,5,0,0
210353,-66.6666666666667,4,1,1,65,0,0
210469,-66.6666666666667,4,1,1,5,0,0
210584,-66.6666666666667,4,1,1,65,0,0
210700,-66.6666666666667,4,1,1,5,0,0
210815,-66.6666666666667,4,1,1,65,0,0
211623,-66.6666666666667,4,1,1,5,0,0
211738,-90.9090909090909,4,1,1,65,0,0
211853,-90.9090909090909,4,1,1,5,0,0
211969,-142.857142857143,4,1,1,65,0,0
212084,-142.857142857143,4,1,1,5,0,0
212200,-100,4,1,1,65,0,0
218892,-111.111111111111,4,1,1,65,0,0
219123,-125,4,1,1,65,0,0
219353,-142.857142857143,4,1,1,65,0,0

[HitObjects]
256,192,1277,12,0,2892,0:0:0:0:
105,121,3123,5,0,0:0:0:0:
112,232,3353,1,0,0:0:0:0:
215,36,3584,5,0,0:0:0:0:
182,318,3815,1,0,0:0:0:0:
98,10,4046,5,0,0:0:0:0:
112,232,4277,1,0,0:0:0:0:
190,240,4392,1,0,0:0:0:0:
109,125,4623,1,0,0:0:0:0:
31,133,4738,1,0,0:0:0:0:
275,327,4969,5,0,0:0:0:0:
122,352,5200,1,0,0:0:0:0:
341,254,5430,5,0,0:0:0:0:
11,221,5661,1,0,0:0:0:0:
423,301,5892,5,0,0:0:0:0:
122,352,6123,1,0,0:0:0:0:
200,360,6238,1,0,0:0:0:0:
275,123,6469,1,0,0:0:0:0:
197,131,6584,1,0,0:0:0:0:
428,257,6815,6,0,L|421:185,1,52.4999983978272
469,93,7046,2,0,L|463:145,1,52.4999983978272
445,296,7277,6,0,L|450:243,1,52.4999983978272
440,69,7507,2,0,L|445:121,1,52.4999983978272
459,370,7738,5,0,0:0:0:0:
374,132,7969,1,0,0:0:0:0:
296,124,8084,1,0,0:0:0:0:
221,361,8315,1,0,0:0:0:0:
299,353,8430,1,0,0:0:0:0:
53,240,8661,6,0,L|61:150,1,65.6250025033952
0,35,8892,2,0,L|7:99,1,65.6250025033952
31,288,9123,6,0,L|24:221,1,65.6250025033952
37,5,9353,2,0,L|30:69,1,65.6250025033952
13,379,9584,5,0,0:0:0:0:
128,86,9815,1,0,0:0:0:0:
225,75,9930,1,0,0:0:0:0:
318,371,10161,1,0,0:0:0:0:
221,361,10277,2,0,P|211:300|246:238,1,113.749994792938
343,189,10507,5,0,0:0:0:0:
155,218,10738,1,0,0:0:0:0:
440,236,10969,5,0,0:0:0:0:
57,176,11200,1,0,0:0:0:0:
512,163,11430,5,0,0:0:0:0:
155,218,11661,1,0,0:0:0:0:
162,297,11777,1,0,0:0:0:0:
343,189,12007,1,0,0:0:0:0:
350,110,12123,1,0,0:0:0:0:
58,157,12353,5,0,0:0:0:0:
72,302,12584,1,0,0:0:0:0:
258,37,12815,5,0,0:0:0:0:
235,327,13046,1,0,0:0:0:0:
46,5,13277,5,0,0:0:0:0:
235,327,13507,1,0,0:0:0:0:
155,337,13623,1,0,0:0:0:0:
258,37,13853,1,0,0:0:0:0:
338,47,13969,1,0,0:0:0:0:
118,228,14200,6,0,P|124:180|117:150,1,52.4999983978272
34,80,14430,2,0,P|33:106|39:131,1,52.4999983978272
89,261,14661,6,0,P|83:235|83:209,1,52.4999983978272
129,43,14892,2,0,P|129:69|123:94,1,52.4999983978272
14,270,15123,5,0,0:0:0:0:
230,58,15353,1,0,0:0:0:0:
239,147,15469,1,0,0:0:0:0:
34,80,15700,1,0,0:0:0:0:
25,169,15816,1,0,0:0:0:0:
321,289,16046,6,0,P|312:251|312:213,1,65.6250025033952
443,73,16276,2,0,P|443:111|434:148,1,65.6250025033952
363,336,16507,6,0,P|371:298|371:260,1,65.6250025033952
305,20,16738,2,0,P|304:58|313:95,1,65.6250025033952
472,350,16969,5,0,0:0:0:0:
158,41,17199,1,0,0:0:0:0:
145,171,17315,1,0,0:0:0:0:
443,73,17546,1,0,0:0:0:0:
456,203,17662,1,0,0:0:0:0:
36,161,17892,6,0,B|45:254|138:246|138:246|64:239|43:152|73:115|111:72|154:75|240:98|242:177|186:243,2,525.000020027161,0|0|4,0:0|0:0|0:0,0:0:0:0:
299,26,19969,6,0,P|286:95|297:124,1,65.6250025033952
486,93,20200,2,0,P|437:68|360:76,1,131.25000500679
460,353,20661,2,0,P|473:284|462:255,1,65.6250025033952
273,286,20892,2,0,P|322:311|399:303,1,131.25000500679
106,293,21353,1,0,0:0:0:0:
106,293,21469,1,0,0:0:0:0:
169,227,21584,6,0,P|193:298|153:375,1,131.25000500679
87,208,21930,1,0,0:0:0:0:
87,208,22046,2,0,P|91:123|105:102,1,65.6250025033952
8,20,22277,2,0,P|18:59|-16:131,1,87.5
119,54,22507,6,0,L|362:28,1,209.999993591309
414,70,22853,6,0,L|216:48,1,157.499995193482
205,120,23200,6,0,L|207:170,1,43.75
209,198,23430,5,0,0:0:0:0:
84,126,23661,2,0,P|88:197|66:233,1,65.6250025033952
5,86,23892,2,0,P|72:37|147:59,1,131.25000500679
305,198,24353,6,0,L|297:103,1,65.6250025033952
363,271,24584,1,0,0:0:0:0:
418,199,24700,6,0,L|426:104,1,65.6250025033952
363,271,24930,1,0,0:0:0:0:
305,198,25046,6,0,L|297:103,1,65.6250025033952
409,338,25277,2,0,P|327:297|258:325,1,131.25000500679
162,362,25623,1,0,0:0:0:0:
162,362,25738,2,0,P|178:325|169:273,1,65.6250025033952
26,241,25969,2,0,P|27:273|42:302,1,65.6250025033952
267,270,26200,6,0,L|360:252,1,65.6250025033952
183,194,26430,1,0,0:0:0:0:
267,118,26546,6,0,L|360:136,1,65.6250025033952
183,194,26776,1,0,0:0:0:0:
267,270,26892,6,0,L|360:252,1,65.6250025033952
103,262,27123,5,0,0:0:0:0:
17,18,27353,2,0,P|2:90|17:118,1,65.6250025033952
201,75,27584,2,0,P|121:54|63:75,1,131.25000500679
246,384,28046,2,0,P|261:312|246:284,1,65.6250025033952
62,327,28277,2,0,P|142:348|200:327,1,131.25000500679
382,155,28738,1,0,0:0:0:0:
382,155,28853,1,0,0:0:0:0:
314,88,28969,6,0,P|290:147|323:223,1,131.25000500679
478,227,29315,1,0,0:0:0:0:
478,227,29430,2,0,P|398:239|384:252,1,83.1249977803231
305,381,29661,2,0,P|334:305|330:287,1,91.8749971961976
191,144,29892,6,0,L|210:378,1,218.75
164,384,30238,6,0,L|178:209,1,166.249995560646
79,229,30584,6,0,L|26:233,1,43.75
0,236,30815,5,0,0:0:0:0:
207,94,31046,2,0,P|153:104|117:86,1,70
271,27,31277,2,0,P|295:114|253:187,1,140
137,283,31738,6,0,L|145:377,1,70
217,373,31969,1,0,0:0:0:0:
297,283,32084,6,0,L|289:377,1,70
217,373,32315,1,0,0:0:0:0:
137,283,32430,6,0,L|145:377,1,70
92,176,32661,6,0,B|210:143|169:236|314:186,1,209.999993591309,2|0,0:0|0:0,0:0:0:0:
388,136,33007,2,0,P|335:55|244:89,1,209.999993591309,2|0,0:0|0:0,0:0:0:0:
370,344,33353,2,0,P|388:275|336:194,1,104.999996795654,2|0,0:0|0:0,0:0:0:0:
177,329,33584,6,0,L|317:339,1,104.999996795654,2|0,0:0|0:0,0:0:0:0:
316,172,33815,1,2,0:0:0:0:
244,88,33930,6,0,L|234:228,1,104.999996795654,2|0,0:0|0:0,0:0:0:0:
467,115,34161,1,2,0:0:0:0:
395,31,34276,6,0,L|385:171,1,104.999996795654,2|0,0:0|0:0,0:0:0:0:
370,344,34507,5,4,0:0:0:0:
54,315,34738,2,0,L|58:379,2,43.75
459,256,35661,6,0,L|455:320,2,43.75
66,70,36584,6,0,L|62:6,2,43.75
123,126,37277,6,0,L|187:130,1,43.75
66,70,37738,1,0,0:0:0:0:
72,189,37969,1,0,0:0:0:0:
326,28,38430,6,0,L|318:89,2,43.75
204,358,39353,6,0,L|199:315,2,43.75
418,167,40277,5,0,0:0:0:0:
414,247,40507,1,0,0:0:0:0:
410,327,40738,1,0,0:0:0:0:
293,137,41200,5,0,0:0:0:0:
295,177,41430,1,0,0:0:0:0:
296,217,41661,1,0,0:0:0:0:
115,162,41892,6,0,B|137:157|137:157|190:163,1,65.625
204,166,42353,1,8,0:0:0:0:
117,264,42584,2,0,L|113:232,1,21.875
193,297,42815,2,0,L|213:272,1,21.875
36,288,43046,1,0,0:0:0:0:
251,355,43277,2,0,P|286:358|303:354,1,43.75,8|0,0:0|0:0,0:0:0:0:
346,295,43623,1,0,0:0:0:0:
346,295,43738,6,0,P|341:341|347:364,1,65.625
361,380,44200,1,8,0:0:0:0:
430,154,44430,2,0,L|448:179,1,21.875
437,276,44661,2,0,L|449:247,1,21.875
372,219,44892,1,0,0:0:0:0:
467,67,45123,1,8,0:0:0:0:
453,68,45239,1,0,0:0:0:0:
401,77,45353,1,0,0:0:0:0:
387,78,45469,1,0,0:0:0:0:
335,86,45584,5,0,0:0:0:0:
477,156,45815,1,0,0:0:0:0:
243,60,46046,2,0,P|249:26|245:3,1,43.75,8|0,0:0|0:0,0:0:0:0:
58,106,46507,2,0,P|57:127|63:148,1,43.75
222,232,46969,2,0,L|268:236,1,43.75,8|0,0:0|0:0,0:0:0:0:
145,175,47430,5,0,0:0:0:0:
425,251,47661,1,0,0:0:0:0:
3,356,47892,2,0,L|89:349,1,70,8|0,0:0|0:0,0:0:0:0:
327,328,48353,6,0,B|300:169|300:169|237:273|237:273|256:383,1,393.750015020371
455,226,49277,6,0,B|402:335|402:335|361:89,1,297.500005674362,2|0,0:0|0:0,0:0:0:0:
291,96,49623,6,0,B|344:-13|344:-13|385:233,1,297.500005674362,2|0,0:0|0:0,0:0:0:0:
101,367,49969,6,0,B|75:328|75:328|90:181,1,175,2|0,0:0|0:0,0:0:0:0:
117,7,50200,5,2,0:0:0:0:
230,346,50430,1,0,0:0:0:0:
239,312,50661,1,0,0:0:0:0:
236,277,50892,1,0,0:0:0:0:
14,297,51123,6,0,L|543:329,1,472.499985580445,4|0,0:0|0:0,0:0:0:0:
495,145,51584,2,0,B|396:139|396:139|391:238|391:238|490:242|490:242|496:135,1,393.750015020371,8|0,0:0|0:0,0:0:0:0:
67,197,52046,2,0,B|185:185|185:185|173:67|173:67|55:81|55:81|67:209,1,472.499985580445
0,344,52507,2,0,P|109:304|204:353,1,157.499995193482,8|0,0:0|0:0,0:0:0:0:
275,369,52738,6,0,B|469:348|469:348|357:171|357:171|288:313,1,525
176,377,53200,6,0,P|218:284|209:212,1,175
46,3,53430,2,0,P|6:90|29:188,1,175,8|0,0:0|0:0,0:0:0:0:
305,280,53661,2,0,L|485:260,1,175
144,42,53892,6,0,B|145:87|133:111|133:111|112:144|112:144|136:168|136:168|113:201|113:201|97:231|99:288,1,262.500010013581
46,3,54353,2,0,P|49:77|15:124,1,96.250002937317,8|0,0:0|0:0,0:0:0:0:
202,233,54584,2,0,P|199:307|233:354,1,96.250002937317
81,373,54815,6,0,L|306:362,1,192.500005874634
467,326,55161,1,0,0:0:0:0:
432,248,55277,2,0,L|420:395,1,131.25000500679,8|0,0:0|0:0,0:0:0:0:
182,21,55507,2,0,L|194:168,1,131.25000500679
512,20,55738,6,0,L|233:-2,1,262.500010013581
60,126,56084,1,0,0:0:0:0:
88,31,56200,2,0,L|100:178,1,131.25000500679,8|0,0:0|0:0,0:0:0:0:
0,384,56430,2,0,L|12:237,1,131.25000500679
198,35,56661,6,0,P|311:23|345:87,1,157.499995193482
312,348,56892,2,0,P|199:360|165:296,1,157.499995193482
263,107,57123,2,0,P|295:178|265:256,1,157.499995193482,8|0,0:0|0:0,0:0:0:0:
69,188,57353,2,0,P|154:155|228:203,1,157.499995193482
41,368,57584,6,0,L|32:82,1,236.249992790222
80,30,57815,2,0,L|66:223,1,157.499995193482,2|2,0:0|0:0,0:0:0:0:
426,367,58046,2,0,L|414:209,1,157.499995193482,8|0,0:0|0:0,0:0:0:0:
268,1,58277,2,0,L|257:158,1,157.499995193482,2|0,0:0|0:0,0:0:0:0:
167,384,58507,6,0,B|65:343|65:343|460:370,1,472.499985580445,4|0,0:0|0:0,0:0:0:0:
502,137,58969,2,0,P|434:58|328:298,1,472.499985580445,8|0,0:0|0:0,0:0:0:0:
390,281,59430,2,0,B|521:238|521:238|175:200,1,472.499985580445
39,372,59892,2,0,L|241:362,1,157.499995193482,8|0,0:0|0:0,0:0:0:0:
390,281,60123,6,0,B|360:205|360:205|254:209|254:209|288:294|288:294|197:294|197:294|160:215|160:215|73:217,1,525
69,117,60584,6,0,L|88:311,1,175
460,206,60815,2,0,L|441:400,1,175,8|0,0:0|0:0,0:0:0:0:
20,384,61046,2,0,L|39:190,1,175
498,70,61277,6,0,B|466:15|466:15|490:343,1,350
159,47,61738,2,0,B|229:30|229:30|290:77,1,131.25000500679,8|0,0:0|0:0,0:0:0:0:
247,283,61969,2,0,B|177:300|177:300|116:253,1,131.25000500679
32,106,62200,6,0,L|50:268,1,131.25000500679
4,369,62430,2,0,L|24:199,1,131.25000500679
79,168,62661,6,0,L|68:264,1,87.5,8|0,0:0|0:0,0:0:0:0:
32,298,62892,2,0,L|21:211,1,87.5
158,128,63123,2,0,P|266:106|356:188,1,218.75
489,365,63584,6,0,L|506:246,1,109.375,8|0,0:0|0:0,0:0:0:0:
334,27,63815,2,0,L|349:135,1,109.375
208,300,64046,6,0,P|137:319|77:285,1,131.25000500679
102,61,64277,2,0,P|173:42|233:76,1,131.25000500679
309,251,64507,6,0,P|308:324|248:404,1,157.499995193482,8|0,0:0|0:0,0:0:0:0:
9,153,64738,2,0,P|0:89|34:3,1,157.499995193482
485,149,64969,5,2,0:0:0:0:
482,213,65084,1,0,0:0:0:0:
455,272,65200,1,0,0:0:0:0:
408,317,65315,1,0,0:0:0:0:
309,251,65430,5,10,0:0:0:0:
274,259,65546,1,0,0:0:0:0:
255,151,65661,5,0,0:0:0:0:
239,146,65777,1,0,0:0:0:0:
291,44,65892,5,4,0:0:0:0:
256,192,66007,12,0,67507,0:0:0:0:
256,192,67738,12,0,69353,0:0:0:0:
106,91,69584,6,0,B|150:72|150:72|181:106,1,87.5
151,300,69815,2,0,B|107:319|107:319|76:285,1,87.5
228,172,70046,6,0,B|247:216|247:216|213:247,1,87.5
32,215,70277,2,0,B|13:171|13:171|47:140,1,87.5
129,197,70507,5,0,0:0:0:0:
393,54,70738,1,0,0:0:0:0:
386,140,70853,1,0,0:0:0:0:
115,23,71084,1,0,0:0:0:0:
122,109,71199,1,0,0:0:0:0:
293,176,71430,6,0,L|423:159,1,87.5
129,197,71661,2,0,L|-1:213,1,87.5
224,271,71892,6,0,L|240:401,1,87.5
200,110,72123,2,0,L|183:-20,1,87.5
210,188,72353,5,0,0:0:0:0:
10,344,72584,1,0,0:0:0:0:
94,355,72700,1,0,0:0:0:0:
372,24,72930,1,0,0:0:0:0:
288,35,73046,2,0,P|272:118|312:176,1,122.499996261597
410,239,73277,5,4,0:0:0:0:
168,188,73507,1,0,0:0:0:0:
445,95,73738,5,0,0:0:0:0:
67,167,73969,1,0,0:0:0:0:
504,266,74200,5,0,0:0:0:0:
87,352,74430,1,0,0:0:0:0:
78,259,74546,1,0,0:0:0:0:
184,3,74777,1,0,0:0:0:0:
175,96,74893,1,0,0:0:0:0:
1,8,75123,5,0,0:0:0:0:
270,135,75353,1,0,0:0:0:0:
1,318,75584,5,0,0:0:0:0:
270,135,75815,1,0,0:0:0:0:
1,157,76046,5,0,0:0:0:0:
327,366,76277,1,0,0:0:0:0:
340,280,76392,1,0,0:0:0:0:
170,30,76623,1,0,0:0:0:0:
183,116,76738,1,0,0:0:0:0:
495,100,76969,6,0,L|502:26,1,52.4999983978272
490,152,77200,2,0,L|497:78,1,52.4999983978272
312,83,77430,6,0,L|304:8,1,52.4999983978272
334,270,77661,2,0,L|325:179,1,52.4999983978272
485,206,77892,5,0,0:0:0:0:
228,131,78123,1,0,0:0:0:0:
221,220,78238,1,0,0:0:0:0:
25,366,78469,1,0,0:0:0:0:
18,277,78584,1,0,0:0:0:0:
381,178,78815,6,0,L|375:246,1,65.6250025033952
366,359,79046,2,0,L|372:291,1,65.6250025033952
115,52,79277,6,0,L|121:120,1,65.6250025033952
142,338,79508,2,0,L|136:270,1,65.6250025033952
488,213,79738,5,0,0:0:0:0:
17,362,79968,1,0,0:0:0:0:
25,231,80084,1,0,0:0:0:0:
373,47,80315,1,0,0:0:0:0:
381,178,80431,1,0,0:0:0:0:
43,96,80661,6,0,B|122:70|97:141|187:114,1,131.25,4|0,0:0|0:0,0:0:0:0:
240,91,81123,1,0,0:0:0:0:
240,91,81584,1,0,0:0:0:0:
240,91,82046,1,0,0:0:0:0:
240,91,82507,1,0,0:0:0:0:
240,91,82969,1,0,0:0:0:0:
240,91,83430,6,0,P|246:151|206:204,1,87.5,2|0,0:0|0:0,0:0:0:0:
165,124,83777,6,0,P|152:82|160:40,1,87.5,2|0,0:0|0:0,0:0:0:0:
164,222,84123,6,0,L|59:234,1,78.7499975967408,2|0,0:0|0:0,0:0:0:0:
0,240,84353,5,4,0:0:0:0:
294,378,84584,2,0,L|303:306,1,43.75
305,293,84815,1,0,0:0:0:0:
42,372,85046,1,0,0:0:0:0:
441,360,85277,5,0,0:0:0:0:
197,328,85507,1,0,0:0:0:0:
197,328,85623,1,0,0:0:0:0:
481,242,85853,1,0,0:0:0:0:
481,242,85969,1,0,0:0:0:0:
181,64,86200,5,0,0:0:0:0:
489,152,86430,2,0,L|494:84,1,43.75
497,65,86661,1,0,0:0:0:0:
174,309,86892,1,0,0:0:0:0:
383,232,87123,6,0,B|364:201|382:143|382:143|359:188|343:194|343:194|335:184|332:130|332:130|327:190|274:211,1,306.25
219,235,88046,6,0,B|146:218|146:218|107:271|107:271|13:245,1,209.999993591309
141,102,88392,1,0,0:0:0:0:
142,193,88507,5,8,0:0:0:0:
140,11,88738,1,0,0:0:0:0:
144,371,88969,1,0,0:0:0:0:
2,124,89200,1,8,0:0:0:0:
2,124,89315,2,0,B|-38:227|-38:227|80:206,1,209.999993591309
324,163,89661,2,0,L|314:291,1,104.999996795654,8|0,0:0|0:0,0:0:0:0:
142,193,89892,6,0,B|239:175|239:175|199:278,1,209.999993591309
122,220,90238,1,0,0:0:0:0:
127,109,90353,5,8,0:0:0:0:
115,322,90584,1,0,0:0:0:0:
41,13,90815,1,0,0:0:0:0:
344,356,91046,1,8,0:0:0:0:
344,356,91161,2,0,B|405:295|405:295|194:317,1,209.999993591309
120,211,91507,2,0,L|247:215,1,104.999996795654,8|0,0:0|0:0,0:0:0:0:
503,224,91738,6,0,B|386:166|386:166|408:325,1,262.500010013581,4|0,0:0|0:0,0:0:0:0:
316,106,92084,1,0,0:0:0:0:
305,203,92200,5,8,0:0:0:0:
322,13,92430,1,0,0:0:0:0:
48,337,92661,1,0,0:0:0:0:
478,114,92892,1,8,0:0:0:0:
478,114,93007,2,0,B|441:79|441:79|457:268,1,209.999993591309
244,364,93353,2,0,L|255:224,1,104.999996795654,8|0,0:0|0:0,0:0:0:0:
29,218,93584,6,0,B|172:233|172:233|188:73,1,297.500005674362
118,313,93930,1,0,0:0:0:0:
27,319,94046,5,8,0:0:0:0:
209,307,94277,1,0,0:0:0:0:
4,25,94507,5,0,0:0:0:0:
451,366,94738,1,8,0:0:0:0:
451,366,94853,2,0,B|506:244|506:244|245:295,1,297.500005674362
143,223,95200,2,0,B|118:190|118:190|239:210,1,148.750002837181,8|0,0:0|0:0,0:0:0:0:
505,245,95430,5,6,0:0:0:0:
360,6,95661,1,0,0:0:0:0:
361,20,95777,1,0,0:0:0:0:
362,34,95892,1,0,0:0:0:0:
363,48,96007,1,0,0:0:0:0:
364,62,96123,1,0,0:0:0:0:
365,76,96238,1,0,0:0:0:0:
411,57,96353,5,2,0:0:0:0:
103,225,96584,1,0,0:0:0:0:
102,211,96700,1,0,0:0:0:0:
101,197,96815,1,0,0:0:0:0:
100,183,96930,1,0,0:0:0:0:
99,169,97046,1,0,0:0:0:0:
98,155,97161,1,0,0:0:0:0:
51,174,97276,5,2,0:0:0:0:
41,42,97507,1,0,0:0:0:0:
55,43,97623,1,0,0:0:0:0:
69,45,97738,1,0,0:0:0:0:
83,47,97853,1,0,0:0:0:0:
97,49,97969,1,0,0:0:0:0:
111,50,98084,1,0,0:0:0:0:
135,93,98200,5,2,0:0:0:0:
149,96,98315,1,0,0:0:0:0:
186,53,98430,1,0,0:0:0:0:
200,56,98545,1,0,0:0:0:0:
224,106,98661,1,2,0:0:0:0:
238,109,98776,1,0,0:0:0:0:
278,64,98892,1,0,0:0:0:0:
292,67,99007,1,0,0:0:0:0:
319,120,99123,5,2,0:0:0:0:
466,38,99353,1,0,0:0:0:0:
469,52,99469,1,0,0:0:0:0:
471,66,99584,1,0,0:0:0:0:
471,80,99700,1,0,0:0:0:0:
469,94,99815,1,0,0:0:0:0:
464,108,99930,1,0,0:0:0:0:
491,145,100046,5,0,0:0:0:0:
366,274,100277,1,0,0:0:0:0:
363,260,100393,1,0,0:0:0:0:
361,246,100508,1,0,0:0:0:0:
361,232,100624,1,0,0:0:0:0:
363,218,100739,1,0,0:0:0:0:
368,204,100854,1,0,0:0:0:0:
341,167,100969,5,0,0:0:0:0:
197,308,101200,1,0,0:0:0:0:
182,311,101315,1,0,0:0:0:0:
171,302,101430,1,0,0:0:0:0:
171,287,101546,1,0,0:0:0:0:
182,278,101661,1,0,0:0:0:0:
197,281,101777,1,0,0:0:0:0:
152,298,101892,5,0,0:0:0:0:
163,67,102123,1,0,0:0:0:0:
148,70,102238,1,0,0:0:0:0:
137,61,102353,1,0,0:0:0:0:
137,46,102469,1,0,0:0:0:0:
148,37,102584,1,0,0:0:0:0:
163,40,102700,1,0,0:0:0:0:
198,140,102815,6,0,P|122:147|84:122,1,87.5
13,178,103161,1,0,0:0:0:0:
13,178,103277,2,0,P|37:193|51:228,1,43.75,8|0,0:0|0:0,0:0:0:0:
163,40,103507,2,0,P|180:26|190:7,1,43.75
34,82,103738,5,0,0:0:0:0:
183,239,103969,2,0,P|191:291|184:318,1,43.75
4,355,104200,2,0,P|5:333|12:312,1,43.75,8|0,0:0|0:0,0:0:0:0:
181,364,104430,2,0,L|109:362,1,43.75
58,224,104661,5,0,0:0:0:0:
261,126,104892,1,0,0:0:0:0:
261,126,105007,1,0,0:0:0:0:
261,126,105123,2,0,P|254:183|259:194,1,43.75,8|0,0:0|0:0,0:0:0:0:
87,67,105353,2,0,P|94:10|89:-1,1,43.75
46,195,105584,6,0,L|122:189,1,43.75
230,35,105815,2,0,L|154:29,1,43.75
178,229,106046,2,0,L|187:297,1,43.75,8|0,0:0|0:0,0:0:0:0:
331,64,106277,2,0,L|322:-4,1,43.75
250,167,106507,6,0,P|312:181|349:163,1,87.5
412,118,106853,1,0,0:0:0:0:
412,118,106969,2,0,P|389:175|399:238,1,104.999996795654,8|0,0:0|0:0,0:0:0:0:
207,369,107430,2,0,P|211:299|183:236,1,140
0,139,107892,2,0,L|206:151,1,157.499995193482,8|0,0:0|0:0,0:0:0:0:
365,90,108353,5,0,0:0:0:0:
8,245,108584,1,0,0:0:0:0:
279,12,108815,2,0,P|246:68|297:183,1,157.499995193482,8|0,0:0|0:0,0:0:0:0:
477,251,109277,6,0,B|587:178|522:11|367:88|377:240|409:329|509:403,1,472.499985580445
398,53,110200,6,0,P|331:193|376:385,1,297.500005674362,2|0,0:0|0:0,0:0:0:0:
51,368,110546,6,0,P|65:221|0:90,1,297.500005674362,2|0,0:0|0:0,0:0:0:0:
249,25,110892,6,0,P|234:90|260:178,1,148.750002837181,2|0,0:0|0:0,0:0:0:0:
512,14,111123,5,2,0:0:0:0:
98,158,111353,1,0,0:0:0:0:
203,165,111584,1,0,0:0:0:0:
308,172,111815,1,0,0:0:0:0:
5,142,112046,6,0,B|544:133,1,472.499985580445,4|0,0:0|0:0,0:0:0:0:
75,273,112507,2,0,B|99:368|99:368|191:370|191:370|229:283|229:283|153:221|153:221|79:273,1,472.499985580445,8|0,0:0|0:0,0:0:0:0:
65,272,112969,2,0,B|91:377|91:377|194:379|194:379|236:282|236:282|151:212|151:212|68:271,1,525,0|0,0:0|0:0,0:0:0:0:
173,50,113430,2,0,L|-46:47,1,157.499995193482,8|0,0:0|0:0,0:0:0:0:
301,195,113661,6,0,B|361:360|361:360|481:316|481:316|404:106,1,472.499985580445
225,103,114123,2,0,P|185:213|219:288,1,157.499995193482
58,384,114353,2,0,P|98:274|64:199,1,157.499995193482,8|0,0:0|0:0,0:0:0:0:
56,10,114584,2,0,P|49:87|87:155,1,157.499995193482
490,108,114815,6,0,P|312:39|198:201,1,314.999990386963
3,259,115277,2,0,P|142:196|157:161,1,131.25000500679,8|0,0:0|0:0,0:0:0:0:
51,7,115507,2,0,P|18:116|31:163,1,131.25000500679
234,378,115738,6,0,P|287:222|242:105,1,262.500010013581
377,101,116085,1,0,0:0:0:0:
364,9,116200,2,0,P|347:126|376:165,1,131.25000500679,8|0,0:0|0:0,0:0:0:0:
486,384,116430,2,0,P|503:267|474:228,1,131.25000500679
300,213,116661,6,0,L|-43:194,1,297.500005674362
66,372,117007,1,0,0:0:0:0:
145,322,117123,2,0,B|188:260|188:260|155:160,1,148.750002837181,8|0,0:0|0:0,0:0:0:0:
290,0,117353,2,0,B|267:69|267:69|296:141,1,148.750002837181
510,71,117584,6,0,L|329:56,1,148.750002837181
275,355,117815,2,0,L|456:340,1,148.750002837181
40,204,118046,2,0,L|55:385,1,148.750002837181,8|0,0:0|0:0,0:0:0:0:
497,219,118277,2,0,L|509:70,1,148.750002837181
157,39,118507,6,0,B|222:1|222:1|202:181,1,223.125004255772
185,190,118738,2,0,B|163:162|163:162|176:26,1,148.750002837181,2|0,0:0|0:0,0:0:0:0:
374,234,118969,2,0,B|384:346|384:346|362:374,1,148.750002837181,10|0,0:0|0:0,0:0:0:0:
305,29,119200,2,0,L|483:47,1,148.750002837181,2|0,0:0|0:0,0:0:0:0:
36,357,119430,6,0,L|482:344,1,446.250008511543,4|0,0:0|0:0,0:0:0:0:
432,84,119892,2,0,B|249:92|249:92|254:174|254:174|454:166,1,446.250008511543,8|0,0:0|0:0,0:0:0:0:
502,261,120353,2,0,L|56:248,1,446.250008511543
55,15,120815,2,0,L|56:186,1,148.750002837181,8|0,0:0|0:0,0:0:0:0:
64,354,121046,6,0,B|231:317|231:317|227:60|227:60|114:82,1,525
299,377,121507,2,0,B|316:343|316:343|315:175,1,175
55,15,121738,2,0,B|38:49|38:49|39:217,1,175,8|0,0:0|0:0,0:0:0:0:
480,317,121969,2,0,B|497:283|497:283|496:146,1,175
192,19,122200,6,0,B|131:87|131:87|151:364,1,350
24,14,122661,6,0,B|54:51|54:51|42:177,1,175,8|0,0:0|0:0,0:0:0:0:
273,353,122892,2,0,B|243:316|243:316|254:189,1,175
336,112,123123,6,0,L|486:100,1,131.25000500679
512,125,123353,2,0,L|362:113,1,131.25000500679
152,98,123584,5,8,0:0:0:0:
276,256,123815,2,0,B|318:312|318:312|258:366,1,131.25000500679
2,276,124046,6,0,B|108:278|108:278|142:304|142:304|274:305,1,262.500010013581
494,312,124507,2,0,B|448:282|448:282|465:390,1,131.25000500679,8|0,0:0|0:0,0:0:0:0:
476,190,124738,2,0,B|522:220|522:220|505:112,1,131.25000500679
375,35,124969,6,0,B|363:71|363:71|382:189,1,131.25000500679
262,346,125200,2,0,B|276:253|276:253|264:217,1,131.25000500679
132,24,125430,6,0,L|155:274,1,148.750002837181,8|0,0:0|0:0,0:0:0:0:
7,371,125661,2,0,L|20:222,1,148.750002837181
237,26,125892,5,8,0:0:0:0:
237,26,126007,1,0,0:0:0:0:
237,26,126123,1,0,0:0:0:0:
237,26,126238,1,0,0:0:0:0:
308,136,126353,5,8,0:0:0:0:
308,136,126469,1,0,0:0:0:0:
255,238,126584,5,0,0:0:0:0:
255,238,126699,1,0,0:0:0:0:
326,316,126815,5,4,0:0:0:0:
483,16,127046,1,0,0:0:0:0:
475,100,127161,1,0,0:0:0:0:
468,184,127277,6,0,B|450:375|450:375|490:294,1,209.999993591309,8|0,0:0|0:0,0:0:0:0:
194,91,127738,1,0,0:0:0:0:
147,17,127853,2,0,L|159:249,1,209.999993591309
16,138,128200,6,0,L|5:347,1,209.999993591309,8|0,0:0|0:0,0:0:0:0:
284,164,128546,1,0,0:0:0:0:
291,255,128661,5,0,0:0:0:0:
25,46,128892,1,0,0:0:0:0:
112,18,129007,1,0,0:0:0:0:
185,75,129123,2,0,L|157:315,1,209.999993591309,8|0,0:0|0:0,0:0:0:0:
36,141,129584,5,0,0:0:0:0:
25,46,129700,1,0,0:0:0:0:
362,225,129930,1,0,0:0:0:0:
351,320,130046,1,8,0:0:0:0:
246,84,130277,1,0,0:0:0:0:
341,95,130393,1,0,0:0:0:0:
436,106,130508,5,0,0:0:0:0:
66,153,130738,1,0,0:0:0:0:
66,153,130853,1,0,0:0:0:0:
100,81,130969,2,0,L|76:320,1,209.999993591309,8|0,0:0|0:0,0:0:0:0:
25,32,131430,5,0,0:0:0:0:
25,32,131546,1,0,0:0:0:0:
195,212,131777,1,0,0:0:0:0:
195,212,131892,1,8,0:0:0:0:
334,135,132123,1,0,0:0:0:0:
305,369,132353,5,0,0:0:0:0:
377,63,132584,1,0,0:0:0:0:
334,135,132700,1,0,0:0:0:0:
338,218,132815,1,8,0:0:0:0:
406,266,132930,1,0,0:0:0:0:
490,257,133046,2,0,L|344:246,1,104.999996795654
218,242,133277,5,0,0:0:0:0:
218,242,133392,1,0,0:0:0:0:
21,338,133623,1,0,0:0:0:0:
21,338,133738,1,8,0:0:0:0:
406,266,133969,2,0,P|425:185|395:120,1,131.25000500679
303,16,134200,5,0,0:0:0:0:
2,191,134430,2,0,P|28:143|141:137,1,131.25000500679
298,250,134661,2,0,P|135:271|89:153,1,262.500010013581,8|0,0:0|0:0,0:0:0:0:
227,59,135123,6,0,P|234:134|202:202,1,131.25000500679
7,104,135353,2,0,P|115:43|137:159,1,262.500010013581,0|8,0:0|0:0,0:0:0:0:
14,346,135815,2,0,P|97:311|199:360,1,131.25000500679
275,376,136046,5,0,0:0:0:0:
400,185,136277,2,0,P|397:77|336:33,1,131.25000500679
324,133,136507,2,0,P|339:251|493:205,1,262.500010013581,8|0,0:0|0:0,0:0:0:0:
63,225,136969,6,0,P|36:283|49:346,1,131.25000500679
1,154,137200,2,0,P|121:156|138:276,1,262.500010013581,0|8,0:0|0:0,0:0:0:0:
17,45,137661,2,0,P|141:56|208:122,1,131.25000500679
321,195,137892,5,0,0:0:0:0:
285,13,138123,2,0,P|249:83|273:169,1,131.25000500679
505,337,138354,2,0,P|494:201|366:158,1,262.500010013581,8|0,0:0|0:0,0:0:0:0:
213,352,138815,6,0,P|215:287|181:231,1,131.25000500679
65,22,139046,2,0,P|16:161|145:175,1,262.500010013581,0|8,0:0|0:0,0:0:0:0:
210,22,139507,2,0,P|210:86|176:141,1,131.25000500679
0,191,139738,5,0,0:0:0:0:
279,368,139969,2,0,P|244:312|245:248,1,131.25000500679
416,64,140200,6,0,P|467:132|457:218,1,175,8|0,0:0|0:0,0:0:0:0:
455,217,140431,2,0,P|404:148|414:63,1,175
256,112,140661,6,0,P|288:192|256:272,1,175
254,270,140892,2,0,P|224:191|256:112,1,175
96,63,141123,6,0,P|106:147|55:216,1,175,8|0,0:0|0:0,0:0:0:0:
54,216,141354,2,0,P|45:131|97:63,1,175
256,0,141584,5,4,0:0:0:0:
53,354,141815,2,0,B|12:346|12:346|219:326,1,175
495,367,142046,2,0,L|68:353,1,350,8|0,0:0|0:0,0:0:0:0:
55,177,142507,6,0,B|0:104|0:104|71:46,1,175
381,113,142738,2,0,B|247:96|247:96|197:129|197:129|28:106,1,350,0|8,0:0|0:0,0:0:0:0:
489,318,143200,2,0,B|418:273|418:273|427:375,1,175
493,185,143430,5,0,0:0:0:0:
143,304,143661,2,0,B|214:349|214:349|205:247,1,175
134,44,143892,2,0,B|138:108|138:108|98:162|98:162|101:215|101:215|68:273|68:273|76:392,1,350,8|0,0:0|0:0,0:0:0:0:
0,7,144353,6,0,L|14:196,1,175
143,304,144584,2,0,B|205:295|205:295|261:316|261:316|258:288|258:288|203:258|203:258|45:277|45:277,1,350,0|8,0:0|0:0,0:0:0:0:
439,356,145046,2,0,B|316:370|316:370|422:316,1,175
512,267,145277,5,0,0:0:0:0:
182,169,145507,2,0,B|305:183|305:183|199:129,1,175
91,66,145738,2,0,B|144:3|144:3|134:95|134:95|96:148|96:148|86:337,1,350,8|0,0:0|0:0,0:0:0:0:
304,373,146200,6,0,B|382:329|382:329|297:289,1,175
302,186,146430,2,0,B|239:240|239:240|410:327|410:327|338:370,1,350,0|8,0:0|0:0,0:0:0:0:
0,236,146892,2,0,B|64:230|64:230|92:254|92:254|180:243,1,175
501,206,147123,5,0,0:0:0:0:
85,17,147353,2,0,L|77:82,1,43.75,2|0,0:0|0:0,0:0:0:0:
357,301,147584,2,0,L|351:257,1,43.75,10|0,0:0|0:0,0:0:0:0:
294,33,147815,2,0,L|250:38,1,43.75,2|0,0:0|0:0,0:0:0:0:
49,335,148046,6,0,L|92:340,1,43.75,2|0,0:0|0:0,0:0:0:0:
452,64,148277,2,0,L|446:20,1,43.75,2|0,0:0|0:0,0:0:0:0:
12,220,148507,2,0,L|55:225,1,43.75,10|0,0:0|0:0,0:0:0:0:
496,349,148738,2,0,L|450:358,3,43.75,2|0|0|0,0:0|0:0|0:0|0:0,0:0:0:0:
495,366,148969,6,0,B|429:377|429:377|441:126,1,262.500010013581
351,33,149315,1,0,0:0:0:0:
351,33,149430,2,0,L|354:183,1,131.25000500679,8|0,0:0|0:0,0:0:0:0:
146,372,149661,2,0,L|148:240,1,131.25000500679
159,18,149892,5,0,0:0:0:0:
248,232,150123,2,0,B|322:176|322:176|50:151,1,262.500010013581,0|8,0:0|0:0,0:0:0:0:
15,380,150584,2,0,L|215:367,1,131.25000500679
450,374,150815,6,0,B|467:258|467:258|369:263|369:263|398:358,1,262.500010013581
510,180,151161,1,0,0:0:0:0:
510,180,151277,2,0,L|300:189,1,131.25000500679,8|0,0:0|0:0,0:0:0:0:
154,30,151507,2,0,L|364:39,1,131.25000500679
506,46,151738,5,0,0:0:0:0:
37,217,151969,2,0,B|128:213|128:213|160:238|160:238|310:231,1,262.500010013581,0|8,0:0|0:0,0:0:0:0:
1,358,152430,2,0,L|200:342,1,131.25000500679
407,339,152661,6,0,B|302:322|302:322|254:362|254:362|120:340,1,262.500010013581
240,171,153007,1,0,0:0:0:0:
240,171,153123,2,0,B|191:222|191:222|249:305,1,131.25000500679,8|0,0:0|0:0,0:0:0:0:
463,200,153354,2,0,B|497:150|497:150|448:99,1,131.25000500679
336,8,153584,5,0,0:0:0:0:
407,339,153815,2,0,B|467:297|467:297|199:303,1,262.500010013581,0|8,0:0|0:0,0:0:0:0:
36,315,154277,2,0,L|180:326,1,131.25000500679
497,350,154507,5,0,0:0:0:0:
255,63,154738,2,0,L|256:320,1,175,2|0,0:0|0:0,0:0:0:0:
15,253,154969,6,0,P|99:158|96:32,1,259.900980282737,10|0,0:0|0:0,0:0:0:0:
96,32,155200,2,0,P|12:127|14:254,1,259.900980282737,2|0,0:0|0:0,0:0:0:0:
254,300,155430,6,0,P|300:182|253:64,1,259.900980282737,2|0,0:0|0:0,0:0:0:0:
256,64,155661,2,0,P|209:182|255:301,1,259.900980282737,2|0,0:0|0:0,0:0:0:0:
498,253,155892,6,0,P|499:127|415:32,1,259.900980282737,10|0,0:0|0:0,0:0:0:0:
416,31,156123,2,0,P|412:158|496:253,1,259.900980282737,2|0,0:0|0:0,0:0:0:0:
497,379,156353,6,0,P|388:205|136:266,1,385.000011749268,4|0,0:0|0:0,0:0:0:0:
31,288,156700,1,0,0:0:0:0:
205,377,156815,2,0,P|210:331|112:366,1,192.500005874634,8|0,0:0|0:0,0:0:0:0:
42,113,157046,2,0,P|70:149|115:55,1,192.500005874634
41,13,157277,5,0,0:0:0:0:
28,384,157507,2,0,P|217:318|435:376,1,385.000011749268,0|8,0:0|0:0,0:0:0:0:
396,181,157853,1,0,0:0:0:0:
242,218,157969,2,0,P|194:123|252:7,1,192.500005874634
28,384,158200,5,0,0:0:0:0:
39,8,158430,2,0,P|102:177|20:251,1,192.500005874634
28,384,158661,2,0,P|130:196|339:271,1,385.000011749268,8|0,0:0|0:0,0:0:0:0:
379,279,159007,1,0,0:0:0:0:
479,225,159123,6,0,P|498:88|403:13,1,192.500005874634
127,291,159353,2,0,B|353:262|222:429|482:371,1,385.000011749268,0|8,0:0|0:0,0:0:0:0:
130,79,159815,2,0,P|143:150|220:91,1,192.500005874634
72,5,160046,6,0,P|80:215|-11:376,1,385.000011749268
1,104,160392,1,0,0:0:0:0:
233,384,160507,2,0,P|282:246|358:195,1,192.500005874634,8|0,0:0|0:0,0:0:0:0:
205,0,160738,2,0,P|220:93|188:183,1,192.500005874634
3,299,160969,5,0,0:0:0:0:
481,375,161200,2,0,P|431:189|500:14,1,385.000011749268,0|8,0:0|0:0,0:0:0:0:
348,269,161546,1,0,0:0:0:0:
295,4,161661,2,0,P|317:133|268:253,1,192.500005874634
90,377,161892,5,0,0:0:0:0:
123,6,162123,2,0,L|97:48,1,43.75,2|0,0:0|0:0,0:0:0:0:
304,319,162353,2,0,L|291:256,1,43.75,10|0,0:0|0:0,0:0:0:0:
9,338,162584,2,0,L|75:352,1,43.75,2|0,0:0|0:0,0:0:0:0:
458,125,162815,6,0,L|399:135,1,43.75,2|0,0:0|0:0,0:0:0:0:
93,71,163046,2,0,L|159:84,1,43.75,2|0,0:0|0:0,0:0:0:0:
494,368,163277,2,0,L|432:378,1,43.75,10|0,0:0|0:0,0:0:0:0:
5,191,163507,2,2,L|69:206,1,43.75
479,19,163738,6,0,L|503:136,1,87.5
355,236,164200,6,0,L|376:48,1,175,8|0,0:0|0:0,0:0:0:0:
189,30,164661,6,0,L|215:344,1,262.500010013581
6,381,165123,6,0,L|35:-10,1,350,8|0,0:0|0:0,0:0:0:0:
472,368,165584,5,4,0:0:0:0:
342,324,165700,1,0,0:0:0:0:
445,235,165815,1,0,0:0:0:0:
10,368,166046,5,8,0:0:0:0:
138,22,166277,5,0,0:0:0:0:
224,210,166392,1,0,0:0:0:0:
338,30,166507,1,0,0:0:0:0:
212,377,166738,5,0,0:0:0:0:
26,226,166969,5,8,0:0:0:0:
224,210,167084,1,0,0:0:0:0:
423,195,167200,2,0,L|546:184,1,87.5
111,111,167430,6,0,L|198:118,1,87.5
12,357,167661,2,0,L|287:339,1,262.5,0|8,0:0|0:0,0:0:0:0:
497,54,168123,5,0,0:0:0:0:
261,81,168238,1,0,0:0:0:0:
38,101,168353,2,0,P|31:75|69:111,1,153.125
27,180,169277,6,0,P|150:102|390:164,1,350,8|0,0:0|0:0,0:0:0:0:
512,6,169623,2,0,P|389:84|149:22,1,350,8|0,0:0|0:0,0:0:0:0:
114,6,169969,2,0,P|135:152|80:220,1,175,8|0,0:0|0:0,0:0:0:0:
14,364,170200,5,8,0:0:0:0:
464,235,170430,6,0,P|473:283|461:322,2,87.5
392,141,171123,6,0,L|339:135,1,50
358,218,171815,2,0,L|305:212,1,50
274,289,172507,6,0,L|323:294,2,50
308,212,173661,2,0,L|357:217,1,50
29,194,174353,1,0,0:0:0:0:
29,194,174584,1,0,0:0:0:0:
29,194,174815,6,0,L|78:199,1,50
87,83,175507,2,0,L|136:88,1,50
152,288,176200,2,0,L|102:293,2,50
252,272,177353,1,0,0:0:0:0:
252,272,177584,5,0,0:0:0:0:
475,199,177930,1,0,0:0:0:0:
189,161,178277,1,0,0:0:0:0:
504,64,178507,6,0,L|494:114,1,42.4999996294294
381,248,178969,2,0,L|371:198,1,42.4999996294294
452,326,179430,2,0,L|500:342,1,42.4999996294294
348,348,179892,1,0,0:0:0:0:
348,348,180123,6,0,L|309:381,1,42.4999996294294
203,275,180584,2,0,L|213:324,2,42.4999996294294
76,369,181277,2,0,L|116:382,1,42.4999996294294
229,142,181738,1,0,0:0:0:0:
229,142,181969,1,0,0:0:0:0:
229,142,182200,6,0,L|188:155,1,42.4999996294294
255,47,182661,1,0,0:0:0:0:
255,47,182892,1,0,0:0:0:0:
209,232,183123,6,0,L|195:272,1,42.4999996294294
165,367,183584,1,0,0:0:0:0:
165,367,183815,1,0,0:0:0:0:
71,339,184046,5,0,0:0:0:0:
71,339,184277,1,0,0:0:0:0:
272,280,184507,1,0,0:0:0:0:
272,280,184738,1,0,0:0:0:0:
8,291,184969,6,0,L|23:169,1,116.249996959141
71,339,185430,5,0,0:0:0:0:
52,26,185661,1,0,0:0:0:0:
263,361,185892,6,0,B|362:224|261:44|261:44|187:130|218:208,1,472.499985580445,4|0,0:0|0:0,0:0:0:0:
397,349,186353,6,0,B|439:296|508:312|508:312|461:262|474:200|474:200|445:238|365:237,1,314.999990386963,8|0,0:0|0:0,0:0:0:0:
191,280,186700,1,0,0:0:0:0:
191,280,186815,6,0,B|161:274|132:312|132:312|145:250|98:200|98:200|167:216|209:163,1,314.999990386963
34,110,187277,2,0,P|-2:208|42:287,1,157.499995193482,8|0,0:0|0:0,0:0:0:0:
308,373,187507,6,0,P|360:286|285:51,1,350
506,7,187969,2,0,P|474:109|517:246,1,175
188,381,188200,2,0,P|193:294|166:211,1,175,8|0,0:0|0:0,0:0:0:0:
297,0,188430,2,0,P|269:82|275:169,1,175
397,368,188661,6,0,P|458:209|385:55,1,350
167,213,189007,1,0,0:0:0:0:
167,213,189123,2,0,B|233:211|233:211|262:235|262:235|361:232,1,175,8|0,0:0|0:0,0:0:0:0:
206,16,189353,2,0,B|140:14|140:14|111:38|111:38|12:35,1,175
30,295,189584,6,0,B|115:237|71:109|-121:171|-2:338|47:409,1,350
126,303,189930,1,0,0:0:0:0:
126,303,190046,2,0,P|128:174|83:129,1,175,8|0,0:0|0:0,0:0:0:0:
264,0,190277,2,0,P|223:75|241:159,1,175
355,251,190507,6,0,B|231:244|231:244|170:303|170:303|-8:292,1,350
145,204,190853,1,0,0:0:0:0:
145,204,190969,2,0,B|184:158|184:158|183:43,1,175,8|0,0:0|0:0,0:0:0:0:
40,0,191200,2,0,B|-1:41|-1:41|2:161,1,175
233,247,191430,6,0,B|326:244|326:244|389:291|389:291|490:290|490:290|402:232,1,350
24,45,191892,1,8,0:0:0:0:
116,378,192123,2,0,P|141:263|81:183,1,175
3,380,192353,5,0,0:0:0:0:
198,0,192584,2,0,P|170:81|199:162,1,175
408,318,192815,1,8,0:0:0:0:
15,118,193046,1,0,0:0:0:0:
485,30,193277,6,0,B|399:100|399:100|409:319|409:319|494:236|494:236|488:124,1,525
225,120,193738,2,0,B|310:190|310:190|300:409|300:409|215:326|215:326|221:214,1,525,8|0,0:0|0:0,0:0:0:0:
225,120,194200,2,0,B|229:43|229:43|143:-39|143:-39|134:179|134:179|219:250,1,525
471,208,194661,2,0,L|483:16,1,175,8|0,0:0|0:0,0:0:0:0:
49,29,194892,6,0,B|-20:95|-20:95|0:361,1,350
471,208,195353,2,0,L|483:16,1,175
0,202,195584,2,0,L|10:376,1,175,8|0,0:0|0:0,0:0:0:0:
393,177,195815,2,0,L|403:2,1,175
69,15,196046,6,0,L|92:386,1,350
190,264,196392,1,0,0:0:0:0:
190,264,196507,2,0,L|205:68,1,175,8|0,0:0|0:0,0:0:0:0:
0,202,196738,2,0,L|13:376,1,175
314,356,196969,6,0,B|457:370|457:370|511:303|511:303|387:290,1,350
190,264,197315,1,0,0:0:0:0:
190,264,197430,2,0,B|108:313|108:313|173:369,1,175,8|0,0:0|0:0,0:0:0:0:
446,192,197661,2,0,B|510:131|510:131|420:81,1,175
282,23,197892,6,0,B|271:127|271:127|300:169|300:169|290:258|290:258|318:306|318:306|311:387,1,350
485,191,198238,1,0,0:0:0:0:
485,191,198353,2,0,B|444:237|444:237|456:375,1,175,8|0,0:0|0:0,0:0:0:0:
187,169,198584,2,0,B|196:56|196:56|155:10,1,175
7,214,198815,6,0,L|372:194,2,350,0|0|8,0:0|0:0|0:0,0:0:0:0:
416,19,199507,2,0,B|453:61|453:61|439:209,1,175
415,342,199738,5,10,0:0:0:0:
263,332,199853,1,0,0:0:0:0:
404,321,199969,5,2,0:0:0:0:
274,354,200084,1,0,0:0:0:0:
387,303,200199,5,10,0:0:0:0:
292,368,200315,1,0,0:0:0:0:
369,295,200430,5,2,0:0:0:0:
316,373,200546,1,0,0:0:0:0:
337,370,200661,5,0,0:0:0:0:
256,192,200777,12,0,202393,0:0:0:0:
256,192,202507,12,0,204123,0:0:0:0:
47,97,204353,5,0,0:0:0:0:
268,8,204584,1,0,0:0:0:0:
33,182,204815,1,0,0:0:0:0:
63,9,205046,1,0,0:0:0:0:
17,268,205277,5,0,0:0:0:0:
221,84,205507,1,0,0:0:0:0:
229,171,205623,1,0,0:0:0:0:
108,273,205853,1,0,0:0:0:0:
100,360,205969,1,0,0:0:0:0:
125,37,206200,5,0,0:0:0:0:
239,258,206430,1,0,0:0:0:0:
50,87,206661,1,0,0:0:0:0:
324,225,206892,1,0,0:0:0:0:
55,375,207123,5,0,0:0:0:0:
50,87,207353,2,0,P|52:243|52:243,1,131.25000500679
55,375,207584,1,0,0:0:0:0:
50,0,207815,1,0,0:0:0:0:
55,375,208046,6,0,B|165:222|357:304|357:304|281:368,1,393.750015020371
55,162,208507,2,0,B|14:127|14:127|206:45|316:198,1,393.750015020371
316,338,208969,2,0,B|226:329|226:329|176:367|176:367|20:353,1,262.500010013581
488,351,209430,1,0,0:0:0:0:
433,117,209661,6,0,B|472:38|472:38|404:3|404:3|354:114|354:114|388:268,1,393.750015020371
488,351,210123,2,0,B|507:299|507:299|497:190,1,131.25000500679
313,291,210353,2,0,B|294:239|294:239|300:163,1,131.25000500679
88,359,210584,2,0,B|107:307|107:307|100:231,1,131.25000500679
220,72,210815,6,0,L|194:348,2,262.500010013581
1,371,211507,6,0,P|32:291|22:233,1,131.25000500679
188,262,211738,6,0,P|168:193|138:166,1,96.250002937317
250,72,211969,6,0,P|194:56|165:57,1,61.2499981307984
46,73,212200,6,0,L|25:265,1,175,0|0,0:0|0:0,0:0:0:0:
446,255,212661,6,0,P|398:303|366:303,1,87.5
370,224,212892,1,0,0:0:0:0:
305,273,213007,6,0,P|287:207|303:179,1,87.5
370,224,213238,1,0,0:0:0:0:
363,134,213353,6,0,P|428:151|444:179,1,87.5
252,340,213584,2,0,L|60:334,1,175
370,224,214046,1,0,0:0:0:0:
19,250,214277,1,0,0:0:0:0:
437,279,214507,6,0,L|349:207,1,87.5
307,169,214738,1,0,0:0:0:0:
147,229,214853,6,0,L|252:188,1,87.5
307,169,215084,1,0,0:0:0:0:
337,0,215200,6,0,L|319:111,1,87.5
273,340,215430,6,0,L|310:151,1,175
269,50,215738,1,0,0:0:0:0:
269,50,215815,1,0,0:0:0:0:
269,50,215892,2,0,L|286:244,1,175
73,5,216353,2,0,L|49:209,1,175
27,373,216815,2,0,L|45:236,1,87.5
151,85,217046,6,0,B|194:139|194:139|171:292,1,175
15,176,217507,6,0,L|128:168,1,87.5
206,335,217738,2,0,L|93:327,1,87.5
0,156,217969,2,0,L|113:148,1,87.5
266,131,218200,6,0,P|275:223|254:265,5,87.5
367,171,218891,6,0,P|351:256|333:278,1,78.7499975967408
445,239,219122,6,0,P|414:303|393:319,1,70
501,318,219353,6,0,P|461:366|431:380,1,61.2499981307984
346,361,219584,2,0,B|303:355|303:355|254:369|254:369|190:365,1,122.499996261597
39,319,219930,1,0,0:0:0:0:
110,366,220046,6,0,P|120:300|104:255,1,61.2499981307984
104,180,220277,1,0,0:0:0:0:
175,227,220393,6,0,P|185:161|169:116,1,61.2499981307984
172,45,220623,1,0,0:0:0:0:
243,92,220739,6,0,P|253:26|237:-19,1,61.2499981307984
33,115,220969,6,0,P|9:200|29:258,1,122.499996261597
172,45,221315,1,0,0:0:0:0:
172,45,221430,2,0,L|91:45,1,61.2499981307984
256,239,221661,2,0,L|337:239,1,61.2499981307984
486,164,221892,6,0,L|491:244,1,61.2499981307984
491,242,222123,1,0,0:0:0:0:
374,208,222238,6,0,L|379:288,1,61.2499981307984
379,286,222469,1,0,0:0:0:0:
257,246,222584,6,0,L|262:326,1,61.2499981307984
262,324,222815,5,0,0:0:0:0:
256,192,222930,12,0,226507,0:0:0:0:
