osu file format v14

[General]
AudioFilename: audio.mp3
AudioLeadIn: 0
PreviewTime: 49651
Countdown: 0
SampleSet: Soft
StackLeniency: 0.5
Mode: 0
LetterboxInBreaks: 0
WidescreenStoryboard: 0

[Editor]
DistanceSpacing: 0.3
BeatDivisor: 4
GridSize: 4
TimelineZoom: 1

[Metadata]
Title:JINGO JUNGLE
TitleUnicode:JINGO JUNGLE
Artist:MYTH & ROID
ArtistUnicode:MYTH & ROID
Creator:Plaudible
Version:Insane
Source:幼女戦記
Tags:youjo senki saga of tanya the evil opening 5th single tv size
BeatmapID:1385944
BeatmapSetID:653835

[Difficulty]
HPDrainRate:6
CircleSize:4
OverallDifficulty:8
ApproachRate:9
SliderMultiplier:3
SliderTickRate:1

[Events]
//Background and Video events
Video,0,"op.avi"
0,0,"tanya_degurechaff-youjo_senki-anime-(1023).jpg",0,0
//Break Periods
//Storyboard Layer 0 (Background)
//Storyboard Layer 1 (Fail)
//Storyboard Layer 2 (Pass)
//Storyboard Layer 3 (Foreground)
//Storyboard Sound Samples

[TimingPoints]
2462,461.538461538462,4,2,2,100,1,0
17115,-200,4,2,2,100,0,0
17231,-200,4,2,6,100,0,0
17346,-100,4,2,6,5,0,0
18962,-100,4,2,4,5,0,0
19077,-100,4,2,2,100,0,0
33962,-200,4,2,2,100,0,0
34077,-200,4,2,3,100,0,0
34308,-200,4,2,3,75,0,0
34538,-200,4,2,3,55,0,0
35000,-200,4,2,3,45,0,0
44808,-133.333333333333,4,2,3,45,0,0
44923,-133.333333333333,4,2,3,65,0,0
48500,-100,4,2,3,65,0,0
48615,-100,4,2,4,100,0,0
49654,-200,4,2,4,100,0,0
49769,-200,4,2,0,25,0,0
50462,-80,4,2,2,100,0,1
50692,-80,4,2,2,100,0,1
53577,-100,4,2,2,100,0,1
57731,-80,4,2,2,100,0,1
57846,-80,4,2,2,100,0,1
58308,-80,4,2,2,100,0,1
68808,-100,4,2,2,100,0,0
89577,-100,4,2,2,5,0,0

[Colours]
Combo1 : 255,205,155
Combo2 : 149,149,149
Combo3 : 192,192,192
Combo4 : 155,255,255

[HitObjects]
1,160,2462,6,0,B|38:156|38:156|66:145|66:145|98:159|98:159|130:148|130:148|153:146,1,150,6|10,0:0|0:1,0:0:0:0:
200,82,2808,1,0,0:0:0:0:
200,82,2923,2,0,P|203:34|185:6,1,75,2|0,0:0|0:0,0:0:0:0:
228,155,3154,2,0,P|268:181|304:182,1,75,10|0,0:1|0:0,0:0:0:0:
439,178,3385,6,0,B|321:167|321:167|276:192,1,150,10|2,0:0|0:1,0:0:0:0:
352,257,3731,1,8,0:0:0:0:
352,257,3846,2,0,L|428:264,1,75,2|0,0:0|0:0,0:0:0:0:
466,119,4077,1,10,0:1:0:0:
444,116,4192,1,0,0:0:0:0:
425,115,4308,6,0,B|419:94|436:77|436:77|457:102|442:134|442:134|427:162|451:211,1,150,2|10,0:0|0:1,0:0:0:0:
473,260,4654,1,0,0:0:0:0:
473,260,4769,2,0,P|433:268|379:247,1,75,2|0,0:0|0:0,0:0:0:0:
336,123,5000,2,0,L|341:199,1,75,10|0,0:1|0:0,0:0:0:0:
233,319,5231,2,0,B|206:291|206:291|320:281,1,150,10|2,0:0|0:1,0:0:0:0:
375,354,5577,1,8,0:0:0:0:
375,354,5692,2,0,L|292:360,1,75,2|0,0:0|0:0,0:0:0:0:
158,322,5923,1,10,0:1:0:0:
158,322,6038,1,0,0:0:0:0:
158,322,6154,6,0,P|115:333|71:324,1,75,2|0,0:0|0:0,0:0:0:0:
77,232,6385,2,0,P|119:220|163:229,1,75,10|0,0:1|0:0,0:0:0:0:
332,74,6615,6,0,P|343:109|339:146,1,75,2|0,0:0|0:0,0:0:0:0:
207,158,6846,2,0,P|195:122|199:85,1,75,10|0,0:1|0:0,0:0:0:0:
437,263,7077,2,0,B|409:284|409:284|270:272,1,150,10|2,0:0|0:1,0:0:0:0:
220,268,7423,1,8,0:0:0:0:
220,268,7538,2,0,L|302:275,1,75,2|2,0:0|0:1,0:0:0:0:
390,364,7769,2,0,L|307:356,1,75,8|0,0:0|0:0,0:0:0:0:
122,276,8000,6,0,P|110:233|119:189,1,75,2|0,0:0|0:0,0:0:0:0:
212,195,8231,2,0,P|223:237|214:281,1,75,10|0,0:1|0:0,0:0:0:0:
294,60,8462,6,0,P|297:97|286:132,1,75,2|0,0:0|0:0,0:0:0:0:
153,121,8693,2,0,P|149:83|160:48,1,75,10|0,0:1|0:0,0:0:0:0:
357,231,8923,2,0,B|333:257|333:257|194:269,1,150,10|2,0:0|0:1,0:0:0:0:
136,348,9269,1,8,0:0:0:0:
136,348,9385,2,0,L|225:355,1,75,2|2,0:0|0:1,0:0:0:0:
287,181,9615,2,0,L|197:188,1,75,8|0,0:0|0:0,0:0:0:0:
29,10,9846,6,0,B|46:37|46:37|92:42|92:42|107:36|107:36|118:44|118:44|180:49,1,150,6|10,0:0|0:1,0:0:0:0:
240,18,10192,1,0,0:0:0:0:
244,21,10308,2,0,P|248:70|225:104,1,75,2|0,0:0|0:0,0:0:0:0:
97,158,10538,2,0,P|137:130|178:132,1,75,10|0,0:1|0:0,0:0:0:0:
362,177,10769,2,0,B|338:200|338:200|218:189,1,150,10|2,0:0|0:1,0:0:0:0:
239,109,11115,1,8,0:0:0:0:
239,109,11231,2,0,L|322:116,1,75,2|0,0:0|0:0,0:0:0:0:
432,128,11462,1,10,0:1:0:0:
454,132,11577,1,0,0:0:0:0:
477,136,11692,6,0,B|466:107|466:107|456:171|465:194|465:194|456:230,1,150,2|10,0:0|0:1,0:0:0:0:
405,282,12038,1,0,0:0:0:0:
405,282,12154,2,0,P|361:290|322:276,1,75,2|0,0:0|0:0,0:0:0:0:
258,180,12385,2,0,P|294:168|339:178,1,75,10|0,0:1|0:0,0:0:0:0:
271,337,12615,6,0,B|160:346|160:346|196:297,1,150,10|2,0:0|2:1,0:0:0:0:
244,260,12962,1,8,0:0:0:0:
244,260,13077,2,0,L|330:252,1,75,2|2,0:0|0:1,0:0:0:0:
96,212,13308,1,8,0:0:0:0:
90,196,13423,1,0,0:0:0:0:
84,182,13538,6,0,L|164:177,1,75,2|0,0:0|0:0,0:0:0:0:
244,260,13769,2,0,L|164:255,1,75,10|0,0:1|0:0,0:0:0:0:
427,162,14000,6,0,L|422:236,1,75,2|0,0:0|0:0,0:0:0:0:
329,344,14231,2,0,L|324:269,1,75,10|0,0:1|0:0,0:0:0:0:
278,97,14462,2,0,B|309:64|309:64|318:187,1,150,10|2,0:0|0:1,0:0:0:0:
244,170,14808,1,8,0:0:0:0:
244,170,14923,2,0,P|287:177|333:155,1,75,2|0,0:0|0:0,0:0:0:0:
464,88,15154,2,0,P|420:80|374:102,1,75,10|0,0:1|0:0,0:0:0:0:
344,326,15385,6,0,L|339:246,1,75,2|0,0:0|0:0,0:0:0:0:
432,161,15616,2,0,L|427:241,1,75,10|0,0:1|0:0,0:0:0:0:
172,223,15846,6,0,L|246:227,1,75,2|0,0:0|0:0,0:0:0:0:
344,326,16077,2,0,L|269:330,1,75,10|0,0:1|0:0,0:0:0:0:
94,248,16308,2,0,B|67:211|67:211|189:224,1,150,10|2,0:0|0:1,0:0:0:0:
123,328,16654,1,8,0:0:0:0:
123,328,16769,2,0,P|74:327|36:307,1,75,2|0,0:0|0:0,0:0:0:0:
151,139,17000,2,0,P|199:139|237:159,1,75,10|0,0:1|0:0,0:0:0:0:
344,326,17231,6,0,B|355:388|433:351|454:300|384:220|305:257|305:257|249:241|231:212|224:138|307:112|312:177|312:177|324:172|336:175|336:175|348:170|360:172|360:172|372:167|384:170|384:170|400:165|412:168|412:168,1,562.5,4|0,0:0|0:0,0:0:0:0:
485,159,19077,5,6,0:0:0:0:
327,75,19308,2,0,P|281:60|234:75,1,75,2|8,0:1|0:0,0:0:0:0:
142,184,19538,2,0,B|257:173|257:173|284:147,1,150,2|10,0:0|0:1,0:0:0:0:
179,22,19885,1,0,0:0:0:0:
179,22,20000,2,8,P|167:65|184:113,1,75,2|8,0:0|0:0,0:0:0:0:
288,207,20231,2,0,B|277:91|277:91|251:64,1,150,2|10,0:1|0:0,0:0:0:0:
96,269,20692,2,0,B|137:273|137:273|171:259,1,75,10|0,0:1|0:0,0:0:0:0:
126,190,20923,5,2,0:0:0:0:
319,288,21154,2,0,P|279:293|241:277,1,75,2|8,0:1|0:0,0:0:0:0:
346,139,21385,2,0,P|370:171|375:212,1,75,2|0,0:0|0:0,0:0:0:0:
204,191,21615,2,0,P|219:153|252:128,1,75,10|0,0:1|0:0,0:0:0:0:
451,50,21846,2,0,L|301:64,1,150,2|2,0:0|0:1,0:0:0:0:
170,125,22192,1,0,0:0:0:0:
170,125,22308,2,0,L|250:132,1,75,10|0,0:0|0:0,0:0:0:0:
353,202,22538,2,0,L|272:209,1,75,10|0,0:1|0:0,0:0:0:0:
139,282,22769,6,0,B|129:270|129:270|167:247|167:247|200:276|200:276|251:281,1,150,2|2,0:0|0:1,0:0:0:0:
283,355,23115,1,8,0:0:0:0:
283,355,23231,2,0,P|244:364|201:354,1,75,2|0,0:0|0:0,0:0:0:0:
64,275,23462,2,0,L|143:282,1,75,10|0,0:1|0:0,0:0:0:0:
203,144,23692,2,0,B|236:177|236:177|245:292,1,150,2|2,0:0|0:1,0:0:0:0:
326,282,24038,1,0,0:0:0:0:
326,282,24154,2,0,L|319:198,1,75,10|0,0:0|0:0,0:0:0:0:
161,275,24385,2,0,L|167:358,1,75,10|0,0:1|0:0,0:0:0:0:
419,210,24615,6,0,B|433:197|433:197|395:174|395:174|362:203|362:203|311:208,1,150,2|2,0:0|0:1,0:0:0:0:
246,165,24962,1,8,0:0:0:0:
246,165,25078,2,0,P|237:204|247:247,1,75,2|0,0:0|0:0,0:0:0:0:
426,102,25308,2,0,B|390:93|390:93|353:110,1,75,10|0,0:1|0:0,0:0:0:0:
440,306,25538,2,0,B|430:199|430:199|389:167,1,150,2|2,0:0|0:1,0:0:0:0:
357,286,25885,1,0,0:0:0:0:
357,286,26000,2,0,B|361:342|361:342|375:359,1,75,10|0,0:0|0:0,0:0:0:0:
512,227,26231,2,0,B|507:170|507:170|493:153,1,75,10|0,0:1|0:0,0:0:0:0:
440,306,26462,5,6,0:0:0:0:
311,202,26692,2,0,L|390:195,1,75,2|8,0:1|0:0,0:0:0:0:
494,128,26923,2,0,B|440:132|440:132|394:117|394:117|339:122,1,150,2|10,0:0|0:1,0:0:0:0:
237,19,27269,1,0,0:0:0:0:
237,19,27385,2,0,L|243:98,1,75,2|8,0:0|0:0,0:0:0:0:
311,202,27616,2,0,B|306:148|306:148|321:102|321:102|316:47,1,150,2|10,0:1|0:0,0:0:0:0:
143,161,28077,2,0,B|146:202|146:202|167:233,1,75,10|0,0:1|0:0,0:0:0:0:
225,174,28308,5,2,0:0:0:0:
382,213,28538,2,0,P|349:199|300:205,1,75,2|8,0:1|0:0,0:0:0:0:
367,353,28769,2,0,P|395:331|414:285,1,75,2|0,0:0|0:0,0:0:0:0:
248,267,29000,2,0,P|252:302|282:342,1,75,10|0,0:1|0:0,0:0:0:0:
462,231,29231,2,0,B|487:202|487:202|477:76,1,150,2|2,0:0|0:1,0:0:0:0:
400,2,29577,1,0,0:0:0:0:
400,2,29692,2,0,L|394:82,1,75,10|0,0:0|0:0,0:0:0:0:
331,204,29923,2,0,L|325:123,1,75,10|0,0:1|0:0,0:0:0:0:
216,30,30154,6,0,B|252:19|252:19|247:65|247:65|253:80|253:80|245:91|245:91|240:153,1,150,2|2,0:0|0:1,0:0:0:0:
194,199,30500,1,8,0:0:0:0:
194,199,30615,2,0,P|137:202|115:191,1,75,2|0,0:0|0:0,0:0:0:0:
326,129,30846,2,0,P|383:126|405:137,1,75,10|0,0:1|0:0,0:0:0:0:
479,315,31077,2,0,B|420:309|420:309|387:284|387:284|328:279,1,150,2|2,0:0|0:1,0:0:0:0:
278,356,31423,1,0,0:0:0:0:
278,356,31538,2,0,L|355:362,1,75,10|0,0:0|0:0,0:0:0:0:
443,210,31769,2,0,L|365:203,1,75,10|0,0:1|0:0,0:0:0:0:
149,249,32000,6,0,B|138:285|138:285|184:280|184:280|199:286|199:286|210:278|210:278|272:273,1,150,2|2,0:0|0:1,0:0:0:0:
178,170,32346,1,8,0:0:0:0:
178,170,32462,2,0,P|139:167|98:182,1,75,2|0,0:0|0:0,0:0:0:0:
246,275,32692,2,0,P|285:278|326:263,1,75,10|0,0:1|0:0,0:0:0:0:
401,139,32923,5,2,0:0:0:0:
398,176,33038,1,10,0:0:0:0:
417,225,33154,5,2,0:0:0:0:
414,262,33269,1,2,0:0:0:0:
385,305,33385,6,0,L|290:311,1,75,10|2,0:0|0:0,0:0:0:0:
78,325,33615,2,0,L|173:319,1,75,10|2,0:0|0:0,0:0:0:0:
230,352,33846,5,6,0:0:0:0:
230,352,34077,2,0,P|236:310|223:273,2,75
92,361,35000,2,0,P|131:345|156:315,2,75,0|0|0,0:0|0:0|0:0,0:0:0:0:
15,249,35923,2,0,P|48:275|86:282,2,75,0|0|0,0:0|0:0|0:0,0:0:0:0:
80,118,36615,5,0,0:0:0:0:
86,197,36846,1,0,0:0:0:0:
157,248,37077,5,0,0:0:0:0:
170,130,37308,1,0,0:0:0:0:
170,130,37769,2,0,P|176:88|163:51,2,75,0|0|0,0:0|0:0|0:0,0:0:0:0:
185,212,38692,2,0,P|224:196|249:166,2,75,0|0|0,0:0|0:0|0:0,0:0:0:0:
404,150,39615,6,0,P|398:108|411:71,2,75,0|0|0,0:0|0:0|0:0,0:0:0:0:
389,232,40538,2,0,P|349:216|324:186,2,75,0|0|0,0:0|0:0|0:0,0:0:0:0:
465,207,41231,5,6,0:0:0:0:
484,347,41462,1,0,0:0:0:0:
485,328,41577,1,0,0:0:0:0:
485,309,41692,2,0,P|433:298|395:314,1,75,0|0,0:0|0:0,0:0:0:0:
344,345,42038,1,0,0:0:0:0:
344,345,42154,2,0,L|275:340,1,37.5,0|0,0:0|0:0,0:0:0:0:
248,288,42385,2,0,L|179:293,1,37.5,0|0,0:0|0:0,0:0:0:0:
153,345,42615,1,0,0:0:0:0:
83,276,42846,1,0,0:0:0:0:
81,294,42961,1,0,0:0:0:0:
78,312,43077,5,6,0:0:0:0:
140,223,43308,1,0,0:0:0:0:
138,205,43423,1,0,0:0:0:0:
135,186,43538,2,0,L|140:140,1,37.5,0|0,0:0|0:0,0:0:0:0:
198,106,43769,2,0,L|193:60,1,37.5,0|0,0:0|0:0,0:0:0:0:
254,156,44000,1,0,0:0:0:0:
272,158,44115,1,0,0:0:0:0:
291,160,44230,2,0,L|337:155,1,37.5,0|0,0:0|0:0,0:0:0:0:
410,225,44462,2,0,L|364:220,1,37.5,0|0,0:0|0:0,0:0:0:0:
290,286,44692,2,0,L|336:281,1,37.5,0|0,0:0|0:0,0:0:0:0:
384,338,44923,5,6,0:0:0:0:
251,364,45154,1,0,0:0:0:0:
224,360,45269,1,0,0:0:0:0:
200,357,45385,2,0,P|185:303|223:242,1,112.500004291535,0|0,0:0|0:0,0:0:0:0:
261,195,45731,1,0,0:0:0:0:
261,195,45846,2,0,P|275:160|271:121,1,56.2500021457673,0|0,0:0|0:0,0:0:0:0:
241,74,46077,1,0,0:0:0:0:
355,17,46308,2,0,L|471:11,1,112.500004291535,0|0,0:0|0:0,0:0:0:0:
467,11,46654,1,0,0:0:0:0:
467,11,46769,5,0,0:0:0:0:
357,130,47000,2,0,P|325:134|296:125,1,56.2500021457673,0|0,0:0|0:0,0:0:0:0:
241,74,47231,5,0,0:0:0:0:
212,73,47346,1,0,0:0:0:0:
143,115,47462,5,0,0:0:0:0:
114,116,47577,1,0,0:0:0:0:
56,59,47692,6,0,L|-13:54,1,56.2500021457673,8|8,0:0|0:0,0:0:0:0:
180,198,47923,2,0,L|239:194,1,56.2500021457673,8|8,0:0|0:0,0:0:0:0:
71,44,48154,6,0,L|11:38,1,56.2500021457673,8|8,0:0|0:0,0:0:0:0:
198,217,48385,2,0,L|257:213,1,56.2500021457673,8|8,0:0|0:0,0:0:0:0:
411,105,48615,6,0,B|436:138|431:190|390:211|390:211|365:205,1,150,6|0,0:0|0:0,0:0:0:0:
255,214,48962,6,0,B|271:176|319:155|358:180|358:180|365:205,1,150,6|0,0:0|0:0,0:0:0:0:
427,296,49308,6,0,B|383:311|345:265,1,75,6|0,0:0|0:0,0:0:0:0:
365,205,49538,5,2,0:0:0:0:
507,268,49769,6,0,L|500:343,2,75,0|0|0,0:0|0:0|0:0,0:0:0:0:
365,205,50462,6,0,B|324:181|277:212|277:212|227:236|172:209,1,187.5,6|2,0:0|0:1,0:0:0:0:
173,74,50808,1,0,0:0:0:0:
173,74,50923,2,0,P|212:97|228:150,1,93.75,10|0,0:0|0:0,0:0:0:0:
104,233,51154,2,0,P|105:187|142:146,1,93.75,2|0,0:1|0:0,0:0:0:0:
199,325,51385,2,0,B|67:313|67:313|11:260,1,187.5,2|2,0:0|0:1,0:0:0:0:
108,237,51731,1,0,0:0:0:0:
108,237,51846,2,0,L|201:245,1,93.75,10|0,0:0|0:0,0:0:0:0:
358,260,52077,1,2,0:1:0:0:
330,256,52192,1,0,0:0:0:0:
301,253,52308,6,0,P|291:204|306:161,1,93.75,2|0,0:0|0:0,0:0:0:0:
445,174,52538,2,0,P|455:223|440:266,1,93.75,2|0,0:1|0:0,0:0:0:0:
253,104,52769,6,0,B|243:53|243:53|268:-1,1,93.75,10|0,0:0|0:0,0:0:0:0:
508,30,53000,2,0,B|518:81|518:81|494:135,1,93.75,2|0,0:1|0:0,0:0:0:0:
373,213,53231,2,0,L|158:232,1,187.5,2|2,0:0|0:1,0:0:0:0:
169,145,53577,1,0,0:0:0:0:
169,145,53692,2,0,P|118:172|109:189,1,75,10|0,0:0|0:0,0:0:0:0:
182,315,53923,2,0,P|146:308|118:285,1,75,2|0,0:1|0:0,0:0:0:0:
242,78,54154,6,0,B|268:117|268:117|258:231,1,150,2|2,0:0|0:1,0:0:0:0:
332,305,54500,1,0,0:0:0:0:
332,305,54615,2,0,L|339:224,1,75,10|0,0:0|0:0,0:0:0:0:
442,165,54846,2,0,L|435:90,1,75,2|0,0:1|0:0,0:0:0:0:
482,234,55077,6,0,B|444:254|407:234|407:234|366:209|302:247,1,150,2|2,0:0|0:1,0:0:0:0:
256,321,55423,1,0,0:0:0:0:
256,321,55538,2,0,L|153:311,1,75,10|0,0:0|0:0,0:0:0:0:
65,220,55769,2,0,L|167:210,1,75,2|0,0:1|0:0,0:0:0:0:
340,175,56000,5,2,0:0:0:0:
362,178,56115,1,0,0:0:0:0:
384,182,56231,2,0,P|390:238|375:264,1,75,2|0,0:1|0:0,0:0:0:0:
256,321,56462,1,10,0:0:0:0:
247,301,56577,1,0,0:0:0:0:
240,279,56693,2,0,P|285:245|315:245,1,75,2|0,0:1|0:0,0:0:0:0:
398,359,56923,2,0,P|346:336|331:310,1,75,2|0,0:0|0:3,0:0:0:0:
403,175,57154,6,0,B|415:215|415:215|394:257,1,75,2|0,0:1|0:0,0:0:0:0:
220,273,57385,2,0,B|249:246|249:246|295:239,1,75,10|0,0:0|0:0,0:0:0:0:
399,378,57615,2,0,B|354:367|354:367|332:329,1,75,2|0,0:1|0:3,0:0:0:0:
223,164,57846,6,0,B|264:140|314:168|314:168|361:195|416:168,1,187.5,6|2,0:0|0:1,0:0:0:0:
449,92,58192,1,0,0:0:0:0:
449,92,58308,2,0,P|394:82|348:105,1,93.75,10|0,0:0|0:0,0:0:0:0:
258,239,58538,2,0,P|203:249|157:226,1,93.75,2|0,0:1|0:0,0:0:0:0:
55,96,58769,2,0,B|90:126|90:126|75:286,1,187.5,2|2,0:0|0:1,0:0:0:0:
28,334,59115,1,0,0:0:0:0:
28,334,59231,2,0,P|82:349|121:336,1,93.75,10|0,0:0|0:0,0:0:0:0:
196,229,59462,1,2,0:1:0:0:
200,201,59577,1,0,0:0:0:0:
203,172,59693,6,0,B|252:161|252:161|294:183,1,93.75,2|0,0:0|0:0,0:0:0:0:
282,316,59923,2,0,B|236:326|236:326|192:305,1,93.75,2|0,0:1|0:0,0:0:0:0:
358,137,60154,6,0,B|385:127|385:127|431:129|431:129|453:144,1,93.75,10|0,0:0|0:0,0:0:0:0:
441,363,60385,2,0,B|414:373|414:373|368:371|368:371|346:356,1,93.75,2|0,0:1|0:0,0:0:0:0:
242,244,60615,2,0,L|227:50,1,187.5,2|2,0:0|0:1,0:0:0:0:
143,17,60962,1,0,0:0:0:0:
143,17,61077,2,0,B|126:61|126:61|147:102,1,93.75,10|0,0:0|0:0,0:0:0:0:
302,9,61308,2,0,B|323:50|323:50|306:94,1,93.75,2|0,0:1|0:0,0:0:0:0:
242,244,61538,6,0,L|138:253,1,93.75,2|0,0:0|0:0,0:0:0:0:
290,353,61769,2,0,L|383:361,1,93.75,2|0,0:1|0:0,0:0:0:0:
364,159,62000,2,0,L|260:168,1,93.75,10|0,0:0|0:0,0:0:0:0:
416,286,62231,2,0,L|509:294,1,93.75,2|0,0:1|0:0,0:0:0:0:
430,102,62462,2,0,B|390:77|390:77|237:90,1,187.5,2|2,0:0|0:1,0:0:0:0:
238,7,62808,1,0,0:0:0:0:
238,7,62923,2,0,P|190:28|169:88,1,93.75,10|0,0:0|0:0,0:0:0:0:
264,171,63154,2,0,P|217:169|182:140,1,93.75,2|0,0:1|0:0,0:0:0:0:
430,102,63385,6,0,L|335:92,1,93.75,2|0,0:0|0:0,0:0:0:0:
231,259,63615,2,0,L|325:249,1,93.75,2|0,0:1|0:0,0:0:0:0:
468,189,63846,2,0,L|373:179,1,93.75,10|0,0:0|0:0,0:0:0:0:
186,349,64076,2,0,L|280:339,1,93.75,2|0,0:1|0:0,0:0:0:0:
182,189,64308,2,0,B|148:215|148:215|135:360,1,187.5,2|2,0:0|0:1,0:0:0:0:
48,377,64654,1,0,0:0:0:0:
48,377,64769,2,0,P|52:321|57:272,1,93.75,10|0,0:0|0:0,0:0:0:0:
231,259,65000,2,0,L|221:363,1,93.75,2|0,0:1|0:0,0:0:0:0:
130,116,65231,6,0,B|187:112|187:112|215:101|215:101|247:115|247:115|279:104|279:104|343:99,1,187.5,6|10,0:0|0:1,0:0:0:0:
394,102,65577,1,0,0:0:0:0:
394,102,65692,2,0,P|420:48|415:6,1,93.75,2|0,0:0|0:0,0:0:0:0:
215,185,65923,2,0,P|242:245|280:266,1,93.75,10|0,0:1|0:0,0:0:0:0:
478,227,66154,2,0,B|452:196|452:196|301:182,1,187.5,10|2,0:0|2:1,0:0:0:0:
318,267,66500,1,8,0:0:0:0:
318,267,66615,2,0,L|414:275,1,93.75,2|0,0:0|0:0,0:0:0:0:
491,119,66846,1,10,0:1:0:0:
491,98,66962,1,0,0:0:0:0:
491,79,67077,6,0,B|532:94|532:94|497:118|462:101|462:101|417:88|377:108,1,187.5,2|10,0:0|0:1,0:0:0:0:
228,270,67423,1,0,0:0:0:0:
228,270,67538,2,0,P|287:279|327:260,1,93.75,2|0,0:0|0:0,0:0:0:0:
393,101,67769,2,0,P|334:92|294:111,1,93.75,10|0,0:1|0:0,0:0:0:0:
99,139,68000,2,0,B|120:172|120:172|281:186,1,187.5,10|2,0:0|0:1,0:0:0:0:
443,208,68346,1,8,0:0:0:0:
443,208,68462,2,0,L|339:217,1,93.75,2|0,0:0|0:0,0:0:0:0:
133,261,68692,2,0,L|236:270,1,93.75,10|0,0:1|0:0,0:0:0:0:
319,318,68923,6,0,B|322:277|322:277|327:271|327:271|323:264|323:264|329:199|329:199|371:235,1,150,2|10,0:0|0:1,0:0:0:0:
392,318,69269,1,0,0:0:0:0:
392,318,69385,2,0,P|352:327|304:307,1,75,2|0,0:0|0:0,0:0:0:0:
240,241,69615,2,0,P|205:230|166:238,1,75,10|0,0:1|0:0,0:0:0:0:
42,141,69846,2,0,B|13:174|13:174|140:163,1,150,10|2,0:0|0:1,0:0:0:0:
199,79,70192,1,8,0:0:0:0:
199,79,70308,2,0,L|119:85,1,75,2|0,0:0|0:0,0:0:0:0:
22,54,70538,1,10,0:1:0:0:
22,54,70654,1,0,0:0:0:0:
22,54,70769,6,0,B|33:25|33:25|53:69|34:112|34:112|43:147,1,150,2|10,0:0|0:1,0:0:0:0:
7,210,71115,1,0,0:0:0:0:
7,210,71231,2,0,P|51:218|87:203,1,75,2|0,0:0|0:0,0:0:0:0:
193,138,71462,2,0,P|149:130|112:144,1,75,10|0,0:1|0:0,0:0:0:0:
44,295,71692,1,10,0:0:0:0:
43,317,71808,1,0,0:0:0:0:
42,339,71923,6,0,B|71:363|71:363|119:367,1,75,2|8,0:1|0:0,0:0:0:0:
179,210,72154,2,0,B|142:223|142:223|115:262,1,75,2|0,0:0|0:0,0:0:0:0:
215,383,72385,2,0,B|221:344|221:344|201:301,1,75,10|0,0:1|0:0,0:0:0:0:
159,114,72615,2,0,B|130:142|130:142|121:252,1,150,6|10,0:0|0:1,0:0:0:0:
38,281,72962,1,0,0:0:0:0:
38,281,73077,2,0,L|45:197,1,75,2|0,0:0|0:0,0:0:0:0:
212,183,73308,2,0,L|204:266,1,75,10|0,0:1|0:0,0:0:0:0:
113,348,73538,6,0,B|151:368|188:348|188:348|229:323|293:361,1,150,10|2,0:0|0:1,0:0:0:0:
331,305,73885,1,8,0:0:0:0:
331,305,74000,2,0,P|339:351|328:388,1,75,2|0,0:0|0:0,0:0:0:0:
184,250,74231,1,10,0:1:0:0:
186,227,74346,1,0,0:0:0:0:
188,204,74462,6,0,B|207:196|207:196|251:197|251:197|271:209,1,75,2|0,0:0|0:0,0:0:0:0:
257,344,74692,2,0,B|239:350|239:350|196:349|196:349|171:337,1,75,10|0,0:1|0:0,0:0:0:0:
44,170,74923,6,0,B|84:163|84:163|126:183,1,75,2|0,0:0|0:0,0:0:0:0:
103,351,75153,2,0,B|66:359|66:359|21:345,1,75,10|0,0:1|0:0,0:0:0:0:
74,259,75385,2,0,L|225:273,1,150,10|2,0:0|0:1,0:0:0:0:
300,217,75731,1,8,0:0:0:0:
300,217,75846,2,0,L|389:210,1,75,2|0,0:0|0:0,0:0:0:0:
259,359,76077,2,0,L|184:353,1,75,10|0,0:1|0:0,0:0:0:0:
188,141,76308,6,0,B|214:158|214:158|218:204|218:204|212:219|212:219|220:230|220:230|224:292,1,150,2|10,0:0|0:1,0:0:0:0:
184,353,76654,1,0,0:0:0:0:
184,353,76769,2,0,P|140:321|132:291,1,75,2|0,0:0|0:0,0:0:0:0:
308,167,77000,2,0,P|276:211|246:218,1,75,10|0,0:1|0:0,0:0:0:0:
111,98,77231,2,0,B|147:66|147:66|264:56,1,150,10|2,0:0|0:1,0:0:0:0:
323,50,77577,1,8,0:0:0:0:
323,50,77692,2,0,L|243:57,1,75,2|0,0:0|0:0,0:0:0:0:
149,169,77923,2,0,P|96:178|70:170,1,75,10|0,0:1|0:0,0:0:0:0:
299,227,78154,6,0,B|322:246|322:246|276:250|276:250|261:244|261:244|250:252|250:252|188:256,1,150,2|10,0:0|0:1,0:0:0:0:
143,305,78500,1,0,0:0:0:0:
143,305,78615,2,0,P|140:352|150:378,1,75,2|0,0:0|0:0,0:0:0:0:
305,299,78846,2,0,P|308:252|298:226,1,75,10|0,0:1|0:0,0:0:0:0:
149,169,79077,1,10,0:0:0:0:
106,247,79308,6,0,B|143:259|143:259|196:246,1,75,2|8,0:1|0:0,0:0:0:0:
101,97,79538,2,0,B|71:122|71:122|55:175,1,75,2|0,0:0|0:0,0:0:0:0:
238,169,79769,2,0,B|230:130|230:130|192:90,1,75,10|0,0:1|0:3,0:0:0:0:
20,229,80000,6,0,B|25:289|25:289|51:313|51:313|56:368,1,150,6|10,0:0|0:1,0:0:0:0:
139,373,80346,1,0,0:0:0:0:
139,373,80462,2,0,L|131:288,1,75,2|0,0:0|0:0,0:0:0:0:
20,229,80692,2,0,L|27:144,1,75,10|0,0:1|0:0,0:0:0:0:
266,188,80923,2,0,B|234:206|234:206|154:199|154:199|126:176,1,150,10|2,0:0|0:1,0:0:0:0:
174,95,81269,1,8,0:0:0:0:
174,95,81385,2,0,B|209:75|209:75|252:114,1,75,2|0,0:0|0:0,0:0:0:0:
341,287,81615,1,10,0:1:0:0:
341,287,81731,1,0,0:0:0:0:
341,287,81846,6,0,B|333:246|333:246|351:194,1,75,2|0,0:0|0:0,0:0:0:0:
477,222,82077,2,0,B|485:263|485:263|467:315,1,75,10|0,0:1|0:0,0:0:0:0:
330,139,82308,6,0,P|324:98|349:47,1,75,2|0,0:0|0:0,0:0:0:0:
512,76,82538,2,0,P|517:116|492:167,1,75,10|0,0:1|0:0,0:0:0:0:
409,255,82769,2,0,L|422:103,1,150,10|2,0:0|0:1,0:0:0:0:
429,30,83115,1,8,0:0:0:0:
429,30,83231,2,0,L|422:104,1,75,2|0,0:0|0:0,0:0:0:0:
326,222,83462,2,0,P|279:228|246:214,1,75,10|0,0:1|0:0,0:0:0:0:
135,115,83692,6,0,B|117:109|108:99|108:99|157:84|194:113|194:113|231:110,1,150,2|10,0:0|0:1,0:0:0:0:
296,77,84038,1,0,0:0:0:0:
296,77,84154,2,0,P|305:126|292:154,1,75,2|0,0:0|0:0,0:0:0:0:
113,233,84385,2,0,P|150:200|181:197,1,75,10|0,0:1|0:0,0:0:0:0:
324,311,84615,2,0,B|210:301|210:301|174:269,1,150,10|2,0:0|0:1,0:0:0:0:
253,218,84962,1,8,0:0:0:0:
253,218,85077,2,0,L|329:223,1,75,2|0,0:0|0:0,0:0:0:0:
483,299,85308,2,0,L|406:304,1,75,10|0,0:1|0:0,0:0:0:0:
315,137,85538,6,0,B|336:118|336:118|359:156|359:156|330:189|330:189|326:234,1,150,2|10,0:0|0:1,0:0:0:0:
290,295,85885,1,0,0:0:0:0:
290,295,86000,2,0,P|236:300|209:290,1,75,2|0,0:0|0:0,0:0:0:0:
411,225,86231,2,0,P|442:269|447:297,1,75,10|0,0:1|0:0,0:0:0:0:
221,128,86462,2,0,B|261:111|261:111|251:230,1,150,10|2,0:0|0:1,0:0:0:0:
221,298,86808,1,8,0:0:0:0:
221,298,86923,2,0,L|127:307,1,75,2|0,0:0|0:0,0:0:0:0:
325,364,87154,2,0,L|418:373,1,75,10|0,0:1|0:0,0:0:0:0:
256,192,87385,12,0,89577,0:0:0:0:
