osu file format v14

[General]
AudioFilename: audio.mp3
AudioLeadIn: 0
PreviewTime: 49651
Countdown: 0
SampleSet: Soft
StackLeniency: 0.5
Mode: 0
LetterboxInBreaks: 0
WidescreenStoryboard: 0

[Editor]
DistanceSpacing: 1.1
BeatDivisor: 4
GridSize: 4
TimelineZoom: 1

[Metadata]
Title:JINGO JUNGLE
TitleUnicode:JINGO JUNGLE
Artist:MYTH & ROID
ArtistUnicode:MYTH & ROID
Creator:Plaudible
Version:Normal
Source:幼女戦記
Tags:youjo senki saga of tanya the evil opening 5th single tv size
BeatmapID:1385945
BeatmapSetID:653835

[Difficulty]
HPDrainRate:3
CircleSize:3
OverallDifficulty:4
ApproachRate:5
SliderMultiplier:1.5
SliderTickRate:1

[Events]
//Background and Video events
Video,0,"op.avi"
0,0,"tanya_degurechaff-youjo_senki-anime-(1023).jpg",0,0
//Break Periods
2,34046,40031
//Storyboard Layer 0 (Background)
//Storyboard Layer 1 (Fail)
//Storyboard Layer 2 (Pass)
//Storyboard Layer 3 (Foreground)
//Storyboard Sound Samples

[TimingPoints]
2462,461.538461538462,4,2,2,100,1,0
17231,-100,4,2,6,100,0,0
17346,-100,4,2,4,5,0,0
18846,-100,4,2,6,25,0,0
19077,-100,4,2,2,100,0,0
34077,-100,4,2,3,45,0,0
44923,-100,4,2,3,65,0,0
48615,-100,4,2,4,100,0,0
49769,-100,4,2,0,25,0,0
50462,-100,4,2,2,100,0,1
50692,-100,4,2,2,100,0,1
53692,-100,4,2,2,100,0,1
57846,-100,4,2,2,100,0,1
58308,-100,4,2,2,100,0,1
68923,-100,4,2,2,100,0,0
89577,-100,4,2,2,5,0,0

[Colours]
Combo1 : 255,205,155
Combo2 : 149,149,149
Combo3 : 192,192,192
Combo4 : 155,255,255

[HitObjects]
139,132,2462,6,0,L|232:140,1,75,6|10,0:0|0:1,0:0:0:0:
270,198,2923,2,0,P|308:208|356:197,1,75,2|10,0:0|0:1,0:0:0:0:
401,143,3385,2,0,L|413:13,2,112.5,10|8|10,0:0|0:0|0:1,0:0:0:0:
342,202,4308,1,2,0:0:0:0:
381,361,4769,2,0,P|326:366|298:357,1,75,2|10,0:0|0:1,0:0:0:0:
239,313,5231,2,0,B|158:320|158:320|123:348,2,112.5,10|8|10,0:0|0:0|0:1,0:0:0:0:
313,276,6154,6,0,P|321:233|306:189,1,75,2|10,0:0|0:1,0:0:0:0:
266,135,6615,2,0,P|258:98|266:62,2,75,2|10|10,0:0|0:1|0:0,0:0:0:0:
424,88,7538,1,2,0:0:0:0:
512,226,8000,2,0,L|506:306,1,75,2|10,0:0|0:1,0:0:0:0:
449,361,8462,2,0,P|405:366|371:354,2,75,2|10|10,0:0|0:1|0:0,0:0:0:0:
344,232,9385,2,0,P|302:227|268:240,1,75,2|8,0:0|0:0,0:0:0:0:
199,277,9846,6,0,B|173:287|173:287|114:282,1,75,6|10,0:0|0:1,0:0:0:0:
66,224,10308,2,0,P|64:183|76:151,1,75,2|10,0:0|0:1,0:0:0:0:
138,94,10769,2,0,L|23:87,2,112.5,10|8|10,0:0|0:0|0:1,0:0:0:0:
220,88,11692,1,2,0:0:0:0:
271,244,12154,2,0,P|325:252|360:242,1,75,2|10,0:0|0:1,0:0:0:0:
399,186,12615,2,0,B|406:63,2,112.5,10|8|8,0:0|0:0|0:0,0:0:0:0:
454,247,13538,6,0,P|459:291|429:341,1,75,2|10,0:0|0:1,0:0:0:0:
382,369,14000,2,0,L|297:363,2,75,2|10|10,0:0|0:1|0:0,0:0:0:0:
332,211,14923,1,2,0:0:0:0:
167,227,15385,2,0,L|89:223,1,75,2|10,0:0|0:1,0:0:0:0:
26,272,15846,2,0,P|16:308|22:344,2,75,2|10|10,0:0|0:1|0:0,0:0:0:0:
31,106,16769,1,2,0:0:0:0:
189,166,17231,6,0,B|233:187|277:172|277:172|352:128|345:58|273:22|217:64|213:128|277:172|277:172|315:190|315:190|318:200|313:212|313:212|316:223|311:232|311:232|315:242|309:251|309:251|314:262|308:272|308:272|310:283|306:291,1,525,4|0,0:0|0:0,0:0:0:0:
262,354,19077,5,6,0:0:0:0:
262,354,19308,2,0,P|303:367|354:352,2,75,2|2|10,0:1|0:0|0:1,0:0:0:0:
224,280,20000,1,2,0:0:0:0:
224,280,20231,2,0,L|72:275,1,150,2|10,0:1|0:1,0:0:0:0:
35,202,20923,1,2,0:0:0:0:
188,164,21385,2,0,P|196:121|183:79,1,75,2|10,0:0|0:1,0:0:0:0:
127,30,21846,6,0,L|4:21,2,112.5,2|0|10,0:0|0:0|0:1,0:0:0:0:
189,91,22769,1,2,0:0:0:0:
189,91,23000,2,0,P|211:47|208:0,2,75,2|2|10,0:1|0:0|0:1,0:0:0:0:
157,168,23692,2,0,L|148:291,2,112.5,2|0|10,0:0|0:0|0:1,0:0:0:0:
106,103,24615,1,2,0:0:0:0:
106,103,24846,2,0,P|63:89|20:104,2,75,2|2|10,0:1|0:0|0:1,0:0:0:0:
157,168,25538,2,0,L|280:159,2,112.5,2|0|10,0:0|0:0|0:1,0:0:0:0:
102,230,26462,5,6,0:0:0:0:
102,230,26692,2,0,P|47:236|24:227,2,75,2|2|10,0:1|0:0|0:1,0:0:0:0:
157,168,27385,1,2,0:0:0:0:
157,168,27615,2,0,B|234:138|234:138|309:162,1,150,2|10,0:1|0:1,0:0:0:0:
377,181,28308,1,2,0:0:0:0:
479,310,28769,2,0,L|398:305,1,75,2|10,0:0|0:1,0:0:0:0:
334,260,29231,2,0,B|343:343|343:343|325:386,2,112.5,2|0|10,0:0|0:0|0:1,0:0:0:0:
264,214,30154,5,2,0:0:0:0:
264,214,30385,2,0,P|217:220|181:205,2,75,2|2|10,0:1|0:0|0:1,0:0:0:0:
320,154,31077,2,0,L|451:158,2,112.5,2|0|10,0:0|0:0|0:1,0:0:0:0:
270,87,32000,1,2,0:0:0:0:
270,87,32231,2,0,P|266:37|278:10,2,75,2|2|10,0:1|0:0|0:1,0:0:0:0:
223,155,32923,2,0,P|248:182|283:195,1,75,2|2,0:0|0:0,0:0:0:0:
338,257,33385,2,0,P|374:248|403:225,1,75,10|10,0:0|0:0,0:0:0:0:
478,190,33846,5,6,0:0:0:0:
157,172,41231,5,6,0:0:0:0:
157,172,41462,2,0,L|80:166,2,75,0|0|0,0:0|0:0|0:0,0:0:0:0:
252,303,42385,2,0,P|248:343|231:377,2,75
319,255,43077,1,6,0:0:0:0:
471,318,43538,2,0,P|480:276|469:239,1,75,0|0,0:0|0:0,0:0:0:0:
504,168,44000,2,0,P|472:139|434:130,1,75,0|0,0:0|0:0,0:0:0:0:
376,79,44462,2,0,P|335:92|308:120,1,75,0|0,0:0|0:0,0:0:0:0:
232,134,44923,5,6,0:0:0:0:
197,209,45154,2,0,L|112:218,2,75,0|0|0,0:0|0:0|0:0,0:0:0:0:
269,248,45846,2,0,P|280:300|260:343,1,75,0|0,0:0|0:0,0:0:0:0:
197,290,46308,1,0,0:0:0:0:
49,216,46769,2,0,P|42:170|52:137,1,75,0|0,0:0|0:0,0:0:0:0:
107,84,47231,2,0,P|153:77|186:87,1,75,0|0,0:0|0:0,0:0:0:0:
230,149,47692,5,8,0:0:0:0:
312,154,47923,1,8,0:0:0:0:
351,226,48154,1,8,0:0:0:0:
303,293,48385,1,8,0:0:0:0:
220,290,48615,6,0,B|228:343|228:343|295:391,2,112.5,6|6|6,0:0|0:0|0:0,0:0:0:0:
173,221,49538,1,2,0:0:0:0:
210,147,49769,2,0,P|161:138|118:153,2,75
258,214,50462,6,0,L|417:207,1,150,6|10,0:0|0:0,0:0:0:0:
451,137,51154,1,2,0:1:0:0:
422,59,51385,2,0,P|459:54|494:67,2,75,2|2|10,0:0|0:1|0:0,0:0:0:0:
343,83,52077,1,2,0:1:0:0:
263,105,52308,2,0,P|215:112|171:93,1,75,2|2,0:0|0:1,0:0:0:0:
115,139,52769,2,0,P|108:91|126:47,2,75,10|2|2,0:0|0:1|0:0,0:0:0:0:
241,244,53692,2,0,L|327:251,1,75,10|2,0:0|0:1,0:0:0:0:
384,297,54154,6,0,B|410:258|391:219|391:219|369:175|401:126,1,150,2|10,0:0|0:0,0:0:0:0:
439,89,54846,1,2,0:1:0:0:
375,36,55077,2,0,B|338:17|338:17|221:22,1,150,2|10,0:0|0:0,0:0:0:0:
172,80,55769,1,2,0:1:0:0:
202,156,56000,2,0,P|146:157|110:138,2,75,2|2|10,0:0|0:1|0:0,0:0:0:0:
359,204,56923,1,2,0:0:0:0:
339,288,57154,2,0,L|436:293,2,75,2|10|2,0:1|0:0|0:1,0:0:0:0:
262,255,57846,6,0,B|244:216|244:216|257:99,1,150,6|10,0:0|0:0,0:0:0:0:
326,67,58538,1,2,0:1:0:0:
385,124,58769,2,0,P|425:132|471:120,2,75,2|2|10,0:0|0:1|0:0,0:0:0:0:
326,67,59462,1,2,0:1:0:0:
263,13,59692,2,0,L|173:15,1,75,2|2,0:0|0:1,0:0:0:0:
132,76,60154,2,0,P|84:83|40:65,2,75,10|2|2,0:0|0:1|0:0,0:0:0:0:
108,240,61077,2,0,L|191:236,1,75,10|2,0:0|0:1,0:0:0:0:
234,303,61538,6,0,P|281:309|316:298,2,75,2|2|10,0:0|0:1|0:0,0:0:0:0:
268,227,62231,1,2,0:1:0:0:
302,152,62462,2,0,L|307:61,1,75,2|2,0:0|0:1,0:0:0:0:
231,41,62923,2,0,P|182:34|153:41,1,75,10|2,0:0|0:1,0:0:0:0:
94,93,63385,2,0,P|75:43|84:7,2,75,2|2|10,0:0|0:1|0:0,0:0:0:0:
129,167,64077,1,2,0:1:0:0:
84,236,64308,2,0,B|110:254|110:254|237:246,1,150,2|10,0:0|0:0,0:0:0:0:
387,204,65231,6,0,P|396:260|381:291,2,75,6|10|2,0:0|0:1|0:0,0:0:0:0:
357,127,65923,1,10,0:1:0:0:
326,50,66154,2,0,L|238:46,1,75,10|2,0:0|2:1,0:0:0:0:
186,97,66615,1,2,0:0:0:0:
103,92,66846,1,10,0:1:0:0:
27,58,67077,6,0,P|21:108|38:147,1,75,2|10,0:0|0:1,0:0:0:0:
80,194,67538,2,0,P|88:230|81:266,1,75,2|10,0:0|0:1,0:0:0:0:
30,332,68000,1,10,0:0:0:0:
111,344,68231,1,2,0:1:0:0:
179,297,68462,1,2,0:0:0:0:
260,309,68693,1,10,0:1:0:0:
322,254,68923,6,0,P|332:206|313:168,1,75,2|10,0:0|0:1,0:0:0:0:
266,122,69385,2,0,P|218:112|180:131,1,75,2|10,0:0|0:1,0:0:0:0:
135,178,69846,2,0,L|16:171,2,112.5,10|8|10,0:0|0:0|0:1,0:0:0:0:
162,256,70769,1,2,0:0:0:0:
320,300,71231,2,0,B|328:261|328:261|315:217,1,75,2|10,0:0|0:1,0:0:0:0:
292,148,71692,1,10,0:0:0:0:
292,148,71923,2,0,B|282:114|282:114|290:75,2,75,2|2|10,0:1|0:0|0:1,0:0:0:0:
318,227,72615,6,0,L|162:221,1,150,6|2,0:0|0:0,0:0:0:0:
111,161,73308,1,10,0:1:0:0:
153,90,73538,2,0,P|164:45|155:11,2,75,10|2|2,0:0|0:1|0:0,0:0:0:0:
111,161,74231,1,10,0:1:0:0:
167,221,74462,2,0,L|247:213,1,75,2|10,0:0|0:1,0:0:0:0:
309,167,74923,2,0,L|389:174,1,75,2|10,0:0|0:1,0:0:0:0:
444,230,75385,1,10,0:0:0:0:
341,358,75846,2,0,P|299:360|245:334,1,75,2|10,0:0|0:1,0:0:0:0:
215,286,76308,5,2,0:0:0:0:
168,218,76538,2,0,L|85:214,2,75,10|2|10,0:1|0:0|0:1,0:0:0:0:
218,152,77231,2,0,B|210:66|210:66|185:33,2,112.5,10|8|10,0:0|0:0|0:1,0:0:0:0:
294,182,78154,1,2,0:0:0:0:
373,204,78385,2,0,P|376:167|363:132,2,75,10|2|10,0:1|0:0|0:1,0:0:0:0:
311,259,79077,1,10,0:0:0:0:
336,337,79308,2,0,B|351:350|351:350|424:356,2,75,2|2|10,0:1|0:0|0:1,0:0:0:0:
311,259,80000,6,0,P|263:228|174:237,1,150,6|2,0:0|0:0,0:0:0:0:
102,279,80692,1,10,0:1:0:0:
27,314,80923,2,0,P|19:267|31:234,2,75,10|2|2,0:0|0:1|0:0,0:0:0:0:
94,362,81615,1,10,0:1:0:0:
169,328,81846,2,0,L|276:321,1,75,2|10,0:0|0:1,0:0:0:0:
313,278,82308,2,0,L|420:285,1,75,2|10,0:0|0:1,0:0:0:0:
465,254,82769,1,10,0:0:0:0:
319,175,83231,2,0,P|310:139|323:94,1,75,2|10,0:0|0:1,0:0:0:0:
368,37,83692,5,2,0:0:0:0:
443,70,83923,2,0,L|521:66,2,75,10|2|10,0:1|0:0|0:1,0:0:0:0:
368,37,84615,2,0,B|281:32|281:32|256:42,2,112.5,10|8|10,0:0|0:0|0:1,0:0:0:0:
443,70,85538,1,2,0:0:0:0:
447,152,85769,2,0,P|485:143|519:108,2,75,10|2|10,0:1|0:0|0:1,0:0:0:0:
377,196,86462,2,0,L|234:191,2,112.5,10|8|10,0:0|0:0|0:1,0:0:0:0:
256,192,87385,12,0,89577,0:0:0:0:
