osu file format v14

[General]
AudioFilename: audio.mp3
AudioLeadIn: 0
PreviewTime: 49651
Countdown: 0
SampleSet: Soft
StackLeniency: 0.5
Mode: 0
LetterboxInBreaks: 0
WidescreenStoryboard: 0

[Editor]
DistanceSpacing: 0.8
BeatDivisor: 4
GridSize: 4
TimelineZoom: 1

[Metadata]
Title:JINGO JUNGLE
TitleUnicode:JINGO JUNGLE
Artist:MYTH & ROID
ArtistUnicode:MYTH & ROID
Creator:Plaudible
Version:Hard
Source:幼女戦記
Tags:youjo senki saga of tanya the evil opening 5th single tv size
BeatmapID:1385943
BeatmapSetID:653835

[Difficulty]
HPDrainRate:4
CircleSize:3.5
OverallDifficulty:6
ApproachRate:8
SliderMultiplier:2.2
SliderTickRate:1

[Events]
//Background and Video events
Video,0,"op.avi"
0,0,"tanya_degurechaff-youjo_senki-anime-(1023).jpg",0,0
//Break Periods
2,34046,40481
//Storyboard Layer 0 (Background)
//Storyboard Layer 1 (Fail)
//Storyboard Layer 2 (Pass)
//Storyboard Layer 3 (Foreground)
//Storyboard Sound Samples

[TimingPoints]
2462,461.538461538462,4,2,2,100,1,0
17231,-166.666666666667,4,2,6,100,0,0
17346,-166.666666666667,4,2,4,5,0,0
19077,-100,4,2,2,100,0,0
32923,-133.333333333333,4,2,2,100,0,0
34077,-200,4,2,3,45,0,0
44923,-133.333333333333,4,2,3,65,0,0
48615,-100,4,2,4,100,0,0
49769,-200,4,2,0,25,0,0
50462,-86.9565217391304,4,2,2,100,0,1
50692,-86.9565217391304,4,2,2,100,0,1
53692,-100,4,2,2,100,0,1
57846,-80,4,2,2,100,0,1
58308,-80,4,2,2,100,0,1
68923,-100,4,2,2,100,0,0
89577,-100,4,2,2,5,0,0

[Colours]
Combo1 : 255,205,155
Combo2 : 149,149,149
Combo3 : 192,192,192
Combo4 : 155,255,255

[HitObjects]
156,161,2462,6,0,P|210:173|268:152,1,110,6|10,0:0|0:1,0:0:0:0:
327,99,2923,2,0,P|378:82|431:94,1,110,2|10,0:0|0:1,0:0:0:0:
490,161,3385,2,0,L|498:278,1,110,10|2,0:0|0:1,0:0:0:0:
497,270,3731,1,8,0:0:0:0:
497,270,3846,1,2,0:0:0:0:
443,340,4077,1,10,0:1:0:0:
362,304,4308,6,0,L|247:297,1,110,2|10,0:0|0:1,0:0:0:0:
175,340,4769,2,0,P|161:285|187:234,1,110,2|10,0:0|0:1,0:0:0:0:
252,183,5231,2,0,P|273:133|260:81,1,110,10|2,0:0|0:1,0:0:0:0:
260,81,5577,1,8,0:0:0:0:
260,81,5692,1,2,0:0:0:0:
191,26,5923,1,10,0:1:0:0:
124,84,6154,6,0,B|71:99|71:99|12:81,2,110,2|10|2,0:0|0:1|0:0,0:0:0:0:
191,26,6846,1,10,0:1:0:0:
260,81,7077,2,0,P|273:145|252:193,1,110,10|2,0:0|0:1,0:0:0:0:
257,185,7423,1,8,0:0:0:0:
257,185,7538,1,2,0:0:0:0:
196,248,7769,1,8,0:0:0:0:
222,332,8000,6,0,B|275:347|275:347|334:329,2,110,2|10|2,0:0|0:1|0:0,0:0:0:0:
137,308,8692,1,10,0:1:0:0:
52,284,8923,2,0,L|43:175,1,110,10|2,0:0|0:1,0:0:0:0:
42,174,9269,1,8,0:0:0:0:
42,174,9385,1,2,0:0:0:0:
109,116,9615,1,8,0:0:0:0:
190,157,9846,6,0,P|202:118|161:41,1,110,6|10,0:0|0:1,0:0:0:0:
93,30,10308,2,0,P|55:44|21:125,1,110,2|10,0:0|0:1,0:0:0:0:
45,180,10769,1,10,0:0:0:0:
90,261,11000,1,2,0:1:0:0:
90,261,11115,1,8,0:0:0:0:
90,261,11231,2,0,L|202:252,1,110,2|10,0:0|0:1,0:0:0:0:
271,210,11692,6,0,B|332:221|332:221|383:199,1,110,2|10,0:0|0:1,0:0:0:0:
372,113,12154,2,0,B|317:102|317:102|260:124,1,110,2|10,0:0|0:1,0:0:0:0:
195,170,12615,1,10,0:0:0:0:
116,129,12846,1,2,2:1:0:0:
116,129,12962,1,8,0:0:0:0:
116,129,13077,2,0,L|106:12,1,110,2|8,0:0|0:0,0:0:0:0:
190,47,13538,6,0,P|248:57|306:35,2,110,2|10|2,0:0|0:1|0:0,0:0:0:0:
107,19,14231,1,10,0:1:0:0:
41,77,14462,2,0,L|52:197,1,110,10|2,0:0|0:1,0:0:0:0:
51,186,14808,1,8,0:0:0:0:
51,186,14923,1,2,0:0:0:0:
68,272,15154,1,10,0:1:0:0:
134,330,15385,6,0,P|188:341|256:302,2,110,2|10|2,0:0|0:1|0:0,0:0:0:0:
68,272,16077,1,10,0:1:0:0:
118,199,16308,2,0,P|168:179|221:190,1,110,10|2,0:0|0:1,0:0:0:0:
221,190,16654,1,8,0:0:0:0:
221,190,16769,1,2,0:0:0:0:
285,249,17000,1,10,0:1:0:0:
359,213,17231,6,0,B|353:178|371:136|371:136|440:69|521:116|500:209|408:227|371:136|371:136|366:94|366:94|353:87|338:91|338:91|322:85|308:89|308:89|295:81|282:86|282:86|269:80|256:84,1,494.999984893799,4|0,0:0|0:0,0:0:0:0:
233,81,19077,5,6,0:0:0:0:
150,110,19308,1,2,0:1:0:0:
81,55,19538,2,0,L|23:59,2,55,2|0|10,0:0|0:0|0:1,0:0:0:0:
157,118,20000,1,2,0:0:0:0:
157,118,20115,1,8,0:0:0:0:
157,118,20231,2,0,L|215:114,2,55,2|0|10,0:1|0:0|0:0,0:0:0:0:
96,182,20692,1,10,0:1:0:0:
148,252,20923,5,2,0:0:0:0:
234,235,21154,1,2,0:1:0:0:
234,235,21269,1,8,0:0:0:0:
234,235,21385,2,0,L|346:244,1,110,2|10,0:0|0:1,0:0:0:0:
396,174,21846,2,0,B|430:212|430:212|420:330,2,165,2|2|10,0:0|0:1|0:1,0:0:0:0:
334,111,22769,5,2,0:0:0:0:
273,46,23000,2,0,P|318:24|397:48,2,110,2|2|10,0:1|0:0|0:1,0:0:0:0:
248,130,23692,1,2,0:0:0:0:
308,196,23923,1,2,0:1:0:0:
308,196,24038,1,0,0:0:0:0:
308,196,24154,2,0,L|298:310,1,110,10|10,0:0|0:1,0:0:0:0:
230,360,24615,5,2,0:0:0:0:
157,310,24846,2,0,P|107:298|43:321,2,110,2|2|10,0:1|0:0|0:1,0:0:0:0:
230,360,25538,1,2,0:0:0:0:
298,305,25769,1,2,0:1:0:0:
298,305,25884,1,0,0:0:0:0:
298,305,26000,2,0,L|308:196,1,110,10|10,0:0|0:1,0:0:0:0:
317,107,26462,5,6,0:0:0:0:
238,145,26692,1,2,0:1:0:0:
172,85,26923,2,0,P|140:79|106:85,2,55,2|0|10,0:0|0:0|0:1,0:0:0:0:
245,153,27385,1,2,0:0:0:0:
245,153,27500,1,8,0:0:0:0:
245,153,27615,2,0,P|277:159|311:153,2,55,2|0|10,0:1|0:0|0:0,0:0:0:0:
202,230,28077,1,10,0:1:0:0:
114,224,28308,5,2,0:0:0:0:
93,138,28538,1,2,0:1:0:0:
93,138,28654,1,8,0:0:0:0:
93,138,28769,2,0,P|86:84|121:36,1,110,2|10,0:0|0:1,0:0:0:0:
199,12,29231,2,0,B|319:10|319:10|374:51,2,165,2|2|10,0:0|0:1|0:1,0:0:0:0:
115,39,30154,5,2,0:0:0:0:
149,120,30385,2,0,P|84:122|42:90,2,110,2|2|10,0:1|0:0|0:1,0:0:0:0:
231,89,31077,1,2,0:0:0:0:
300,152,31308,1,2,0:1:0:0:
300,152,31423,1,0,0:0:0:0:
300,152,31538,2,0,L|290:264,1,110,10|10,0:0|0:1,0:0:0:0:
320,344,32000,5,2,0:0:0:0:
399,306,32231,2,0,P|459:294|520:327,2,110,2|2|10,0:1|0:0|0:1,0:0:0:0:
320,344,32923,2,0,L|266:340,3,41.2500015735627,2|10|2|2,0:0|0:0|0:0|0:0,0:0:0:0:
246,322,33385,2,0,L|196:325,3,41.2500015735627,10|2|10|2,0:0|0:0|0:0|0:0,0:0:0:0:
172,341,33846,5,6,0:0:0:0:
344,24,41231,5,6,0:0:0:0:
396,79,41462,2,0,L|460:73,2,55
292,191,42385,2,0,L|237:186,2,55
344,247,43077,5,6,0:0:0:0:
394,304,43308,2,0,L|399:366,2,55
344,247,44000,2,0,P|305:242|277:253,1,55
220,279,44462,2,0,P|193:283|166:277,1,55
94,187,44923,5,6,0:0:0:0:
65,109,45154,1,0,0:0:0:0:
118,41,45385,2,0,P|175:37|203:53,1,82.5000031471254
224,125,45846,2,0,P|197:176|170:192,1,82.5000031471254
94,187,46308,1,0,0:0:0:0:
224,320,46769,6,0,P|266:282|277:246,1,82.5000031471254
292,217,47115,1,0,0:0:0:0:
292,217,47231,2,0,L|341:212,3,41.2500015735627,0|0|0|0,0:0|0:0|0:0|0:0,0:0:0:0:
370,196,47692,2,0,L|399:236,3,41.2500015735627,8|8|8|8,0:0|0:0|0:0|0:0,0:0:0:0:
426,255,48154,2,0,L|405:300,3,41.2500015735627,8|8|8|8,0:0|0:0|0:0|0:0,0:0:0:0:
416,335,48615,6,0,B|366:362|366:362|290:345,1,110,6|0,0:0|0:0,0:0:0:0:
281,381,48962,2,0,B|232:351|232:351|208:277,1,110,6|0,0:0|0:0,0:0:0:0:
175,281,49308,2,0,L|180:227,1,55,6|0,0:0|0:0,0:0:0:0:
186,182,49538,1,2,0:0:0:0:
219,107,49769,6,0,P|190:100|151:108,2,55
299,184,50462,6,0,L|435:191,1,126.500002412796,6|2,0:0|0:1,0:0:0:0:
467,229,50808,1,0,0:0:0:0:
467,229,50923,2,0,P|483:301|438:362,1,126.500002412796,10|2,0:0|0:1,0:0:0:0:
350,377,51385,1,2,0:0:0:0:
274,291,51615,2,0,B|217:269|217:269|141:291,1,126.500002412796,2|10,0:1|0:0,0:0:0:0:
67,361,52077,1,2,0:1:0:0:
67,361,52192,1,0,0:0:0:0:
67,361,52308,6,0,P|36:302|55:234,1,126.500002412796,2|2,0:0|0:1,0:0:0:0:
30,133,52769,2,0,P|96:135|145:186,1,126.500002412796,10|2,0:0|0:1,0:0:0:0:
241,224,53231,2,0,P|205:280|136:296,1,126.500002412796,2|2,0:0|0:1,0:0:0:0:
47,245,53692,5,10,0:0:0:0:
30,133,53923,1,2,0:1:0:0:
113,60,54154,2,0,L|233:54,1,110,2|2,0:0|0:1,0:0:0:0:
325,14,54615,1,10,0:0:0:0:
312,123,54846,1,2,0:1:0:0:
370,216,55077,2,0,B|337:233|337:233|245:225,1,110,2|2,0:0|0:1,0:0:0:0:
169,170,55538,2,0,P|149:225|167:286,1,110,10|2,0:0|0:1,0:0:0:0:
243,315,56000,5,2,0:0:0:0:
369,268,56231,1,2,0:1:0:0:
240,232,56461,1,10,0:0:0:0:
323,337,56692,1,2,0:1:0:0:
318,204,56923,1,2,0:0:0:0:
243,315,57154,2,0,P|181:321|137:299,2,110,2|10|2,0:1|0:0|0:1,0:0:0:0:
318,204,57846,6,0,L|314:55,1,137.5,6|2,0:0|0:1,0:0:0:0:
272,32,58192,1,0,0:0:0:0:
272,32,58308,2,0,P|201:54|124:25,1,137.5,10|2,0:0|0:1,0:0:0:0:
18,33,58769,1,2,0:0:0:0:
74,143,59000,2,0,L|84:288,1,137.5,2|10,0:1|0:0,0:0:0:0:
182,355,59462,1,2,0:1:0:0:
182,355,59577,1,0,0:0:0:0:
182,355,59692,6,0,B|252:373|252:373|329:342,1,137.5,2|2,0:0|0:1,0:0:0:0:
436,361,60154,2,0,B|416:291|416:291|351:240,1,137.5,10|2,0:0|0:1,0:0:0:0:
309,140,60615,2,0,B|258:191|258:191|246:273,1,137.5,2|2,0:0|0:1,0:0:0:0:
182,355,61077,1,10,0:0:0:0:
59,334,61308,1,2,0:1:0:0:
182,355,61538,6,0,L|340:347,1,137.5,2|2,0:0|0:1,0:0:0:0:
377,371,61885,1,0,0:0:0:0:
377,371,62000,2,0,P|356:324|387:221,1,137.5,10|2,0:0|0:1,0:0:0:0:
447,143,62462,2,0,B|407:120|407:120|283:130,1,137.5,2|2,0:0|0:1,0:0:0:0:
194,103,62923,1,10,0:0:0:0:
223,223,63154,1,2,0:1:0:0:
194,103,63385,6,0,P|140:66|56:101,1,137.5,2|2,0:0|0:1,0:0:0:0:
30,126,63731,1,0,0:0:0:0:
30,126,63846,2,0,L|37:264,1,137.5,10|2,0:0|0:1,0:0:0:0:
0,365,64308,2,0,B|38:350|38:350|146:359,1,137.5,2|2,0:1|0:1,0:1:0:0:
215,293,64769,1,10,0:0:0:0:
215,293,64999,1,2,0:1:0:0:
313,315,65231,6,0,P|326:230|277:176,1,137.5,6|10,0:0|0:1,0:0:0:0:
200,111,65692,1,2,0:0:0:0:
321,72,65923,1,10,0:1:0:0:
435,34,66154,2,0,B|467:61|467:61|457:184,1,137.5,10|2,0:0|2:1,0:0:0:0:
459,156,66500,1,8,0:0:0:0:
459,156,66615,1,2,0:0:0:0:
373,245,66846,1,10,0:1:0:0:
262,189,67077,5,2,0:0:0:0:
146,135,67308,1,10,0:1:0:0:
64,227,67538,1,2,0:0:0:0:
128,332,67769,1,10,0:1:0:0:
249,307,68000,2,0,B|322:290|322:290|399:320,1,137.5,10|2,0:0|0:1,0:0:0:0:
380,312,68346,1,8,0:0:0:0:
380,312,68462,1,2,0:0:0:0:
400,190,68692,1,10,0:1:0:0:
482,134,68923,6,0,P|426:91|371:88,1,110,2|10,0:0|0:1,0:0:0:0:
320,142,69385,2,0,L|204:134,1,110,2|10,0:0|0:1,0:0:0:0:
148,196,69846,2,0,B|165:167|165:167|157:59,1,110,10|2,0:0|0:1,0:0:0:0:
159,91,70192,1,8,0:0:0:0:
159,91,70308,1,2,0:0:0:0:
223,31,70538,1,10,0:1:0:0:
291,85,70769,6,0,P|350:97|401:78,1,110,2|10,0:0|0:1,0:0:0:0:
475,42,71231,2,0,L|467:171,1,110,2|10,0:0|0:1,0:0:0:0:
416,223,71692,1,10,0:0:0:0:
367,296,71923,2,0,P|429:312|472:292,2,110,2|2|10,0:1|0:0|0:1,0:0:0:0:
314,225,72615,6,0,B|263:205|263:205|197:222,1,110,6|10,0:0|0:1,0:0:0:0:
167,233,72962,1,0,0:0:0:0:
167,233,73077,2,0,L|174:108,1,110,2|10,0:0|0:1,0:0:0:0:
108,62,73538,1,10,0:0:0:0:
33,13,73770,2,0,P|17:64|39:122,1,110,2|2,0:1|0:0,0:0:0:0:
119,151,74231,1,10,0:1:0:0:
119,151,74346,1,0,0:0:0:0:
119,151,74462,6,0,B|123:208|123:208|174:253,1,110,2|10,0:0|0:1,0:0:0:0:
195,324,74923,2,0,B|243:291|243:291|256:224,1,110,2|10,0:0|0:1,0:0:0:0:
314,175,75385,2,0,B|261:149|261:149|197:171,1,110,10|2,0:0|0:1,0:0:0:0:
212,165,75731,1,8,0:0:0:0:
212,165,75846,2,0,L|204:56,1,110,2|10,0:0|0:1,0:0:0:0:
121,22,76308,5,2,0:0:0:0:
55,80,76538,2,0,P|39:145|77:209,2,110,10|2|10,0:1|0:0|0:1,0:0:0:0:
121,22,77231,1,10,0:0:0:0:
208,65,77462,1,2,0:1:0:0:
208,65,77577,1,8,0:0:0:0:
208,65,77692,2,0,L|337:55,1,110,2|10,0:0|0:1,0:0:0:0:
405,48,78154,5,2,0:0:0:0:
472,104,78385,2,0,P|493:55|474:-7,2,110,10|2|10,0:1|0:0|0:1,0:0:0:0:
388,133,79077,1,10,0:0:0:0:
453,191,79308,2,0,B|479:216|479:216|472:305,2,110,2|2|10,0:1|0:0|0:1,0:0:0:0:
388,133,80000,6,0,L|257:127,1,110,6|10,0:0|0:1,0:0:0:0:
245,157,80346,1,0,0:0:0:0:
245,157,80462,2,0,P|170:166|126:135,1,110,2|10,0:0|0:1,0:0:0:0:
201,85,80923,1,10,0:0:0:0:
260,19,81154,2,0,L|375:25,1,110,2|2,0:1|0:0,0:0:0:0:
442,75,81615,1,10,0:1:0:0:
442,75,81731,1,0,0:0:0:0:
442,75,81846,6,0,P|450:148|424:190,1,110,2|10,0:0|0:1,0:0:0:0:
435,267,82308,2,0,P|367:237|344:193,1,110,2|10,0:0|0:1,0:0:0:0:
276,166,82769,2,0,P|335:122|384:124,1,110,10|2,0:0|0:1,0:0:0:0:
369,120,83115,1,8,0:0:0:0:
369,120,83231,2,0,L|482:129,1,110,2|10,0:0|0:1,0:0:0:0:
508,211,83692,5,2,0:0:0:0:
451,278,83923,2,0,P|392:287|334:263,2,110,10|2|10,0:1|0:0|0:1,0:0:0:0:
508,211,84615,1,10,0:0:0:0:
478,128,84846,1,2,0:1:0:0:
478,128,84962,1,8,0:0:0:0:
478,128,85077,2,0,L|354:121,1,110,2|10,0:0|0:1,0:0:0:0:
285,91,85538,5,2,0:0:0:0:
224,154,85769,2,0,P|206:206|220:265,2,110,10|2|10,0:1|0:0|0:1,0:0:0:0:
285,91,86462,1,10,0:0:0:0:
356,152,86692,1,2,0:1:0:0:
356,152,86808,1,8,0:0:0:0:
356,152,86923,2,0,L|470:146,1,110,2|10,0:0|0:1,0:0:0:0:
256,192,87385,12,0,89577,0:0:0:0:
