osu file format v14

[General]
AudioFilename: audio.mp3
AudioLeadIn: 0
PreviewTime: 49651
Countdown: 0
SampleSet: Soft
StackLeniency: 0.5
Mode: 0
LetterboxInBreaks: 0
WidescreenStoryboard: 0

[Editor]
DistanceSpacing: 0.8
BeatDivisor: 4
GridSize: 4
TimelineZoom: 1

[Metadata]
Title:JINGO JUNGLE
TitleUnicode:JINGO JUNGLE
Artist:MYTH & ROID
ArtistUnicode:MYTH & ROID
Creator:Plaudible
Version:Easy
Source:幼女戦記
Tags:youjo senki saga of tanya the evil opening 5th single tv size
BeatmapID:1385942
BeatmapSetID:653835

[Difficulty]
HPDrainRate:2
CircleSize:2.5
OverallDifficulty:3
ApproachRate:4
SliderMultiplier:1.2
SliderTickRate:1

[Events]
//Background and Video events
Video,0,"op.avi"
0,0,"tanya_degurechaff-youjo_senki-anime-(1023).jpg",0,0
//Break Periods
2,34046,39911
//Storyboard Layer 0 (Background)
//Storyboard Layer 1 (Fail)
//Storyboard Layer 2 (Pass)
//Storyboard Layer 3 (Foreground)
//Storyboard Sound Samples

[TimingPoints]
2462,461.538461538462,4,2,2,100,1,0
17231,-100,4,2,6,100,0,0
17346,-100,4,2,4,5,0,0
18615,-100,4,2,6,25,0,0
19077,-100,4,2,2,100,0,0
34077,-100,4,2,3,45,0,0
44923,-100,4,2,3,65,0,0
48615,-100,4,2,4,100,0,0
49769,-100,4,2,0,25,0,0
50462,-100,4,2,2,100,0,1
50692,-100,4,2,2,100,0,1
53692,-100,4,2,2,100,0,1
57846,-100,4,2,2,100,0,1
58308,-100,4,2,2,100,0,1
68923,-100,4,2,2,100,0,0
89577,-100,4,2,2,5,0,0

[Colours]
Combo1 : 255,205,155
Combo2 : 149,149,149
Combo3 : 192,192,192
Combo4 : 155,255,255

[HitObjects]
97,204,2462,6,0,P|154:228|224:202,1,120,6|2,0:0|0:0,0:0:0:0:
292,168,3385,2,0,P|349:154|403:178,1,120,10|2,0:0|0:0,0:0:0:0:
463,252,4308,2,0,L|452:372,2,120,2|2|10,0:0|0:0|0:0,0:0:0:0:
403,178,5692,1,2,0:0:0:0:
322,230,6154,6,0,B|260:237|260:237|203:205,2,120,2|2|10,0:0|0:0|0:0,0:0:0:0:
403,178,7538,1,2,0:0:0:0:
476,239,8000,2,0,B|511:283|511:283|508:357,2,120,2|2|10,0:0|0:0|0:0,0:0:0:0:
326,235,9846,6,0,P|267:250|194:223,1,120,6|2,0:0|0:0,0:0:0:0:
141,168,10769,2,0,P|126:109|153:36,1,120,10|2,0:0|0:0,0:0:0:0:
233,25,11692,2,0,L|360:32,2,120,2|2|10,0:0|0:0|0:0,0:0:0:0:
141,53,13077,1,2,0:0:0:0:
139,148,13538,6,0,P|93:138|49:77,2,120,2|2|10,0:0|0:0|0:0,0:0:0:0:
214,207,14923,1,2,0:0:0:0:
290,264,15385,2,0,P|336:274|379:334,2,120,2|2|10,0:0|0:0|0:0,0:0:0:0:
214,206,16770,1,2,0:0:0:0:
159,284,17231,6,0,B|92:224|123:148|174:116|174:116|195:106|217:112|217:112|238:101|259:108|259:108|279:98|300:105|300:105|325:94|346:102|346:102,1,360,4|0,0:0|0:0,0:0:0:0:
403,37,19077,6,0,P|427:97|405:156,1,120,6|2,0:0|0:0,0:0:0:0:
330,199,20000,2,0,P|303:251|319:307,2,120,2|10|2,0:0|0:0|0:0,0:0:0:0:
411,147,21385,1,2,0:0:0:0:
370,60,21846,2,0,L|241:53,1,120,2|10,0:0|0:0,0:0:0:0:
154,41,22769,5,2,0:0:0:0:
99,120,23231,2,0,B|35:116|35:116|-4:70,2,120,2|2|10,0:0|0:0|0:0,0:0:0:0:
194,131,24615,1,2,0:0:0:0:
236,217,25077,2,0,B|300:213|300:213|339:167,2,120,2|2|10,0:0|0:0|0:0,0:0:0:0:
140,223,26462,6,0,P|155:279|204:311,1,120,6|2,0:0|0:0,0:0:0:0:
300,311,27385,2,0,L|430:303,2,120,2|10|2,0:0|0:0|0:0,0:0:0:0:
255,226,28769,1,2,0:0:0:0:
319,154,29231,2,0,P|343:99|326:36,1,120,2|10,0:0|0:0,0:0:0:0:
247,91,30154,5,2,0:0:0:0:
169,34,30615,2,0,B|138:18|138:18|43:26,2,120,2|2|10,0:0|0:0|0:0,0:0:0:0:
247,91,32000,1,2,0:0:0:0:
326,145,32461,2,0,B|356:160|356:160|451:152,2,120,2|2|10,0:0|0:0|0:0,0:0:0:0:
247,91,33846,5,6,0:0:0:0:
147,95,41231,6,0,B|200:129|261:95|261:95|326:55|393:105,1,240,6|0,0:0|0:0,0:0:0:0:
375,284,43077,2,0,B|326:246|261:286|261:286|200:320|147:286,1,240,6|0,0:0|0:0,0:0:0:0:
147,95,44923,5,6,0:0:0:0:
224,37,45385,2,0,P|282:21|344:45,2,120,0|0|0,0:0|0:0|0:0,0:0:0:0:
147,95,46769,2,0,B|151:152|151:152|169:188|169:188|146:241|146:241|161:273|161:273|167:341,1,240,0|8,0:0|0:0,0:0:0:0:
252,363,48154,1,8,0:0:0:0:
327,303,48615,6,0,B|377:287|421:297|421:297|438:260|433:214|433:214|397:205|364:210,1,240,6|2,0:0|0:0,0:0:0:0:
200,132,50462,6,0,P|266:118|316:145,2,120,6|10|2,0:0|0:0|0:0,0:0:0:0:
136,204,51846,1,10,0:0:0:0:
124,296,52308,2,0,L|-3:284,2,120,2|10|2,0:0|0:0|0:0,0:0:0:0:
218,316,53692,2,0,P|278:329|331:307,1,120,10|2,0:0|0:0,0:0:0:0:
367,218,54615,6,0,P|348:159|302:124,1,120,10|2,0:0|0:0,0:0:0:0:
208,139,55538,2,0,P|166:184|159:241,2,120,10|2|10,0:0|0:0|0:0,0:0:0:0:
284,80,56923,1,2,0:0:0:0:
378,99,57385,1,10,0:0:0:0:
408,187,57846,6,0,P|381:244|325:275,1,120,6|10,0:0|0:0,0:0:0:0:
244,237,58769,2,0,L|121:226,1,120,2|10,0:0|0:0,0:0:0:0:
68,148,59692,2,0,P|41:86|65:25,2,120,2|10|0,0:0|0:0|0:0,0:0:0:0:
174,135,61077,6,0,P|185:74|149:19,2,120,10|2|10,0:0|0:0|0:0,0:0:0:0:
134,222,62462,1,2,0:0:0:0:
208,282,62923,1,10,0:0:0:0:
290,232,63385,2,0,L|414:224,2,120,2|10|2,0:0|0:0|0:0,0:0:0:0:
208,282,64769,1,10,0:0:0:0:
130,338,65231,6,0,B|173:374|173:374|363:366,1,240,6|10,0:0|0:0,0:0:0:0:
424,298,66615,1,2,0:0:0:0:
375,214,67077,2,0,P|351:158|381:85,1,120,2|2,0:0|0:0,0:0:0:0:
405,15,68000,2,0,L|272:9,1,120,10|2,0:0|0:0,0:0:0:0:
205,62,68923,6,0,P|138:48|86:78,2,120,2|2|10,0:0|0:0|0:0,0:0:0:0:
155,144,70308,1,2,0:0:0:0:
218,216,70769,2,0,P|163:239|106:223,2,120,2|2|10,0:0|0:0|0:0,0:0:0:0:
267,133,72154,1,2,0:0:0:0:
352,176,72615,6,0,L|359:298,2,120,6|2|10,0:0|0:0|0:0,0:0:0:0:
348,79,74000,1,2,0:0:0:0:
267,133,74462,2,0,P|212:148|137:121,1,120,2|2,0:0|0:0,0:0:0:0:
64,94,75385,2,0,L|59:226,1,120,10|2,0:0|0:0,0:0:0:0:
56,309,76308,5,2,0:0:0:0:
135,362,76769,2,0,P|196:371|261:344,2,120,2|10|2,0:0|0:0|0:0,0:0:0:0:
56,309,78154,1,2,0:0:0:0:
123,240,78615,2,0,P|181:220|250:235,2,120,2|10|2,0:0|0:0|0:0,0:0:0:0:
34,202,80000,6,0,L|23:75,2,120,6|2|10,0:0|0:0|0:0,0:0:0:0:
43,297,81385,1,2,0:0:0:0:
122,351,81846,2,0,P|185:367|245:335,1,120,2|2,0:0|0:0,0:0:0:0:
289,268,82769,2,0,P|295:209|264:158,1,120,10|2,0:0|0:0,0:0:0:0:
196,90,83692,5,2,0:0:0:0:
123,158,84154,2,0,B|62:171|62:171|4:140,2,120,2|10|2,0:0|0:0|0:0,0:0:0:0:
213,190,85538,1,2,0:0:0:0:
305,217,86000,2,0,B|366:204|366:204|424:235,2,120,2|10|2,0:0|0:0|0:0,0:0:0:0:
256,192,87385,12,0,89577,0:0:0:0:
