osu file format v14

[General]
AudioFilename: audio.mp3
AudioLeadIn: 0
PreviewTime: 49651
Countdown: 0
SampleSet: Soft
StackLeniency: 0.4
Mode: 0
LetterboxInBreaks: 0
WidescreenStoryboard: 0

[Editor]
Bookmarks: 12385
DistanceSpacing: 0.9
BeatDivisor: 4
GridSize: 4
TimelineZoom: 2

[Metadata]
Title:JINGO JUNGLE
TitleUnicode:JINGO JUNGLE
Artist:MYTH & ROID
ArtistUnicode:MYTH & ROID
Creator:Plaudible
Version:Deus Lo Vult
Source:幼女戦記
Tags:youjo senki saga of tanya the evil opening 5th single tv size
BeatmapID:1385941
BeatmapSetID:653835

[Difficulty]
HPDrainRate:6
CircleSize:4
OverallDifficulty:8.3
ApproachRate:9.5
SliderMultiplier:3.4
SliderTickRate:1

[Events]
//Background and Video events
Video,0,"op.avi"
0,0,"tanya_degurechaff-youjo_senki-anime-(1023).jpg",0,0
//Break Periods
//Storyboard Layer 0 (Background)
//Storyboard Layer 1 (Fail)
//Storyboard Layer 2 (Pass)
//Storyboard Layer 3 (Foreground)
//Storyboard Sound Samples

[TimingPoints]
2462,461.538461538462,4,2,2,100,1,0
2462,-80,4,2,2,100,0,0
17231,-200,4,2,6,100,0,0
17346,-200,4,2,4,5,0,0
19077,-100,4,2,2,100,0,0
34077,-200,4,2,3,100,0,0
34308,-200,4,2,3,75,0,0
34538,-200,4,2,3,55,0,0
35000,-200,4,2,3,45,0,0
44923,-133.333333333333,4,2,3,65,0,0
48615,-80,4,2,4,100,0,0
49769,-200,4,2,0,25,0,0
50462,-66.6666666666667,4,2,2,100,0,1
50692,-66.6666666666667,4,2,2,100,0,1
53692,-80,4,2,2,100,0,1
57846,-66.6666666666667,4,2,2,100,0,1
58308,-66.6666666666667,4,2,2,100,0,1
62462,-80,4,2,2,100,0,1
63385,-66.6666666666667,4,2,2,100,0,1
68923,-80,4,2,2,100,0,0
89577,-80,4,2,2,5,0,0

[Colours]
Combo1 : 255,205,155
Combo2 : 149,149,149
Combo3 : 192,192,192
Combo4 : 155,255,255

[HitObjects]
62,134,2462,6,0,B|116:129|116:129|151:115|151:115|183:134|183:134|217:120|217:120|275:115,1,212.5,6|10,0:0|0:1,0:0:0:0:
364,240,2808,1,0,0:0:0:0:
313,300,2923,2,0,B|288:253|288:253|295:201,1,106.25,2|0,0:0|0:0,0:0:0:0:
327,44,3154,2,0,B|360:88|360:88|354:146,1,106.25,10|0,0:1|0:0,0:0:0:0:
146,218,3385,2,0,P|168:166|218:139,1,106.25,10|0,0:0|0:0,0:0:0:0:
191,320,3615,1,2,0:1:0:0:
138,258,3731,2,0,P|132:202|162:154,1,106.25,8|2,0:0|0:0,0:0:0:0:
228,324,3962,1,0,0:0:0:0:
153,295,4077,2,0,P|119:249|121:192,1,106.25,10|0,0:1|0:0,0:0:0:0:
186,36,4308,6,0,B|232:75|232:75|218:239,1,212.5,2|10,0:0|0:1,0:0:0:0:
47,281,4654,1,0,0:0:0:0:
19,207,4769,2,0,L|127:197,1,106.25,2|0,0:0|0:0,0:0:0:0:
201,369,5000,2,0,L|95:359,1,106.25,10|0,0:1|0:0,0:0:0:0:
239,123,5231,2,0,P|291:145|318:195,1,106.25,10|0,0:0|0:0,0:0:0:0:
134,162,5461,1,2,0:1:0:0:
199,115,5577,2,0,P|255:109|303:139,1,106.25,8|2,0:0|0:0,0:0:0:0:
130,199,5808,1,0,0:0:0:0:
162,130,5923,2,0,P|208:96|265:98,1,106.25,10|0,0:1|0:0,0:0:0:0:
423,196,6154,6,0,B|371:212|371:212|311:185,1,106.25,2|0,0:0|0:0,0:0:0:0:
280,268,6385,2,0,B|239:231|239:231|233:166,1,106.25,10|0,0:1|0:0,0:0:0:0:
8,21,6615,6,0,B|61:32|61:32|99:86,1,106.25,2|0,0:0|0:0,0:0:0:0:
167,31,6846,2,0,B|183:82|183:82|156:142,1,106.25,10|0,0:1|0:0,0:0:0:0:
93,268,7077,2,0,L|83:160,1,106.25,10|0,0:0|0:0,0:0:0:0:
166,336,7308,1,2,0:1:0:0:
111,285,7423,2,0,L|100:165,1,106.25,8|2,0:0|0:0,0:0:0:0:
178,350,7654,1,2,0:1:0:0:
126,300,7769,2,0,L|115:180,1,106.25,8|0,0:0|0:0,0:0:0:0:
387,83,8000,6,0,P|336:100|284:85,1,106.25,2|0,0:0|0:0,0:0:0:0:
250,168,8231,2,0,P|209:132|196:79,1,106.25,10|0,0:1|0:0,0:0:0:0:
25,303,8462,6,0,P|76:286|128:301,1,106.25,2|0,0:0|0:0,0:0:0:0:
162,218,8693,2,0,P|202:253|215:306,1,106.25,10|0,0:1|0:0,0:0:0:0:
273,94,8923,2,0,L|282:201,1,106.25,10|0,0:0|0:0,0:0:0:0:
206,18,9154,1,2,0:1:0:0:
255,77,9269,2,0,L|265:196,1,106.25,8|2,0:0|0:0,0:0:0:0:
190,4,9500,1,2,0:1:0:0:
240,62,9615,2,0,L|250:181,1,106.25,8|0,0:0|0:0,0:0:0:0:
413,328,9846,6,0,B|450:296|450:296|370:289|370:289|356:292|356:292|342:286|342:286|274:280,1,212.5,6|10,0:0|0:1,0:0:0:0:
102,250,10192,1,0,0:0:0:0:
126,324,10308,2,0,B|174:347|174:347|230:335,1,106.25,2|0,0:0|0:0,0:0:0:0:
459,182,10538,2,0,B|420:215|420:215|362:210,1,106.25,10|0,0:1|0:0,0:0:0:0:
249,88,10769,2,0,P|232:141|253:194,1,106.25,10|0,0:0|0:0,0:0:0:0:
350,30,10999,1,2,0:1:0:0:
269,52,11115,2,0,P|228:91|220:147,1,106.25,8|2,0:0|0:0,0:0:0:0:
381,50,11346,1,0,0:0:0:0:
304,33,11462,2,0,P|248:46|213:91,1,106.25,10|0,0:1|0:0,0:0:0:0:
90,264,11692,6,0,B|130:295|130:295|210:288|210:288|224:291|224:291|238:285|238:285|306:279,1,212.5,2|10,0:0|0:1,0:0:0:0:
481,144,12038,1,0,0:0:0:0:
450,217,12154,2,0,L|332:206,1,106.25,2|0,0:0|0:0,0:0:0:0:
261,372,12385,2,0,L|366:362,1,106.25,10|0,0:1|0:0,0:0:0:0:
257,186,12615,2,0,P|259:241|297:284,1,106.25,10|0,0:0|0:0,0:0:0:0:
335,97,12845,1,2,2:1:0:0:
263,144,12961,2,0,P|237:194|249:250,1,106.25,8|2,0:0|0:0,0:0:0:0:
371,105,13192,1,2,0:1:0:0:
289,114,13307,2,0,P|240:145|223:199,1,106.25,8|0,0:0|0:0,0:0:0:0:
376,370,13538,6,0,P|393:319|378:267,1,106.25,2|0,0:0|0:0,0:0:0:0:
461,233,13769,2,0,P|425:192|372:179,1,106.25,10|0,0:1|0:0,0:0:0:0:
251,331,14000,6,0,P|198:320|160:281,1,106.25,2|0,0:0|0:0,0:0:0:0:
90,338,14231,2,0,P|72:286|87:233,1,106.25,10|0,0:1|0:0,0:0:0:0:
269,184,14462,2,0,L|161:193,1,106.25,10|0,0:0|0:0,0:0:0:0:
342,109,14693,1,2,0:1:0:0:
286,166,14808,2,0,L|167:175,1,106.25,8|2,0:0|0:0,0:0:0:0:
357,96,15039,1,0,0:0:0:0:
301,151,15154,2,0,L|182:160,1,106.25,10|0,0:1|0:0,0:0:0:0:
0,254,15385,6,0,B|52:270|52:270|112:243,1,106.25,2|0,0:0|0:0,0:0:0:0:
143,329,15616,2,0,B|184:292|184:292|190:227,1,106.25,10|0,0:1|0:0,0:0:0:0:
202,33,15846,6,0,B|151:54|151:54|123:113,1,106.25,2|0,0:0|0:0,0:0:0:0:
50,70,16077,2,0,B|42:124|42:124|79:178,1,106.25,10|0,0:1|0:0,0:0:0:0:
267,265,16308,2,0,L|276:146,1,106.25,10|0,0:0|0:0,0:0:0:0:
193,333,16539,1,2,0:1:0:0:
248,283,16654,2,0,L|257:164,1,106.25,8|2,0:0|0:0,0:0:0:0:
178,349,16885,1,0,0:0:0:0:
234,298,17000,2,0,L|243:179,1,106.25,10|0,0:1|0:0,0:0:0:0:
237,30,17231,6,0,B|187:3|136:15|102:84|167:141|262:99|262:99|293:83|355:43|412:78|415:131|370:169|334:162|334:162|328:177|332:189|332:189|324:206|329:219|329:219|323:233|326:249|326:249|321:261|323:277|323:277|319:292|321:305|321:305,1,637.5,4|0,0:0|0:0,0:0:0:0:
315,377,19077,5,6,0:0:0:0:
78,229,19308,2,0,P|115:210|167:214,1,85,2|8,0:1|0:0,0:0:0:0:
298,281,19538,2,0,B|265:303|265:303|129:291,1,170,2|10,0:0|0:1,0:0:0:0:
28,312,19885,1,0,0:0:0:0:
82,365,20000,2,0,L|174:373,1,85,2|8,0:0|0:0,0:0:0:0:
242,218,20231,2,0,L|149:209,1,85,2|0,0:1|0:0,0:0:0:0:
40,46,20462,1,10,0:0:0:0:
105,85,20577,1,0,0:0:0:0:
51,139,20692,2,0,P|31:95|43:40,1,85,10|0,0:1|0:0,0:0:0:0:
242,218,20923,5,2,0:0:0:0:
242,218,21154,2,0,P|296:232|340:216,1,85,2|8,0:1|0:0,0:0:0:0:
235,48,21385,2,0,P|195:87|187:133,1,85,2|0,0:0|0:0,0:0:0:0:
385,129,21615,2,0,P|370:75|334:45,1,85,10|0,0:1|0:0,0:0:0:0:
152,195,21846,2,0,L|143:296,2,85,2|8|2,0:0|0:0|0:1,0:0:0:0:
288,156,22192,1,0,0:0:0:0:
323,225,22308,2,0,P|279:234|237:216,1,85,10|0,0:0|0:0,0:0:0:0:
105,121,22538,2,0,P|144:107|186:113,1,85,10|0,0:1|0:0,0:0:0:0:
295,314,22769,6,0,B|245:309|245:309|223:302|223:302|199:313|199:313|173:303|173:303|105:297,1,170,2|2,0:0|0:1,0:0:0:0:
35,155,23115,1,8,0:0:0:0:
105,121,23231,2,0,P|112:178|95:209,1,85,2|0,0:0|0:0,0:0:0:0:
46,291,23462,2,0,L|145:299,1,85,10|0,0:1|0:0,0:0:0:0:
279,220,23692,2,0,L|179:228,2,85,2|8|2,0:0|0:0|0:1,0:0:0:0:
469,158,24038,1,0,0:0:0:0:
432,228,24154,2,0,P|399:195|390:153,1,85,10|0,0:0|0:0,0:0:0:0:
241,92,24385,2,0,P|279:65|321:63,1,85,10|0,0:1|0:0,0:0:0:0:
279,220,24615,6,0,B|303:193|303:193|310:126|310:126|316:112|316:112|312:97|312:97|318:29,1,170,2|2,0:0|0:1,0:0:0:0:
190,154,24962,1,8,0:0:0:0:
146,218,25077,2,0,L|154:318,1,85,2|0,0:0|0:0,0:0:0:0:
342,352,25308,2,0,L|350:251,1,85,10|0,0:1|0:0,0:0:0:0:
241,92,25538,2,0,L|235:8,2,85,2|8|2,0:0|0:0|0:1,0:0:0:0:
146,218,25885,1,0,0:0:0:0:
109,150,26000,2,0,P|150:140|190:154,1,85,10|0,0:0|0:0,0:0:0:0:
321,82,26231,2,0,P|316:123|289:156,1,85,10|0,0:1|0:0,0:0:0:0:
66,214,26462,5,6,0:0:0:0:
225,371,26692,2,0,L|141:363,1,85,2|8,0:1|0:0,0:0:0:0:
10,288,26923,2,0,B|81:294|81:294|127:279|127:279|191:284,1,170,2|10,0:0|0:1,0:0:0:0:
313,245,27269,1,0,0:0:0:0:
347,176,27385,2,0,P|299:168|250:200,1,85,2|8,0:0|0:0,0:0:0:0:
140,363,27615,2,0,L|233:372,1,85,2|0,0:1|0:0,0:0:0:0:
180,194,27846,1,10,0:0:0:0:
114,233,27961,1,0,0:0:0:0:
165,292,28076,2,0,P|188:250|181:194,1,85,10|0,0:1|0:0,0:0:0:0:
101,78,28308,5,2,0:0:0:0:
101,78,28538,2,0,P|87:132|103:176,1,85,2|8,0:1|0:0,0:0:0:0:
312,113,28769,2,0,P|273:73|227:65,1,85,2|0,0:0|0:0,0:0:0:0:
177,283,29000,2,0,P|231:268|261:232,1,85,10|0,0:1|0:0,0:0:0:0:
84,259,29231,2,0,L|75:360,2,85,2|8|2,0:0|0:0|0:1,0:0:0:0:
287,184,29577,1,0,0:0:0:0:
335,240,29692,2,0,L|251:248,1,85,10|0,0:0|0:0,0:0:0:0:
49,183,29923,2,0,P|95:175|145:201,1,85,10|0,0:1|0:0,0:0:0:0:
241,365,30154,6,0,B|202:343|202:343|147:348|147:348|136:345|136:345|122:351|122:351|45:356,1,170,2|2,0:0|0:1,0:0:0:0:
129,188,30500,1,8,0:0:0:0:
174,251,30615,2,0,B|132:266|132:266|81:254,1,85,2|0,0:0|0:0,0:0:0:0:
41,98,30846,2,0,L|49:199,1,85,10|0,0:1|0:0,0:0:0:0:
6,346,31077,2,0,L|13:261,2,85,2|8|2,0:0|0:0|0:1,0:0:0:0:
246,233,31423,1,0,0:0:0:0:
229,307,31538,2,0,P|180:271|176:222,1,85,10|0,0:0|0:0,0:0:0:0:
393,107,31769,2,0,P|357:156|308:160,1,85,10|0,0:1|0:0,0:0:0:0:
170,149,32000,6,0,B|226:153|226:153|253:147|253:147|278:158|278:158|335:163,1,170,2|2,0:0|0:1,0:0:0:0:
400,282,32346,1,8,0:0:0:0:
424,354,32462,2,0,P|373:356|334:323,1,85,2|0,0:0|0:0,0:0:0:0:
424,127,32692,2,0,B|436:174|436:174|420:220,1,85,10|0,0:1|0:0,0:0:0:0:
106,288,32923,5,2,0:0:0:0:
101,211,33038,1,10,0:0:0:0:
165,168,33154,1,2,0:0:0:0:
234,196,33269,1,2,0:0:0:0:
303,240,33385,5,10,0:0:0:0:
262,272,33500,1,2,0:0:0:0:
214,274,33615,1,10,0:0:0:0:
173,245,33731,1,2,0:0:0:0:
234,196,33846,5,6,0:0:0:0:
288,80,34077,5,0,0:0:0:0:
212,73,34308,1,0,0:0:0:0:
179,142,34538,1,0,0:0:0:0:
212,73,35000,5,0,0:0:0:0:
179,142,35231,1,0,0:0:0:0:
234,196,35461,1,0,0:0:0:0:
179,142,35923,5,0,0:0:0:0:
303,161,36154,1,0,0:0:0:0:
288,80,36384,1,0,0:0:0:0:
179,142,36615,5,0,0:0:0:0:
234,196,36846,1,0,0:0:0:0:
212,73,37077,5,0,0:0:0:0:
179,142,37308,1,0,0:0:0:0:
212,73,37769,5,0,0:0:0:0:
288,80,38000,1,0,0:0:0:0:
364,86,38231,1,0,0:0:0:0:
136,70,38692,5,0,0:0:0:0:
212,73,38923,1,0,0:0:0:0:
288,80,39154,1,0,0:0:0:0:
136,70,39615,5,0,0:0:0:0:
212,73,39846,1,0,0:0:0:0:
136,70,40077,1,0,0:0:0:0:
212,73,40538,5,0,0:0:0:0:
288,75,40769,1,0,0:0:0:0:
212,73,41000,1,0,0:0:0:0:
401,152,41231,5,6,0:0:0:0:
411,32,41462,1,0,0:0:0:0:
409,53,41577,1,0,0:0:0:0:
408,74,41692,2,0,P|353:86|332:111,1,85,0|0,0:0|0:0,0:0:0:0:
360,217,42038,1,0,0:0:0:0:
377,228,42154,6,0,L|427:232,1,42.5
319,296,42385,2,0,L|269:299,1,42.5
366,373,42615,1,0,0:0:0:0:
155,312,42846,1,0,0:0:0:0:
176,310,42962,1,0,0:0:0:0:
197,309,43077,5,6,0:0:0:0:
92,252,43308,1,0,0:0:0:0:
71,250,43424,1,0,0:0:0:0:
50,248,43538,2,0,L|43:175,1,42.5
95,146,43769,2,0,L|101:73,1,42.5,0|0,0:0|0:0,0:0:0:0:
161,196,44000,5,0,0:0:0:0:
182,194,44116,1,0,0:0:0:0:
202,192,44230,2,0,L|274:198,1,42.5
344,123,44462,2,0,L|271:129,1,42.5,0|0,0:0|0:0,0:0:0:0:
218,52,44692,2,0,L|290:58,1,42.5,0|0,0:0|0:0,0:0:0:0:
344,204,44923,5,6,0:0:0:0:
245,323,45154,1,0,0:0:0:0:
245,323,45269,1,0,0:0:0:0:
245,323,45385,2,0,L|109:312,1,127.500004863739,0|0,0:0|0:0,0:0:0:0:
63,229,45731,1,0,0:0:0:0:
63,229,45846,6,0,P|62:188|79:152,1,63.7500024318696
143,111,46077,1,0,0:0:0:0:
269,203,46308,2,0,B|305:216|334:202|334:202|368:183|410:195,1,127.500004863739,0|0,0:0|0:0,0:0:0:0:
392,191,46654,1,0,0:0:0:0:
392,191,46769,5,0,0:0:0:0:
236,285,47000,2,0,L|170:279,1,63.7500024318696,0|0,0:0|0:0,0:0:0:0:
83,139,47231,5,0,0:0:0:0:
114,137,47346,1,0,0:0:0:0:
192,150,47462,5,0,0:0:0:0:
223,148,47577,1,0,0:0:0:0:
302,125,47692,6,0,L|296:196,1,63.7500024318696,8|8,0:0|0:0,0:0:0:0:
109,333,47923,2,0,L|103:262,1,63.7500024318696,8|8,0:0|0:0,0:0:0:0:
108,42,48154,5,8,0:0:0:0:
183,32,48269,1,8,0:0:0:0:
257,55,48385,5,8,0:0:0:0:
332,48,48500,1,8,0:0:0:0:
402,82,48615,6,0,B|441:161|375:218|375:218|348:201|316:211,1,212.5,6|0,0:0|0:0,0:0:0:0:
162,200,48962,6,0,B|210:126|293:155|293:155|290:186|316:210,1,212.5,6|0,0:0|0:0,0:0:0:0:
385,351,49308,6,0,P|324:329|297:256,1,106.25,6|0,0:0|0:0,0:0:0:0:
316,210,49538,5,2,0:0:0:0:
44,134,49769,6,0,P|38:194|25:214,2,85
44,134,50462,6,0,B|157:124|157:124|193:96|193:96|313:86,1,255.000009727478,6|2,0:0|0:1,0:0:0:0:
363,286,50808,1,0,0:0:0:0:
427,232,50923,2,0,B|394:204|394:204|298:197,1,127.500004863739,10|0,0:0|0:0,0:0:0:0:
253,14,51154,2,0,P|310:8|365:57,1,127.500004863739,2|0,0:1|0:0,0:0:0:0:
225,246,51385,2,0,B|180:190|211:91|289:88|289:88|304:128|300:177,1,255.000009727478,2|2,0:0|0:1,0:0:0:0:
214,267,51731,1,0,0:0:0:0:
144,313,51846,2,0,B|99:342|51:315|51:315|82:286,1,127.500004863739,10|0,0:0|0:0,0:0:0:0:
379,246,52077,1,2,0:1:0:0:
379,246,52192,1,0,0:0:0:0:
379,246,52308,6,0,P|410:183|369:107,1,127.500004863739,2|0,0:0|0:0,0:0:0:0:
190,113,52538,2,0,P|159:173|197:247,1,127.500004863739,2|0,0:1|0:0,0:0:0:0:
436,316,52769,6,0,B|466:257|466:257|436:174,1,127.500004863739,10|0,0:0|0:0,0:0:0:0:
120,169,53000,2,0,B|92:225|92:225|120:311,1,127.500004863739,2|0,0:1|0:0,0:0:0:0:
344,39,53231,2,0,B|298:-8|298:-8|280:203,1,255.000009727478,2|2,0:0|0:1,0:0:0:0:
354,332,53577,1,0,0:0:0:0:
436,316,53692,2,0,P|468:271|464:213,1,106.25,10|0,0:0|0:0,0:0:0:0:
307,185,53923,2,0,P|279:228|284:279,1,106.25,2|0,0:1|0:0,0:0:0:0:
404,136,54154,6,0,L|165:157,1,212.5,2|2,0:0|0:1,0:0:0:0:
0,97,54500,1,0,0:0:0:0:
67,53,54615,2,0,P|119:48|163:75,1,106.25,10|0,0:0|0:0,0:0:0:0:
120,250,54846,2,0,P|67:253|20:230,1,106.25,2|0,0:1|0:0,0:0:0:0:
221,7,55077,2,0,B|248:57|248:57|234:213,1,212.5,2|2,0:0|0:1,0:0:0:0:
307,325,55423,1,0,0:0:0:0:
315,245,55538,2,0,L|323:139,1,106.25,10|0,0:0|0:0,0:0:0:0:
156,74,55769,2,0,L|146:196,1,106.25,2|0,0:1|0:0,0:0:0:0:
315,245,56000,5,2,0:0:0:0:
391,225,56115,1,0,0:0:0:0:
469,208,56231,2,0,P|438:160|388:147,1,106.25,2|0,0:1|0:0,0:0:0:0:
238,206,56462,5,10,0:0:0:0:
217,283,56577,1,0,0:0:0:0:
193,358,56693,2,0,P|245:356|286:319,1,106.25,2|0,0:1|0:0,0:0:0:0:
200,49,56923,2,0,P|175:97|187:150,1,106.25,2|0,0:0|0:3,0:0:0:0:
469,208,57154,6,0,B|443:160|443:160|388:147,1,106.25,2|0,0:1|0:0,0:0:0:0:
193,358,57385,2,0,B|247:360|247:360|286:319,1,106.25,10|0,0:0|0:0,0:0:0:0:
200,49,57615,2,0,B|172:95|172:95|187:150,1,106.25,2|0,0:1|0:3,0:0:0:0:
436,290,57846,6,0,B|254:305|254:305|195:263,1,255.000009727478,6|2,0:0|0:1,0:0:0:0:
200,49,58192,1,0,0:0:0:0:
271,95,58308,2,0,P|300:164|269:237,1,127.500004863739,10|0,0:0|0:0,0:0:0:0:
119,313,58538,2,0,P|105:250|133:192,1,127.500004863739,2|0,0:1|0:0,0:0:0:0:
434,166,58769,2,0,B|446:195|467:228|467:228|399:222|399:222|375:212|375:212|355:218|355:218|270:210,1,255.000009727478,2|2,0:0|0:1,0:0:0:0:
138,118,59115,1,0,0:0:0:0:
74,68,59230,2,0,B|103:37|103:37|195:45,1,127.500004863739,10|0,0:0|0:0,0:0:0:0:
313,290,59462,1,2,0:1:0:0:
313,290,59577,1,0,0:0:0:0:
313,290,59692,6,0,B|373:316|373:316|436:300,1,127.500004863739,2|0,0:0|0:0,0:0:0:0:
448,102,59923,2,0,B|393:75|393:75|325:92,1,127.500004863739,2|0,0:1|0:0,0:0:0:0:
249,350,60154,6,0,B|266:367|266:367|342:374|342:374|365:360,1,127.500004863739,10|0,0:0|0:0,0:0:0:0:
392,34,60385,2,0,B|376:18|376:18|300:12|300:12|275:25,1,127.500004863739,2|0,0:1|0:0,0:0:0:0:
21,119,60615,2,0,B|-26:165|-26:165|185:183,1,255.000009727478,2|2,0:0|0:1,0:0:0:0:
328,91,60962,1,0,0:0:0:0:
263,151,61077,2,0,P|317:180|378:166,1,127.500004863739,10|0,0:0|0:0,0:0:0:0:
392,34,61308,2,0,P|337:4|276:19,1,127.500004863739,2|0,0:1|0:0,0:0:0:0:
86,27,61538,6,0,B|90:83|90:83|99:94|99:94|105:160,1,127.500004863739,2|0,0:0|0:0,0:0:0:0:
170,310,61769,2,0,B|174:253|174:253|183:242|183:242|189:176,1,127.500004863739,2|0,0:1|0:0,0:0:0:0:
431,25,62000,6,0,B|426:81|426:81|417:92|417:92|411:158,1,127.500004863739,10|0,0:0|0:0,0:0:0:0:
347,308,62231,2,0,B|342:251|342:251|333:240|333:240|327:174,1,127.500004863739,2|0,0:1|0:0,0:0:0:0:
111,67,62462,1,2,0:0:0:0:
185,52,62577,1,0,0:0:0:0:
258,36,62692,2,0,B|276:83|236:82|258:146,1,106.25,2|0,0:1|0:0,0:0:0:0:
430,174,62923,2,0,B|380:192|380:192|322:183,1,106.25,10|0,0:0|0:0,0:0:0:0:
179,158,63154,2,0,B|126:149|126:149|76:167,1,106.25,2|0,0:1|0:0,0:0:0:0:
347,308,63385,6,0,L|477:296,1,127.500004863739,2|0,0:0|0:0,0:0:0:0:
131,230,63615,2,0,L|0:218,1,127.500004863739,2|0,0:1|0:0,0:0:0:0:
337,1,63846,6,0,B|349:42|349:42|329:74|329:74|324:129,1,127.500004863739,10|0,0:0|0:0,0:0:0:0:
241,379,64077,2,0,B|229:337|229:337|249:305|249:305|254:250,1,127.500004863739,2|0,0:1|0:0,0:0:0:0:
223,137,64308,1,2,0:0:0:0:
150,158,64423,1,0,0:0:0:0:
80,176,64538,2,0,B|142:202|142:202|221:174,1,127.500004863739,2|0,0:1|0:0,0:0:0:0:
464,307,64769,2,0,B|408:282|408:282|347:307,1,127.500004863739,10|0,0:0|0:0,0:0:0:0:
266,119,65000,5,2,0:1:0:0:
266,119,65115,1,0,0:0:0:0:
266,119,65231,6,0,B|276:85|255:47|255:47|225:90|245:136|245:136|269:178|239:233,1,255.000009727478,6|10,0:0|0:1,0:0:0:0:
83,288,65577,1,0,0:0:0:0:
23,234,65692,2,0,P|76:206|154:246,1,127.500004863739,2|0,0:0|0:0,0:0:0:0:
358,196,65923,2,0,P|299:231|238:213,1,127.500004863739,10|0,0:1|0:1,0:1:0:0:
72,65,66154,2,0,B|48:128|48:128|74:181,1,127.500004863739,10|0,0:0|0:0,0:0:0:0:
383,82,66385,1,0,0:0:0:0:
308,59,66501,2,0,B|246:44|246:44|193:82,1,127.500004863739,8|2,0:0|0:0,0:0:0:0:
144,368,66731,1,0,0:0:0:0:
214,333,66846,2,0,B|270:301|270:301|289:230,1,127.500004863739,10|0,0:1|0:0,0:0:0:0:
498,269,67077,6,0,B|436:226|377:283|377:283|325:335|264:301,1,255.000009727478,2|10,0:0|0:1,0:0:0:0:
48,59,67423,1,0,0:0:0:0:
125,38,67538,2,0,B|186:19|186:19|243:47,1,127.500004863739,2|0,0:0|0:0,0:0:0:0:
482,179,67769,2,0,L|346:167,1,127.500004863739,10|0,0:1|0:1,0:1:0:0:
88,255,68000,2,0,P|121:202|181:186,1,127.500004863739,10|0,0:0|0:0,0:0:0:0:
422,335,68231,1,2,0:1:0:0:
354,372,68346,2,0,P|291:370|248:326,1,127.500004863739,8|2,0:0|0:0,0:0:0:0:
272,18,68577,1,0,0:0:0:0:
342,51,68692,2,0,P|370:106|355:166,1,127.500004863739,10|0,0:1|0:0,0:0:0:0:
23,288,68923,6,0,B|77:293|77:293|112:307|112:307|144:288|144:288|178:302|178:302|236:307,1,212.5,2|10,0:0|0:1,0:0:0:0:
402,220,69269,1,0,0:0:0:0:
463,269,69385,2,0,P|419:296|364:287,1,106.25,2|0,0:0|0:0,0:0:0:0:
323,68,69615,2,0,B|374:95|374:95|388:144,1,106.25,10|0,0:1|0:0,0:0:0:0:
185,253,69846,2,0,P|207:201|257:174,1,106.25,10|0,0:0|0:0,0:0:0:0:
230,352,70076,1,2,0:1:0:0:
177,293,70192,2,0,P|171:237|201:189,1,106.25,8|2,0:0|0:0,0:0:0:0:
267,356,70423,1,0,0:0:0:0:
192,330,70538,2,0,P|158:284|160:227,1,106.25,10|0,0:1|0:0,0:0:0:0:
286,12,70769,6,0,P|320:106|247:175,1,212.5,2|10,0:0|0:1,0:0:0:0:
76,75,71115,1,0,0:0:0:0:
153,57,71231,2,0,L|142:169,1,106.25,2|0,0:0|0:0,0:0:0:0:
93,257,71462,2,0,P|42:268|-8:252,1,106.25,10|0,0:1|0:0,0:0:0:0:
246,175,71692,2,0,P|296:161|345:179,1,106.25,10|0,0:0|0:0,0:0:0:0:
315,343,71923,6,0,B|364:356|364:356|412:328,1,106.25,2|8,0:1|0:0,0:0:0:0:
202,243,72154,2,0,B|166:279|166:279|167:335,1,106.25,2|0,0:0|0:0,0:0:0:0:
344,178,72385,2,0,B|331:129|331:129|283:103,1,106.25,10|0,0:1|0:0,0:0:0:0:
93,257,72615,6,0,B|145:225|196:256|196:256|245:284|296:254,1,212.5,6|10,0:0|0:1,0:0:0:0:
180,140,72962,1,0,0:0:0:0:
240,190,73077,2,0,L|360:180,1,106.25,2|0,0:0|0:0,0:0:0:0:
140,328,73308,2,0,L|21:317,1,106.25,10|0,0:1|0:0,0:0:0:0:
91,93,73538,2,0,B|73:52|19:57|19:57|-34:116|19:211,1,212.5,10|2,0:0|0:1,0:0:0:0:
184,242,73885,1,8,0:0:0:0:
240,190,74000,2,0,B|261:146|230:110|230:110|185:151,1,106.25,2|0,0:0|0:0,0:0:0:0:
219,360,74231,5,10,0:1:0:0:
219,360,74346,1,0,0:0:0:0:
219,360,74462,6,0,B|243:371|243:371|308:366|308:366|333:340,1,106.25,2|0,0:0|0:0,0:0:0:0:
308,217,74692,2,0,B|289:202|289:202|224:206|224:206|202:225,1,106.25,10|0,0:1|0:0,0:0:0:0:
395,371,74923,6,0,B|452:383|452:383|512:359,1,106.25,2|0,0:0|0:0,0:0:0:0:
486,178,75154,2,0,B|434:166|434:166|369:190,1,106.25,10|0,0:1|0:0,0:0:0:0:
262,290,75385,2,0,B|106:303|106:303|148:250,1,212.5,10|2,0:0|0:1,0:0:0:0:
209,104,75731,1,8,0:0:0:0:
275,62,75846,2,0,P|287:106|263:162,1,106.25,2|0,0:0|0:0,0:0:0:0:
43,274,76077,2,0,P|82:251|142:259,1,106.25,10|0,0:1|0:0,0:0:0:0:
305,350,76308,6,0,B|254:345|254:345|233:336|233:336|200:350|200:350|166:334|166:334|130:346|86:319,1,212.5,2|10,0:0|0:1,0:0:0:0:
53,125,76654,1,0,0:0:0:0:
129,146,76769,2,0,L|139:267,1,106.25,2|0,0:0|0:0,0:0:0:0:
34,372,77000,2,0,P|22:321|43:273,1,106.25,10|0,0:1|0:0,0:0:0:0:
200,311,77231,2,0,P|154:336|102:327,2,106.25,10|0|2,0:0|0:0|0:1,0:0:0:0:
329,167,77577,1,8,0:0:0:0:
272,112,77692,2,0,B|249:161|249:161|268:229,1,106.25,2|0,0:0|0:0,0:0:0:0:
500,182,77923,2,0,P|464:144|412:135,1,106.25,10|0,0:1|0:0,0:0:0:0:
368,329,78154,6,0,B|397:302|397:302|402:243|402:243|395:233|395:233|404:222|404:222|412:133,1,212.5,2|10,0:0|0:1,0:0:0:0:
283,8,78500,1,0,0:0:0:0:
340,61,78615,2,0,L|327:178,1,106.25,2|0,0:0|0:0,0:0:0:0:
470,366,78846,2,0,L|482:248,1,106.25,10|0,0:1|0:0,0:0:0:0:
422,29,79077,2,0,L|410:147,1,106.25,2|0,0:0|0:0,0:0:0:0:
251,224,79308,6,0,P|204:240|138:206,1,106.25,2|8,0:1|0:0,0:0:0:0:
158,30,79538,2,0,P|195:62|198:136,1,106.25,2|0,0:0|0:0,0:0:0:0:
36,208,79769,2,0,P|45:159|108:119,1,106.25,10|0,0:1|0:3,0:0:0:0:
330,96,80000,6,0,B|343:253|343:253|309:298,1,212.5,6|10,0:0|0:1,0:0:0:0:
415,113,80346,1,0,0:0:0:0:
423,191,80462,2,0,L|432:299,1,106.25,2|0,0:0|0:0,0:0:0:0:
197,285,80692,2,0,P|170:237|187:176,1,106.25,10|0,0:1|0:0,0:0:0:0:
327,32,80923,2,0,B|345:-9|399:-4|399:-4|452:55|399:150,1,212.5,10|2,0:0|0:1,0:0:0:0:
245,231,81269,1,8,0:0:0:0:
181,183,81385,2,0,B|164:139|193:103|193:103|226:125,1,106.25,2|0,0:0|0:0,0:0:0:0:
405,243,81615,5,10,0:1:0:0:
405,243,81731,1,0,0:0:0:0:
405,243,81846,6,0,B|419:297|419:297|390:352,1,106.25,2|0,0:0|0:0,0:0:0:0:
235,329,82077,2,0,B|221:275|221:275|250:220,1,106.25,10|0,0:1|0:0,0:0:0:0:
448,57,82308,6,0,P|461:122|429:170,1,106.25,2|0,0:0|0:0,0:0:0:0:
233,146,82538,2,0,P|220:81|252:33,1,106.25,10|0,0:1|0:0,0:0:0:0:
325,279,82769,2,0,B|284:303|284:303|105:284,1,212.5,10|2,0:0|0:1,0:0:0:0:
31,156,83115,1,8,0:0:0:0:
87,101,83231,2,0,P|112:151|95:201,1,106.25,2|0,0:0|0:0,0:0:0:0:
6,356,83462,2,0,L|116:365,1,106.25,10|0,0:1|0:0,0:0:0:0:
257,178,83692,6,0,B|233:145|233:145|194:182|194:182|223:230|223:230|215:318,1,212.5,2|10,0:0|0:1,0:0:0:0:
372,320,84038,1,0,0:0:0:0:
425,265,84154,2,0,L|416:153,1,106.25,2|0,0:0|0:0,0:0:0:0:
239,72,84385,2,0,L|230:183,1,106.25,10|0,0:1|0:0,0:0:0:0:
274,330,84615,2,0,P|324:342|372:321,2,106.25,10|0|2,0:0|0:0|0:1,0:0:0:0:
126,283,84962,1,8,0:0:0:0:
71,226,85077,2,0,B|123:201|123:201|185:223,1,106.25,2|0,0:0|0:0,0:0:0:0:
327,158,85308,2,0,B|352:220|298:275,1,106.25,10|0,0:1|0:0,0:0:0:0:
71,336,85538,6,0,B|40:373|40:373|120:366|120:366|133:361|133:361|148:365|148:365|216:359,1,212.5,2|10,0:0|0:1,0:0:0:0:
313,258,85885,1,0,0:0:0:0:
361,318,86000,2,0,P|315:335|256:307,1,106.25,2|0,0:0|0:0,0:0:0:0:
167,215,86231,2,0,L|156:109,1,106.25,10|0,0:1|0:0,0:0:0:0:
333,52,86462,2,0,L|321:167,2,106.25,10|0|2,0:0|0:0|0:1,0:0:0:0:
227,163,86808,1,8,0:0:0:0:
167,215,86923,2,0,P|216:242|280:221,1,106.25,2|0,0:0|0:0,0:0:0:0:
466,132,87154,2,0,P|411:109|349:129,1,106.25,10|0,0:1|0:0,0:0:0:0:
256,192,87385,12,0,89577,0:0:0:0:
