osu file format v14

[General]
AudioFilename: audio.mp3
AudioLeadIn: 0
PreviewTime: 80960
Countdown: 0
SampleSet: Normal
StackLeniency: 0.2
Mode: 0
LetterboxInBreaks: 0
WidescreenStoryboard: 0

[Editor]
Bookmarks: 28760,41560,55960,81560,94360,107160,110360,123160,137560,163160,175960,188760,214360,220760,227160,246360,271960
DistanceSpacing: 1.3
BeatDivisor: 4
GridSize: 4
TimelineZoom: 1

[Metadata]
Title:JINGO JUNGLE (ESTA Remix)
TitleUnicode:JINGO JUNGLE (ESTA Remix)
Artist:MYTH & ROID
ArtistUnicode:MYTH & ROID
Creator:Asonate
Version:Decadence
Source:幼女戦記
Tags:hardstyle youjo senki tanya of the devil anime opening remix
BeatmapID:1931259
BeatmapSetID:924618

[Difficulty]
HPDrainRate:5
CircleSize:5
OverallDifficulty:9
ApproachRate:9
SliderMultiplier:1.5
SliderTickRate:1

[Events]
//Background and Video events
0,0,"bg.jpg",0,0
//Break Periods
//Storyboard Layer 0 (Background)
//Storyboard Layer 1 (Fail)
//Storyboard Layer 2 (Pass)
//Storyboard Layer 3 (Foreground)
//Storyboard Layer 4 (Overlay)
//Storyboard Sound Samples

[TimingPoints]
1560,400,4,2,0,60,1,0
1560,-66.6666666666667,4,2,0,60,0,0
1860,-66.6666666666667,4,2,0,5,0,0
1960,-100,4,2,0,60,0,0
2360,-133.333333333333,4,2,0,60,0,0
7960,-66.6666666666667,4,2,0,60,0,0
8260,-66.6666666666667,4,2,0,5,0,0
8360,-100,4,2,0,60,0,0
8760,-133.333333333333,4,2,0,60,0,0
13760,-133.333333333333,4,2,0,5,0,0
13860,-100,4,2,0,60,0,0
14060,-100,4,2,0,5,0,0
14160,-79.9999999999999,4,2,0,60,0,0
14260,-79.9999999999999,4,2,0,5,0,0
14360,-66.6666666666667,4,1,0,60,0,0
14660,-66.6666666666667,4,1,0,5,0,0
14760,-100,4,1,0,60,0,0
20760,-66.6666666666667,4,1,0,60,0,0
20960,-66.6666666666667,4,1,0,5,0,0
21060,-66.6666666666667,4,1,0,60,0,0
27160,-303.030303030303,4,1,0,60,0,0
28760,-80,4,1,0,60,0,0
32060,-80,4,1,0,5,0,0
32160,-133.333333333333,4,1,0,60,0,0
32260,-133.333333333333,4,1,0,5,0,0
32360,-79.9999999999999,4,1,0,60,0,0
32460,-80,4,1,0,5,0,0
32560,-80,4,1,0,60,0,0
33660,-80,4,1,0,5,0,0
33760,-80,4,1,0,60,0,0
33760,-133.333333333333,4,1,0,60,0,0
33860,-133.333333333333,4,1,0,5,0,0
33960,-80,4,1,0,60,0,0
34060,-80,4,1,0,5,0,0
34160,-80,4,1,0,60,0,0
38560,-133.333333333333,4,1,0,60,0,0
38660,-133.333333333333,4,1,0,5,0,0
38760,-80,4,1,0,60,0,0
40160,-133.333333333333,4,1,0,60,0,0
40260,-133.333333333333,4,1,0,5,0,0
40360,-80,4,1,0,60,0,0
41560,-133.333333333333,4,1,0,60,0,0
51960,-100,4,1,0,60,0,0
52360,-79.9999999999999,4,1,0,60,0,0
52760,-100,4,1,0,60,0,0
53560,-133.333333333333,4,1,0,60,0,0
54260,-133.333333333333,4,1,0,5,0,0
54360,-133.333333333333,4,1,0,60,0,0
54660,-100,4,1,0,60,0,0
54960,-79.9999999999999,4,1,0,60,0,0
55160,-66.6666666666667,4,1,0,60,0,0
55560,-57.1428571428571,4,1,0,60,0,0
55760,-50,4,1,0,60,0,0
55960,-40,4,1,0,60,0,1
56260,-40,4,1,0,5,0,1
56360,-66.6666666666667,4,1,0,60,0,1
57060,-66.6666666666667,4,1,0,5,0,1
57160,-66.6666666666667,4,1,0,60,0,1
57260,-66.6666666666667,4,1,0,5,0,1
57360,-66.6666666666667,4,1,0,60,0,1
57460,-66.6666666666667,4,1,0,5,0,1
57560,-66.6666666666667,4,1,0,60,0,1
58660,-66.6666666666667,4,1,0,5,0,1
58760,-66.6666666666667,4,1,0,60,0,1
58860,-66.6666666666667,4,1,0,5,0,1
58960,-66.6666666666667,4,1,0,60,0,1
59060,-66.6666666666667,4,1,0,5,0,1
59160,-40,4,1,0,60,0,1
59460,-40,4,1,0,5,0,1
59560,-66.6666666666667,4,1,0,60,0,1
60260,-66.6666666666667,4,1,0,5,0,1
60360,-66.6666666666667,4,1,0,60,0,1
60460,-66.6666666666667,4,1,0,5,0,1
60560,-66.6666666666667,4,1,0,60,0,1
60660,-66.6666666666667,4,1,0,5,0,1
60760,-66.6666666666667,4,1,0,60,0,1
62360,-40,4,1,0,60,0,1
62660,-40,4,1,0,5,0,1
62760,-66.6666666666667,4,1,0,60,0,1
63460,-66.6666666666667,4,1,0,5,0,1
63560,-66.6666666666667,4,1,0,60,0,1
63660,-66.6666666666667,4,1,0,5,0,1
63760,-66.6666666666667,4,1,0,60,0,1
63860,-66.6666666666667,4,1,0,5,0,1
63960,-66.6666666666667,4,1,0,60,0,1
65060,-66.6666666666667,4,1,0,5,0,1
65160,-66.6666666666667,4,1,0,60,0,1
65260,-66.6666666666667,4,1,0,5,0,1
65360,-66.6666666666667,4,1,0,60,0,1
65460,-66.6666666666667,4,1,0,5,0,1
65560,-40,4,1,0,60,0,1
65860,-40,4,1,0,5,0,1
65960,-66.6666666666667,4,1,0,60,0,1
66660,-66.6666666666667,4,1,0,5,0,1
66760,-66.6666666666667,4,1,0,60,0,1
66860,-66.6666666666667,4,1,0,5,0,1
66960,-66.6666666666667,4,1,0,60,0,1
67060,-66.6666666666667,4,1,0,5,0,1
67160,-100,4,1,0,60,0,1
67860,-100,4,1,0,5,0,1
67960,-100,4,1,0,60,0,1
68260,-100,4,1,0,5,0,1
68360,-100,4,1,0,60,0,1
68760,-40,4,1,0,60,0,1
69060,-40,4,1,0,5,0,1
69160,-66.6666666666667,4,1,0,60,0,1
69860,-66.6666666666667,4,1,0,5,0,1
69960,-66.6666666666667,4,1,0,60,0,1
70060,-66.6666666666667,4,1,0,5,0,1
70160,-66.6666666666667,4,1,0,60,0,1
70260,-66.6666666666667,4,1,0,5,0,1
70360,-66.6666666666667,4,1,0,60,0,1
71460,-66.6666666666667,4,1,0,5,0,1
71560,-100,4,1,0,60,0,1
71960,-40,4,1,0,60,0,1
72260,-40,4,1,0,5,0,1
72360,-66.6666666666667,4,1,0,60,0,1
75160,-40,4,1,0,60,0,1
75460,-40,4,1,0,5,0,1
75560,-66.6666666666667,4,1,0,60,0,1
76260,-66.6666666666667,4,1,0,5,0,1
76360,-66.6666666666667,4,1,0,60,0,1
76460,-66.6666666666667,4,1,0,5,0,1
76560,-66.6666666666667,4,1,0,60,0,1
76660,-66.6666666666667,4,1,0,5,0,1
76760,-66.6666666666667,4,1,0,60,0,1
78360,-40,4,1,0,60,0,1
78660,-40,4,1,0,5,0,1
78760,-66.6666666666667,4,1,0,60,0,1
79460,-66.6666666666667,4,1,0,5,0,1
79560,-66.6666666666667,4,1,0,60,0,1
79660,-66.6666666666667,4,1,0,5,0,1
79760,-66.6666666666667,4,1,0,60,0,1
79860,-66.6666666666667,4,1,0,5,0,1
79960,-200,4,1,0,60,0,1
81560,-66.6666666666667,4,1,0,60,0,0

[HitObjects]
50,252,1560,6,0,P|130:198|222:220,1,168.750006437302
248,263,1960,6,0,P|290:265|340:244,1,75
382,189,2360,6,0,L|497:203,13,112.500004291535
343,48,7960,6,0,P|352:98|227:128,1,168.750006437302
214,95,8360,2,0,P|170:97|136:115,1,75
112,195,8760,6,0,L|-3:180,1,112.500004291535
194,182,9360,5,0,0:0:0:0:
164,259,9560,1,0,0:0:0:0:
200,184,9760,5,0,0:0:0:0:
170,261,9960,1,0,0:0:0:0:
206,186,10160,5,0,0:0:0:0:
176,263,10360,1,0,0:0:0:0:
212,188,10560,5,0,0:0:0:0:
182,265,10760,1,0,0:0:0:0:
218,190,10960,5,0,0:0:0:0:
188,267,11160,2,0,L|72:252,5,112.500004291535
273,183,13560,6,0,L|218:190,1,56.2500021457673
329,219,13860,6,0,L|237:207,1,75
333,154,14160,6,0,L|344:245,1,46.875
371,339,14360,6,0,P|339:266|400:192,1,168.750006437302
426,135,14760,6,0,L|414:44,1,75
333,154,15160,2,0,L|321:63,1,75
240,173,15560,2,0,L|228:82,1,75
303,245,15960,6,0,L|393:233,1,75
230,308,16360,2,0,L|241:398,1,75
167,235,16760,2,0,L|76:246,1,75
240,173,17160,2,0,L|228:82,1,75
235,241,17560,5,0,0:0:0:0:
298,266,17760,1,0,0:0:0:0:
341,213,17960,1,0,0:0:0:0:
303,155,18160,1,0,0:0:0:0:
338,329,18360,5,0,0:0:0:0:
240,173,18560,1,0,0:0:0:0:
340,335,18760,5,0,0:0:0:0:
341,213,18960,1,0,0:0:0:0:
235,241,19160,5,0,0:0:0:0:
244,308,19360,1,0,0:0:0:0:
183,337,19560,1,0,0:0:0:0:
136,287,19760,1,0,0:0:0:0:
291,358,19960,5,0,0:0:0:0:
169,226,20160,1,0,0:0:0:0:
297,356,20360,5,0,0:0:0:0:
183,337,20560,1,0,0:0:0:0:
357,306,20760,6,0,P|327:260|339:207,1,112.500004291535
404,174,21060,1,0,0:0:0:0:
400,247,21160,1,0,0:0:0:0:
474,67,21360,5,0,0:0:0:0:
408,100,21460,1,0,0:0:0:0:
346,59,21560,2,0,B|291:71|291:71|232:45,1,112.500004291535
284,161,21860,1,0,0:0:0:0:
290,88,21960,1,0,0:0:0:0:
338,275,22160,5,0,0:0:0:0:
278,234,22260,1,0,0:0:0:0:
218,193,22360,1,0,0:0:0:0:
343,202,22560,6,0,L|348:136,1,56.2500021457673
273,307,22760,1,0,0:0:0:0:
284,161,22960,5,0,0:0:0:0:
224,120,23060,1,0,0:0:0:0:
164,79,23160,1,0,0:0:0:0:
289,88,23360,6,0,L|294:22,1,56.2500021457673
219,193,23560,1,0,0:0:0:0:
148,298,23760,5,0,0:0:0:0:
213,266,23860,1,0,0:0:0:0:
273,307,23960,5,0,0:0:0:0:
224,120,24160,1,0,0:0:0:0:
338,275,24360,5,0,0:0:0:0:
88,257,24560,1,0,0:0:0:0:
224,120,24760,5,0,0:0:0:0:
148,298,24960,1,0,0:0:0:0:
343,202,25160,5,0,0:0:0:0:
278,234,25260,1,0,0:0:0:0:
213,266,25360,1,0,0:0:0:0:
153,225,25460,1,0,0:0:0:0:
93,184,25560,5,0,0:0:0:0:
136,162,25660,1,0,0:0:0:0:
89,232,25760,1,0,0:0:0:0:
343,202,25960,5,0,0:0:0:0:
302,174,26060,1,0,0:0:0:0:
340,250,26160,1,0,0:0:0:0:
177,188,26360,5,0,0:0:0:0:
217,217,26460,1,0,0:0:0:0:
257,246,26560,1,0,0:0:0:0:
174,239,26660,5,0,0:0:0:0:
217,217,26760,1,0,0:0:0:0:
260,196,26860,1,0,0:0:0:0:
224,120,26960,5,0,0:0:0:0:
221,169,27060,1,0,0:0:0:0:
268,60,27160,6,0,P|181:61|164:162,1,197.999999395752
225,120,28960,5,0,0:0:0:0:
338,179,29160,2,0,B|327:133|327:133|350:75,1,93.75
225,120,29560,1,0,0:0:0:0:
411,142,29760,1,0,0:0:0:0:
318,131,29960,2,0,L|504:108,1,187.5
406,99,30560,5,0,0:0:0:0:
368,190,30760,1,0,0:0:0:0:
442,254,30960,1,0,0:0:0:0:
308,111,31160,2,0,L|138:90,2,140.625
368,190,31960,6,0,L|283:200,1,46.875
436,252,32160,6,0,L|432:224,1,28.1250010728836
442,254,32360,2,0,L|431:169,1,46.875
378,328,32560,2,0,L|367:413,1,46.875
370,326,32760,5,0,0:0:0:0:
284,192,32960,5,0,0:0:0:0:
354,186,33060,1,0,0:0:0:0:
182,264,33260,5,0,0:0:0:0:
252,258,33360,1,0,0:0:0:0:
244,131,33560,6,0,L|254:46,1,46.875
166,151,33760,6,0,L|171:108,1,28.1250010728836
172,153,33960,2,0,L|182:68,1,46.875
100,175,34160,2,0,L|110:260,1,46.875
94,173,34360,5,0,0:0:0:0:
321,191,34560,5,0,0:0:0:0:
329,261,34660,1,0,0:0:0:0:
249,84,34860,5,0,0:0:0:0:
257,154,34960,1,0,0:0:0:0:
391,139,35160,5,0,0:0:0:0:
249,84,35360,1,0,0:0:0:0:
455,24,35560,2,0,P|468:68|451:111,1,93.75
249,84,35960,1,0,0:0:0:0:
391,139,36160,1,0,0:0:0:0:
404,65,36360,2,0,P|394:144|491:162,1,187.5
450,111,36960,5,0,0:0:0:0:
332,167,37160,1,0,0:0:0:0:
440,242,37360,1,0,0:0:0:0:
342,36,37560,2,0,P|288:73|185:46,2,140.625
450,111,38360,6,0,P|430:116|384:116,1,46.875
314,173,38560,6,0,P|303:171|282:162,1,28.1250010728836
320,171,38760,2,0,P|300:166|260:142,1,46.875
177,157,38960,2,0,P|182:176|181:223,1,46.875
171,155,39160,5,0,0:0:0:0:
258,233,39360,5,0,0:0:0:0:
262,303,39460,1,0,0:0:0:0:
324,101,39660,5,0,0:0:0:0:
320,171,39760,1,0,0:0:0:0:
459,328,39960,6,0,P|435:326|412:320,1,46.875
293,273,40160,6,0,P|282:282|265:310,1,28.1250010728836
291,267,40360,2,0,P|276:281|254:320,1,46.875
337,161,40560,2,0,P|342:180|342:225,1,46.875
335,155,40760,5,0,0:0:0:0:
262,166,41060,1,0,0:0:0:0:
189,177,41360,1,0,0:0:0:0:
116,188,41560,5,0,0:0:0:0:
116,188,41760,2,0,P|158:222|160:277,1,112.500004291535
100,252,42360,2,0,B|151:231|193:248|193:248|228:258|265:240,1,168.750006437302
313,198,43160,5,0,0:0:0:0:
378,193,43360,1,0,0:0:0:0:
433,227,43560,1,0,0:0:0:0:
457,286,43760,1,0,0:0:0:0:
441,347,43960,2,0,P|416:357|366:352,1,56.2500021457673
325,378,44360,2,0,P|298:371|261:337,1,56.2500021457673
212,334,44760,5,0,0:0:0:0:
212,334,44960,2,0,B|183:323|154:330|154:330|118:341|79:329,1,112.500004291535
124,268,45560,2,0,P|169:321|101:333,1,168.750006437302
36,274,46360,6,0,P|46:204|131:118,1,168.750006437302
173,173,47160,2,0,P|148:198|117:208,1,56.2500021457673
112,50,47560,2,0,P|146:60|170:81,1,56.2500021457673
108,130,47960,5,0,0:0:0:0:
108,130,48160,2,0,P|146:100|224:115,1,112.500004291535
174,173,48760,2,0,P|251:167|280:78,1,168.750006437302
237,44,49560,5,0,0:0:0:0:
172,55,49760,1,0,0:0:0:0:
142,115,49960,1,0,0:0:0:0:
174,173,50160,1,0,0:0:0:0:
176,239,50360,2,0,P|157:267|117:287,1,56.2500021457673
121,342,50760,2,0,P|87:343|47:322,1,56.2500021457673
5,358,51160,5,0,0:0:0:0:
5,358,51360,1,0,0:0:0:0:
119,235,51560,2,0,L|193:240,1,56.2500021457673
193,229,51960,2,0,L|119:234,1,75
99,222,52360,2,0,L|198:228,1,93.75
269,185,52760,5,0,0:0:0:0:
334,245,52960,1,0,0:0:0:0:
209,314,53160,2,0,P|250:303|291:304,1,75
358,318,53560,6,0,P|400:320|438:183,1,196.875007510186
478,128,54360,6,0,L|486:51,1,56.2500021457673
404,139,54660,6,0,P|369:130|326:140,1,75
450,198,54960,6,0,L|442:120,1,46.875
430,24,55160,1,0,0:0:0:0:
260,155,55360,5,0,0:0:0:0:
331,137,55460,1,0,0:0:0:0:
312,208,55560,2,0,L|386:215,1,65.6250006258488
189,135,55760,2,0,L|114:142,1,75
305,37,55960,6,0,B|310:102|259:155|259:155|260:170|260:170|217:224|238:310,1,281.25
97,236,56360,2,0,B|127:235|151:249|151:249|157:243|157:243|201:245|235:221|235:221|227:259|235:299,1,225.000008583069
331,137,56960,6,0,L|404:131,1,56.2500021457673
398,216,57160,2,0,L|471:210,1,56.2500021457673
298,161,57360,2,0,L|371:155,1,56.2500021457673
428,73,57560,5,0,0:0:0:0:
368,359,57760,1,0,0:0:0:0:
434,71,57960,5,0,0:0:0:0:
374,357,58160,2,0,L|384:226,1,112.500004291535
354,156,58560,6,0,L|298:161,1,56.2500021457673
454,211,58760,2,0,L|398:216,1,56.2500021457673
387,132,58960,2,0,L|331:137,1,56.2500021457673
230,287,59160,6,0,B|129:303|76:236|76:236|61:237|61:237|65:173|13:121,1,281.25
95,350,59560,2,0,B|114:293|77:237|77:237|103:270|137:286|179:289,1,225.000008583069
43,78,60160,6,0,L|50:156,1,56.2500021457673
117,102,60360,2,0,L|124:180,1,56.2500021457673
35,147,60560,2,0,L|42:225,1,56.2500021457673
100,26,60760,5,0,0:0:0:0:
26,305,60960,1,0,0:0:0:0:
94,24,61160,5,0,0:0:0:0:
20,303,61360,1,0,0:0:0:0:
35,147,61560,5,0,0:0:0:0:
221,126,61760,1,0,0:0:0:0:
29,145,61960,5,0,0:0:0:0:
215,124,62160,1,0,0:0:0:0:
115,248,62360,6,0,B|190:230|245:263|245:263|256:260|256:260|288:282|337:276|337:276|346:280|346:280|375:271|421:282,1,281.25
134,322,62760,2,0,B|213:319|257:260|257:260|289:282|337:276,1,225.000008583069
156,108,63360,6,0,L|163:178,1,56.2500021457673
252,117,63560,2,0,L|259:187,1,56.2500021457673
183,171,63760,2,0,L|190:241,1,56.2500021457673
348,154,63960,5,0,0:0:0:0:
51,122,64160,1,0,0:0:0:0:
342,152,64360,5,0,0:0:0:0:
45,120,64560,2,0,L|160:108,1,112.500004291535
189,227,64960,6,0,L|183:171,1,56.2500021457673
258,173,65160,2,0,L|252:117,1,56.2500021457673
162,164,65360,2,0,L|156:108,1,56.2500021457673
332,64,65560,6,0,B|326:142|257:172|257:172|267:192|267:192|241:256|267:311,1,281.25
383,202,65960,2,0,B|334:159|257:172|257:172|310:148|324:103,1,225.000008583069
209,314,66560,6,0,L|277:307,1,56.2500021457673
152,244,66760,2,0,L|220:237,1,56.2500021457673
130,340,66960,2,0,L|198:333,1,56.2500021457673
166,144,67160,6,0,B|187:94|144:59|87:82|96:136|125:165|125:165|155:194|152:257,1,262.5
34,309,67960,2,0,B|28:294|15:283|15:283|59:292|111:271,1,112.5
268,296,68360,5,0,0:0:0:0:
219,251,68460,1,0,0:0:0:0:
205,185,68560,1,0,0:0:0:0:
232,123,68660,1,0,0:0:0:0:
357,93,68760,6,0,B|325:101|290:87|290:87|279:93|279:93|198:30|66:70,1,281.25
205,185,69160,2,0,B|271:156|278:93|278:93|232:56|176:56,1,225.000008583069
103,283,69760,6,0,L|173:276,1,56.2500021457673
46,204,69960,2,0,L|116:197,1,56.2500021457673
37,306,70160,2,0,L|107:299,1,56.2500021457673
205,185,70360,5,0,0:0:0:0:
464,212,70560,1,0,0:0:0:0:
211,183,70760,5,0,0:0:0:0:
470,210,70960,2,0,L|343:222,1,112.500004291535
288,85,71360,6,0,L|281:155,1,56.2500021457673
465,105,71560,5,0,0:0:0:0:
411,65,71660,1,0,0:0:0:0:
345,54,71760,1,0,0:0:0:0:
281,73,71860,1,0,0:0:0:0:
211,183,71960,5,0,0:0:0:0:
