osu file format v14

[General]
AudioFilename: audio.mp3
AudioLeadIn: 0
PreviewTime: 49651
Countdown: 0
SampleSet: Soft
StackLeniency: 0.3
Mode: 0
LetterboxInBreaks: 0
WidescreenStoryboard: 1

[Editor]
Bookmarks: 33728,41113
DistanceSpacing: 1
BeatDivisor: 4
GridSize: 4
TimelineZoom: 1

[Metadata]
Title:JINGO JUNGLE
TitleUnicode:JINGO JUNGLE
Artist:MYTH & ROID
ArtistUnicode:MYTH & ROID
Creator:Cosmolade
Version:Easy
Source:幼女戦記
Tags:Youjo Senki Saga of Tanya the Evil opening xtrem3x Cloudchaser diraimur Lefia [_Chichinya_]
BeatmapID:1191350
BeatmapSetID:563379

[Difficulty]
HPDrainRate:3
CircleSize:2
OverallDifficulty:3
ApproachRate:4
SliderMultiplier:1
SliderTickRate:1

[Events]
//Background and Video events
Video,-155,"op.avi"
0,0,"BG.jpg",0,0
//Break Periods
2,16851,17639
2,33928,39793
//Storyboard Layer 0 (Background)
//Storyboard Layer 1 (Fail)
//Storyboard Layer 2 (Pass)
//Storyboard Layer 3 (Foreground)
//Storyboard Sound Samples

[TimingPoints]
2344,461.538461538462,4,2,1,60,1,1
2344,-100,4,2,1,60,0,1
2805,-100,4,2,1,60,0,0
9728,-100,4,2,1,60,0,1
10190,-100,4,2,1,60,0,0
33728,-100,4,2,1,30,0,0
48497,-100,4,2,1,60,0,0
50344,-100,4,2,1,60,0,1
57267,-100,4,2,1,60,0,0
57728,-100,4,2,1,60,0,1
65113,-100,4,2,1,60,0,0
72497,-100,4,2,1,60,0,1
72959,-100,4,2,1,60,0,0
79882,-100,4,2,1,60,0,1
80344,-100,4,2,1,60,0,0
87728,-100,4,2,1,40,0,0
88420,-100,4,2,1,20,0,0
89113,-100,4,2,1,5,0,0

[Colours]
Combo1 : 217,209,123
Combo2 : 186,116,116
Combo3 : 32,142,132
Combo4 : 147,147,255

[HitObjects]
256,192,497,12,4,2344,0:0:0:0:
92,304,4190,6,0,P|152:296|192:268,1,100,2|8,0:0|3:0,0:0:0:0:
156,180,5113,2,0,B|111:168|111:168|72:124,2,100,2|8|2,0:0|3:0|0:0,0:0:0:0:
256,160,6497,1,8,3:0:0:0:
356,180,6959,2,0,B|400:168|400:168|440:124,1,100,2|8,0:0|3:0,0:0:0:0:
388,39,7882,2,0,P|424:27|496:51,2,100,2|8|2,0:0|3:0|0:0,0:0:0:0:
300,88,9267,1,8,3:0:0:0:
210,131,9728,6,0,P|156:124|114:95,1,100,4|8,0:0|3:0,0:0:0:0:
23,131,10651,1,2,0:0:0:0:
5,229,11113,1,8,3:0:0:0:
72,302,11574,2,0,L|178:288,1,100,2|8,0:0|3:0,0:0:0:0:
268,265,12497,2,0,P|262:337|237:364,2,100,2|8|2,0:0|3:0|0:0,0:0:0:0:
207,185,13882,5,8,3:0:0:0:
272,109,14344,2,0,P|278:37|303:10,1,100,2|8,0:0|3:0,0:0:0:0:
369,82,15267,2,0,L|471:21,2,100,2|8|2,0:0|3:0|0:0,0:0:0:0:
332,175,16651,1,8,3:0:0:0:
183,337,18959,6,0,P|152:293|147:232,1,100,4|8,0:0|3:0,0:0:0:0:
55,203,19882,2,0,P|100:157|150:152,1,100,2|8,0:0|3:0,0:0:0:0:
232,160,20805,1,2,0:0:0:0:
329,184,21267,2,0,B|353:204|353:204|363:241|363:241|392:275,2,100,8|2|8,3:0|0:0|3:0,0:0:0:0:
294,90,22651,1,6,0:0:0:0:
194,81,23113,6,0,P|156:92|84:67,2,100,8|2|8,3:0|0:0|3:0,0:0:0:0:
294,90,24497,1,2,0:0:0:0:
375,149,24959,2,0,P|393:103|387:55,2,100,8|2|8,3:0|0:0|3:0,0:0:0:0:
287,197,26344,6,0,P|235:189|189:138,1,100,6|8,0:0|3:0,0:0:0:0:
191,59,27267,2,0,P|243:67|289:118,1,100,2|8,0:0|3:0,0:0:0:0:
287,197,28190,1,2,0:0:0:0:
214,266,28651,2,0,B|177:258|177:258|154:268|154:268|117:258,2,100,8|2|8,3:0|0:0|3:0,0:0:0:0:
290,330,30036,1,6,0:0:0:0:
340,243,30497,6,0,P|380:278|429:294,2,100,8|2|8,3:0|0:0|3:0,0:0:0:0:
256,188,31882,1,2,0:0:0:0:
172,243,32344,2,0,P|132:278|83:294,2,100,8|2|8,3:0|0:0|3:0,0:0:0:0:
180,143,33728,1,4,1:0:0:0:
166,313,41113,6,0,P|91:270|81:184,1,150,2|0,3:0|0:0,0:0:0:0:
111,119,42267,2,0,P|80:107|51:107,2,50,0|2|2,0:0|0:0|3:0,0:0:0:0:
257,152,43420,2,0,P|313:141|363:80,2,100,2|2|2,0:0|0:0|0:0,0:0:0:0:
165,111,44805,6,0,P|161:188|187:222,1,100,2|2,0:0|0:0,0:0:0:0:
229,286,45728,1,2,0:0:0:0:
328,299,46190,1,2,0:0:0:0:
256,192,46651,12,8,48497,3:0:0:0:
150,79,50344,6,0,P|188:110|204:156,1,100,4|8,0:0|3:0,0:0:0:0:
304,155,51267,2,0,P|319:110|364:75,1,100,2|8,0:0|3:0,0:0:0:0:
404,166,52190,2,0,L|439:283,2,100,2|8|2,0:0|3:0|0:0,0:0:0:0:
358,77,53574,5,8,3:0:0:0:
260,98,54036,2,0,B|212:117|212:117|140:114,1,100,2|8,0:0|3:0,0:0:0:0:
66,138,54959,1,2,0:0:0:0:
52,236,55420,1,8,3:0:0:0:
100,323,55882,2,0,P|45:338|-2:324,2,100,2|8|2,0:0|3:0|0:0,0:0:0:0:
184,269,57267,1,8,3:0:0:0:
268,323,57728,6,0,L|397:338,2,100,4|8|2,0:0|3:0|0:0,0:0:0:0:
284,224,59113,1,8,3:0:0:0:
383,235,59574,2,0,L|512:250,2,100,2|8|2,0:0|3:0|0:0,0:0:0:0:
319,157,60959,1,8,3:0:0:0:
246,88,61420,6,0,P|198:59|131:67,2,100,2|8|2,0:0|3:0|0:0,0:0:0:0:
173,156,62805,1,8,3:0:0:0:
150,253,63267,2,0,B|197:281|197:281|206:334,1,100,2|8,0:0|3:0,0:0:0:0:
304,325,64190,2,0,B|311:280|311:280|358:252,1,100,2|8,0:0|3:0,0:0:0:0:
447,206,65113,6,0,P|416:167|340:158,1,100,4|2,0:0|0:0,0:0:0:0:
365,50,66036,2,0,P|301:72|275:120,1,100,8|2,3:0|0:0,0:0:0:0:
190,56,66959,2,0,P|187:123|299:196,1,200,8|2,3:0|0:0,0:0:0:0:
374,241,68344,1,8,3:0:0:0:
322,326,68805,6,0,L|209:357,1,100,2|8,0:0|3:0,0:0:0:0:
160,276,69728,1,2,0:0:0:0:
103,193,70190,1,8,3:0:0:0:
51,107,70651,2,0,P|102:92|161:112,1,100,2|8,0:0|3:0,0:0:0:0:
234,152,71574,1,2,0:0:0:0:
320,100,72036,1,8,3:0:0:0:
399,160,72497,6,0,P|410:206|396:279,2,100,4|8|2,0:0|3:0|0:0,0:0:0:0:
320,100,73882,1,8,3:0:0:0:
234,152,74344,2,0,P|223:198|237:271,2,100,2|8|2,0:0|3:0|0:0,0:0:0:0:
260,55,75728,1,8,3:0:0:0:
163,81,76190,6,0,L|59:124,1,100,2|8,0:0|3:0,0:0:0:0:
119,206,77113,2,0,L|15:249,2,100,2|8|2,0:0|3:0|0:0,0:0:0:0:
216,229,78497,1,8,3:0:0:0:
312,255,78959,2,0,P|285:303|239:327,2,100,2|8|4,0:0|3:0|0:0,0:0:0:0:
275,161,80344,6,0,B|323:146|323:146|376:161,1,100,8|2,3:0|0:0,0:0:0:0:
466,190,81267,1,8,3:0:0:0:
493,285,81728,2,0,P|449:288|386:247,2,100,2|8|2,0:0|3:0|0:0,0:0:0:0:
466,190,83113,1,8,3:0:0:0:
392,121,83574,6,0,B|342:107|342:107|291:121,1,100,2|8,0:0|3:0,0:0:0:0:
248,208,84497,2,0,B|298:222|298:222|349:208,2,100,2|8|2,0:0|3:0|0:0,0:0:0:0:
183,131,85882,1,8,3:0:0:0:
119,208,86344,2,0,B|69:222|69:222|18:208,1,100,2|8,0:0|3:0,0:0:0:0:
256,192,87267,12,0,89459,0:0:0:0:
