osu file format v14

[General]
AudioFilename: audio.mp3
AudioLeadIn: 0
PreviewTime: 47453
Countdown: 0
SampleSet: Drum
StackLeniency: 0.7
Mode: 2
LetterboxInBreaks: 0
WidescreenStoryboard: 0

[Editor]
DistanceSpacing: 1.7
BeatDivisor: 4
GridSize: 16
TimelineZoom: 3.099999

[Metadata]
Title:HYDRA (TV Size)
TitleUnicode:HYDRA (TV Size)
Artist:MYTH & ROID
ArtistUnicode:MYTH & ROID
Creator:Hareimu
Version:Salad
Source:オーバーロードⅡ
Tags:isekai ainz ooal gown momonga overlord 2nd second season 2 ending ed Tom-H@ck hotaru kihow アニメ エンディングテーマ
BeatmapID:1608599
BeatmapSetID:745105

[Difficulty]
HPDrainRate:3
CircleSize:2.5
OverallDifficulty:7
ApproachRate:7
SliderMultiplier:1.4
SliderTickRate:1

[Events]
//Background and Video events
0,0,"background.jpg",0,0
//Break Periods
//Storyboard Layer 0 (Background)
//Storyboard Layer 1 (Fail)
//Storyboard Layer 2 (Pass)
//Storyboard Layer 3 (Foreground)
//Storyboard Layer 4 (Overlay)
//Storyboard Sound Samples

[TimingPoints]
1219,384.615384615385,4,2,2,25,1,0
1411,-100,4,2,2,5,0,0
1988,-100,4,2,2,25,0,0
2664,361.44578313253,4,2,2,80,1,0
2844,-100,4,2,2,50,0,0
4109,-100,4,2,2,80,0,0
4832,-100,4,2,2,50,0,0
5555,-100,4,2,2,80,0,0
5736,-100,4,2,2,50,0,0
7001,-100,4,2,2,80,0,0
7182,-100,4,2,2,50,0,0
8447,-100,4,2,2,80,0,0
11339,346.820809248555,4,2,1,90,1,0
11859,382.165605095541,4,2,1,90,1,0
12418,359.281437125748,4,2,1,90,1,0
13488,359.281437125748,4,2,1,100,1,0
13847,363.636363636364,4,2,1,100,1,0
14231,361.44578313253,4,2,1,100,1,0
14954,-100,4,2,2,70,0,0
17122,-100,4,2,2,80,0,0
17484,-100,4,2,2,60,0,0
17845,-100,4,2,2,50,0,0
19291,-100,4,2,2,40,0,0
20014,-100,4,2,2,70,0,0
20195,-100,4,2,2,50,0,0
20737,-100,4,2,2,70,0,0
21098,-100,4,2,2,50,0,0
22905,-100,4,2,2,60,0,0
23628,-100,4,2,2,40,0,0
24351,-100,4,2,2,50,0,0
25797,360.956534817266,4,2,2,60,1,0
28684,-100,4,2,2,70,0,0
31572,-100,4,2,2,80,0,0
34459,-100,4,2,1,80,0,0
35181,-100,4,2,1,90,0,0
35542,-100,4,2,1,100,0,0
35918,361.44578313253,4,2,1,70,1,0
36098,-100,4,2,1,25,0,0
36640,-100,4,2,1,80,0,0
37363,348.837209302326,4,2,2,50,1,0
37886,357.142857142857,4,2,2,50,1,0
38434,372.670807453416,4,2,2,50,1,0
38808,350.877192982456,4,2,2,50,1,0
39158,359.281437125748,4,2,2,50,1,0
39522,357.142857142857,4,2,2,40,1,0
40253,358.208955223881,4,2,2,50,1,0
41698,355.029585798817,4,2,2,50,1,0
42763,352.941176470588,4,2,2,50,1,0
43143,361.44578313253,4,2,2,50,1,0
44588,357.142857142857,4,2,2,50,1,0
46033,355.029585798817,4,2,2,50,1,0
48940,352.941176470588,4,3,1,90,1,1
48940,-80,4,3,1,90,0,1
49645,365.853658536585,4,3,1,90,1,1
49645,-80,4,3,1,90,0,1
50376,361.44578313253,4,3,1,90,1,1
50376,-80,4,3,1,90,0,1
51821,357.142857142857,4,3,1,90,1,1
51821,-80,4,3,1,90,0,1
52892,368.098159509202,4,3,1,90,1,1
52892,-80,4,3,1,90,0,1
53260,361.44578313253,4,3,1,90,1,1
53260,-80,4,3,1,90,0,1
54705,342.857142857143,4,2,1,90,1,1
55219,361.44578313253,4,2,1,90,1,1
55761,370.37037037037,4,2,1,90,1,1
56318,357.142857142857,4,2,1,90,1,1
56318,-80,4,2,1,90,0,1
56853,372.670807453416,4,2,1,90,1,1
56853,-80,4,2,1,90,0,1
57599,361.44578313253,4,2,1,90,1,1
58321,333.333333333333,4,2,1,100,1,1
59014,375,4,2,1,100,1,1
59014,-80,4,2,1,80,0,0
59744,361.44578313253,4,2,1,80,1,0
59789,307.692307692308,4,2,1,80,1,0
59994,324.324324324324,4,2,1,80,1,0
60102,324.324324324324,4,2,1,80,1,0
60210,357.142857142857,4,2,1,80,1,0
60490,361.44578313253,4,2,1,100,1,1
60490,-80,4,2,1,100,0,1
67899,-100,4,2,1,70,0,1
68080,-100,4,2,1,80,0,1
68441,-80,4,2,1,90,0,1
68803,-80,4,2,1,100,0,1
70610,-80,4,2,1,100,0,0
72056,-80,4,2,1,100,0,1
72236,-80,4,2,1,90,0,1
77839,-80,4,2,1,100,0,1
80730,-100,4,2,1,90,0,0
81092,-100,4,2,1,70,0,0
81453,348.837209302326,4,2,1,70,1,0
81627,-80,4,2,1,80,0,0
81801,-72.992700729927,4,2,1,90,0,0
81976,-66.6666666666667,4,2,1,95,0,0
82063,-100,4,2,1,100,0,0
82150,375,4,2,1,100,1,0
83615,368.098159509202,4,2,1,90,1,0
85248,361.44578313253,4,2,1,90,1,0
85790,-100,4,2,2,100,0,0

[Colours]
Combo1 : 255,159,64
Combo2 : 208,49,21
Combo3 : 192,192,192
Combo4 : 0,128,192
Combo5 : 0,128,64

[HitObjects]
200,298,1219,6,0,P|124:193|206:92,1,280,2|2,0:0|0:0,0:0:0:0:
481,90,2664,6,0,L|269:90,2,210,2|0|0,0:1|0:0|0:0,0:0:0:0:
306,292,4109,2,0,P|238:272|300:113,1,280,2|0,0:1|0:0,0:0:0:0:
423,116,5194,1,0,0:0:0:0:
242,104,5555,6,0,L|19:104,2,210,2|0|0,0:1|0:0|0:0,0:0:0:0:
414,96,7001,2,0,P|469:139|392:310,1,280,2|0,0:1|0:0,0:0:0:0:
94,308,8447,5,2,0:1:0:0:
256,165,9892,1,2,0:1:0:0:
418,308,10615,1,2,0:1:0:0:
139,319,11339,6,0,L|47:319,2,70,12|0|0,1:2|1:0|1:0,1:0:0:0:
235,161,11859,2,0,L|96:160,1,140,12|0,1:1|1:0,1:0:0:0:
267,159,12418,6,0,L|359:159,2,70,12|0|0,1:2|1:0|1:0,1:0:0:0:
100,53,12956,2,0,P|59:105|95:160,1,140,12|0,1:1|1:0,1:0:0:0:
195,161,13488,5,8,1:0:0:0:
125,161,13667,1,8,1:0:0:0:
195,161,13847,1,8,1:0:0:0:
376,161,14028,1,12,1:1:0:0:
44,158,14953,6,0,L|39:5,1,140,2|0,0:1|0:0,0:0:0:0:
232,75,15676,2,0,L|239:232,1,140
426,170,16399,1,2,0:0:0:0:
92,137,17122,6,0,L|80:304,1,140,2|2,0:1|0:0,0:0:0:0:
221,288,17845,2,0,P|286:213|214:164,1,210,2|0,3:2|0:0,0:0:0:0:
144,165,18568,2,0,L|64:165,2,70
431,291,19291,2,0,L|447:132,1,140,2|2,3:2|0:0,0:0:0:0:
167,155,20014,6,0,P|77:242|168:328,1,280,2|0,0:1|3:0,0:0:0:0:
305,131,21098,1,2,0:0:0:0:
165,136,21459,2,0,L|13:136,1,140,0|0,0:0|3:0,0:0:0:0:
211,213,22182,2,0,L|64:211,1,140,2|2,3:2|0:0,0:0:0:0:
350,150,22905,6,0,L|490:149,1,140,2|0,0:1|0:0,0:0:0:0:
350,154,23628,2,0,L|278:150,2,46.6666666666667,2|0|0,3:2|0:0|0:0,0:0:0:0:
398,76,23990,2,0,L|318:76,1,70,2|0,3:2|0:0,0:0:0:0:
150,152,24351,6,0,P|87:129|77:63,1,140,2|0,0:1|0:0,0:0:0:0:
166,283,24893,2,0,B|236:282|236:282|167:283,1,140,2|0,0:0|0:0,0:0:0:0:
80,229,25435,2,0,L|162:228,1,70,2|0,3:2|0:0,0:0:0:0:
339,223,25797,6,0,P|401:152|331:89,1,210,2|2,3:1|0:0,0:0:0:0:
253,87,26518,1,0,3:0:0:0:
400,86,26879,1,2,3:2:0:0:
205,84,27240,6,0,P|138:170|206:198,1,210,2|2,3:2|3:2,0:0:0:0:
268,204,27962,2,0,L|128:204,1,140,0|2,0:0|3:2,0:0:0:0:
399,306,28684,6,0,P|462:235|397:165,1,210,2|2,3:2|3:2,0:0:0:0:
329,293,29406,2,0,B|171:292,1,140,0|2,0:0|3:2,0:0:0:0:
259,292,29948,1,0,0:0:0:0:
176,128,30128,6,0,P|101:181|173:245,1,210,2|2,3:2|3:2,0:0:0:0:
277,252,30850,2,0,L|434:252,1,140,0|2,0:0|3:2,0:0:0:0:
133,259,31572,6,0,P|110:201|220:109,1,210,2|2,3:2|3:2,0:0:0:0:
272,110,32294,2,0,L|118:109,1,140,0|2,0:0|3:2,0:0:0:0:
413,108,33016,6,0,P|454:192|358:281,1,210,2|2,3:2|3:2,0:0:0:0:
320,276,33738,2,0,L|147:276,1,140,0|2,0:0|3:2,0:0:0:0:
251,107,34279,1,0,0:0:0:0:
444,280,34459,6,0,P|481:221|436:170,1,140,6|8,1:2|1:0,0:0:0:0:
374,169,35001,1,0,1:0:0:0:
200,169,35181,2,0,L|119:169,1,70,8|0,1:0|1:0,0:0:0:0:
305,68,35542,2,0,L|382:68,1,70,8|8,1:0|1:0,0:0:0:0:
305,68,35918,6,0,P|248:187|356:238,1,280,2|2,0:0|0:0,0:0:0:0:
69,343,37363,5,2,0:1:0:0:
280,343,37886,2,0,L|70:343,1,215,2|2,0:0|0:0,0:0:0:0:
243,287,38808,2,0,L|409:284,1,140,2|0,0:1|0:0,0:0:0:0:
269,287,39522,2,0,L|103:284,1,140,2|0,0:1|0:0,0:0:0:0:
401,114,40253,6,0,L|185:114,2,210,2|2|2,0:1|0:0|0:0,0:0:0:0:
227,106,41698,2,0,P|198:160|341:302,1,280,2|2,0:1|0:0,0:0:0:0:
109,293,42939,1,2,0:0:0:0:
284,293,43143,6,0,L|370:292,2,70,2|0|0,0:1|0:0|0:0,0:0:0:0:
214,298,43685,2,0,B|143:297|143:297|214:297,1,140,2|0,0:0|0:0,0:0:0:0:
297,164,44227,1,2,0:0:0:0:
37,26,44588,5,2,0:1:0:0:
324,118,45302,2,0,L|169:120,1,140,2|0,0:1|0:0,0:0:0:0:
443,135,46033,1,2,0:1:0:0:
256,192,46388,12,2,47453,0:0:0:0:
187,206,48940,6,0,L|100:205,2,87.5,12|0|8,1:1|1:0|1:2,0:0:0:0:
296,238,49469,2,0,B|387:238|387:238|293:237,1,178,0|0,1:0|1:0,0:0:0:0:
194,201,50010,2,0,L|187:101,1,87.5,8|0,1:2|1:0,0:0:0:0:
371,65,50376,5,12,1:1:0:0:
437,117,50556,1,0,1:0:0:0:
435,201,50737,1,8,1:2:0:0:
365,250,50918,1,0,1:0:0:0:
181,287,51098,2,0,L|176:188,1,87.5,12|0,1:2|1:0,0:0:0:0:
287,170,51460,2,0,L|383:170,1,87.5,8|0,1:2|1:0,0:0:0:0:
195,212,51821,5,12,1:1:0:0:
108,209,51999,2,0,L|103:106,1,87.5,0|8,1:0|1:2,0:0:0:0:
284,79,52356,2,0,P|356:105|395:205,1,175,0|0,1:0|1:0,0:0:0:0:
200,123,52892,6,0,P|154:237|249:314,1,261,8|0,1:0|1:0,0:0:0:0:
425,311,53621,2,0,P|462:249|375:160,1,175,8|8,1:2|1:1,0:0:0:0:
332,170,54163,2,0,L|425:169,1,87.5,8|8,1:2|1:2,0:0:0:0:
333,168,54525,1,8,1:2:0:0:
160,102,54705,6,0,B|89:102|89:102|173:103,1,140,12|0,1:2|1:0,0:0:0:0:
297,103,55219,2,0,B|368:103|368:103|299:102,1,140,12|0,1:1|1:0,0:0:0:0:
230,100,55761,6,0,B|160:101|160:101|229:100,1,140,12|0,1:2|1:0,0:0:0:0:
385,100,56318,2,0,B|472:100|472:100|381:100,1,175,12|0,1:1|1:0,0:0:0:0:
168,247,56853,6,0,L|262:246,1,87.5,12|0,1:2|1:0,0:0:0:0:
344,241,57225,2,0,L|244:245,1,87.5,12|0,1:1|1:0,0:0:0:0:
63,237,57598,1,4,1:1:0:0:
256,192,57960,12,0,58653,1:0:0:0:
420,314,59015,6,0,L|421:133,1,175,4|2,1:2|0:0,0:0:0:0:
245,145,59789,1,4,1:3:0:0:
420,139,60102,1,4,1:3:0:0:
113,203,60490,6,0,B|26:203|26:203|115:204,1,175,6|0,1:2|0:0,0:0:0:0:
289,205,61212,1,8,0:0:0:0:
88,98,61574,1,0,0:0:0:0:
395,170,61935,6,0,L|400:358,1,175,4|0,1:2|0:0,0:0:0:0:
224,45,62658,2,0,L|46:46,1,175,12|0,0:1|0:0,0:0:0:0:
137,165,63200,1,0,1:0:0:0:
312,165,63381,6,0,L|494:165,1,175,4|0,1:2|0:0,0:0:0:0:
311,156,64104,2,0,B|223:156|223:156|316:156,1,175,12|0,0:1|0:0,0:0:0:0:
397,155,64646,1,0,1:0:0:0:
311,228,64827,6,0,L|218:228,1,87.5,12|12,1:1|1:1,0:0:0:0:
100,228,65188,2,0,L|97:141,1,87.5,0|0,0:0|1:0,0:0:0:0:
293,99,65550,2,0,P|369:139|402:219,1,175,12|4,1:2|0:1,0:0:0:0:
87,290,66273,6,0,P|37:216|145:100,1,262.5,4|0,0:1|1:0,0:0:0:0:
221,97,66996,2,0,L|410:98,1,175,8|0,1:1|1:0,0:0:0:0:
126,141,67718,5,8,1:2:0:0:
65,198,67899,1,8,1:0:0:0:
77,282,68080,1,8,1:0:0:0:
153,318,68261,1,8,1:0:0:0:
342,249,68441,2,0,L|429:249,1,87.5,8|8,1:0|1:0,0:0:0:0:
342,242,68803,2,0,L|238:242,1,87.5,8|8,1:0|1:0,0:0:0:0:
78,282,69164,6,0,P|30:214|76:145,1,175,12|0,1:2|1:0,0:0:0:0:
164,131,69706,1,12,1:1:0:0:
353,103,69887,2,0,B|440:103|440:103|348:103,1,175,0|12,1:0|1:2,0:0:0:0:
264,101,70429,1,0,1:0:0:0:
74,134,70610,6,0,B|38:215|38:215|131:216,1,175,4|4,1:1|1:1,0:0:0:0:
301,215,71333,2,0,L|120:213,1,175,4|4,1:1|1:1,0:0:0:0:
428,283,72056,6,0,L|431:91,1,175,12|8,1:2|0:0,0:0:0:0:
256,99,72779,1,8,0:0:0:0:
431,96,73140,1,8,0:0:0:0:
116,105,73502,6,0,P|70:152|122:247,1,175,12|8,0:1|0:0,0:0:0:0:
283,245,74224,2,0,L|101:246,1,175,8|8,0:0|0:0,0:0:0:0:
388,264,74947,6,0,L|481:263,2,87.5,12|0|8,0:0|1:0|0:0,0:0:0:0:
301,264,75490,2,0,P|253:199|307:129,1,175,0|0,1:0|1:0,0:0:0:0:
389,125,76032,1,8,0:0:0:0:
195,124,76393,6,0,L|100:124,2,87.5,12|0|8,0:1|1:0|0:0,0:0:0:0:
283,262,76935,2,0,L|96:260,1,175,0|4,1:0|1:3,0:0:0:0:
196,261,77477,1,8,0:0:0:0:
459,129,77839,6,0,P|432:128|284:304,2,262.5,12|12|12,1:2|1:1|1:2,0:0:0:0:
285,127,79285,6,0,L|181:127,1,87.5,2|4,1:2|1:3,0:0:0:0:
309,237,79646,2,0,L|495:237,2,175,0|8|8,0:0|1:0|1:0,0:0:0:0:
38,160,80730,1,4,1:2:0:0:
256,192,81092,12,2,82150,0:0:0:0:
373,319,83615,6,0,L|465:319,2,70,12|0|0,1:2|1:0|1:0,1:0:0:0:
277,161,84167,2,0,L|416:160,1,140,12|0,1:1|1:0,1:0:0:0:
245,159,84719,6,0,L|153:159,2,70,12|0|0,1:2|1:0|1:0,1:0:0:0:
412,53,85248,2,0,P|453:105|417:160,1,140,12|0,1:1|1:0,1:0:0:0:
317,161,85789,5,8,1:0:0:0:
387,161,85970,1,8,1:0:0:0:
317,161,86151,1,8,1:0:0:0:
136,161,86332,1,12,1:1:0:0:
