osu file format v14

[General]
AudioFilename: audio.mp3
AudioLeadIn: 0
PreviewTime: 47453
Countdown: 0
SampleSet: Soft
StackLeniency: 0.7
Mode: 2
LetterboxInBreaks: 0
WidescreenStoryboard: 1

[Editor]
DistanceSpacing: 2.3
BeatDivisor: 4
GridSize: 16
TimelineZoom: 3.099999

[Metadata]
Title:HYDRA (TV Size)
TitleUnicode:HYDRA (TV Size)
Artist:MYTH & ROID
ArtistUnicode:MYTH & ROID
Creator:Hareimu
Version:Rain
Source:オーバーロードⅡ
Tags:isekai ainz ooal gown momonga overlord 2nd second season 2 ending ed Tom-H@ck hotaru kihow アニメ エンディングテーマ
BeatmapID:1967076
BeatmapSetID:745105

[Difficulty]
HPDrainRate:5
CircleSize:4
OverallDifficulty:9
ApproachRate:9
SliderMultiplier:1.65
SliderTickRate:2

[Events]
//Background and Video events
0,0,"background.jpg",0,0
//Break Periods
//Storyboard Layer 0 (Background)
//Storyboard Layer 1 (Fail)
//Storyboard Layer 2 (Pass)
//Storyboard Layer 3 (Foreground)
//Storyboard Layer 4 (Overlay)
//Storyboard Sound Samples

[TimingPoints]
1219,384.615384615385,4,2,2,25,1,0
1411,-100,4,2,2,5,0,0
1988,-100,4,2,2,25,0,0
2664,361.44578313253,4,2,2,80,1,0
2844,-100,4,2,2,50,0,0
4109,-100,4,2,2,80,0,0
4832,-100,4,2,2,50,0,0
5555,-100,4,2,2,80,0,0
5736,-100,4,2,2,50,0,0
7001,-100,4,2,2,80,0,0
7182,-100,4,2,2,50,0,0
8447,-100,4,2,2,80,0,0
11339,346.820809248555,4,2,1,90,1,0
11859,382.165605095541,4,2,1,90,1,0
12418,359.281437125748,4,2,1,90,1,0
13488,359.281437125748,4,2,1,100,1,0
13847,363.636363636364,4,2,1,100,1,0
14231,361.44578313253,4,2,1,100,1,0
14954,-100,4,2,2,70,0,0
16580,-100,4,2,2,50,0,0
17122,-100,4,2,2,80,0,0
17484,-100,4,2,2,60,0,0
17845,-100,4,2,2,50,0,0
19291,-100,4,2,2,40,0,0
20014,-100,4,2,2,70,0,0
20195,-100,4,2,2,50,0,0
20737,-100,4,2,2,70,0,0
21098,-100,4,2,2,50,0,0
22905,-100,4,2,2,60,0,0
23628,-100,4,2,2,40,0,0
24351,-100,4,2,2,50,0,0
25797,360.956534817266,4,2,2,60,1,0
28684,-100,4,2,2,70,0,0
31572,-100,4,2,2,80,0,0
34459,-100,4,2,1,80,0,0
35181,-100,4,2,1,90,0,0
35542,-100,4,2,1,100,0,0
35918,361.44578313253,4,2,1,70,1,0
36098,-100,4,2,1,25,0,0
36640,-100,4,2,1,80,0,0
37363,348.837209302326,4,2,2,50,1,0
37886,357.142857142857,4,2,2,50,1,0
38434,372.670807453416,4,2,2,50,1,0
38808,350.877192982456,4,2,2,50,1,0
39158,359.281437125748,4,2,2,50,1,0
39522,357.142857142857,4,2,2,40,1,0
40253,358.208955223881,4,2,2,50,1,0
41698,355.029585798817,4,2,2,50,1,0
42763,352.941176470588,4,2,2,50,1,0
43143,361.44578313253,4,2,2,50,1,0
44588,357.142857142857,4,2,2,50,1,0
46033,355.029585798817,4,2,2,50,1,0
47630,-100,4,2,1,5,0,0
47985,-100,4,2,1,25,0,0
48163,-100,4,2,1,50,0,0
48340,-100,4,2,1,5,0,0
48940,352.941176470588,4,3,1,90,1,1
48940,-80,4,3,1,90,0,1
49645,365.853658536585,4,3,1,90,1,1
50376,361.44578313253,4,3,1,90,1,1
51821,357.142857142857,4,3,1,90,1,1
52892,368.098159509202,4,3,1,90,1,1
53260,361.44578313253,4,3,1,90,1,1
53260,-80,4,3,1,90,0,1
54705,342.857142857143,4,2,1,90,1,1
54705,-80,4,2,1,90,0,1
55219,361.44578313253,4,2,1,90,1,1
55219,-80,4,2,1,90,0,1
55761,370.37037037037,4,2,1,90,1,1
55761,-80,4,2,1,90,0,1
56318,357.142857142857,4,2,1,90,1,1
56318,-80,4,2,1,90,0,1
56853,372.670807453416,4,2,1,90,1,1
56853,-80,4,2,1,90,0,1
57599,361.44578313253,4,2,1,80,1,1
57599,-80,4,2,1,80,0,1
58321,333.333333333333,4,2,1,100,1,1
58321,-80,4,2,1,100,0,1
59014,375,4,2,1,100,1,1
59014,-80,4,2,1,80,0,0
59201,-100,4,2,1,15,0,0
59389,-80,4,2,1,80,0,0
59576,-100,4,2,1,15,0,0
59744,361.44578313253,4,2,1,80,1,0
59789,307.692307692308,4,2,1,80,1,0
59789,-80,4,2,1,80,0,0
59994,324.324324324324,4,2,1,80,1,0
60102,324.324324324324,4,2,1,80,1,0
60102,-80,4,2,1,80,0,0
60210,357.142857142857,4,2,1,80,1,0
60490,361.44578313253,4,2,1,100,1,1
60490,-80,4,2,1,100,0,1
67899,-100,4,2,1,70,0,1
68080,-100,4,2,1,80,0,1
68441,-80,4,2,1,90,0,1
68803,-80,4,2,1,100,0,1
70610,-80,4,2,1,100,0,0
71694,-80,4,2,1,100,0,0
71965,-80,4,2,1,5,0,0
72056,-80,4,2,1,100,0,1
72236,-80,4,2,1,90,0,1
77839,-71.4285714285714,4,2,1,100,0,1
80730,-83.3333333333333,4,2,1,90,0,0
81453,348.837209302326,4,2,1,70,1,0
81627,-80,4,2,1,80,0,0
81801,-72.992700729927,4,2,1,90,0,0
81976,-66.6666666666667,4,2,1,95,0,0
82063,-100,4,2,1,100,0,0
82150,375,4,2,1,100,1,0
82243,-100,4,2,1,5,0,0
82900,-100,4,2,1,50,0,0
83615,368.098159509202,4,2,1,90,1,0
83615,-66.6666666666667,4,2,1,90,0,0
85248,361.44578313253,4,2,1,90,1,0
85248,-66.6666666666667,4,2,1,90,0,0
85790,-66.6666666666667,4,2,2,100,0,0

[Colours]
Combo1 : 255,159,64
Combo2 : 208,49,21
Combo3 : 192,192,192
Combo4 : 0,128,192
Combo5 : 0,128,64

[HitObjects]
91,191,1219,6,0,L|445:191,1,330,2|2,0:0|0:0,0:0:0:0:
173,282,2664,6,0,P|62:236|28:121,2,247.5,2|0|0,0:1|0:0|0:0,0:0:0:0:
337,281,4109,1,2,0:1:0:0:
48,242,4832,2,0,L|42:56,1,165,0|0,0:0|0:0,0:0:0:0:
339,282,5555,6,0,P|450:236|484:121,2,247.5,2|0|0,0:1|0:0|0:0,0:0:0:0:
173,275,7001,2,0,P|177:217|399:73,1,330,2|0,0:1|0:0,0:0:0:0:
47,70,8447,5,2,0:1:0:0:
376,70,9892,1,2,0:1:0:0:
47,70,10615,1,2,0:1:0:0:
392,75,11339,6,0,L|505:75,2,82.5,12|0|0,1:2|1:0|1:0,1:0:0:0:
120,75,11859,2,0,L|7:75,2,82.5,12|0|0,1:1|1:0|1:0,1:0:0:0:
363,116,12418,6,0,L|366:198,1,82.5,12|0,1:2|1:0,1:0:0:0:
201,204,12777,1,0,1:0:0:0:
448,203,12956,1,12,1:1:0:0:
324,205,13136,1,0,1:0:0:0:
200,208,13316,1,0,1:0:0:0:
469,62,13488,5,8,1:0:0:0:
366,95,13667,1,8,1:0:0:0:
469,62,13847,1,8,1:0:0:0:
138,62,14028,1,12,1:1:0:0:
447,49,14953,6,0,L|452:239,1,165,2|0,0:1|0:0,0:0:0:0:
246,275,15676,2,0,P|194:155|274:101,1,247.5,0|0,0:0|0:0,0:0:0:0:
446,101,16399,2,0,L|364:101,2,82.5,2|0|0,0:0|0:0|0:0,0:0:0:0:
169,136,17122,6,0,P|111:147|52:246,1,165,2|2,0:1|0:0,0:0:0:0:
343,248,17845,2,0,P|401:237|460:138,1,165,2|0,3:2|0:0,0:0:0:0:
414,84,18387,1,0,0:0:0:0:
320,84,18568,2,0,L|223:85,2,82.5
70,259,19291,2,0,L|65:83,1,165,2|2,3:2|0:0,0:0:0:0:
375,69,20014,5,2,0:1:0:0:
449,108,20194,1,0,3:0:0:0:
471,187,20375,1,0,0:0:0:0:
449,266,20556,1,0,0:0:0:0:
375,305,20737,2,0,L|203:305,1,165,0|2,3:0|0:0,0:0:0:0:
292,304,21279,1,0,0:0:0:0:
122,270,21459,5,0,0:0:0:0:
62,217,21640,1,0,0:0:0:0:
74,139,21821,1,0,3:0:0:0:
147,107,22002,1,0,0:0:0:0:
312,108,22182,2,0,L|314:212,1,82.5,2|0,3:2|0:0,0:0:0:0:
148,196,22544,2,0,L|53:197,1,82.5,2|0,0:0|0:0,0:0:0:0:
252,293,22905,6,0,L|438:291,1,165,2|0,0:1|0:0,0:0:0:0:
333,291,23447,1,0,0:0:0:0:
456,287,23628,1,2,3:2:0:0:
491,247,23749,1,0,0:0:0:0:
479,196,23869,1,0,0:0:0:0:
430,177,23990,2,0,L|320:175,1,82.5,2|0,3:2|0:0,0:0:0:0:
158,57,24351,6,0,L|333:55,1,165,2|0,0:1|0:0,0:0:0:0:
141,105,24893,2,0,P|87:155|162:209,1,165,2|0,0:0|0:0,0:0:0:0:
319,164,25435,2,0,L|425:163,1,82.5,2|0,3:2|0:0,0:0:0:0:
155,344,25797,6,0,L|70:345,2,82.5,2|0|0,3:1|0:0|0:0,0:0:0:0:
320,346,26338,1,2,0:0:0:0:
154,349,26518,2,0,P|103:323|61:212,1,165,0|2,3:0|3:2,0:0:0:0:
341,85,27240,6,0,P|432:144|359:228,1,247.5,2|2,3:2|3:2,0:0:0:0:
200,229,27962,2,0,L|17:228,1,165,0|2,0:0|3:2,0:0:0:0:
312,229,28684,6,0,L|495:228,1,165,2|0,3:2|0:0,0:0:0:0:
394,154,29226,1,2,3:2:0:0:
206,143,29406,2,0,L|23:144,1,165,0|2,0:0|3:2,0:0:0:0:
124,218,29948,1,0,0:0:0:0:
312,229,30128,6,0,P|367:207|329:123,1,165,2|0,3:2|0:0,0:0:0:0:
254,128,30669,1,2,3:2:0:0:
439,164,30850,2,0,P|457:252|370:274,1,165,0|2,0:0|3:2,0:0:0:0:
71,287,31572,6,0,L|241:284,1,165,2|0,3:2|0:0,0:0:0:0:
257,204,32113,1,2,3:2:0:0:
235,284,32294,2,0,L|71:287,1,165,0|2,0:0|3:2,0:0:0:0:
379,200,33016,6,0,P|351:125|275:99,1,165,2|0,3:2|0:0,0:0:0:0:
101,96,33557,1,2,3:2:0:0:
206,98,33738,2,0,P|266:130|300:223,1,165,0|2,0:0|3:2,0:0:0:0:
174,217,34279,1,0,0:0:0:0:
462,286,34459,6,0,L|463:199,1,82.5,6|0,1:2|1:0,0:0:0:0:
289,205,34820,2,0,L|181:205,1,82.5,8|0,1:0|1:0,0:0:0:0:
381,206,35181,2,0,L|386:105,1,82.5,8|0,1:0|1:0,0:0:0:0:
137,126,35542,1,8,1:0:0:0:
302,126,35723,1,8,1:0:0:0:
135,128,35918,6,0,P|24:227|120:340,1,330,2|2,0:0|0:0,0:0:0:0:
450,98,37363,6,0,P|479:156|394:211,1,165,2|0,0:1|0:0,0:0:0:0:
243,216,37886,2,0,L|135:216,2,82.5,2|0|0,0:0|0:0|0:0,0:0:0:0:
414,219,38434,2,0,L|420:119,1,82.5,2|0,0:0|0:0,0:0:0:0:
229,62,38808,5,2,0:1:0:0:
155,101,38983,1,0,0:0:0:0:
133,180,39158,1,0,0:0:0:0:
155,259,39337,1,0,0:0:0:0:
229,320,39522,2,0,L|336:318,1,82.5,2|0,0:0|0:0,0:0:0:0:
485,315,39879,2,0,L|394:314,1,82.5,0|0,0:0|0:0,0:0:0:0:
213,305,40253,6,0,P|141:268|113:192,1,165,2|0,0:1|0:0,0:0:0:0:
293,186,40790,2,0,L|393:185,2,82.5,2|0|0,0:0|0:0|0:0,0:0:0:0:
119,187,41327,2,0,L|111:74,1,82.5,2|0,0:0|0:0,0:0:0:0:
300,107,41698,5,2,0:1:0:0:
361,160,41875,1,0,0:0:0:0:
349,237,42053,1,0,0:0:0:0:
270,262,42230,1,0,0:0:0:0:
92,267,42408,2,0,L|85:162,1,82.5,2|0,0:0|0:0,0:0:0:0:
210,181,42763,1,0,0:0:0:0:
86,182,42939,1,2,0:0:0:0:
349,195,43143,6,0,L|246:195,2,82.5,2|0|0,0:1|0:0|0:0,0:0:0:0:
162,190,43685,2,0,P|126:129|192:72,1,165,2|0,0:0|0:0,0:0:0:0:
358,70,44227,2,0,L|459:67,1,82.5,2|0,0:0|0:0,0:0:0:0:
255,224,44588,6,0,L|163:225,1,82.5,2|0,0:1|0:0,0:0:0:0:
255,224,44945,2,0,L|347:225,1,82.5,0|0,0:0|0:0,0:0:0:0:
150,189,45302,2,0,L|147:77,1,82.5,2|0,0:1|0:0,0:0:0:0:
335,68,45659,2,0,L|338:180,1,82.5,0|0,0:0|0:0,0:0:0:0:
146,353,46033,5,2,0:1:0:0:
81,301,46210,1,0,0:0:0:0:
60,222,46388,1,0,0:0:0:0:
81,146,46565,1,0,0:0:0:0:
151,102,46743,1,0,0:0:0:0:
258,100,46920,1,0,0:0:0:0:
328,142,47098,1,0,0:0:0:0:
349,221,47275,1,0,0:0:0:0:
328,142,47453,6,0,P|218:86|95:71,1,247.5,2|0,0:0|0:0,0:0:0:0:
256,110,48163,2,0,P|295:109|446:291,1,288.75,2|0,0:0|0:0,0:0:0:0:
117,303,48940,5,12,1:1:0:0:
71,282,49028,1,0,1:0:0:0:
59,234,49116,1,0,1:0:0:0:
75,189,49204,1,0,1:0:0:0:
123,173,49292,1,8,1:2:0:0:
379,168,49469,5,0,1:0:0:0:
431,167,49557,1,0,1:0:0:0:
483,167,49645,1,8,1:2:0:0:
431,167,49736,1,0,1:0:0:0:
379,167,49827,1,0,1:0:0:0:
121,176,50010,1,8,1:2:0:0:
117,124,50102,1,0,1:0:0:0:
114,73,50193,1,0,1:0:0:0:
373,78,50376,5,12,1:1:0:0:
423,103,50466,1,0,1:0:0:0:
456,146,50556,1,0,1:0:0:0:
464,196,50647,1,0,1:0:0:0:
449,245,50737,1,8,1:2:0:0:
409,283,50827,1,0,1:0:0:0:
356,302,50918,1,0,1:0:0:0:
74,298,51098,5,12,1:2:0:0:
34,258,51189,1,0,1:0:0:0:
42,209,51279,1,0,1:0:0:0:
92,182,51369,1,0,1:0:0:0:
247,185,51460,1,8,1:2:0:0:
201,185,51550,1,0,1:0:0:0:
155,186,51641,1,0,1:0:0:0:
109,185,51731,1,0,1:0:0:0:
324,207,51821,5,12,1:1:0:0:
377,191,51910,1,0,1:0:0:0:
422,157,51999,1,0,1:0:0:0:
450,109,52088,1,0,1:0:0:0:
458,53,52178,1,8,1:2:0:0:
188,207,52356,5,0,1:0:0:0:
135,191,52446,1,0,1:0:0:0:
90,157,52535,1,8,1:2:0:0:
62,109,52624,1,0,1:0:0:0:
54,53,52713,1,0,1:0:0:0:
363,315,52892,5,8,1:2:0:0:
417,301,52984,1,0,1:0:0:0:
440,242,53076,1,0,1:0:0:0:
427,185,53168,1,0,1:0:0:0:
375,149,53260,1,12,1:1:0:0:
313,146,53350,1,0,1:0:0:0:
143,147,53440,2,0,L|136:68,1,51.5625,0|0,1:0|1:0,0:0:0:0:
345,131,53621,5,8,1:2:0:0:
392,144,53711,1,0,1:0:0:0:
409,191,53802,1,0,1:0:0:0:
381,231,53892,1,0,1:0:0:0:
148,289,53982,1,8,1:1:0:0:
143,237,54073,1,0,1:0:0:0:
235,238,54163,1,8,1:2:0:0:
286,237,54253,1,0,1:0:0:0:
193,237,54344,1,8,1:2:0:0:
186,185,54434,1,0,1:0:0:0:
390,160,54525,2,0,L|475:159,1,51.5625,8|0,1:2|1:0,0:0:0:0:
131,110,54705,6,0,L|11:109,2,103.125,12|0|0,1:2|1:0|1:0,0:0:0:0:
424,164,55219,2,0,L|313:162,1,103.125,12|0,1:1|1:0,0:0:0:0:
165,163,55580,1,0,1:0:0:0:
451,277,55761,6,0,L|347:276,2,103.125,12|0|0,1:2|1:0|1:0,0:0:0:0:
191,277,56318,2,0,L|189:173,1,103.125,12|0,1:1|1:0,0:0:0:0:
344,169,56675,1,0,1:0:0:0:
36,169,56853,2,0,L|32:58,1,103.125,12|0,1:2|1:0,0:0:0:0:
291,64,57225,1,12,1:1:0:0:
136,65,57412,1,0,1:0:0:0:
448,332,57599,6,0,L|451:253,1,51.5625,4|0,1:1|1:0,0:0:0:0:
347,272,57779,2,0,L|344:193,1,51.5625,0|0,1:1|1:0,0:0:0:0:
433,220,57960,2,0,L|421:147,1,51.5625,0|0,1:0|1:0,0:0:0:0:
322,161,58141,2,0,L|305:110,1,51.5625,0|0,1:0|1:0,0:0:0:0:
392,101,58321,6,0,L|345:46,1,51.5625,0|0,1:0|1:0,0:0:0:0:
254,63,58487,2,0,L|184:61,1,51.5625,0|0,1:0|1:0,0:0:0:0:
98,62,58654,2,0,L|90:117,1,51.5625,0|0,1:0|1:0,1:0:0:0:
193,128,58821,2,0,L|266:125,1,51.5625,0|0,1:0|1:0,1:0:0:0:
434,333,59014,6,0,P|472:280|403:224,1,154.6875,4|0,1:2|0:0,0:0:0:0:
315,221,59389,2,0,L|154:222,1,154.6875,2|0,0:0|2:3,0:0:0:0:
263,222,59789,2,0,L|280:143,2,68.75,4|4|4,1:3|1:3|1:3,0:0:0:0:
123,222,60102,2,0,L|39:221,1,68.75,4|4,1:3|1:3,0:0:0:0:
109,222,60329,1,4,1:3:0:0:
399,205,60490,6,0,P|444:121|341:82,1,206.25,6|0,1:2|0:0,0:0:0:0:
241,74,61032,1,0,1:0:0:0:
433,73,61212,2,0,L|436:184,1,103.125,8|0,0:0|1:0,0:0:0:0:
160,172,61574,2,0,L|56:171,1,103.125,0|0,0:0|1:0,0:0:0:0:
316,171,61935,6,0,L|424:170,2,103.125,4|0|0,1:2|1:0|0:0,0:0:0:0:
161,172,62477,1,0,1:0:0:0:
419,172,62658,2,0,L|197:171,1,206.25,12|0,0:1|0:0,0:0:0:0:
347,171,63200,1,0,1:0:0:0:
63,114,63381,6,0,L|176:114,1,103.125,4|0,1:2|1:0,0:0:0:0:
475,114,63743,2,0,L|362:114,1,103.125,0|0,0:0|1:0,0:0:0:0:
86,172,64104,2,0,L|307:173,1,206.25,12|0,0:1|0:0,0:0:0:0:
395,170,64646,1,0,1:0:0:0:
138,175,64827,5,12,1:1:0:0:
136,123,64917,1,0,1:0:0:0:
134,71,65008,1,12,1:1:0:0:
289,69,65188,2,0,L|292:175,1,103.125,0|0,0:0|1:0,0:0:0:0:
28,294,65550,2,0,L|136:296,1,103.125,12|0,1:2|1:0,0:0:0:0:
380,296,65911,2,0,L|483:295,1,103.125,4|0,0:1|1:0,0:0:0:0:
126,151,66273,6,0,L|17:150,2,103.125,4|0|0,0:1|0:0|1:0,0:0:0:0:
250,153,66815,1,0,1:0:0:0:
62,242,66996,2,0,L|170:243,1,103.125,8|0,1:1|1:0,0:0:0:0:
446,230,67357,2,0,L|448:104,1,103.125,0|0,1:0|1:0,0:0:0:0:
202,271,67718,5,8,1:2:0:0:
310,272,67899,1,8,1:0:0:0:
187,80,68080,1,8,1:0:0:0:
325,80,68261,1,8,1:0:0:0:
77,93,68441,2,0,L|72:215,1,103.125,8|8,1:0|1:0,0:0:0:0:
435,93,68803,2,0,L|440:215,1,103.125,8|8,1:0|1:0,0:0:0:0:
51,300,69164,6,0,L|155:301,1,103.125,12|0,1:2|1:0,0:0:0:0:
461,300,69526,2,0,L|466:182,1,103.125,0|12,1:0|1:1,0:0:0:0:
206,177,69887,2,0,L|83:177,1,103.125,0|0,1:0|1:0,0:0:0:0:
257,174,70249,1,12,1:2:0:0:
103,177,70429,1,0,1:0:0:0:
362,178,70610,6,0,L|366:107,1,51.5625,4|8,1:1|1:3,0:0:0:0:
278,127,70791,2,0,L|259:73,1,51.5625,8|0,1:3|1:0,0:0:0:0:
365,80,70971,2,0,L|329:129,1,51.5625,4|4,1:1|1:3,0:0:0:0:
248,128,71152,2,0,L|186:129,1,51.5625,4|0,1:3|1:0,0:0:0:0:
395,182,71333,5,4,1:1:0:0:
438,217,71423,1,8,1:3:0:0:
433,266,71514,1,8,1:3:0:0:
385,294,71604,1,0,1:0:0:0:
177,304,71694,2,0,P|161:304|69:194,1,154.6875,4|0,1:1|0:0,0:0:0:0:
377,221,72056,6,0,L|487:221,1,103.125,12|0,1:2|1:0,0:0:0:0:
326,162,72417,2,0,L|436:162,1,103.125,8|0,0:0|1:0,0:0:0:0:
182,160,72779,2,0,L|177:278,1,103.125,8|0,0:0|1:0,0:0:0:0:
464,207,73140,2,0,L|353:205,1,103.125,8|0,0:0|1:0,0:0:0:0:
103,203,73502,6,0,L|108:85,1,103.125,12|0,0:1|1:0,0:0:0:0:
264,98,73863,2,0,L|269:216,1,103.125,8|0,0:0|1:0,0:0:0:0:
114,203,74224,2,0,L|231:202,1,103.125,8|0,0:0|1:0,0:0:0:0:
479,103,74586,2,0,L|362:102,1,103.125,8|0,0:0|1:0,0:0:0:0:
33,103,74947,6,0,L|150:102,2,103.125,12|0|8,0:0|1:0|0:0,0:0:0:0:
188,100,75490,2,0,L|192:226,1,103.125,0|8,1:0|0:0,0:0:0:0:
36,206,75851,1,0,1:0:0:0:
191,208,76032,2,0,L|77:205,1,103.125,8|0,0:0|1:0,0:0:0:0:
376,102,76393,6,0,L|479:103,2,103.125,12|0|8,0:1|1:0|0:0,0:0:0:0:
221,103,76935,2,0,L|212:239,1,103.125,0|8,1:0|0:0,0:0:0:0:
370,210,77297,1,4,1:3:0:0:
112,216,77477,1,8,0:0:0:0:
69,182,77568,1,8,1:0:0:0:
78,133,77658,1,4,1:3:0:0:
130,114,77749,1,0,1:0:0:0:
363,114,77839,6,0,L|485:114,2,115.49999647522,12|0|0,1:2|1:0|1:0,0:0:0:0:
103,183,78381,1,12,1:1:0:0:
219,182,78562,1,0,1:0:0:0:
334,182,78743,1,0,1:0:0:0:
44,288,78923,6,0,L|177:285,2,115.49999647522,12|0|2,1:2|1:0|1:2,0:0:0:0:
322,162,79465,2,0,L|326:88,1,57.7499982376099,4|4,1:3|1:3,0:0:0:0:
187,105,79736,2,0,L|183:31,1,57.7499982376099,4|4,1:3|1:3,0:0:0:0:
443,311,80008,6,0,L|448:183,1,115.49999647522,8|0,1:0|1:0,0:0:0:0:
152,174,80369,1,8,1:0:0:0:
222,173,80459,1,4,1:3:0:0:
291,176,80550,1,4,1:3:0:0:
361,176,80640,1,4,1:3:0:0:
132,330,80730,6,0,P|43:195|197:121,1,346.499989425659,4|0,1:2|1:0,0:0:0:0:
397,338,81453,5,8,1:2:0:0:
453,296,81540,1,8,1:2:0:0:
481,242,81627,1,8,1:2:0:0:
486,182,81714,1,8,1:2:0:0:
468,123,81801,1,8,1:2:0:0:
431,75,81889,1,8,1:2:0:0:
372,58,81976,1,8,1:2:0:0:
299,46,82063,1,2,1:2:0:0:
18,24,82150,6,0,L|18:366,1,330,2|0,0:0|0:0,0:0:0:0:
393,91,83615,5,12,1:2:0:0:
256,91,83799,1,0,1:0:0:0:
119,89,83983,1,0,1:0:0:0:
474,258,84167,2,0,L|320:259,2,123.750004720688,12|0|0,1:1|1:0|1:0,1:0:0:0:
192,265,84719,6,0,L|185:136,1,123.750004720688,12|0,1:2|1:0,1:0:0:0:
334,141,85087,1,0,1:0:0:0:
38,126,85248,2,0,L|192:125,2,123.750004720688,12|0|0,1:1|1:0|1:0,1:0:0:0:
405,70,85790,5,8,1:2:0:0:
257,74,85970,1,8,1:0:0:0:
108,78,86151,1,8,1:0:0:0:
473,203,86332,1,12,1:1:0:0:
