osu file format v14

[General]
AudioFilename: audio.mp3
AudioLeadIn: 0
PreviewTime: 59051
Countdown: 0
SampleSet: None
StackLeniency: 0.7
Mode: 3
LetterboxInBreaks: 0
SpecialStyle: 0
WidescreenStoryboard: 1

[Editor]
Bookmarks: 11430,14141,37454,49021,60587,86611,98087,109743,121310,132876,156009,179141,205165,216731,239864,262996,274563
DistanceSpacing: 1.4
BeatDivisor: 16
GridSize: 4
TimelineZoom: 1.6

[Metadata]
Title:HYDRA
TitleUnicode:HYDRA
Artist:MYTH & ROID
ArtistUnicode:MYTH & ROID
Creator:Salty Mermaid
Version:Hard
Source:オーバーロードⅡ
Tags:Overlord Season 2 ed Ending Full Umo-
BeatmapID:1714512
BeatmapSetID:817605

[Difficulty]
HPDrainRate:8
CircleSize:7
OverallDifficulty:8
ApproachRate:5
SliderMultiplier:1.4
SliderTickRate:1

[Events]
//Background and Video events
0,0,"hydra_4.jpg",0,0
//Break Periods
//Storyboard Layer 0 (Background)
//Storyboard Layer 1 (Fail)
//Storyboard Layer 2 (Pass)
//Storyboard Layer 3 (Foreground)
//Storyboard Sound Samples
Sample,2746,0,"key8.wav",30
Sample,2746,0,"key1.wav",30
Sample,4191,0,"key9.wav",30
Sample,4191,0,"key1.wav",30
Sample,5637,0,"key13.wav",30
Sample,5637,0,"key1.wav",30
Sample,7083,0,"key1.wav",30
Sample,8529,0,"key8.wav",30
Sample,8529,0,"key1.wav",30
Sample,9974,0,"key9.wav",30
Sample,9974,0,"key1.wav",30
Sample,10697,0,"key6.wav",100
Sample,10697,0,"key1.wav",30
Sample,26962,0,"bell3.wav",20
Sample,27324,0,"bell4.wav",20
Sample,37444,0,"key3.wav",30
Sample,37444,0,"key24.wav",100
Sample,38888,0,"key3.wav",30
Sample,38888,0,"key27.wav",100
Sample,40332,0,"key26.wav",100
Sample,40332,0,"key3.wav",30
Sample,40332,0,"key27.wav",100
Sample,41777,0,"key27.wav",100
Sample,43221,0,"key9.wav",100
Sample,43221,0,"key27.wav",100
Sample,44666,0,"key16.wav",50
Sample,44666,0,"key13.wav",50
Sample,45388,0,"key24.wav",100
Sample,45388,0,"key22.wav",30
Sample,46110,0,"key27.wav",100
Sample,70879,0,"Kick.wav",60
Sample,120939,0,"drum-hitfinish.wav",40
Sample,120939,0,"drum-hitclap.wav",40
Sample,141541,0,"Kick.wav",70
Sample,179132,0,"key6.wav",60
Sample,179132,0,"key9.wav",60
Sample,179132,0,"key27.wav",60
Sample,180577,0,"key9.wav",50
Sample,182023,0,"key8.wav",40
Sample,182023,0,"key13.wav",40
Sample,183469,0,"key1.wav",50
Sample,184915,0,"key27.wav",50
Sample,184915,0,"key6.wav",50
Sample,184915,0,"key9.wav",50
Sample,186361,0,"key8.wav",30
Sample,186361,0,"key13.wav",15
Sample,187084,0,"f---ingkey.wav",50
Sample,187084,0,"key13.wav",50
Sample,187806,0,"key13.wav",30
Sample,187806,0,"key24.wav",30
Sample,189252,0,"key5.wav",30
Sample,189975,0,"key14.wav",40
Sample,190698,0,"key25_short.wav",60
Sample,191240,0,"key16_short.wav",60
Sample,192144,0,"key25_short.wav",60
Sample,192686,0,"key16_short.wav",60
Sample,193590,0,"key25_short.wav",60
Sample,195035,0,"key25_short.wav",60
Sample,196481,0,"key25_short.wav",60
Sample,197019,0,"key16_short.wav",60
Sample,197918,0,"key25_short.wav",60
Sample,198457,0,"key16_short.wav",60
Sample,226480,0,"drum-hitclap.wav",40
Sample,251058,0,"Kick.wav",70

[TimingPoints]
2746,361.44578313253,4,3,0,15,1,0
37444,361.11947035811,4,3,0,5,1,0
49011,361.44578313253,4,3,0,15,1,0
57866,346.820809248555,4,3,0,15,1,0
57866,-104.166666666667,4,3,0,15,0,0
58386,350.877192982456,4,3,0,15,1,0
58386,-103.092783505155,4,3,0,15,0,0
60578,361.44578313253,4,3,0,15,1,1
82264,-100,4,3,0,15,0,0
83710,-100,4,3,0,15,0,1
86602,-100,4,3,0,15,0,0
132867,-100,4,3,0,15,0,1
154553,-100,4,3,0,15,0,0
196481,359.281437125748,4,3,0,15,1,0
196481,-101.010101010101,4,3,0,15,0,0
199372,361.44578313253,4,3,0,15,1,0
216721,-100,4,3,0,15,0,1
262986,-100,4,3,0,15,0,0
279614,370.37037037037,4,3,0,15,1,0
279614,-98.0392156862745,4,3,0,15,0,0
280721,389.61038961039,4,3,0,15,1,0
280721,-92.5925925925926,4,3,0,15,0,0
281110,405.405405405405,4,3,0,15,1,0
281110,-89.2857142857143,4,3,0,15,0,0
281920,468.75,4,3,0,15,1,0
281920,-76.9230769230769,4,3,0,15,0,0
284262,535.714285714286,4,3,0,15,1,0
284262,-67.5675675675676,4,3,0,15,0,0
284797,606.060606060606,4,3,0,15,1,0
284797,-59.5238095238095,4,3,0,15,0,0

[HitObjects]
36,192,1300,128,0,2746:0:0:0:0:
475,192,2023,128,0,2746:0:0:0:0:
182,192,2746,1,0,0:0:0:30:key4.wav
402,192,2746,1,0,0:0:0:30:key5.wav
256,192,2926,1,0,0:0:0:30:key2.wav
329,192,3107,1,0,0:0:0:30:key1.wav
402,192,3288,1,0,0:0:0:30:key3.wav
329,192,3468,1,0,0:0:0:30:key1.wav
182,192,3649,1,0,0:0:0:30:key2.wav
256,192,3830,1,0,0:0:0:30:key1.wav
329,192,4011,1,0,0:0:0:30:key3.wav
256,192,4191,1,0,0:0:0:30:key7.wav
475,192,4191,1,0,0:0:0:30:key15.wav
109,192,4372,1,0,0:0:0:30:key2.wav
182,192,4553,1,0,0:0:0:30:key1.wav
256,192,4733,1,0,0:0:0:30:key3.wav
182,192,4914,1,0,0:0:0:30:key1.wav
36,192,5095,1,0,0:0:0:30:key2.wav
109,192,5276,1,0,0:0:0:30:key1.wav
182,192,5456,1,0,0:0:0:30:key3.wav
329,192,5637,1,0,0:0:0:30:key12.wav
475,192,5637,1,0,0:0:0:30:key16.wav
109,192,5818,1,0,0:0:0:30:key2.wav
256,192,5999,1,0,0:0:0:30:key1.wav
402,192,6179,1,0,0:0:0:30:key3.wav
329,192,6360,1,0,0:0:0:30:key1.wav
36,192,6541,1,0,0:0:0:30:key2.wav
182,192,6721,1,0,0:0:0:30:key1.wav
329,192,6902,1,0,0:0:0:30:key3.wav
109,192,7083,1,0,0:0:0:30:key17.wav
256,192,7083,1,0,0:0:0:30:key7.wav
182,192,7264,1,0,0:0:0:30:key2.wav
329,192,7444,1,0,0:0:0:30:key1.wav
475,192,7625,1,0,0:0:0:30:key3.wav
402,192,7806,1,0,0:0:0:30:key1.wav
36,192,7986,1,0,0:0:0:30:key2.wav
182,192,8167,1,0,0:0:0:30:key1.wav
329,192,8348,1,0,0:0:0:30:key3.wav
36,192,8529,1,0,0:0:0:30:key4.wav
256,192,8529,1,0,0:0:0:30:key5.wav
109,192,8709,1,0,0:0:0:30:key2.wav
182,192,8890,1,0,0:0:0:30:key1.wav
256,192,9071,1,0,0:0:0:30:key3.wav
109,192,9252,1,0,0:0:0:30:key1.wav
182,192,9432,1,0,0:0:0:30:key2.wav
256,192,9613,1,0,0:0:0:30:key1.wav
329,192,9794,1,0,0:0:0:30:key3.wav
182,192,9974,1,0,0:0:0:30:key7.wav
402,192,9974,1,0,0:0:0:30:key15.wav
256,192,10155,1,0,0:0:0:30:key2.wav
329,192,10336,1,0,0:0:0:30:key1.wav
402,192,10517,1,0,0:0:0:30:key3.wav
109,192,10697,1,0,0:0:0:100:key18.wav
329,192,10697,1,0,0:0:0:30:key15.wav
36,192,10878,1,0,0:0:0:100:key10.wav
256,192,11059,1,0,0:0:0:100:key11.wav
475,192,11239,1,0,0:0:0:100:key1.wav
36,192,11420,1,0,0:0:0:70:Crash.wav
109,192,11420,1,0,0:0:0:70:Calp.wav
402,192,11420,1,0,0:0:0:0:
182,192,11601,1,0,0:0:0:70:Kick.wav
329,192,11601,1,0,0:0:0:0:
182,192,11782,1,0,0:0:0:70:Kick.wav
256,192,11782,1,0,0:0:0:0:
36,192,11962,1,0,0:0:0:70:Crash.wav
402,192,11962,1,0,0:0:0:0:
475,192,11962,1,0,0:0:0:0:
109,192,12143,1,0,0:0:0:70:Kick.wav
329,192,12143,1,0,0:0:0:0:
182,192,12324,1,0,0:0:0:70:Kick.wav
329,192,12324,1,0,0:0:0:0:
36,192,12505,1,0,0:0:0:70:Crash.wav
256,192,12505,1,0,0:0:0:0:
475,192,12505,1,0,0:0:0:0:
109,192,12685,1,0,0:0:0:70:Kick.wav
402,192,12685,1,0,0:0:0:0:
109,192,12866,1,0,0:0:0:70:Kick.wav
329,192,12866,1,0,0:0:0:0:
182,192,13047,1,0,0:0:0:70:Crash.wav
256,192,13047,1,0,0:0:0:0:
475,192,13047,1,0,0:0:0:0:
109,192,13227,1,0,0:0:0:70:Kick.wav
402,192,13227,1,0,0:0:0:0:
256,192,13408,1,0,0:0:0:70:Kick.wav
402,192,13408,1,0,0:0:0:0:
36,192,13589,1,4,0:0:0:50:drum-hitfinish.wav
109,192,13589,1,0,0:0:0:0:
182,192,13589,1,0,0:0:0:0:
36,192,13770,1,4,0:0:0:50:drum-hitfinish.wav
109,192,13770,1,0,0:0:0:0:
256,192,13770,1,0,0:0:0:0:
329,192,13950,1,4,0:0:0:50:drum-hitfinish.wav
402,192,13950,1,0,0:0:0:0:
475,192,13950,1,0,0:0:0:0:
256,192,14131,1,0,0:0:0:70:Crash.wav
402,192,14131,1,0,0:0:0:0:
475,192,14131,1,0,0:0:0:0:
36,192,14312,1,0,0:0:0:0:
109,192,14312,1,0,0:0:0:0:
36,192,14673,1,0,0:0:0:20:bell1.wav
256,192,14673,1,0,0:0:0:0:
109,192,15035,1,0,0:0:0:20:bell2.wav
329,192,15035,1,0,0:0:0:0:
182,192,15125,1,0,0:0:0:0:
182,192,15396,1,0,0:0:0:20:bell3.wav
402,192,15396,1,0,0:0:0:0:
329,192,15577,1,0,0:0:0:0:
256,192,15758,1,0,0:0:0:20:bell4.wav
475,192,15758,1,0,0:0:0:0:
36,192,15938,1,0,0:0:0:0:
109,192,16119,1,0,0:0:0:40:Kick.wav
402,192,16119,1,0,0:0:0:0:
256,192,16480,1,0,0:0:0:0:
329,192,16661,1,0,0:0:0:0:
402,192,16842,1,0,0:0:0:40:Kick.wav
475,192,16842,1,0,0:0:0:0:
109,192,17203,1,0,0:0:0:40:Kick.wav
182,192,17203,1,0,0:0:0:0:
256,192,17565,1,0,0:0:0:20:bell5.wav
475,192,17565,1,0,0:0:0:0:
109,192,17745,1,0,0:0:0:40:Kick.wav
329,192,17745,1,0,0:0:0:0:
182,192,17926,1,0,0:0:0:20:bell6.wav
402,192,17926,1,0,0:0:0:0:
256,192,18017,1,0,0:0:0:0:
109,192,18288,1,0,0:0:0:20:bell7.wav
329,192,18288,1,0,0:0:0:0:
182,192,18468,1,0,0:0:0:0:
36,192,18649,1,0,0:0:0:20:bell8.wav
256,192,18649,1,0,0:0:0:0:
402,192,18830,1,0,0:0:0:0:
182,192,19011,1,0,0:0:0:40:Kick.wav
329,192,19011,1,0,0:0:0:0:
256,192,19191,1,0,0:0:0:0:
475,192,19372,1,0,0:0:0:0:
329,192,19553,1,0,0:0:0:0:
36,192,19733,1,0,0:0:0:40:Kick.wav
182,192,19733,1,0,0:0:0:0:
329,192,20095,1,0,0:0:0:40:Kick.wav
475,192,20095,1,0,0:0:0:0:
109,192,20276,1,0,0:0:0:0:
402,192,20456,1,0,0:0:0:0:
182,192,20637,1,0,0:0:0:40:Kick.wav
256,192,20637,1,0,0:0:0:0:
36,192,20818,1,0,0:0:0:20:bell1.wav
329,192,20818,1,0,0:0:0:0:
256,192,21179,1,0,0:0:0:0:
182,192,21360,1,0,0:0:0:0:
109,192,21541,1,0,0:0:0:20:bell9.wav
475,192,21541,1,0,0:0:0:0:
402,192,21721,1,0,0:0:0:0:
256,192,21902,1,0,0:0:0:40:Kick.wav
329,192,21902,1,0,0:0:0:0:
109,192,22083,1,0,0:0:0:0:
36,192,22264,1,0,0:0:0:0:
182,192,22444,1,0,0:0:0:0:
109,192,22625,1,0,0:0:0:40:Kick.wav
475,192,22625,1,0,0:0:0:0:
402,192,22806,1,0,0:0:0:0:
109,192,22986,1,0,0:0:0:40:Kick.wav
329,192,22986,1,0,0:0:0:20:bell9.wav
256,192,23348,1,0,0:0:0:20:bell7.wav
475,192,23348,1,0,0:0:0:0:
36,192,23529,1,0,0:0:0:40:Kick.wav
109,192,23529,1,0,0:0:0:0:
182,192,23709,1,0,0:0:0:40:Kick.wav
475,192,23709,1,0,0:0:0:10:bell10.wav
402,192,23830,1,0,0:0:0:10:bell8.wav
329,192,23950,1,0,0:0:0:10:bell10.wav
256,192,24071,1,0,0:0:0:10:bell1.wav
109,192,24252,1,0,0:0:0:0:
182,192,24432,1,0,0:0:0:0:
36,192,24794,128,0,25155:0:0:0:0:
109,192,25155,1,0,0:0:0:0:
256,192,25155,1,0,0:0:0:0:
182,192,25336,1,0,0:0:0:0:
329,192,25336,1,0,0:0:0:0:
475,192,25517,1,0,0:0:0:40:Kick.wav
402,192,25697,1,0,0:0:0:0:
36,192,25878,1,0,0:0:0:40:Kick.wav
475,192,25878,128,0,28770:0:0:0:0:
36,192,26239,1,0,0:0:0:30:dat.wav
182,192,26239,1,0,0:0:0:20:bell1.wav
329,192,26420,1,0,0:0:0:40:Kick.wav
402,192,26420,1,0,0:0:0:0:
109,192,26601,1,0,0:0:0:30:dat.wav
256,192,26601,1,0,0:0:0:20:bell2.wav
182,192,26962,1,0,0:0:0:30:dat.wav
329,192,26962,1,0,0:0:0:40:Kick.wav
256,192,27324,1,0,0:0:0:30:dat.wav
402,192,27324,1,0,0:0:0:40:Kick.wav
329,192,27685,1,0,0:0:0:30:dat.wav
109,192,27866,1,0,0:0:0:40:Kick.wav
182,192,27866,1,0,0:0:0:0:
329,192,28047,1,0,0:0:0:30:dat.wav
36,192,28408,1,0,0:0:0:30:dat.wav
256,192,28408,1,0,0:0:0:40:Kick.wav
36,192,28770,1,0,0:0:0:30:dat.wav
256,192,28770,128,0,31661:0:0:0:40:Kick.wav
402,192,29131,1,0,0:0:0:30:dat.wav
109,192,29312,1,0,0:0:0:40:Kick.wav
182,192,29312,1,0,0:0:0:0:
475,192,29492,1,0,0:0:0:30:dat.wav
329,192,29854,1,0,0:0:0:30:dat.wav
402,192,29854,1,0,0:0:0:40:Kick.wav
36,192,30035,1,0,0:0:0:10:dat.wav
402,192,30215,1,0,0:0:0:30:dat.wav
475,192,30215,1,0,0:0:0:40:Kick.wav
475,192,30486,1,0,0:0:0:0:
402,192,30577,1,0,0:0:0:30:dat.wav
36,192,30758,1,0,0:0:0:40:Kick.wav
182,192,30758,1,0,0:0:0:0:
329,192,30938,1,0,0:0:0:30:dat.wav
36,192,31300,1,0,0:0:0:30:dat.wav
402,192,31300,1,0,0:0:0:40:Kick.wav
36,192,31661,128,0,34553:0:0:0:30:dat.wav
402,192,31661,1,0,0:0:0:40:Kick.wav
329,192,32023,1,0,0:0:0:30:dat.wav
109,192,32203,1,0,0:0:0:40:Kick.wav
256,192,32203,1,0,0:0:0:0:
475,192,32384,1,0,0:0:0:30:dat.wav
182,192,32745,1,0,0:0:0:30:dat.wav
402,192,32745,1,0,0:0:0:40:Kick.wav
182,192,33107,1,0,0:0:0:30:dat.wav
402,192,33107,1,0,0:0:0:40:Kick.wav
329,192,33468,1,0,0:0:0:30:dat.wav
109,192,33649,1,0,0:0:0:40:Kick.wav
182,192,33649,1,0,0:0:0:0:
256,192,33830,1,0,0:0:0:30:dat.wav
402,192,34191,1,0,0:0:0:30:dat.wav
475,192,34191,1,0,0:0:0:40:Kick.wav
109,192,34553,1,0,0:0:0:70:Crash2.wav
402,192,34553,1,0,0:0:0:70:drumsound.wav
475,192,34553,1,0,0:0:0:0:
182,192,34733,1,0,0:0:0:70:drumsound.wav
256,192,34733,1,0,0:0:0:0:
36,192,34914,1,0,0:0:0:70:drumsound.wav
109,192,34914,1,0,0:0:0:0:
475,192,34914,1,0,0:0:0:0:
256,192,35095,1,0,0:0:0:70:drumsound.wav
329,192,35095,1,0,0:0:0:0:
36,192,35276,1,0,0:0:0:70:drumsound.wav
109,192,35276,1,0,0:0:0:0:
182,192,35276,1,0,0:0:0:0:
329,192,35456,1,0,0:0:0:70:drumsound.wav
402,192,35456,1,0,0:0:0:0:
36,192,35637,1,0,0:0:0:50:drum-hitclap.wav
256,192,35637,1,0,0:0:0:80:drumsound.wav
475,192,35637,1,0,0:0:0:0:
36,192,35818,1,0,0:0:0:50:drum-hitclap.wav
256,192,35818,1,0,0:0:0:80:drumsound.wav
475,192,35818,1,0,0:0:0:0:
182,192,35999,128,0,37444:0:0:0:0:
475,192,36721,128,0,37444:0:0:0:0:
109,192,37444,1,0,0:0:0:100:key6.wav
329,192,37444,1,0,0:0:0:100:key9.wav
36,192,37624,1,0,0:0:0:30:key20.wav
182,192,37805,1,0,0:0:0:30:key3.wav
109,192,37985,1,0,0:0:0:30:key21.wav
256,192,38166,1,0,0:0:0:30:key22.wav
475,192,38346,1,0,0:0:0:30:key23.wav
402,192,38527,1,0,0:0:0:30:key22.wav
329,192,38707,1,0,0:0:0:30:key21.wav
182,192,38888,1,0,0:0:0:100:key8.wav
402,192,38888,1,0,0:0:0:100:key13.wav
36,192,39069,1,0,0:0:0:30:key20.wav
256,192,39249,1,0,0:0:0:30:key3.wav
109,192,39430,1,0,0:0:0:30:key21.wav
329,192,39610,1,0,0:0:0:30:key22.wav
475,192,39791,1,0,0:0:0:30:key23.wav
402,192,39971,1,0,0:0:0:30:key22.wav
329,192,40152,1,0,0:0:0:30:key21.wav
256,192,40332,1,0,0:0:0:100:key9.wav
475,192,40332,1,0,0:0:0:100:key24.wav
36,192,40513,1,0,0:0:0:30:key20.wav
329,192,40694,1,0,0:0:0:30:key3.wav
109,192,40874,1,0,0:0:0:30:key21.wav
402,192,41055,1,0,0:0:0:30:key22.wav
475,192,41235,1,0,0:0:0:30:key23.wav
329,192,41416,1,0,0:0:0:30:key22.wav
182,192,41596,1,0,0:0:0:30:key21.wav
36,192,41777,1,0,0:0:0:100:key5.wav
109,192,41777,1,0,0:0:0:100:key16.wav
402,192,41777,1,0,0:0:0:30:key3.wav
182,192,41957,1,0,0:0:0:30:key20.wav
329,192,42138,1,0,0:0:0:30:key3.wav
256,192,42319,1,0,0:0:0:30:key21.wav
402,192,42499,1,0,0:0:0:30:key22.wav
475,192,42680,1,0,0:0:0:30:key23.wav
402,192,42860,1,0,0:0:0:30:key22.wav
329,192,43041,1,0,0:0:0:30:key21.wav
109,192,43221,1,0,0:0:0:100:key8.wav
182,192,43221,1,0,0:0:0:100:key25.wav
256,192,43221,1,0,0:0:0:30:key3.wav
36,192,43402,1,0,0:0:0:30:key20.wav
329,192,43583,1,0,0:0:0:30:key3.wav
109,192,43763,1,0,0:0:0:30:key21.wav
182,192,43944,1,0,0:0:0:100:key25.wav
256,192,43944,1,0,0:0:0:30:key22.wav
475,192,44124,1,0,0:0:0:30:key23.wav
402,192,44305,1,0,0:0:0:30:key22.wav
329,192,44485,1,0,0:0:0:30:key21.wav
256,192,44666,1,0,0:0:0:30:key3.wav
402,192,44666,1,0,0:0:0:50:key8.wav
109,192,44846,1,0,0:0:0:30:key20.wav
329,192,45027,1,0,0:0:0:30:key3.wav
182,192,45208,1,0,0:0:0:30:key21.wav
36,192,45388,1,0,0:0:0:100:key6.wav
109,192,45388,1,0,0:0:0:100:key29.wav
402,192,45388,1,0,0:0:0:100:key13.wav
475,192,45569,1,0,0:0:0:30:key23.wav
329,192,45749,1,0,0:0:0:30:key22.wav
182,192,45930,1,0,0:0:0:30:key21.wav
109,192,46110,1,0,0:0:0:100:key9.wav
402,192,46110,1,0,0:0:0:100:key25.wav
475,192,46110,1,0,0:0:0:30:key3.wav
36,192,46291,1,0,0:0:0:30:key20.wav
256,192,46471,1,0,0:0:0:30:key3.wav
182,192,46652,1,0,0:0:0:30:key21.wav
329,192,46833,1,0,0:0:0:30:key22.wav
475,192,47013,1,0,0:0:0:30:key23.wav
256,192,47194,1,0,0:0:0:30:key22.wav
36,192,47374,1,0,0:0:0:30:key21.wav
109,192,47555,128,0,49011:0:0:0:0:
182,192,48277,128,0,49011:0:0:0:0:
36,192,49011,1,0,0:0:0:100:Crash2.wav
475,192,49011,1,0,0:0:0:70:Kick.wav
329,192,49101,1,0,0:0:0:0:
182,192,49191,1,0,0:0:0:0:
36,192,49282,1,0,0:0:0:0:
109,192,49372,1,0,0:0:0:70:Kick.wav
475,192,49372,1,0,0:0:0:0:
402,192,49462,1,0,0:0:0:0:
329,192,49553,1,0,0:0:0:0:
256,192,49643,1,0,0:0:0:0:
36,192,49733,1,0,0:0:0:70:Kick.wav
475,192,49733,1,0,0:0:0:0:
182,192,49824,1,0,0:0:0:0:
329,192,49914,1,0,0:0:0:0:
475,192,50004,1,0,0:0:0:0:
36,192,50095,1,0,0:0:0:70:Kick.wav
402,192,50095,1,0,0:0:0:0:
109,192,50185,1,0,0:0:0:0:
182,192,50276,1,0,0:0:0:0:
256,192,50366,1,0,0:0:0:0:
329,192,50456,1,0,0:0:0:70:Kick.wav
402,192,50456,1,0,0:0:0:0:
36,192,50547,1,0,0:0:0:0:
182,192,50637,1,0,0:0:0:0:
329,192,50727,1,0,0:0:0:0:
109,192,50818,1,0,0:0:0:70:Kick.wav
475,192,50818,1,0,0:0:0:0:
256,192,50908,1,0,0:0:0:0:
402,192,50998,1,0,0:0:0:0:
182,192,51089,1,0,0:0:0:0:
36,192,51179,1,0,0:0:0:70:Kick.wav
329,192,51179,1,0,0:0:0:0:
475,192,51270,1,0,0:0:0:0:
402,192,51360,1,0,0:0:0:0:
256,192,51450,1,0,0:0:0:0:
36,192,51541,1,0,0:0:0:70:Kick.wav
109,192,51541,1,0,0:0:0:0:
329,192,51631,1,0,0:0:0:0:
182,192,51721,1,0,0:0:0:0:
36,192,51812,1,0,0:0:0:0:
402,192,51902,1,0,0:0:0:70:Kick.wav
475,192,51902,1,0,0:0:0:0:
329,192,51992,1,0,0:0:0:0:
256,192,52083,1,0,0:0:0:0:
182,192,52173,1,0,0:0:0:0:
36,192,52264,1,0,0:0:0:70:Kick.wav
109,192,52264,1,0,0:0:0:0:
475,192,52354,1,0,0:0:0:0:
402,192,52444,1,0,0:0:0:0:
329,192,52535,1,0,0:0:0:0:
36,192,52625,1,0,0:0:0:70:Kick.wav
256,192,52625,1,0,0:0:0:0:
109,192,52715,1,0,0:0:0:0:
182,192,52806,1,0,0:0:0:0:
256,192,52896,1,0,0:0:0:0:
329,192,52986,1,0,0:0:0:70:Kick.wav
475,192,52986,1,0,0:0:0:0:
36,192,53077,1,0,0:0:0:0:
109,192,53167,1,0,0:0:0:0:
182,192,53257,1,0,0:0:0:0:
256,192,53348,1,0,0:0:0:70:Kick.wav
475,192,53348,1,0,0:0:0:0:
402,192,53438,1,0,0:0:0:0:
329,192,53529,1,0,0:0:0:0:
36,192,53619,1,0,0:0:0:0:
256,192,53619,1,0,0:0:0:0:
109,192,53709,1,0,0:0:0:70:Kick.wav
182,192,53800,1,0,0:0:0:0:
256,192,53890,1,0,0:0:0:0:
329,192,53980,1,0,0:0:0:0:
402,192,54071,1,0,0:0:0:70:Kick.wav
475,192,54071,1,0,0:0:0:0:
329,192,54161,1,0,0:0:0:0:
256,192,54251,1,0,0:0:0:0:
182,192,54342,1,0,0:0:0:0:
402,192,54432,1,0,0:0:0:50:drum-hitfinish.wav
109,192,54523,1,0,0:0:0:50:drum-hitfinish.wav
329,192,54613,1,0,0:0:0:50:drum-hitfinish.wav
36,192,54703,1,0,0:0:0:50:drum-hitfinish.wav
109,192,54794,1,0,0:0:0:70:Crash.wav
402,192,54794,1,0,0:0:0:50:drum-hitfinish.wav
475,192,54794,1,0,0:0:0:0:
182,192,54974,1,0,0:0:0:70:Kick.wav
329,192,54974,1,0,0:0:0:0:
109,192,55155,1,0,0:0:0:70:Kick.wav
402,192,55155,1,0,0:0:0:0:
182,192,55336,1,0,0:0:0:70:Crash.wav
256,192,55336,1,0,0:0:0:0:
329,192,55336,1,0,0:0:0:0:
109,192,55517,1,0,0:0:0:70:Kick.wav
402,192,55517,1,0,0:0:0:0:
36,192,55697,1,0,0:0:0:70:Kick.wav
475,192,55697,1,0,0:0:0:0:
109,192,55878,1,0,0:0:0:70:Crash.wav
182,192,55878,1,0,0:0:0:0:
402,192,55878,1,0,0:0:0:0:
36,192,56059,1,0,0:0:0:70:Kick.wav
475,192,56059,1,0,0:0:0:0:
182,192,56239,1,0,0:0:0:70:Kick.wav
329,192,56239,1,0,0:0:0:0:
109,192,56420,1,0,0:0:0:70:Crash.wav
256,192,56420,1,0,0:0:0:0:
402,192,56420,1,0,0:0:0:0:
36,192,56601,1,0,0:0:0:70:Kick.wav
475,192,56601,1,0,0:0:0:0:
109,192,56782,1,0,0:0:0:70:Kick.wav
402,192,56782,1,0,0:0:0:0:
182,192,56962,1,0,0:0:0:70:Crash2.wav
256,192,56962,1,0,0:0:0:0:
329,192,56962,1,0,0:0:0:0:
36,192,57143,1,0,0:0:0:70:Kick.wav
475,192,57143,1,0,0:0:0:0:
109,192,57324,1,0,0:0:0:70:Crash.wav
329,192,57324,1,0,0:0:0:0:
402,192,57324,1,0,0:0:0:0:
182,192,57504,1,0,0:0:0:70:Kick.wav
256,192,57504,1,0,0:0:0:0:
36,192,57685,1,0,0:0:0:70:drumsound.wav
329,192,57685,1,0,0:0:0:0:
402,192,57685,1,0,0:0:0:0:
36,192,57866,1,0,0:0:0:50:drumsound.wav
109,192,57866,1,0,0:0:0:0:
475,192,57866,1,0,0:0:0:0:
182,192,57952,1,0,0:0:0:50:drumsound.wav
329,192,58039,1,0,0:0:0:50:drumsound.wav
475,192,58126,1,0,0:0:0:50:drumsound.wav
36,192,58212,1,0,0:0:0:50:drumsound.wav
182,192,58299,1,0,0:0:0:50:drumsound.wav
329,192,58386,1,0,0:0:0:50:drumsound.wav
402,192,58386,1,0,0:0:0:0:
109,192,58561,1,0,0:0:0:70:drumsound.wav
182,192,58561,1,0,0:0:0:0:
256,192,58561,1,0,0:0:0:0:
402,192,58736,1,0,0:0:0:70:drumsound.wav
475,192,58736,1,0,0:0:0:0:
182,192,58912,1,0,0:0:0:70:drumsound.wav
256,192,58912,1,0,0:0:0:0:
329,192,58912,1,0,0:0:0:0:
36,192,59087,128,0,59789:0:0:0:70:Crash2.wav
109,192,59087,1,0,0:0:0:70:drumsound.wav
475,192,59087,1,0,0:0:0:0:
109,192,59789,1,4,0:0:0:50:drum-hitfinish.wav
182,192,59789,1,0,0:0:0:0:
402,192,59877,1,8,0:0:0:50:drum-hitclap.wav
475,192,59877,128,0,60578:0:0:0:0:
36,192,60081,1,4,0:0:0:50:drum-hitfinish.wav
109,192,60081,1,0,0:0:0:0:
402,192,60198,1,8,0:0:0:50:drum-hitclap.wav
256,192,60315,1,8,0:0:0:50:drum-hitclap.wav
36,192,60432,1,4,0:0:0:50:drum-hitfinish.wav
109,192,60432,1,0,0:0:0:0:
182,192,60578,128,0,62023:0:0:0:100:Crash.wav
329,192,60578,1,0,0:0:0:60:Kick.wav
402,192,60578,1,0,0:0:0:0:
109,192,61120,1,0,0:0:0:60:Kick.wav
329,192,61120,1,0,0:0:0:0:
36,192,61300,1,0,0:0:0:70:Crash.wav
402,192,61300,1,0,0:0:0:70:clapdefault.wav
475,192,61300,1,0,0:0:0:0:
329,192,61662,1,0,0:0:0:60:Kick.wav
402,192,61662,1,0,0:0:0:0:
36,192,62023,1,0,0:0:0:60:Kick.wav
256,192,62023,128,0,62746:0:0:0:0:
402,192,62204,1,0,0:0:0:70:clapdefault.wav
475,192,62204,1,0,0:0:0:0:
36,192,62565,1,0,0:0:0:60:Kick.wav
109,192,62565,1,0,0:0:0:0:
182,192,62656,1,0,0:0:0:60:Kick.wav
329,192,62746,128,0,63469:0:0:0:70:Crash.wav
402,192,62746,1,0,0:0:0:70:clapdefault.wav
475,192,62746,1,0,0:0:0:0:
109,192,63108,1,0,0:0:0:60:Kick.wav
402,192,63108,1,0,0:0:0:0:
109,192,63469,128,0,64915:0:0:0:70:Crash.wav
256,192,63469,1,0,0:0:0:60:Kick.wav
402,192,63469,1,0,0:0:0:0:
256,192,64011,1,0,0:0:0:60:Kick.wav
475,192,64011,1,0,0:0:0:0:
182,192,64192,1,0,0:0:0:70:Crash.wav
329,192,64192,1,0,0:0:0:70:clapdefault.wav
402,192,64192,1,0,0:0:0:0:
36,192,64553,1,0,0:0:0:60:Kick.wav
256,192,64553,1,0,0:0:0:0:
36,192,64915,1,0,0:0:0:60:Kick.wav
256,192,64915,128,0,65638:0:0:0:0:
402,192,65096,1,0,0:0:0:70:clapdefault.wav
475,192,65096,1,0,0:0:0:0:
109,192,65457,1,0,0:0:0:60:Kick.wav
182,192,65457,1,0,0:0:0:0:
36,192,65638,1,0,0:0:0:70:clapdefault.wav
329,192,65638,1,0,0:0:0:0:
402,192,65638,128,0,66361:0:0:0:0:
109,192,65818,1,0,0:0:0:60:Kick.wav
182,192,65818,1,0,0:0:0:0:
256,192,65999,1,0,0:0:0:70:Crash.wav
329,192,65999,1,0,0:0:0:60:Kick.wav
36,192,66361,128,0,67806:0:0:0:50:Calp.wav
109,192,66361,1,0,0:0:0:60:Kick.wav
329,192,66361,1,0,0:0:0:0:
256,192,66541,1,0,0:0:0:0:
182,192,66722,1,0,0:0:0:60:Kick.wav
402,192,66722,1,0,0:0:0:0:
329,192,66903,1,0,0:0:0:0:
256,192,67084,1,0,0:0:0:60:Kick.wav
475,192,67084,1,0,0:0:0:0:
329,192,67264,1,0,0:0:0:0:
182,192,67445,1,0,0:0:0:60:Kick.wav
402,192,67445,1,0,0:0:0:0:
256,192,67626,1,0,0:0:0:0:
109,192,67806,128,0,68529:0:0:0:50:drumsound.wav
329,192,67806,1,0,0:0:0:60:Kick.wav
182,192,67987,1,0,0:0:0:50:drumsound.wav
402,192,67987,1,0,0:0:0:0:
256,192,68168,1,0,0:0:0:50:drumsound.wav
402,192,68168,1,0,0:0:0:60:Kick.wav
182,192,68349,1,0,0:0:0:50:drumsound.wav
402,192,68349,1,0,0:0:0:0:
36,192,68529,1,0,0:0:0:70:drumsound.wav
329,192,68529,128,0,69252:0:0:0:60:Kick.wav
182,192,68710,1,0,0:0:0:70:drumsound.wav
402,192,68710,1,0,0:0:0:0:
182,192,68891,1,0,0:0:0:70:drumsound.wav
475,192,68891,1,0,0:0:0:60:Kick.wav
182,192,69071,1,0,0:0:0:70:drumsound.wav
402,192,69071,1,0,0:0:0:0:
36,192,69252,1,0,0:0:0:70:Crash.wav
109,192,69252,1,0,0:0:0:0:
256,192,69252,1,0,0:0:0:0:
402,192,69433,1,0,0:0:0:60:Kick.wav
475,192,69433,1,0,0:0:0:0:
329,192,69614,1,0,0:0:0:60:Kick.wav
475,192,69614,1,0,0:0:0:0:
36,192,69794,1,0,0:0:0:70:Crash.wav
109,192,69794,1,0,0:0:0:0:
256,192,69794,1,0,0:0:0:0:
182,192,69975,1,0,0:0:0:60:Kick.wav
329,192,69975,1,0,0:0:0:0:
182,192,70156,1,0,0:0:0:60:Kick.wav
402,192,70156,1,0,0:0:0:0:
36,192,70337,1,0,0:0:0:70:Crash.wav
256,192,70337,1,0,0:0:0:0:
475,192,70337,1,0,0:0:0:0:
109,192,70517,1,0,0:0:0:60:Kick.wav
402,192,70517,1,0,0:0:0:0:
36,192,70698,1,0,0:0:0:70:drumsound.wav
182,192,70698,1,0,0:0:0:0:
475,192,70698,1,0,0:0:0:0:
402,192,70788,1,0,0:0:0:70:drumsound.wav
329,192,70879,1,0,0:0:0:70:drumsound.wav
36,192,71059,1,8,0:0:0:50:drum-hitclap.wav
109,192,71059,1,0,0:0:0:0:
402,192,71059,1,0,0:0:0:0:
329,192,71150,1,8,0:0:0:50:drum-hitclap.wav
256,192,71240,1,0,0:0:0:60:Kick.wav
36,192,71421,1,4,0:0:0:50:drum-hitfinish.wav
329,192,71421,1,0,0:0:0:0:
402,192,71421,1,0,0:0:0:0:
256,192,71511,1,4,0:0:0:50:drum-hitfinish.wav
182,192,71602,1,0,0:0:0:60:Kick.wav
36,192,71782,1,0,0:0:0:70:Crash2.wav
256,192,71782,128,0,72144:0:0:0:50:Calp.wav
475,192,71782,1,0,0:0:0:0:
329,192,72144,1,0,0:0:0:100:Crash.wav
402,192,72144,1,0,0:0:0:60:Kick.wav
475,192,72144,128,0,73590:0:0:0:0:
36,192,72505,1,0,0:0:0:70:clapdefault.wav
109,192,72505,1,0,0:0:0:0:
182,192,72505,1,0,0:0:0:0:
256,192,72867,1,0,0:0:0:60:Kick.wav
329,192,72867,1,0,0:0:0:0:
109,192,73047,1,0,0:0:0:60:Kick.wav
182,192,73047,1,0,0:0:0:0:
36,192,73228,1,0,0:0:0:70:clapdefault.wav
329,192,73228,1,0,0:0:0:0:
402,192,73228,1,0,0:0:0:0:
109,192,73409,1,0,0:0:0:60:Kick.wav
182,192,73409,1,0,0:0:0:0:
256,192,73590,1,0,0:0:0:60:Kick.wav
402,192,73590,128,0,75035:0:0:0:0:
36,192,73951,1,0,0:0:0:70:clapdefault.wav
109,192,73951,1,0,0:0:0:0:
329,192,73951,1,0,0:0:0:0:
182,192,74312,1,0,0:0:0:60:Kick.wav
256,192,74312,1,0,0:0:0:0:
36,192,74584,1,0,0:0:0:60:Kick.wav
109,192,74584,1,0,0:0:0:0:
256,192,74674,1,0,0:0:0:70:clapdefault.wav
329,192,74674,1,0,0:0:0:0:
475,192,74674,1,0,0:0:0:0:
109,192,74855,1,0,0:0:0:60:Kick.wav
182,192,74855,1,0,0:0:0:0:
256,192,75035,1,0,0:0:0:60:Kick.wav
329,192,75035,128,0,76481:0:0:0:0:
36,192,75397,1,0,0:0:0:70:clapdefault.wav
182,192,75397,1,0,0:0:0:0:
475,192,75397,1,0,0:0:0:0:
36,192,75758,1,0,0:0:0:60:Kick.wav
182,192,75758,1,0,0:0:0:0:
109,192,75939,1,0,0:0:0:60:Kick.wav
256,192,75939,1,0,0:0:0:0:
182,192,76120,1,0,0:0:0:70:clapdefault.wav
402,192,76120,1,0,0:0:0:0:
475,192,76120,1,0,0:0:0:0:
36,192,76300,1,0,0:0:0:60:Kick.wav
109,192,76300,1,0,0:0:0:0:
256,192,76481,128,0,77927:0:0:0:60:Kick.wav
475,192,76481,1,0,0:0:0:0:
109,192,76843,1,0,0:0:0:70:clapdefault.wav
182,192,76843,1,0,0:0:0:0:
402,192,76843,1,0,0:0:0:0:
182,192,77204,1,0,0:0:0:60:Kick.wav
329,192,77204,1,0,0:0:0:0:
109,192,77385,1,4,0:0:0:50:drum-hitfinish.wav
402,192,77385,1,0,0:0:0:0:
36,192,77565,1,0,0:0:0:70:drumsound.wav
475,192,77565,1,0,0:0:0:0:
109,192,77656,1,0,0:0:0:70:drumsound.wav
402,192,77656,1,0,0:0:0:0:
182,192,77746,1,0,0:0:0:70:drumsound.wav
329,192,77746,1,8,0:0:0:50:drum-hitclap.wav
36,192,77927,1,0,0:0:0:70:Crash.wav
402,192,77927,1,0,0:0:0:0:
475,192,77927,1,0,0:0:0:0:
109,192,78108,1,0,0:0:0:60:Kick.wav
329,192,78108,1,0,0:0:0:0:
182,192,78288,1,0,0:0:0:60:Kick.wav
329,192,78288,1,0,0:0:0:0:
36,192,78469,1,0,0:0:0:70:Crash.wav
256,192,78469,1,0,0:0:0:0:
475,192,78469,1,0,0:0:0:0:
182,192,78650,1,0,0:0:0:60:Kick.wav
402,192,78650,1,0,0:0:0:0:
182,192,78831,1,0,0:0:0:60:Kick.wav
329,192,78831,1,0,0:0:0:0:
36,192,79011,1,0,0:0:0:70:Crash.wav
256,192,79011,1,0,0:0:0:0:
475,192,79011,1,0,0:0:0:0:
182,192,79192,1,0,0:0:0:60:Kick.wav
402,192,79192,1,0,0:0:0:0:
109,192,79373,1,0,0:0:0:60:Kick.wav
402,192,79373,1,0,0:0:0:0:
36,192,79553,1,0,0:0:0:50:Calp.wav
182,192,79553,1,0,0:0:0:0:
256,192,79599,1,8,0:0:0:40:drum-hitclap.wav
475,192,79824,1,4,0:0:0:40:drum-hitfinish.wav
329,192,79915,1,4,0:0:0:40:drum-hitfinish.wav
36,192,80096,128,0,80818:0:0:0:60:Kick.wav
182,192,80096,1,0,0:0:0:0:
402,192,80457,1,4,0:0:0:40:drum-hitfinish.wav
475,192,80457,1,0,0:0:0:0:
329,192,80547,1,4,0:0:0:40:drum-hitfinish.wav
256,192,80638,1,4,0:0:0:40:drum-hitfinish.wav
182,192,80728,1,4,0:0:0:40:drum-hitfinish.wav
109,192,80818,1,0,0:0:0:100:Crash2.wav
402,192,80818,1,4,0:0:0:40:drum-hitfinish.wav
475,192,80818,128,0,81541:0:0:0:0:
256,192,81541,1,0,0:0:0:70:drumsound.wav
402,192,81541,1,0,0:0:0:0:
109,192,81632,1,0,0:0:0:70:drumsound.wav
402,192,81722,1,0,0:0:0:70:drumsound.wav
109,192,81812,1,0,0:0:0:70:drumsound.wav
256,192,81903,1,0,0:0:0:70:drumsound.wav
329,192,81903,1,0,0:0:0:0:
182,192,81993,1,0,0:0:0:70:drumsound.wav
329,192,82084,1,0,0:0:0:70:drumsound.wav
182,192,82174,1,0,0:0:0:70:drumsound.wav
475,192,82264,128,0,83710:0:0:0:0:
36,192,82987,128,0,83710:0:0:0:0:
109,192,83710,1,0,0:0:0:70:Crash.wav
256,192,83710,1,0,0:0:0:0:
329,192,83710,1,0,0:0:0:0:
182,192,83891,1,0,0:0:0:60:Kick.wav
402,192,83891,1,0,0:0:0:0:
256,192,84071,1,0,0:0:0:60:Kick.wav
402,192,84071,1,0,0:0:0:0:
36,192,84252,1,0,0:0:0:70:Crash.wav
182,192,84252,1,0,0:0:0:0:
329,192,84252,1,0,0:0:0:0:
109,192,84433,1,0,0:0:0:60:Kick.wav
402,192,84433,1,0,0:0:0:0:
109,192,84614,1,0,0:0:0:60:Kick.wav
475,192,84614,1,0,0:0:0:0:
182,192,84794,1,0,0:0:0:70:Crash.wav
329,192,84794,1,0,0:0:0:0:
402,192,84794,1,0,0:0:0:0:
36,192,84975,1,0,0:0:0:60:Kick.wav
256,192,84975,1,0,0:0:0:0:
109,192,85156,1,0,0:0:0:60:Kick.wav
256,192,85156,1,0,0:0:0:0:
182,192,85337,1,0,0:0:0:70:Crash.wav
402,192,85337,1,0,0:0:0:0:
475,192,85337,1,0,0:0:0:0:
256,192,85517,1,0,0:0:0:60:Kick.wav
329,192,85517,1,0,0:0:0:0:
182,192,85698,1,0,0:0:0:60:Kick.wav
329,192,85698,1,0,0:0:0:0:
36,192,85879,1,4,0:0:0:50:drum-hitfinish.wav
109,192,85879,1,0,0:0:0:0:
475,192,85879,1,0,0:0:0:0:
256,192,86059,1,4,0:0:0:50:drum-hitfinish.wav
475,192,86059,1,0,0:0:0:0:
36,192,86240,1,4,0:0:0:50:drum-hitfinish.wav
329,192,86240,1,0,0:0:0:0:
402,192,86240,1,0,0:0:0:0:
36,192,86421,1,0,0:0:0:70:Crash.wav
256,192,86421,1,0,0:0:0:0:
475,192,86421,1,0,0:0:0:0:
109,192,86602,1,0,0:0:0:0:
402,192,86602,1,0,0:0:0:0:
36,192,86963,1,0,0:0:0:20:bell1.wav
256,192,86963,1,0,0:0:0:0:
402,192,87144,1,0,0:0:0:40:Kick.wav
475,192,87144,1,0,0:0:0:0:
109,192,87324,1,0,0:0:0:20:bell2.wav
329,192,87324,1,0,0:0:0:0:
182,192,87686,1,0,0:0:0:20:bell3.wav
402,192,87686,1,0,0:0:0:0:
329,192,87867,1,0,0:0:0:0:
256,192,88047,1,0,0:0:0:20:bell4.wav
475,192,88047,1,0,0:0:0:0:
182,192,88228,1,0,0:0:0:0:
109,192,88409,1,0,0:0:0:40:Kick.wav
329,192,88409,1,0,0:0:0:0:
402,192,88590,1,0,0:0:0:0:
256,192,88770,1,0,0:0:0:0:
329,192,88951,1,0,0:0:0:0:
182,192,89132,1,0,0:0:0:40:Kick.wav
402,192,89132,1,0,0:0:0:0:
109,192,89493,1,0,0:0:0:40:Kick.wav
402,192,89493,1,0,0:0:0:0:
182,192,89538,1,0,0:0:0:0:
329,192,89674,1,0,0:0:0:0:
256,192,89855,1,0,0:0:0:20:bell5.wav
475,192,89855,1,0,0:0:0:0:
36,192,90035,1,0,0:0:0:40:Kick.wav
109,192,90035,1,0,0:0:0:0:
182,192,90216,1,0,0:0:0:20:bell6.wav
402,192,90216,1,0,0:0:0:0:
256,192,90397,1,0,0:0:0:0:
109,192,90577,1,0,0:0:0:20:bell7.wav
329,192,90577,1,0,0:0:0:0:
182,192,90758,1,0,0:0:0:0:
36,192,90939,1,0,0:0:0:20:bell8.wav
256,192,90939,1,0,0:0:0:0:
109,192,91120,1,0,0:0:0:0:
182,192,91300,1,0,0:0:0:40:Kick.wav
402,192,91300,1,0,0:0:0:20:bell7.wav
329,192,91481,1,0,0:0:0:0:
36,192,91662,1,0,0:0:0:20:bell1.wav
256,192,91662,1,0,0:0:0:0:
256,192,91843,1,0,0:0:0:0:
329,192,92023,1,0,0:0:0:40:Kick.wav
475,192,92023,1,0,0:0:0:0:
36,192,92385,1,0,0:0:0:40:Kick.wav
475,192,92385,1,0,0:0:0:0:
109,192,92565,128,0,92746:0:0:0:0:
402,192,92746,1,0,0:0:0:20:bell12.wav
109,192,92927,128,0,93469:0:0:0:0:
402,192,93108,128,0,93469:0:0:0:20:bell1.wav
182,192,93469,1,0,0:0:0:20:bell2.wav
329,192,93469,1,0,0:0:0:0:
475,192,93650,1,0,0:0:0:0:
256,192,93831,1,0,0:0:0:20:bell3.wav
402,192,93831,1,0,0:0:0:0:
182,192,94011,1,0,0:0:0:0:
36,192,94192,1,0,0:0:0:40:Kick.wav
109,192,94192,1,0,0:0:0:0:
256,192,94553,1,0,0:0:0:0:
475,192,94553,128,0,94734:0:0:0:0:
109,192,94915,1,0,0:0:0:40:Kick.wav
402,192,94915,1,0,0:0:0:0:
182,192,95096,1,0,0:0:0:40:Kick.wav
329,192,95096,1,0,0:0:0:0:
36,192,95276,1,0,0:0:0:40:Kick.wav
256,192,95276,1,0,0:0:0:20:bell9.wav
256,192,95638,1,0,0:0:0:20:bell7.wav
475,192,95638,1,0,0:0:0:0:
182,192,95660,1,0,0:0:0:0:
36,192,95818,1,0,0:0:0:40:Kick.wav
329,192,95818,1,0,0:0:0:0:
109,192,95999,1,0,0:0:0:40:Kick.wav
402,192,95999,1,0,0:0:0:10:bell10.wav
329,192,96120,1,0,0:0:0:10:bell8.wav
182,192,96240,1,0,0:0:0:10:bell10.wav
36,192,96361,1,0,0:0:0:10:bell1.wav
256,192,96541,1,0,0:0:0:0:
475,192,96541,1,0,0:0:0:0:
402,192,96722,1,0,0:0:0:0:
182,192,96812,1,0,0:0:0:0:
109,192,97084,1,0,0:0:0:40:Kick.wav
329,192,97084,1,0,0:0:0:0:
36,192,97445,1,0,0:0:0:0:
256,192,97445,128,0,98168:0:0:0:0:
109,192,97626,1,0,0:0:0:0:
329,192,97626,1,0,0:0:0:0:
182,192,97806,128,0,98168:0:0:0:70:Crash2.wav
402,192,97806,1,0,0:0:0:0:
36,192,98168,1,0,0:0:0:100:Crash.wav
329,192,98168,1,0,0:0:0:40:Kick.wav
475,192,98168,128,0,100156:0:0:0:0:
36,192,98710,1,0,0:0:0:40:Kick.wav
329,192,98710,1,0,0:0:0:0:
109,192,98868,1,0,0:0:0:40:Calp.wav
256,192,98868,1,0,0:0:0:0:
402,192,98868,1,0,0:0:0:0:
36,192,99410,1,0,0:0:0:40:Calp.wav
182,192,99410,1,0,0:0:0:0:
329,192,99410,1,0,0:0:0:0:
109,192,99614,1,0,0:0:0:0:
402,192,99614,1,0,0:0:0:0:
182,192,99975,1,0,0:0:0:40:Kick.wav
256,192,99975,1,0,0:0:0:0:
36,192,100314,1,0,0:0:0:40:Calp.wav
109,192,100314,1,0,0:0:0:0:
475,192,100314,128,0,101059:0:0:0:0:
182,192,100517,1,0,0:0:0:40:Kick.wav
402,192,100517,1,0,0:0:0:0:
256,192,100879,1,0,0:0:0:40:Kick.wav
329,192,100879,1,0,0:0:0:0:
36,192,101059,1,0,0:0:0:40:Kick.wav
182,192,101059,128,0,103206:0:0:0:0:
402,192,101059,1,0,0:0:0:0:
402,192,101602,1,0,0:0:0:40:Kick.wav
475,192,101602,1,0,0:0:0:0:
36,192,101692,1,0,0:0:0:40:Kick.wav
109,192,101692,1,0,0:0:0:0:
256,192,101760,1,0,0:0:0:40:Calp.wav
329,192,101760,1,0,0:0:0:0:
402,192,101760,1,0,0:0:0:0:
36,192,102302,1,0,0:0:0:40:Calp.wav
109,192,102302,1,0,0:0:0:0:
402,192,102302,1,0,0:0:0:0:
256,192,102505,1,0,0:0:0:0:
475,192,102505,1,0,0:0:0:0:
109,192,102867,1,0,0:0:0:40:Kick.wav
402,192,102867,1,0,0:0:0:0:
36,192,103206,1,0,0:0:0:40:Calp.wav
256,192,103206,1,0,0:0:0:0:
329,192,103206,128,0,103951:0:0:0:0:
109,192,103386,1,0,0:0:0:40:Kick.wav
402,192,103386,1,0,0:0:0:0:
182,192,103567,1,0,0:0:0:40:Kick.wav
475,192,103567,1,0,0:0:0:0:
36,192,103951,128,0,105397:0:0:0:40:Kick.wav
109,192,103951,1,0,0:0:0:0:
402,192,103951,1,0,0:0:0:0:
109,192,104493,1,0,0:0:0:40:Kick.wav
256,192,104493,1,0,0:0:0:0:
182,192,104651,1,0,0:0:0:40:Calp.wav
329,192,104651,1,0,0:0:0:0:
402,192,104651,1,0,0:0:0:0:
256,192,105193,1,0,0:0:0:40:Calp.wav
402,192,105193,1,0,0:0:0:0:
475,192,105193,1,0,0:0:0:0:
182,192,105397,128,0,105939:0:0:0:40:Kick.wav
329,192,105397,1,0,0:0:0:0:
402,192,105758,1,0,0:0:0:40:Kick.wav
475,192,105758,1,0,0:0:0:0:
329,192,105939,128,0,106481:0:0:0:0:
36,192,106097,1,0,0:0:0:40:Calp.wav
109,192,106097,1,0,0:0:0:0:
256,192,106097,1,0,0:0:0:0:
182,192,106300,1,0,0:0:0:40:Kick.wav
402,192,106300,1,0,0:0:0:0:
36,192,106481,128,0,106843:0:0:0:0:
475,192,106481,1,0,0:0:0:0:
182,192,106843,1,8,0:0:0:40:drum-hitclap.wav
256,192,106843,1,0,0:0:0:0:
329,192,106933,1,0,0:0:0:0:
182,192,107023,1,0,0:0:0:20:Clap.wav
329,192,107114,1,0,0:0:0:30:Clap.wav
109,192,107204,1,0,0:0:0:30:Clap.wav
256,192,107204,1,0,0:0:0:0:
402,192,107294,1,0,0:0:0:30:Clap.wav
109,192,107385,1,0,0:0:0:30:Clap.wav
402,192,107475,1,0,0:0:0:30:Clap.wav
36,192,107565,1,0,0:0:0:50:Clap.wav
256,192,107565,1,0,0:0:0:0:
475,192,107656,1,0,0:0:0:50:Clap.wav
36,192,107746,1,0,0:0:0:50:Clap.wav
475,192,107837,1,0,0:0:0:50:Clap.wav
36,192,107927,1,0,0:0:0:70:Clap.wav
256,192,107927,128,0,108288:0:0:0:0:
329,192,108288,128,0,109734:0:0:0:0:
475,192,109011,128,0,109734:0:0:0:0:
36,192,109734,1,0,0:0:0:100:Crash.wav
109,192,109734,1,0,0:0:0:70:drumsound.wav
402,192,109734,128,0,111903:0:0:0:70:Kick.wav
182,192,109915,1,0,0:0:0:0:
256,192,110096,1,0,0:0:0:70:drumsound.wav
329,192,110096,1,0,0:0:0:0:
109,192,110276,1,0,0:0:0:0:
182,192,110457,1,0,0:0:0:70:drumsound.wav
256,192,110457,1,0,0:0:0:70:Kick.wav
475,192,110457,1,0,0:0:0:0:
36,192,110638,1,0,0:0:0:70:drumsound.wav
109,192,110818,1,0,0:0:0:70:drumsound.wav
182,192,110818,1,0,0:0:0:0:
256,192,110999,1,0,0:0:0:70:drumsound.wav
36,192,111180,1,0,0:0:0:70:drumsound.wav
329,192,111180,1,0,0:0:0:70:Kick.wav
475,192,111180,1,0,0:0:0:0:
109,192,111361,1,0,0:0:0:70:drumsound.wav
182,192,111541,1,0,0:0:0:70:drumsound.wav
475,192,111541,1,0,0:0:0:0:
329,192,111722,1,0,0:0:0:70:drumsound.wav
36,192,111903,1,0,0:0:0:70:drumsound.wav
109,192,111903,1,0,0:0:0:70:Kick.wav
256,192,111903,128,0,112626:0:0:0:0:
182,192,112084,1,0,0:0:0:70:drumsound.wav
329,192,112264,1,0,0:0:0:70:drumsound.wav
475,192,112264,1,0,0:0:0:0:
402,192,112445,1,0,0:0:0:70:drumsound.wav
36,192,112626,1,0,0:0:0:70:Crash.wav
109,192,112626,128,0,114071:0:0:0:70:drumsound.wav
329,192,112626,1,0,0:0:0:70:Kick.wav
182,192,112806,1,0,0:0:0:70:drumsound.wav
256,192,112987,1,0,0:0:0:70:drumsound.wav
475,192,112987,1,0,0:0:0:0:
402,192,113168,1,0,0:0:0:70:drumsound.wav
36,192,113349,1,0,0:0:0:70:drumsound.wav
256,192,113349,1,0,0:0:0:70:Kick.wav
329,192,113349,1,0,0:0:0:0:
182,192,113529,1,0,0:0:0:70:drumsound.wav
256,192,113710,1,0,0:0:0:70:drumsound.wav
475,192,113710,1,0,0:0:0:0:
402,192,113891,1,0,0:0:0:70:drumsound.wav
36,192,114071,1,0,0:0:0:70:drumsound.wav
182,192,114071,1,0,0:0:0:70:Kick.wav
329,192,114071,128,0,114794:0:0:0:0:
256,192,114252,1,0,0:0:0:70:drumsound.wav
109,192,114433,1,0,0:0:0:70:drumsound.wav
475,192,114433,1,0,0:0:0:0:
182,192,114614,1,0,0:0:0:70:drumsound.wav
36,192,114794,1,0,0:0:0:70:drumsound.wav
256,192,114794,1,0,0:0:0:70:Kick.wav
402,192,114794,128,0,115517:0:0:0:0:
109,192,114975,1,0,0:0:0:70:drumsound.wav
182,192,115156,1,0,0:0:0:70:drumsound.wav
329,192,115156,1,0,0:0:0:0:
256,192,115337,1,0,0:0:0:70:drumsound.wav
36,192,115517,1,0,0:0:0:70:Crash.wav
109,192,115517,1,0,0:0:0:70:drumsound.wav
475,192,115517,128,0,116963:0:0:0:70:Kick.wav
182,192,115698,1,0,0:0:0:70:drumsound.wav
256,192,115879,1,0,0:0:0:70:drumsound.wav
402,192,115879,1,0,0:0:0:0:
109,192,116059,1,0,0:0:0:70:drumsound.wav
182,192,116240,1,0,0:0:0:70:drumsound.wav
329,192,116240,1,0,0:0:0:70:Kick.wav
402,192,116240,1,0,0:0:0:0:
36,192,116421,1,0,0:0:0:70:drumsound.wav
109,192,116602,1,0,0:0:0:70:drumsound.wav
256,192,116602,1,0,0:0:0:0:
402,192,116782,1,0,0:0:0:70:drumsound.wav
36,192,116963,1,0,0:0:0:70:drumsound.wav
182,192,116963,1,0,0:0:0:70:Kick.wav
256,192,116963,128,0,117144:0:0:0:0:
329,192,117144,128,0,117324:0:0:0:70:drumsound.wav
36,192,117324,1,0,0:0:0:70:drumsound.wav
402,192,117324,128,0,117505:0:0:0:0:
475,192,117505,128,0,117686:0:0:0:70:drumsound.wav
36,192,117686,1,0,0:0:0:70:drumsound.wav
109,192,117686,1,0,0:0:0:70:Kick.wav
402,192,117686,128,0,117867:0:0:0:0:
329,192,117867,128,0,118047:0:0:0:70:drumsound.wav
36,192,118047,1,0,0:0:0:70:drumsound.wav
256,192,118047,128,0,118228:0:0:0:0:
182,192,118228,128,0,118409:0:0:0:70:drumsound.wav
36,192,118409,128,0,119855:0:0:0:70:Crash.wav
402,192,118409,1,0,0:0:0:70:drumsound.wav
475,192,118409,1,0,0:0:0:70:Kick.wav
329,192,118590,1,0,0:0:0:70:drumsound.wav
109,192,118770,1,0,0:0:0:70:drumsound.wav
256,192,118770,1,0,0:0:0:0:
182,192,118951,1,0,0:0:0:70:drumsound.wav
256,192,119132,1,0,0:0:0:70:drumsound.wav
329,192,119132,1,0,0:0:0:70:Kick.wav
475,192,119132,1,0,0:0:0:0:
402,192,119312,1,0,0:0:0:70:drumsound.wav
182,192,119493,1,0,0:0:0:70:drumsound.wav
329,192,119493,1,0,0:0:0:0:
256,192,119674,1,0,0:0:0:70:drumsound.wav
109,192,119855,128,0,120577:0:0:0:70:drumsound.wav
182,192,119855,1,0,0:0:0:70:Kick.wav
475,192,119855,1,0,0:0:0:0:
402,192,120035,1,0,0:0:0:70:drumsound.wav
36,192,120216,1,0,0:0:0:70:drumsound.wav
329,192,120216,1,0,0:0:0:0:
256,192,120397,1,0,0:0:0:70:drumsound.wav
182,192,120577,1,0,0:0:0:70:Crash2.wav
329,192,120577,1,0,0:0:0:70:drumsound.wav
475,192,120577,1,0,0:0:0:70:Kick.wav
36,192,120758,1,8,0:0:0:40:drum-hitclap.wav
402,192,120758,1,0,0:0:0:0:
182,192,120849,1,8,0:0:0:40:drum-hitclap.wav
329,192,120939,1,8,0:0:0:40:drum-hitfinish.wav
475,192,121029,1,4,0:0:0:40:drum-hitfinish.wav
402,192,121120,1,4,0:0:0:40:drum-hitfinish.wav
329,192,121210,1,4,0:0:0:40:drum-hitfinish.wav
36,192,121300,1,0,0:0:0:70:Crash.wav
256,192,121300,1,0,0:0:0:70:Kick.wav
109,192,121391,1,0,0:0:0:0:
182,192,121481,1,0,0:0:0:0:
256,192,121571,1,0,0:0:0:0:
329,192,121662,1,0,0:0:0:70:Kick.wav
402,192,121662,1,0,0:0:0:0:
36,192,121752,1,0,0:0:0:0:
109,192,121843,1,0,0:0:0:0:
182,192,121933,1,0,0:0:0:0:
256,192,122023,1,0,0:0:0:70:Kick.wav
475,192,122023,1,0,0:0:0:0:
402,192,122114,1,0,0:0:0:0:
329,192,122204,1,0,0:0:0:0:
256,192,122294,1,0,0:0:0:0:
36,192,122385,1,0,0:0:0:70:Kick.wav
109,192,122385,1,0,0:0:0:0:
475,192,122475,1,0,0:0:0:0:
402,192,122565,1,0,0:0:0:0:
329,192,122656,1,0,0:0:0:0:
36,192,122746,1,0,0:0:0:70:Crash.wav
256,192,122746,1,0,0:0:0:70:Kick.wav
182,192,122837,1,0,0:0:0:0:
475,192,122927,1,0,0:0:0:0:
329,192,123017,1,0,0:0:0:0:
36,192,123108,1,0,0:0:0:70:Kick.wav
109,192,123108,1,0,0:0:0:0:
182,192,123198,1,0,0:0:0:0:
329,192,123288,1,0,0:0:0:0:
475,192,123379,1,0,0:0:0:0:
109,192,123469,1,0,0:0:0:70:Crash.wav
182,192,123469,1,0,0:0:0:70:Kick.wav
256,192,123559,1,0,0:0:0:0:
475,192,123650,1,0,0:0:0:0:
402,192,123740,1,0,0:0:0:0:
36,192,123831,1,0,0:0:0:70:Kick.wav
329,192,123831,1,0,0:0:0:0:
109,192,123921,1,0,0:0:0:0:
475,192,124011,1,0,0:0:0:0:
402,192,124102,1,0,0:0:0:0:
36,192,124192,1,0,0:0:0:70:Crash.wav
329,192,124192,1,0,0:0:0:70:Kick.wav
109,192,124282,1,0,0:0:0:0:
182,192,124373,1,0,0:0:0:0:
256,192,124463,1,0,0:0:0:0:
329,192,124553,1,0,0:0:0:70:Kick.wav
475,192,124553,1,0,0:0:0:0:
256,192,124644,1,0,0:0:0:0:
182,192,124734,1,0,0:0:0:0:
109,192,124824,1,0,0:0:0:0:
36,192,124915,1,0,0:0:0:70:Kick.wav
475,192,124915,1,0,0:0:0:0:
402,192,125005,1,0,0:0:0:0:
329,192,125096,1,0,0:0:0:0:
256,192,125186,1,0,0:0:0:0:
36,192,125276,1,0,0:0:0:70:Kick.wav
182,192,125276,1,0,0:0:0:0:
256,192,125367,1,0,0:0:0:0:
329,192,125457,1,0,0:0:0:0:
402,192,125547,1,0,0:0:0:0:
36,192,125638,1,0,0:0:0:70:Crash.wav
475,192,125638,1,0,0:0:0:70:Kick.wav
329,192,125728,1,0,0:0:0:0:
182,192,125818,1,0,0:0:0:0:
36,192,125909,1,0,0:0:0:0:
402,192,125999,1,0,0:0:0:70:Kick.wav
475,192,125999,1,0,0:0:0:0:
329,192,126090,1,0,0:0:0:0:
182,192,126180,1,0,0:0:0:0:
36,192,126270,1,0,0:0:0:0:
256,192,126361,1,0,0:0:0:70:Kick.wav
475,192,126361,1,0,0:0:0:0:
329,192,126451,1,0,0:0:0:0:
36,192,126541,1,0,0:0:0:0:
182,192,126632,1,0,0:0:0:0:
256,192,126722,1,4,0:0:0:40:drum-hitfinish.wav
329,192,126722,1,0,0:0:0:0:
475,192,126812,1,4,0:0:0:40:drum-hitfinish.wav
182,192,126903,1,4,0:0:0:40:drum-hitfinish.wav
36,192,126993,1,4,0:0:0:40:drum-hitfinish.wav
329,192,127084,1,0,0:0:0:70:Crash.wav
402,192,127084,1,0,0:0:0:0:
475,192,127084,1,0,0:0:0:0:
182,192,127264,1,0,0:0:0:70:Kick.wav
256,192,127264,1,0,0:0:0:0:
109,192,127445,1,0,0:0:0:70:Kick.wav
256,192,127445,1,0,0:0:0:0:
36,192,127626,1,0,0:0:0:70:Crash.wav
402,192,127626,1,0,0:0:0:0:
475,192,127626,1,0,0:0:0:0:
109,192,127806,1,0,0:0:0:70:Kick.wav
329,192,127806,1,0,0:0:0:0:
182,192,127987,1,0,0:0:0:70:Kick.wav
329,192,127987,1,0,0:0:0:0:
36,192,128168,1,0,0:0:0:70:Crash.wav
256,192,128168,1,0,0:0:0:0:
402,192,128168,1,0,0:0:0:0:
182,192,128349,1,0,0:0:0:70:Kick.wav
475,192,128349,1,0,0:0:0:0:
182,192,128529,1,0,0:0:0:70:Kick.wav
402,192,128529,1,0,0:0:0:0:
36,192,128710,1,0,0:0:0:70:Crash.wav
256,192,128710,1,0,0:0:0:0:
329,192,128710,1,0,0:0:0:0:
109,192,128891,1,0,0:0:0:70:Kick.wav
475,192,128891,1,0,0:0:0:0:
109,192,129071,1,0,0:0:0:70:Kick.wav
402,192,129071,1,0,0:0:0:0:
182,192,129252,1,0,0:0:0:70:Crash2.wav
256,192,129252,1,0,0:0:0:0:
329,192,129252,1,0,0:0:0:0:
36,192,129433,1,0,0:0:0:70:Kick.wav
182,192,129433,1,0,0:0:0:0:
329,192,129614,1,0,0:0:0:70:Crash.wav
402,192,129614,1,0,0:0:0:0:
475,192,129614,1,0,0:0:0:0:
182,192,129794,1,0,0:0:0:70:Kick.wav
329,192,129794,1,0,0:0:0:0:
36,192,129975,1,0,0:0:0:50:drumsound.wav
109,192,129975,1,0,0:0:0:70:Kick.wav
182,192,130065,1,0,0:0:0:50:drumsound.wav
256,192,130156,1,0,0:0:0:50:drumsound.wav
329,192,130246,1,0,0:0:0:50:drumsound.wav
402,192,130337,1,0,0:0:0:50:drumsound.wav
475,192,130337,1,0,0:0:0:70:Kick.wav
109,192,130427,1,0,0:0:0:50:drumsound.wav
329,192,130517,1,0,0:0:0:50:drumsound.wav
36,192,130608,1,0,0:0:0:50:drumsound.wav
256,192,130698,1,0,0:0:0:50:drumsound.wav
475,192,130698,1,0,0:0:0:70:Kick.wav
109,192,130879,1,0,0:0:0:70:drumsound.wav
182,192,130879,1,0,0:0:0:0:
402,192,130879,1,0,0:0:0:0:
36,192,131059,1,0,0:0:0:70:drumsound.wav
329,192,131059,1,0,0:0:0:70:Kick.wav
182,192,131240,1,0,0:0:0:70:drumsound.wav
402,192,131240,1,0,0:0:0:0:
475,192,131240,1,0,0:0:0:0:
109,192,131421,1,0,0:0:0:70:Crash2.wav
256,192,131421,1,0,0:0:0:70:Kick.wav
329,192,131421,1,0,0:0:0:0:
36,192,131963,1,0,0:0:0:70:Kick.wav
475,192,131963,1,0,0:0:0:0:
109,192,132053,1,0,0:0:0:70:Kick.wav
402,192,132053,1,0,0:0:0:0:
182,192,132144,1,0,0:0:0:50:Calp.wav
256,192,132144,1,0,0:0:0:0:
329,192,132144,1,0,0:0:0:0:
36,192,132324,1,8,0:0:0:40:drum-hitclap.wav
109,192,132324,1,0,0:0:0:0:
329,192,132505,1,4,0:0:0:0:
402,192,132505,1,0,0:0:0:0:
475,192,132505,1,0,0:0:0:0:
109,192,132686,1,4,0:0:0:0:
182,192,132686,1,0,0:0:0:0:
256,192,132686,1,0,0:0:0:0:
36,192,132867,128,0,134312:0:0:0:100:Crash.wav
329,192,132867,1,0,0:0:0:50:Calp.wav
475,192,132867,1,0,0:0:0:70:Kick.wav
109,192,133409,1,0,0:0:0:70:Kick.wav
475,192,133409,1,0,0:0:0:0:
182,192,133590,1,0,0:0:0:70:Crash.wav
329,192,133590,1,0,0:0:0:70:clapdefault.wav
402,192,133590,1,0,0:0:0:0:
256,192,133951,1,0,0:0:0:70:Kick.wav
329,192,133951,1,0,0:0:0:0:
182,192,134312,1,0,0:0:0:70:Kick.wav
256,192,134312,128,0,135035:0:0:0:0:
329,192,134493,1,0,0:0:0:70:clapdefault.wav
402,192,134493,1,0,0:0:0:0:
475,192,134493,1,0,0:0:0:0:
36,192,134855,1,0,0:0:0:70:Kick.wav
109,192,134855,1,0,0:0:0:0:
182,192,134945,1,0,0:0:0:70:Kick.wav
329,192,135035,1,0,0:0:0:70:Crash.wav
402,192,135035,1,0,0:0:0:70:clapdefault.wav
475,192,135035,128,0,135758:0:0:0:0:
256,192,135397,1,0,0:0:0:70:Kick.wav
329,192,135397,1,0,0:0:0:0:
109,192,135758,1,0,0:0:0:70:Crash.wav
182,192,135758,128,0,137204:0:0:0:70:Kick.wav
256,192,135758,1,0,0:0:0:0:
36,192,136300,1,0,0:0:0:70:Kick.wav
329,192,136300,1,0,0:0:0:0:
109,192,136481,1,0,0:0:0:70:Crash.wav
402,192,136481,1,0,0:0:0:70:clapdefault.wav
475,192,136481,1,0,0:0:0:0:
256,192,136843,1,0,0:0:0:70:Kick.wav
329,192,136843,1,0,0:0:0:0:
329,192,137204,128,0,137927:0:0:0:70:Kick.wav
402,192,137204,1,0,0:0:0:0:
36,192,137385,1,0,0:0:0:70:clapdefault.wav
109,192,137385,1,0,0:0:0:0:
256,192,137385,1,0,0:0:0:0:
182,192,137746,1,0,0:0:0:70:Kick.wav
256,192,137746,1,0,0:0:0:0:
36,192,137927,1,0,0:0:0:70:Crash.wav
402,192,137927,1,0,0:0:0:70:clapdefault.wav
475,192,137927,128,0,138650:0:0:0:0:
256,192,138047,1,8,0:0:0:40:drum-hitclap.wav
109,192,138138,1,4,0:0:0:40:drum-hitfinish.wav
402,192,138288,1,0,0:0:0:70:Kick.wav
329,192,138469,1,0,0:0:0:70:Kick.wav
36,192,138650,1,0,0:0:0:70:Crash.wav
182,192,138650,1,0,0:0:0:50:Calp.wav
256,192,138650,1,0,0:0:0:0:
402,192,138831,1,0,0:0:0:0:
109,192,139011,1,0,0:0:0:70:Kick.wav
329,192,139011,1,0,0:0:0:0:
256,192,139192,1,0,0:0:0:0:
182,192,139373,1,0,0:0:0:70:Kick.wav
402,192,139373,1,0,0:0:0:0:
475,192,139373,1,0,0:0:0:0:
109,192,139553,1,0,0:0:0:70:drumsound.wav
329,192,139553,1,0,0:0:0:0:
36,192,139734,1,0,0:0:0:70:drumsound.wav
256,192,139734,1,0,0:0:0:70:Kick.wav
475,192,139734,1,0,0:0:0:0:
109,192,139915,1,0,0:0:0:70:drumsound.wav
329,192,139915,1,0,0:0:0:0:
36,192,140096,1,0,0:0:0:70:Crash.wav
182,192,140096,1,0,0:0:0:70:drumsound.wav
402,192,140096,1,0,0:0:0:70:Kick.wav
256,192,140276,1,0,0:0:0:70:drumsound.wav
475,192,140276,1,0,0:0:0:0:
182,192,140457,1,0,0:0:0:70:drumsound.wav
402,192,140457,1,0,0:0:0:70:Kick.wav
109,192,140638,1,0,0:0:0:70:drumsound.wav
329,192,140638,1,0,0:0:0:0:
329,192,140818,1,0,0:0:0:70:drumsound.wav
402,192,140818,1,4,0:0:0:45:drum-hitfinish.wav
475,192,140818,1,0,0:0:0:70:Kick.wav
329,192,140999,1,0,0:0:0:70:drumsound.wav
402,192,140999,1,4,0:0:0:45:drum-hitfinish.wav
475,192,140999,1,0,0:0:0:0:
36,192,141180,1,0,0:0:0:70:drumsound.wav
109,192,141180,1,4,0:0:0:45:drum-hitfinish.wav
182,192,141180,1,0,0:0:0:70:Kick.wav
36,192,141361,1,0,0:0:0:70:drumsound.wav
109,192,141361,1,4,0:0:0:45:drum-hitfinish.wav
182,192,141361,1,0,0:0:0:0:
182,192,141541,1,0,0:0:0:70:Crash.wav
475,192,141541,1,0,0:0:0:50:Calp.wav
402,192,141602,1,0,0:0:0:0:
329,192,141662,1,0,0:0:0:0:
256,192,141722,1,0,0:0:0:0:
109,192,141903,1,8,0:0:0:40:drum-hitclap.wav
402,192,141903,1,0,0:0:0:0:
329,192,141963,1,0,0:0:0:0:
256,192,142023,1,0,0:0:0:0:
182,192,142084,1,0,0:0:0:0:
329,192,142264,1,4,0:0:0:40:drum-hitfinish.wav
402,192,142264,1,0,0:0:0:0:
256,192,142324,1,0,0:0:0:0:
182,192,142385,1,0,0:0:0:0:
109,192,142445,1,0,0:0:0:0:
475,192,142565,1,0,0:0:0:0:
256,192,142626,1,4,0:0:0:40:drum-hitfinish.wav
329,192,142626,1,0,0:0:0:0:
182,192,142686,1,0,0:0:0:0:
109,192,142746,1,0,0:0:0:0:
36,192,142806,1,0,0:0:0:0:
475,192,142806,1,0,0:0:0:0:
329,192,142987,1,0,0:0:0:70:Crash2.wav
402,192,142987,1,0,0:0:0:0:
475,192,142987,1,0,0:0:0:0:
109,192,143168,1,0,0:0:0:70:Kick.wav
182,192,143168,1,0,0:0:0:0:
256,192,143349,1,0,0:0:0:70:Crash2.wav
329,192,143349,1,0,0:0:0:0:
402,192,143349,1,0,0:0:0:0:
36,192,143529,1,0,0:0:0:70:Kick.wav
109,192,143529,1,0,0:0:0:0:
182,192,143710,1,0,0:0:0:70:Crash2.wav
256,192,143710,1,0,0:0:0:0:
329,192,143710,1,0,0:0:0:0:
36,192,143891,1,0,0:0:0:70:Kick.wav
475,192,143891,1,0,0:0:0:0:
109,192,144071,1,0,0:0:0:70:Crash2.wav
182,192,144071,1,0,0:0:0:0:
256,192,144071,1,0,0:0:0:0:
329,192,144252,1,0,0:0:0:70:Kick.wav
36,192,144433,1,0,0:0:0:70:Kick.wav
109,192,144433,1,0,0:0:0:0:
402,192,144433,128,0,145879:0:0:0:0:
182,192,144794,1,0,0:0:0:70:clapdefault.wav
256,192,144794,1,0,0:0:0:0:
329,192,144794,1,0,0:0:0:0:
36,192,145156,1,0,0:0:0:70:Kick.wav
109,192,145156,1,0,0:0:0:0:
182,192,145337,1,0,0:0:0:70:Kick.wav
36,192,145517,1,0,0:0:0:70:clapdefault.wav
256,192,145517,1,0,0:0:0:0:
475,192,145517,1,0,0:0:0:0:
109,192,145698,1,0,0:0:0:70:Kick.wav
182,192,145698,1,0,0:0:0:0:
256,192,145879,1,0,0:0:0:70:Kick.wav
329,192,145879,128,0,147324:0:0:0:0:
36,192,146240,1,0,0:0:0:70:clapdefault.wav
182,192,146240,1,0,0:0:0:0:
475,192,146240,1,0,0:0:0:0:
402,192,146602,1,0,0:0:0:70:Kick.wav
475,192,146602,1,0,0:0:0:0:
402,192,146873,1,0,0:0:0:70:Kick.wav
475,192,146873,1,0,0:0:0:0:
36,192,146963,1,0,0:0:0:70:clapdefault.wav
109,192,146963,1,0,0:0:0:0:
182,192,146963,1,0,0:0:0:0:
402,192,147144,1,0,0:0:0:70:Kick.wav
475,192,147144,1,0,0:0:0:0:
36,192,147324,1,0,0:0:0:70:Kick.wav
256,192,147324,128,0,148770:0:0:0:0:
109,192,147686,1,0,0:0:0:70:clapdefault.wav
182,192,147686,1,0,0:0:0:0:
475,192,147686,1,0,0:0:0:0:
329,192,148047,1,0,0:0:0:70:Kick.wav
402,192,148047,1,0,0:0:0:0:
109,192,148228,1,0,0:0:0:70:Kick.wav
182,192,148228,1,0,0:0:0:0:
36,192,148409,1,0,0:0:0:70:clapdefault.wav
402,192,148409,1,0,0:0:0:0:
475,192,148409,1,0,0:0:0:0:
109,192,148590,1,0,0:0:0:70:Kick.wav
329,192,148590,1,0,0:0:0:0:
182,192,148770,128,0,150216:0:0:0:70:Kick.wav
402,192,148770,1,0,0:0:0:0:
36,192,149132,1,0,0:0:0:70:clapdefault.wav
109,192,149132,1,0,0:0:0:0:
329,192,149132,1,0,0:0:0:0:
475,192,149312,1,0,0:0:0:70:drumsound.wav
402,192,149403,1,0,0:0:0:70:drumsound.wav
256,192,149493,1,0,0:0:0:70:drumsound.wav
329,192,149493,1,0,0:0:0:0:
36,192,149584,1,8,0:0:0:40:drum-hitclap.wav
109,192,149584,1,0,0:0:0:0:
402,192,149764,1,0,0:0:0:70:Kick.wav
475,192,149764,1,0,0:0:0:0:
109,192,149855,1,0,0:0:0:70:Crash2.wav
256,192,149855,1,0,0:0:0:50:Calp.wav
329,192,149855,1,0,0:0:0:0:
36,192,150035,1,0,0:0:0:70:Kick.wav
475,192,150035,1,0,0:0:0:0:
256,192,150216,1,0,0:0:0:70:Crash.wav
329,192,150216,1,0,0:0:0:0:
402,192,150216,1,0,0:0:0:0:
36,192,150397,1,0,0:0:0:60:Kick.wav
475,192,150397,1,0,0:0:0:0:
36,192,150577,1,0,0:0:0:60:Kick.wav
402,192,150577,1,0,0:0:0:0:
109,192,150758,1,0,0:0:0:70:Crash.wav
182,192,150758,1,0,0:0:0:0:
256,192,150758,1,0,0:0:0:0:
36,192,150939,1,0,0:0:0:60:Kick.wav
329,192,150939,1,0,0:0:0:0:
109,192,151120,1,0,0:0:0:60:Kick.wav
329,192,151120,1,0,0:0:0:0:
256,192,151300,1,0,0:0:0:70:Crash.wav
402,192,151300,1,0,0:0:0:0:
475,192,151300,1,0,0:0:0:0:
182,192,151481,1,0,0:0:0:60:Kick.wav
329,192,151481,1,0,0:0:0:0:
182,192,151662,1,0,0:0:0:60:Kick.wav
402,192,151662,1,0,0:0:0:0:
36,192,151843,1,0,0:0:0:70:Crash.wav
109,192,151843,1,0,0:0:0:0:
256,192,151843,1,0,0:0:0:0:
182,192,152023,1,0,0:0:0:70:Kick.wav
475,192,152023,1,0,0:0:0:0:
109,192,152204,1,0,0:0:0:70:Kick.wav
475,192,152204,1,0,0:0:0:0:
182,192,152385,1,0,0:0:0:50:Calp.wav
256,192,152385,1,0,0:0:0:0:
402,192,152385,1,0,0:0:0:0:
182,192,152565,1,0,0:0:0:50:Calp.wav
256,192,152565,1,0,0:0:0:0:
402,192,152565,1,0,0:0:0:0:
36,192,152746,1,0,0:0:0:50:Calp.wav
109,192,152746,1,0,0:0:0:0:
329,192,152746,1,0,0:0:0:0:
36,192,152927,1,0,0:0:0:50:Calp.wav
109,192,152927,1,0,0:0:0:0:
329,192,152927,1,0,0:0:0:0:
182,192,153108,1,0,0:0:0:100:Crash.wav
402,192,153108,1,0,0:0:0:70:Kick.wav
475,192,153108,128,0,153831:0:0:0:0:
36,192,153831,1,0,0:0:0:70:drumsound.wav
182,192,153831,1,0,0:0:0:0:
329,192,153921,1,0,0:0:0:70:drumsound.wav
36,192,154011,1,0,0:0:0:70:drumsound.wav
329,192,154102,1,0,0:0:0:70:drumsound.wav
109,192,154192,1,0,0:0:0:70:drumsound.wav
256,192,154192,1,0,0:0:0:0:
402,192,154282,1,0,0:0:0:70:drumsound.wav
109,192,154373,1,0,0:0:0:70:drumsound.wav
402,192,154463,1,0,0:0:0:70:drumsound.wav
182,192,154553,128,0,155999:0:0:0:0:
36,192,155276,128,0,155999:0:0:0:0:
402,192,155638,1,8,0:0:0:40:drum-hitclap.wav
475,192,155638,1,0,0:0:0:0:
256,192,155683,1,4,0:0:0:40:drum-hitfinish.wav
109,192,155999,1,0,0:0:0:100:Crash.wav
402,192,155999,1,0,0:0:0:0:
475,192,155999,1,0,0:0:0:0:
256,192,156180,1,0,0:0:0:70:Kick.wav
329,192,156180,1,0,0:0:0:0:
256,192,156361,1,0,0:0:0:70:Kick.wav
329,192,156361,1,0,0:0:0:0:
36,192,156541,1,0,0:0:0:70:Crash.wav
109,192,156541,1,0,0:0:0:0:
475,192,156541,1,0,0:0:0:0:
182,192,156722,1,0,0:0:0:70:Kick.wav
256,192,156722,1,0,0:0:0:0:
182,192,156903,1,0,0:0:0:70:Kick.wav
256,192,156903,1,0,0:0:0:0:
36,192,157084,1,0,0:0:0:70:Crash.wav
402,192,157084,1,0,0:0:0:0:
475,192,157084,1,0,0:0:0:0:
109,192,157264,1,0,0:0:0:70:Kick.wav
182,192,157264,1,0,0:0:0:0:
109,192,157445,1,0,0:0:0:70:Kick.wav
182,192,157445,1,0,0:0:0:0:
36,192,157626,1,0,0:0:0:70:Crash.wav
256,192,157626,1,0,0:0:0:0:
475,192,157626,1,0,0:0:0:0:
329,192,157806,1,0,0:0:0:70:Kick.wav
402,192,157806,1,0,0:0:0:0:
329,192,157987,1,0,0:0:0:70:Kick.wav
402,192,157987,1,0,0:0:0:0:
36,192,158168,1,0,0:0:0:70:Crash2.wav
109,192,158168,1,0,0:0:0:0:
182,192,158168,1,0,0:0:0:0:
329,192,158349,1,0,0:0:0:70:Kick.wav
402,192,158349,1,0,0:0:0:0:
36,192,158529,1,0,0:0:0:70:Crash2.wav
109,192,158529,1,0,0:0:0:0:
182,192,158529,1,0,0:0:0:0:
329,192,158710,1,0,0:0:0:70:Kick.wav
402,192,158710,1,0,0:0:0:0:
36,192,158891,1,0,0:0:0:70:Crash.wav
109,192,158891,1,0,0:0:0:0:
256,192,158891,1,0,0:0:0:0:
182,192,159071,1,0,0:0:0:70:Kick.wav
329,192,159071,1,0,0:0:0:0:
182,192,159252,1,0,0:0:0:70:Kick.wav
329,192,159252,1,0,0:0:0:0:
109,192,159433,1,0,0:0:0:70:Crash.wav
256,192,159433,1,0,0:0:0:0:
402,192,159433,1,0,0:0:0:0:
36,192,159614,1,0,0:0:0:70:Kick.wav
475,192,159614,1,0,0:0:0:0:
36,192,159794,1,0,0:0:0:70:Kick.wav
475,192,159794,1,0,0:0:0:0:
182,192,159975,1,0,0:0:0:70:Crash.wav
256,192,159975,1,0,0:0:0:0:
329,192,159975,1,0,0:0:0:0:
109,192,160156,1,0,0:0:0:70:Kick.wav
402,192,160156,1,0,0:0:0:0:
109,192,160337,1,0,0:0:0:70:Kick.wav
402,192,160337,1,0,0:0:0:0:
36,192,160517,1,0,0:0:0:70:Crash.wav
256,192,160517,1,0,0:0:0:0:
475,192,160517,1,0,0:0:0:0:
182,192,160698,1,0,0:0:0:70:Kick.wav
329,192,160698,1,0,0:0:0:0:
182,192,160879,1,0,0:0:0:70:Kick.wav
329,192,160879,1,0,0:0:0:0:
109,192,161059,1,0,0:0:0:70:Crash.wav
256,192,161059,1,0,0:0:0:0:
402,192,161059,1,0,0:0:0:0:
36,192,161240,1,0,0:0:0:70:Kick.wav
475,192,161240,1,0,0:0:0:0:
329,192,161421,1,8,0:0:0:40:drum-hitclap.wav
402,192,161421,1,0,0:0:0:0:
109,192,161466,1,4,0:0:0:40:drum-hitfinish.wav
182,192,161466,1,0,0:0:0:0:
256,192,161602,1,0,0:0:0:70:Kick.wav
36,192,161782,1,0,0:0:0:70:Crash.wav
329,192,161782,1,0,0:0:0:0:
475,192,161782,1,0,0:0:0:0:
109,192,161963,1,0,0:0:0:70:Kick.wav
256,192,161963,1,0,0:0:0:0:
182,192,162144,1,0,0:0:0:70:Kick.wav
256,192,162144,1,0,0:0:0:0:
36,192,162324,1,0,0:0:0:70:Crash.wav
329,192,162324,1,0,0:0:0:0:
475,192,162324,1,0,0:0:0:0:
109,192,162505,1,0,0:0:0:70:Kick.wav
402,192,162505,1,0,0:0:0:0:
182,192,162686,1,0,0:0:0:70:Kick.wav
402,192,162686,1,0,0:0:0:0:
109,192,162867,1,0,0:0:0:70:Crash.wav
256,192,162867,1,0,0:0:0:0:
329,192,162867,1,0,0:0:0:0:
36,192,163047,1,0,0:0:0:70:Kick.wav
402,192,163047,1,0,0:0:0:0:
36,192,163228,128,0,163951:0:0:0:70:Kick.wav
475,192,163228,1,0,0:0:0:0:
256,192,163409,1,0,0:0:0:70:Crash.wav
329,192,163409,1,0,0:0:0:0:
402,192,163409,1,0,0:0:0:0:
182,192,163590,1,0,0:0:0:70:Kick.wav
475,192,163590,1,0,0:0:0:0:
109,192,163770,1,0,0:0:0:70:Kick.wav
475,192,163770,1,0,0:0:0:0:
256,192,163951,1,0,0:0:0:70:Crash2.wav
329,192,163951,1,0,0:0:0:0:
402,192,163951,1,0,0:0:0:0:
109,192,164132,1,0,0:0:0:70:Kick.wav
182,192,164132,1,0,0:0:0:0:
256,192,164312,1,0,0:0:0:70:Crash2.wav
329,192,164312,1,0,0:0:0:0:
402,192,164312,1,0,0:0:0:0:
36,192,164493,1,0,0:0:0:70:Kick.wav
475,192,164493,1,0,0:0:0:0:
36,192,164674,128,0,165397:0:0:0:70:Crash.wav
329,192,164674,1,0,0:0:0:0:
402,192,164674,1,0,0:0:0:0:
109,192,164855,1,0,0:0:0:70:Kick.wav
256,192,164855,1,0,0:0:0:0:
182,192,165035,1,0,0:0:0:70:Kick.wav
256,192,165035,1,0,0:0:0:0:
329,192,165216,1,0,0:0:0:70:Crash.wav
402,192,165216,1,0,0:0:0:0:
475,192,165216,1,0,0:0:0:0:
109,192,165397,1,0,0:0:0:70:Kick.wav
256,192,165397,1,0,0:0:0:0:
182,192,165577,1,0,0:0:0:70:Kick.wav
256,192,165577,1,0,0:0:0:0:
36,192,165758,1,0,0:0:0:70:Crash.wav
329,192,165758,1,0,0:0:0:0:
475,192,165758,1,0,0:0:0:0:
109,192,165939,1,0,0:0:0:70:drumsound.wav
402,192,165939,1,0,0:0:0:0:
182,192,166029,1,0,0:0:0:70:drumsound.wav
256,192,166120,128,0,167565:0:0:0:70:drumsound.wav
36,192,166300,1,8,0:0:0:40:drum-hitclap.wav
109,192,166300,1,0,0:0:0:0:
475,192,166481,1,0,0:0:0:50:drumsound.wav
402,192,166571,1,0,0:0:0:50:drumsound.wav
329,192,166662,1,0,0:0:0:50:drumsound.wav
109,192,166843,1,0,0:0:0:70:Kick.wav
182,192,166843,1,0,0:0:0:0:
36,192,167023,1,0,0:0:0:70:drumsound.wav
475,192,167023,1,0,0:0:0:0:
109,192,167114,1,0,0:0:0:70:drumsound.wav
402,192,167114,1,0,0:0:0:0:
182,192,167204,1,4,0:0:0:40:drum-hitfinish.wav
329,192,167204,1,0,0:0:0:0:
36,192,167294,1,4,0:0:0:40:drum-hitfinish.wav
475,192,167294,1,0,0:0:0:0:
109,192,167385,1,8,0:0:0:40:drum-hitclap.wav
402,192,167385,1,0,0:0:0:0:
182,192,167475,1,0,0:0:0:70:Kick.wav
329,192,167475,1,0,0:0:0:0:
36,192,167565,1,0,0:0:0:70:Crash.wav
402,192,167565,1,0,0:0:0:0:
475,192,167565,1,0,0:0:0:0:
109,192,167746,1,0,0:0:0:70:Kick.wav
182,192,167746,1,0,0:0:0:0:
109,192,167927,1,0,0:0:0:70:Kick.wav
182,192,167927,1,0,0:0:0:0:
329,192,168108,1,0,0:0:0:70:Crash.wav
402,192,168108,1,0,0:0:0:0:
475,192,168108,1,0,0:0:0:0:
182,192,168288,1,0,0:0:0:70:Kick.wav
256,192,168288,1,0,0:0:0:0:
182,192,168469,1,0,0:0:0:70:Kick.wav
256,192,168469,1,0,0:0:0:0:
36,192,168650,1,0,0:0:0:70:Crash.wav
109,192,168650,1,0,0:0:0:0:
402,192,168650,1,0,0:0:0:0:
256,192,168831,1,0,0:0:0:70:Kick.wav
329,192,168831,1,0,0:0:0:0:
256,192,169011,1,0,0:0:0:70:Kick.wav
329,192,169011,1,0,0:0:0:0:
36,192,169192,1,0,0:0:0:70:Crash.wav
109,192,169192,1,0,0:0:0:0:
402,192,169192,1,0,0:0:0:0:
182,192,169373,128,0,170457:0:0:0:70:Kick.wav
475,192,169373,1,0,0:0:0:0:
329,192,169553,1,0,0:0:0:70:Kick.wav
402,192,169553,1,0,0:0:0:0:
36,192,169734,1,0,0:0:0:70:Crash2.wav
109,192,169734,1,0,0:0:0:0:
256,192,169734,1,0,0:0:0:0:
402,192,169915,1,0,0:0:0:70:Kick.wav
475,192,169915,1,0,0:0:0:0:
36,192,170096,1,0,0:0:0:70:Crash2.wav
109,192,170096,1,0,0:0:0:0:
256,192,170096,1,0,0:0:0:0:
402,192,170276,1,0,0:0:0:70:Kick.wav
475,192,170276,1,0,0:0:0:0:
36,192,170457,1,0,0:0:0:70:Crash.wav
109,192,170457,1,0,0:0:0:0:
256,192,170457,1,0,0:0:0:0:
329,192,170638,1,0,0:0:0:70:Kick.wav
402,192,170638,1,0,0:0:0:0:
329,192,170818,1,0,0:0:0:70:Kick.wav
402,192,170818,1,0,0:0:0:0:
36,192,170999,1,0,0:0:0:70:Crash.wav
256,192,170999,1,0,0:0:0:0:
475,192,170999,1,0,0:0:0:0:
109,192,171180,1,0,0:0:0:70:Kick.wav
182,192,171180,1,0,0:0:0:0:
109,192,171361,1,0,0:0:0:70:Kick.wav
182,192,171361,1,0,0:0:0:0:
256,192,171541,1,0,0:0:0:70:Crash.wav
329,192,171541,1,0,0:0:0:0:
402,192,171541,1,0,0:0:0:0:
36,192,171722,1,0,0:0:0:70:Kick.wav
475,192,171722,1,0,0:0:0:0:
36,192,171903,1,0,0:0:0:70:Kick.wav
475,192,171903,1,0,0:0:0:0:
109,192,172084,1,0,0:0:0:70:Crash.wav
182,192,172084,1,0,0:0:0:0:
256,192,172084,1,0,0:0:0:0:
402,192,172264,1,0,0:0:0:70:Kick.wav
475,192,172264,128,0,173168:0:0:0:0:
256,192,172445,1,0,0:0:0:70:Kick.wav
329,192,172445,1,0,0:0:0:0:
36,192,172626,1,0,0:0:0:70:Crash2.wav
109,192,172626,1,0,0:0:0:0:
182,192,172626,1,0,0:0:0:0:
329,192,172806,1,0,0:0:0:70:Kick.wav
402,192,172806,1,0,0:0:0:0:
36,192,172987,1,0,0:0:0:70:Crash2.wav
109,192,172987,1,0,0:0:0:0:
182,192,172987,1,0,0:0:0:0:
329,192,173168,1,0,0:0:0:70:Kick.wav
402,192,173168,1,0,0:0:0:0:
36,192,173349,1,0,0:0:0:70:Crash.wav
109,192,173349,1,0,0:0:0:0:
182,192,173349,1,0,0:0:0:0:
475,192,173529,1,0,0:0:0:70:Kick.wav
329,192,173620,1,8,0:0:0:40:drum-hitclap.wav
36,192,173800,1,0,0:0:0:70:Kick.wav
109,192,173891,1,0,0:0:0:70:Crash.wav
182,192,173891,1,0,0:0:0:0:
256,192,173891,1,0,0:0:0:0:
475,192,174071,1,0,0:0:0:70:Kick.wav
329,192,174162,1,8,0:0:0:40:drum-hitclap.wav
36,192,174343,1,0,0:0:0:70:Kick.wav
182,192,174433,1,0,0:0:0:70:Crash.wav
256,192,174433,1,0,0:0:0:0:
329,192,174433,1,0,0:0:0:0:
475,192,174614,1,0,0:0:0:70:Kick.wav
329,192,174704,1,8,0:0:0:40:drum-hitclap.wav
36,192,174885,1,0,0:0:0:70:Kick.wav
182,192,174975,1,0,0:0:0:70:Crash.wav
256,192,174975,1,0,0:0:0:0:
402,192,174975,1,0,0:0:0:0:
475,192,175156,1,0,0:0:0:70:Kick.wav
329,192,175246,1,8,0:0:0:40:drum-hitclap.wav
36,192,175427,1,0,0:0:0:70:Kick.wav
256,192,175517,1,0,0:0:0:70:Crash.wav
329,192,175517,1,0,0:0:0:0:
402,192,175517,1,0,0:0:0:0:
109,192,175698,1,0,0:0:0:70:Kick.wav
182,192,175698,1,0,0:0:0:0:
329,192,175879,1,0,0:0:0:70:Crash.wav
402,192,175879,1,0,0:0:0:0:
475,192,175879,1,0,0:0:0:0:
36,192,176059,1,0,0:0:0:70:Kick.wav
109,192,176059,1,0,0:0:0:0:
402,192,176240,1,0,0:0:0:100:Crash.wav
475,192,176240,1,0,0:0:0:70:Kick.wav
182,192,176331,1,0,0:0:0:0:
256,192,176421,1,0,0:0:0:0:
329,192,176511,1,0,0:0:0:0:
36,192,176602,1,0,0:0:0:70:Kick.wav
109,192,176602,1,0,0:0:0:0:
329,192,176692,1,0,0:0:0:0:
256,192,176782,1,0,0:0:0:0:
182,192,176873,1,0,0:0:0:0:
402,192,176963,1,0,0:0:0:70:Kick.wav
475,192,176963,1,0,0:0:0:0:
36,192,177144,1,0,0:0:0:20:Calp.wav
109,192,177144,1,0,0:0:0:0:
329,192,177144,1,0,0:0:0:0:
182,192,177324,1,0,0:0:0:30:Calp.wav
256,192,177324,1,0,0:0:0:0:
109,192,177505,1,0,0:0:0:40:Calp.wav
402,192,177505,1,0,0:0:0:0:
475,192,177505,1,0,0:0:0:0:
36,192,177686,1,0,0:0:0:70:Crash2.wav
256,192,177686,1,0,0:0:0:70:Kick.wav
329,192,177686,128,0,179132:0:0:0:0:
182,192,178951,128,0,179132:0:0:0:0:
36,192,179132,128,0,182023:0:0:0:60:key4.wav
256,192,179132,128,0,180577:0:0:0:60:key5.wav
475,192,179132,1,0,0:0:0:80:ting.wav
109,192,180577,1,0,0:0:0:50:key7.wav
329,192,180577,128,0,181300:0:0:0:50:key15.wav
182,192,181300,128,0,182023:0:0:0:60:key24.wav
475,192,181300,1,0,0:0:0:0:
109,192,182023,128,0,183469:0:0:0:40:key12.wav
402,192,182023,128,0,183469:0:0:0:40:key16.wav
36,192,183469,128,0,190698:0:0:0:50:key14.wav
329,192,183469,1,0,0:0:0:50:key5.wav
475,192,183469,128,0,184192:0:0:0:50:key25.wav
256,192,184192,1,0,0:0:0:80:key26_short.wav
329,192,184192,128,0,184915:0:0:0:0:
182,192,184915,128,0,185638:0:0:0:50:key4.wav
256,192,184915,1,0,0:0:0:50:key5.wav
109,192,185638,128,0,186361:0:0:0:60:key25.wav
329,192,185638,1,0,0:0:0:0:
256,192,186361,128,0,187084:0:0:0:30:key7.wav
402,192,186361,1,0,0:0:0:30:key15.wav
329,192,187084,128,0,187806:0:0:0:50:key35.wav
475,192,187084,1,0,0:0:0:50:key16.wav
182,192,187806,1,0,0:0:0:30:key12.wav
475,192,187806,128,0,189252:0:0:0:30:key16.wav
329,192,189252,128,0,189975:0:0:0:30:key17.wav
402,192,189252,1,0,0:0:0:30:key7.wav
182,192,189975,128,0,190698:0:0:0:40:key34.wav
256,192,189975,1,0,0:0:0:40:key17.wav
109,192,190698,128,0,190879:0:0:0:80:key30.wav
329,192,190698,1,0,0:0:0:80:key4.wav
182,192,190879,128,0,191059:0:0:0:80:key17.wav
402,192,190879,1,0,0:0:0:60:key13_short.wav
256,192,191059,128,0,191240:0:0:0:80:key7.wav
475,192,191059,1,0,0:0:0:60:key8_short.wav
329,192,191240,128,0,192144:0:0:0:80:key12.wav
402,192,191240,1,0,0:0:0:100:key16.wav
109,192,191421,128,0,191602:0:0:0:60:key25_short.wav
182,192,191602,128,0,191782:0:0:0:60:key13_short.wav
109,192,191782,128,0,191963:0:0:0:60:key8_short.wav
36,192,191963,128,0,192144:0:0:0:60:key16_short.wav
182,192,192144,128,0,192324:0:0:0:80:key31.wav
402,192,192144,1,0,0:0:0:80:key7.wav
256,192,192324,128,0,192505:0:0:0:80:key32.wav
475,192,192324,1,0,0:0:0:60:key13_short.wav
109,192,192505,1,0,0:0:0:80:key12.wav
329,192,192505,128,0,192686:0:0:0:60:key8_short.wav
36,192,192686,1,0,0:0:0:80:key18.wav
402,192,192686,128,0,193590:0:0:0:100:key16.wav
182,192,192867,128,0,193047:0:0:0:60:key25_short.wav
256,192,193047,128,0,193228:0:0:0:60:key13_short.wav
182,192,193228,128,0,193409:0:0:0:60:key8_short.wav
109,192,193409,128,0,193590:0:0:0:60:key16_short.wav
36,192,193590,1,0,0:0:0:80:key33.wav
256,192,193590,128,0,193770:0:0:0:80:key12.wav
109,192,193770,1,0,0:0:0:80:key14.wav
329,192,193770,128,0,193951:0:0:0:60:key13_short.wav
182,192,193951,1,0,0:0:0:80:key18.wav
402,192,193951,128,0,194132:0:0:0:60:key8_short.wav
109,192,194132,1,0,0:0:0:80:key5.wav
475,192,194132,128,0,195035:0:0:0:60:key16_short.wav
256,192,194312,128,0,194493:0:0:0:60:key25_short.wav
329,192,194493,128,0,194674:0:0:0:60:key13_short.wav
256,192,194674,128,0,194855:0:0:0:60:key8_short.wav
182,192,194855,128,0,195035:0:0:0:60:key16_short.wav
36,192,195035,128,0,195216:0:0:0:80:key34.wav
256,192,195035,1,0,0:0:0:80:key14.wav
109,192,195216,128,0,195397:0:0:0:80:key17.wav
329,192,195216,1,0,0:0:0:60:key13_short.wav
182,192,195397,128,0,195577:0:0:0:80:key32.wav
402,192,195397,1,0,0:0:0:60:key8_short.wav
256,192,195577,128,0,196481:0:0:0:80:key7.wav
329,192,195577,1,0,0:0:0:60:key16_short.wav
402,192,195758,128,0,195939:0:0:0:60:key25_short.wav
475,192,195939,128,0,196120:0:0:0:60:key13_short.wav
402,192,196120,128,0,196300:0:0:0:60:key8_short.wav
182,192,196300,128,0,196481:0:0:0:60:key16_short.wav
36,192,196481,128,0,196660:0:0:0:80:key30.wav
329,192,196481,1,0,0:0:0:80:key4.wav
109,192,196660,128,0,196840:0:0:0:80:key17.wav
402,192,196660,1,0,0:0:0:60:key13_short.wav
182,192,196840,128,0,197019:0:0:0:80:key7.wav
475,192,196840,1,0,0:0:0:60:key8_short.wav
256,192,197019,128,0,197918:0:0:0:80:key12.wav
402,192,197019,1,0,0:0:0:80:key16.wav
329,192,197199,128,0,197379:0:0:0:60:key25_short.wav
402,192,197379,128,0,197558:0:0:0:60:key13_short.wav
475,192,197558,128,0,197738:0:0:0:60:key8_short.wav
402,192,197738,128,0,197918:0:0:0:60:key16_short.wav
182,192,197918,128,0,198097:0:0:0:80:key31.wav
329,192,197918,1,0,0:0:0:80:key7.wav
256,192,198097,128,0,198277:0:0:0:80:key32.wav
475,192,198097,1,0,0:0:0:60:key13_short.wav
182,192,198277,1,0,0:0:0:80:key12.wav
329,192,198277,128,0,198457:0:0:0:60:key8_short.wav
36,192,198457,1,0,0:0:0:80:key18.wav
402,192,198457,128,0,199372:0:0:0:80:key16.wav
256,192,198636,128,0,198816:0:0:0:50:key13_short.wav
109,192,198816,128,0,198995:0:0:0:50:key8_short.wav
256,192,198995,128,0,199175:0:0:0:50:key24_short.wav
475,192,199175,128,0,199372:0:0:0:40:key26_short.wav
256,192,199372,128,0,202240:0:0:0:0:
36,192,200998,128,0,202240:0:0:0:0:
475,192,200998,128,0,202240:0:0:0:0:
329,192,202240,128,0,202625:0:0:0:0:
256,192,203009,128,0,203347:0:0:0:0:
182,192,203754,128,0,204070:0:0:0:0:
475,192,204454,128,0,204974:0:0:0:0:
182,192,205155,128,0,205426:0:0:0:100:Crash2.wav
256,192,205155,1,0,0:0:0:70:Kick.wav
329,192,205155,128,0,205426:0:0:0:0:
109,192,206600,128,0,206872:0:0:0:100:Crash2.wav
256,192,206600,1,0,0:0:0:70:Kick.wav
402,192,206600,128,0,206872:0:0:0:0:
36,192,207323,128,0,208046:0:0:0:100:Crash.wav
256,192,207323,1,0,0:0:0:70:Kick.wav
475,192,207323,128,0,208046:0:0:0:0:
109,192,208046,1,0,0:0:0:70:Crash2.wav
329,192,208046,1,0,0:0:0:70:Kick.wav
402,192,208046,1,0,0:0:0:0:
182,192,208227,1,0,0:0:0:0:
109,192,208408,1,0,0:0:0:70:Kick.wav
402,192,208408,1,0,0:0:0:0:
256,192,208588,1,0,0:0:0:0:
109,192,208769,1,0,0:0:0:70:Kick.wav
402,192,208769,1,0,0:0:0:0:
182,192,208950,1,0,0:0:0:0:
109,192,209131,1,0,0:0:0:70:drumsound.wav
402,192,209131,1,0,0:0:0:70:Kick.wav
182,192,209311,1,0,0:0:0:0:
329,192,209311,1,0,0:0:0:0:
109,192,209492,128,0,210215:0:0:0:70:drumsound.wav
402,192,209492,1,0,0:0:0:70:Kick.wav
182,192,209673,1,0,0:0:0:70:drumsound.wav
256,192,209673,1,0,0:0:0:0:
329,192,209853,1,0,0:0:0:70:drumsound.wav
475,192,209853,1,0,0:0:0:70:Kick.wav
182,192,210034,1,0,0:0:0:70:drumsound.wav
256,192,210034,1,0,0:0:0:0:
402,192,210215,128,0,210938:0:0:0:70:drumsound.wav
475,192,210215,1,0,0:0:0:70:Kick.wav
36,192,210396,1,0,0:0:0:70:drumsound.wav
182,192,210396,1,0,0:0:0:0:
256,192,210576,1,0,0:0:0:70:drumsound.wav
329,192,210576,1,0,0:0:0:0:
36,192,210757,1,8,0:0:0:40:drum-hitclap.wav
109,192,210847,1,8,0:0:0:40:drum-hitclap.wav
182,192,210938,1,0,0:0:0:70:Crash2.wav
256,192,210938,128,4,212384:0:0:0:40:drum-hitfinish.wav
475,192,210938,128,0,212384:0:0:0:0:
36,192,211932,128,0,212384:0:0:0:0:
109,192,212384,1,0,0:0:0:70:Crash2.wav
182,192,212384,1,0,0:0:0:70:Kick.wav
329,192,212384,128,0,213106:0:0:0:0:
182,192,213106,1,0,0:0:0:100:Crash.wav
256,192,213106,1,0,0:0:0:70:Kick.wav
402,192,213106,128,0,213829:0:0:0:0:
256,192,213829,1,0,0:0:0:80:drumsound.wav
329,192,213829,1,0,0:0:0:0:
475,192,213829,1,0,0:0:0:0:
182,192,213890,1,0,0:0:0:0:
109,192,213950,1,0,0:0:0:0:
36,192,214010,1,0,0:0:0:0:
475,192,214070,1,0,0:0:0:0:
402,192,214131,1,0,0:0:0:0:
36,192,214191,1,0,0:0:0:80:drumsound.wav
256,192,214191,1,0,0:0:0:0:
329,192,214191,1,0,0:0:0:0:
109,192,214251,1,0,0:0:0:0:
182,192,214311,1,0,0:0:0:0:
256,192,214372,1,0,0:0:0:0:
329,192,214432,1,0,0:0:0:0:
402,192,214492,1,0,0:0:0:0:
475,192,214552,1,0,0:0:0:0:
329,192,214612,1,0,0:0:0:0:
182,192,214673,1,0,0:0:0:0:
36,192,214733,1,0,0:0:0:0:
475,192,214793,1,0,0:0:0:0:
402,192,214853,1,0,0:0:0:0:
182,192,214914,128,0,216721:0:0:0:40:drum-hitclap.wav
256,192,214914,1,0,0:0:0:0:
329,192,214914,1,0,0:0:0:0:
109,192,214974,1,0,0:0:0:0:
36,192,215034,1,0,0:0:0:0:
475,192,215094,1,0,0:0:0:0:
402,192,215155,1,0,0:0:0:0:
329,192,215215,1,0,0:0:0:0:
256,192,215275,128,0,216721:0:0:0:0:
329,192,215998,128,0,216721:0:0:0:0:
36,192,216721,128,0,218167:0:0:0:100:Crash2.wav
402,192,216721,1,0,0:0:0:70:Kick.wav
475,192,216721,1,0,0:0:0:0:
182,192,217082,1,0,0:0:0:70:clapdefault.wav
256,192,217082,1,0,0:0:0:0:
475,192,217082,1,0,0:0:0:0:
109,192,217444,1,0,0:0:0:70:Kick.wav
329,192,217444,1,0,0:0:0:0:
182,192,217625,1,0,0:0:0:70:Kick.wav
402,192,217625,1,0,0:0:0:0:
256,192,217805,1,0,0:0:0:70:clapdefault.wav
329,192,217805,1,0,0:0:0:0:
475,192,217805,1,0,0:0:0:0:
182,192,217986,1,0,0:0:0:70:Kick.wav
402,192,217986,1,0,0:0:0:0:
109,192,218167,128,0,218890:0:0:0:70:Kick.wav
329,192,218167,1,0,0:0:0:0:
36,192,218528,1,0,0:0:0:70:clapdefault.wav
402,192,218528,1,0,0:0:0:0:
475,192,218528,1,0,0:0:0:0:
182,192,218890,128,0,219612:0:0:0:70:Kick.wav
256,192,218890,1,0,0:0:0:0:
402,192,219161,1,0,0:0:0:70:Kick.wav
475,192,219161,1,0,0:0:0:0:
36,192,219251,1,0,0:0:0:70:clapdefault.wav
256,192,219251,1,0,0:0:0:0:
329,192,219251,1,0,0:0:0:0:
109,192,219432,1,0,0:0:0:70:Kick.wav
402,192,219432,1,0,0:0:0:0:
256,192,219612,128,0,221058:0:0:0:70:Kick.wav
475,192,219612,1,0,0:0:0:0:
36,192,219974,1,0,0:0:0:70:clapdefault.wav
109,192,219974,1,0,0:0:0:0:
182,192,219974,1,0,0:0:0:0:
36,192,220335,1,0,0:0:0:70:Kick.wav
475,192,220335,1,0,0:0:0:0:
109,192,220516,1,0,0:0:0:70:Kick.wav
402,192,220516,1,0,0:0:0:0:
182,192,220697,1,0,0:0:0:70:clapdefault.wav
329,192,220697,1,0,0:0:0:0:
475,192,220697,1,0,0:0:0:0:
109,192,220878,1,0,0:0:0:70:Kick.wav
402,192,220878,1,0,0:0:0:0:
36,192,221058,1,0,0:0:0:70:Kick.wav
329,192,221058,128,0,221781:0:0:0:0:
109,192,221420,1,0,0:0:0:70:clapdefault.wav
182,192,221420,1,0,0:0:0:0:
475,192,221420,1,0,0:0:0:0:
256,192,221781,1,0,0:0:0:70:Kick.wav
402,192,221781,128,0,222504:0:0:0:0:
36,192,222052,1,0,0:0:0:70:Kick.wav
475,192,222052,1,0,0:0:0:0:
109,192,222143,1,0,0:0:0:70:clapdefault.wav
182,192,222143,1,0,0:0:0:0:
329,192,222143,1,0,0:0:0:0:
36,192,222323,1,0,0:0:0:70:Kick.wav
256,192,222323,1,0,0:0:0:0:
109,192,222504,1,0,0:0:0:100:Crash.wav
329,192,222504,1,0,0:0:0:70:Kick.wav
475,192,222504,128,0,223046:0:0:0:0:
36,192,222865,1,0,0:0:0:70:clapdefault.wav
182,192,222865,1,0,0:0:0:0:
256,192,222865,1,0,0:0:0:0:
329,192,223046,128,0,223227:0:0:0:0:
109,192,223227,1,0,0:0:0:70:Kick.wav
182,192,223227,128,0,223950:0:0:0:0:
402,192,223408,1,0,0:0:0:70:Kick.wav
475,192,223408,1,0,0:0:0:0:
36,192,223588,1,0,0:0:0:70:clapdefault.wav
256,192,223588,1,0,0:0:0:0:
329,192,223588,1,0,0:0:0:0:
109,192,223769,1,0,0:0:0:70:Kick.wav
402,192,223769,1,0,0:0:0:0:
36,192,223950,1,0,0:0:0:70:Kick.wav
329,192,223950,128,0,224673:0:0:0:0:
109,192,224311,1,0,0:0:0:70:clapdefault.wav
256,192,224311,1,0,0:0:0:0:
475,192,224311,1,0,0:0:0:0:
36,192,224673,128,0,225396:0:0:0:70:Kick.wav
182,192,224673,1,0,0:0:0:0:
109,192,224944,1,0,0:0:0:70:Kick.wav
256,192,224944,1,0,0:0:0:0:
329,192,225034,1,0,0:0:0:70:clapdefault.wav
402,192,225034,1,0,0:0:0:0:
475,192,225034,1,0,0:0:0:0:
109,192,225215,1,0,0:0:0:70:Kick.wav
182,192,225215,1,0,0:0:0:0:
256,192,225396,128,0,226841:0:0:0:70:Kick.wav
329,192,225396,1,0,0:0:0:0:
36,192,225757,1,0,0:0:0:70:clapdefault.wav
109,192,225757,1,0,0:0:0:0:
475,192,225757,1,0,0:0:0:0:
36,192,226118,1,0,0:0:0:70:Kick.wav
475,192,226118,1,0,0:0:0:0:
109,192,226299,1,8,0:0:0:40:drum-hitclap.wav
402,192,226299,1,0,0:0:0:0:
182,192,226390,1,8,0:0:0:40:drum-hitclap.wav
329,192,226390,1,0,0:0:0:0:
36,192,226480,1,8,0:0:0:40:drum-hitfinish.wav
475,192,226480,1,4,0:0:0:40:drum-hitfinish.wav
109,192,226570,1,8,0:0:0:40:drum-hitfinish.wav
402,192,226570,1,4,0:0:0:40:drum-hitfinish.wav
182,192,226661,1,8,0:0:0:40:drum-hitfinish.wav
329,192,226661,1,4,0:0:0:40:drum-hitfinish.wav
36,192,226751,1,8,0:0:0:40:drum-hitfinish.wav
475,192,226751,1,4,0:0:0:40:drum-hitfinish.wav
109,192,226841,1,0,0:0:0:70:Crash2.wav
329,192,226841,1,0,0:0:0:70:Kick.wav
402,192,226841,1,0,0:0:0:0:
36,192,227022,1,0,0:0:0:70:drumsound.wav
109,192,227022,1,0,0:0:0:0:
182,192,227203,1,0,0:0:0:70:Crash2.wav
256,192,227203,1,0,0:0:0:70:Kick.wav
329,192,227203,1,0,0:0:0:0:
329,192,227384,1,0,0:0:0:70:drumsound.wav
475,192,227384,1,0,0:0:0:0:
109,192,227564,1,0,0:0:0:70:Crash2.wav
182,192,227564,1,0,0:0:0:70:Kick.wav
256,192,227564,1,0,0:0:0:0:
256,192,227745,1,0,0:0:0:70:drumsound.wav
402,192,227745,1,0,0:0:0:0:
36,192,227926,1,0,0:0:0:70:Crash2.wav
109,192,227926,1,0,0:0:0:70:Kick.wav
182,192,227926,1,0,0:0:0:0:
182,192,228106,1,0,0:0:0:70:drumsound.wav
329,192,228106,1,0,0:0:0:0:
36,192,228287,1,0,0:0:0:100:Crash.wav
109,192,228287,128,0,229733:0:0:0:70:Kick.wav
475,192,228287,1,0,0:0:0:0:
182,192,228649,1,0,0:0:0:70:clapdefault.wav
329,192,228649,1,0,0:0:0:0:
402,192,228649,1,0,0:0:0:0:
256,192,229010,1,0,0:0:0:70:Kick.wav
475,192,229010,1,0,0:0:0:0:
182,192,229191,1,0,0:0:0:70:Kick.wav
402,192,229191,1,0,0:0:0:0:
36,192,229372,1,0,0:0:0:70:clapdefault.wav
256,192,229372,1,0,0:0:0:0:
475,192,229372,1,0,0:0:0:0:
182,192,229552,1,0,0:0:0:70:Kick.wav
402,192,229552,1,0,0:0:0:0:
256,192,229733,128,0,231179:0:0:0:70:Kick.wav
329,192,229733,1,0,0:0:0:0:
36,192,230094,1,0,0:0:0:70:clapdefault.wav
182,192,230094,1,0,0:0:0:0:
475,192,230094,1,0,0:0:0:0:
109,192,230275,1,0,0:0:0:70:Kick.wav
402,192,230275,1,0,0:0:0:0:
182,192,230456,1,0,0:0:0:70:Kick.wav
329,192,230456,1,0,0:0:0:0:
109,192,230637,1,0,0:0:0:70:Kick.wav
402,192,230637,1,0,0:0:0:0:
36,192,230817,1,0,0:0:0:70:clapdefault.wav
329,192,230817,1,0,0:0:0:0:
475,192,230817,1,0,0:0:0:0:
109,192,230998,1,0,0:0:0:70:Kick.wav
182,192,230998,1,0,0:0:0:0:
329,192,231179,1,0,0:0:0:70:Kick.wav
475,192,231179,128,0,234070:0:0:0:0:
36,192,231540,1,0,0:0:0:70:clapdefault.wav
256,192,231540,1,0,0:0:0:0:
402,192,231540,1,0,0:0:0:0:
182,192,231902,1,0,0:0:0:70:Kick.wav
402,192,231902,1,0,0:0:0:0:
109,192,232082,1,0,0:0:0:70:Kick.wav
329,192,232082,1,0,0:0:0:0:
36,192,232263,1,0,0:0:0:70:clapdefault.wav
182,192,232263,1,0,0:0:0:0:
256,192,232263,1,0,0:0:0:0:
109,192,232444,1,0,0:0:0:70:Kick.wav
329,192,232444,1,0,0:0:0:0:
182,192,232625,1,0,0:0:0:70:Kick.wav
402,192,232625,1,0,0:0:0:0:
36,192,232986,1,0,0:0:0:70:clapdefault.wav
109,192,232986,1,0,0:0:0:0:
329,192,232986,1,0,0:0:0:0:
182,192,233167,1,0,0:0:0:70:Kick.wav
402,192,233167,1,0,0:0:0:0:
109,192,233347,1,0,0:0:0:70:Kick.wav
329,192,233347,1,0,0:0:0:0:
36,192,233528,1,0,0:0:0:70:Kick.wav
402,192,233528,1,0,0:0:0:0:
109,192,233709,1,0,0:0:0:70:Crash2.wav
182,192,233709,1,0,0:0:0:50:Calp.wav
256,192,233709,1,0,0:0:0:0:
329,192,233890,1,0,0:0:0:70:Kick.wav
402,192,233890,1,0,0:0:0:0:
36,192,234070,1,0,0:0:0:50:Calp.wav
256,192,234070,1,0,0:0:0:70:Kick.wav
182,192,234161,1,0,0:0:0:0:
329,192,234251,1,0,0:0:0:0:
475,192,234341,1,0,0:0:0:0:
36,192,234432,1,0,0:0:0:70:Kick.wav
109,192,234432,1,0,0:0:0:0:
182,192,234522,1,0,0:0:0:0:
329,192,234612,1,0,0:0:0:0:
475,192,234703,1,0,0:0:0:0:
36,192,234793,1,0,0:0:0:50:Calp.wav
402,192,234793,1,0,0:0:0:0:
329,192,234884,1,0,0:0:0:0:
256,192,234974,1,0,0:0:0:0:
109,192,235155,1,0,0:0:0:60:Calp.wav
475,192,235155,1,0,0:0:0:0:
182,192,235245,1,0,0:0:0:0:
256,192,235335,1,0,0:0:0:0:
36,192,235516,1,0,0:0:0:70:Kick.wav
475,192,235516,1,0,0:0:0:0:
329,192,235606,1,0,0:0:0:0:
182,192,235697,1,0,0:0:0:0:
36,192,235787,1,0,0:0:0:0:
256,192,235878,1,0,0:0:0:50:Calp.wav
475,192,235878,1,0,0:0:0:0:
182,192,235968,1,0,0:0:0:0:
109,192,236058,1,0,0:0:0:0:
36,192,236149,1,0,0:0:0:0:
329,192,236239,1,0,0:0:0:60:Calp.wav
475,192,236239,1,0,0:0:0:0:
256,192,236329,1,0,0:0:0:0:
182,192,236420,1,0,0:0:0:0:
109,192,236510,1,0,0:0:0:0:
36,192,236600,1,0,0:0:0:70:Kick.wav
475,192,236600,1,0,0:0:0:0:
402,192,236691,1,0,0:0:0:0:
109,192,236781,1,0,0:0:0:0:
182,192,236872,1,0,0:0:0:0:
256,192,236962,128,0,237685:0:0:0:100:Crash2.wav
329,192,236962,1,0,0:0:0:50:Calp.wav
475,192,236962,1,0,0:0:0:0:
36,192,237323,1,0,0:0:0:70:Kick.wav
182,192,237323,1,0,0:0:0:0:
36,192,237685,1,0,0:0:0:70:drumsound.wav
329,192,237685,128,0,238408:0:0:0:0:
475,192,237685,1,0,0:0:0:0:
109,192,237865,1,0,0:0:0:70:drumsound.wav
182,192,237865,1,0,0:0:0:0:
36,192,238046,1,0,0:0:0:70:drumsound.wav
402,192,238046,1,0,0:0:0:0:
475,192,238046,1,0,0:0:0:0:
182,192,238227,1,0,0:0:0:70:drumsound.wav
256,192,238227,1,0,0:0:0:0:
402,192,238408,1,0,0:0:0:70:Crash2.wav
475,192,238408,1,0,0:0:0:70:drumsound.wav
36,192,238588,1,0,0:0:0:0:
182,192,238679,1,0,0:0:0:0:
329,192,238769,1,0,0:0:0:0:
475,192,238769,1,0,0:0:0:0:
109,192,238859,1,0,0:0:0:0:
256,192,238950,1,0,0:0:0:0:
402,192,239040,1,0,0:0:0:0:
36,192,239131,1,0,0:0:0:100:drumsound.wav
182,192,239131,1,0,0:0:0:0:
329,192,239221,1,0,0:0:0:0:
182,192,239311,1,0,0:0:0:0:
329,192,239402,1,0,0:0:0:0:
256,192,239492,1,0,0:0:0:0:
402,192,239492,1,0,0:0:0:0:
109,192,239582,1,0,0:0:0:0:
402,192,239673,1,0,0:0:0:0:
109,192,239763,1,0,0:0:0:0:
182,192,239853,1,0,0:0:0:100:Crash.wav
256,192,239853,128,0,242384:0:0:0:70:Kick.wav
329,192,239853,1,0,0:0:0:0:
36,192,240215,1,0,0:0:0:70:clapdefault.wav
182,192,240215,1,0,0:0:0:0:
475,192,240215,1,0,0:0:0:0:
109,192,240576,1,0,0:0:0:70:Kick.wav
402,192,240576,1,0,0:0:0:0:
182,192,240757,1,0,0:0:0:70:Kick.wav
329,192,240757,1,0,0:0:0:0:
109,192,240938,1,0,0:0:0:70:clapdefault.wav
402,192,240938,1,0,0:0:0:0:
475,192,240938,1,0,0:0:0:0:
182,192,241118,1,0,0:0:0:70:Kick.wav
329,192,241118,1,0,0:0:0:0:
36,192,241299,1,0,0:0:0:70:Kick.wav
109,192,241299,1,0,0:0:0:0:
36,192,241661,1,0,0:0:0:70:clapdefault.wav
182,192,241661,1,0,0:0:0:0:
402,192,241661,1,0,0:0:0:0:
329,192,242022,1,0,0:0:0:70:Kick.wav
475,192,242022,1,0,0:0:0:0:
36,192,242293,1,0,0:0:0:70:Kick.wav
109,192,242293,1,0,0:0:0:0:
329,192,242384,1,0,0:0:0:70:clapdefault.wav
402,192,242384,1,0,0:0:0:0:
475,192,242384,128,0,242745:0:0:0:0:
36,192,242564,1,0,0:0:0:70:Kick.wav
109,192,242564,1,0,0:0:0:0:
256,192,242745,128,0,245637:0:0:0:70:Kick.wav
329,192,242745,1,0,0:0:0:0:
36,192,243106,1,0,0:0:0:70:clapdefault.wav
402,192,243106,1,0,0:0:0:0:
475,192,243106,1,0,0:0:0:0:
182,192,243468,1,0,0:0:0:70:Kick.wav
329,192,243468,1,0,0:0:0:0:
109,192,243649,1,0,0:0:0:70:Kick.wav
402,192,243649,1,0,0:0:0:0:
36,192,243829,1,0,0:0:0:70:clapdefault.wav
182,192,243829,1,0,0:0:0:0:
475,192,243829,1,0,0:0:0:0:
109,192,244010,1,0,0:0:0:70:Kick.wav
402,192,244010,1,0,0:0:0:0:
182,192,244191,1,0,0:0:0:70:Kick.wav
329,192,244191,1,0,0:0:0:0:
36,192,244552,1,0,0:0:0:70:clapdefault.wav
109,192,244552,1,0,0:0:0:0:
475,192,244552,1,0,0:0:0:0:
182,192,244914,1,0,0:0:0:70:Kick.wav
402,192,244914,1,0,0:0:0:0:
109,192,245094,1,0,0:0:0:70:Kick.wav
329,192,245094,1,0,0:0:0:0:
36,192,245275,1,0,0:0:0:70:drumsound.wav
182,192,245275,1,0,0:0:0:0:
475,192,245275,1,0,0:0:0:0:
402,192,245365,1,0,0:0:0:70:drumsound.wav
329,192,245456,1,0,0:0:0:70:drumsound.wav
182,192,245546,1,0,0:0:0:70:drumsound.wav
36,192,245637,1,0,0:0:0:70:Crash.wav
109,192,245637,1,0,0:0:0:70:Kick.wav
475,192,245637,1,0,0:0:0:0:
182,192,245998,1,0,0:0:0:70:clapdefault.wav
256,192,245998,1,0,0:0:0:0:
329,192,245998,1,0,0:0:0:0:
109,192,246359,1,0,0:0:0:70:Kick.wav
475,192,246359,1,0,0:0:0:0:
109,192,246540,1,0,0:0:0:70:Kick.wav
402,192,246540,1,0,0:0:0:0:
36,192,246721,1,0,0:0:0:70:clapdefault.wav
256,192,246721,1,0,0:0:0:0:
329,192,246721,1,0,0:0:0:0:
109,192,246902,1,0,0:0:0:70:Kick.wav
402,192,246902,1,0,0:0:0:0:
182,192,247082,1,0,0:0:0:70:Kick.wav
402,192,247082,1,0,0:0:0:0:
36,192,247444,1,0,0:0:0:70:clapdefault.wav
256,192,247444,1,0,0:0:0:0:
475,192,247444,1,0,0:0:0:0:
109,192,247805,1,0,0:0:0:70:Kick.wav
329,192,247805,1,0,0:0:0:0:
182,192,247986,1,0,0:0:0:70:Kick.wav
475,192,247986,1,0,0:0:0:0:
109,192,248076,1,0,0:0:0:70:Kick.wav
402,192,248076,1,0,0:0:0:0:
36,192,248167,1,0,0:0:0:70:clapdefault.wav
256,192,248167,1,0,0:0:0:0:
329,192,248167,1,0,0:0:0:0:
182,192,248347,1,0,0:0:0:70:Kick.wav
402,192,248347,1,0,0:0:0:0:
182,192,248528,1,0,0:0:0:70:Kick.wav
475,192,248528,1,0,0:0:0:0:
109,192,248890,1,0,0:0:0:50:Calp.wav
256,192,248890,1,0,0:0:0:0:
402,192,248890,1,0,0:0:0:0:
182,192,249161,1,0,0:0:0:50:Calp.wav
329,192,249161,1,0,0:0:0:0:
475,192,249161,1,0,0:0:0:0:
36,192,249251,1,0,0:0:0:70:Kick.wav
109,192,249251,1,0,0:0:0:0:
329,192,249432,1,0,0:0:0:70:Kick.wav
402,192,249432,1,0,0:0:0:0:
182,192,249612,1,0,0:0:0:50:Calp.wav
256,192,249612,1,0,0:0:0:0:
475,192,249612,1,0,0:0:0:0:
36,192,249793,1,0,0:0:0:70:Kick.wav
109,192,249884,1,0,0:0:0:70:Kick.wav
182,192,249974,1,0,0:0:0:70:Crash.wav
256,192,249974,1,0,0:0:0:100:Clap.wav
475,192,249974,1,0,0:0:0:70:Kick.wav
402,192,250064,1,0,0:0:0:70:Kick.wav
329,192,250155,1,0,0:0:0:70:Kick.wav
256,192,250245,1,0,0:0:0:70:Kick.wav
36,192,250335,1,0,0:0:0:70:Crash.wav
109,192,250335,1,0,0:0:0:100:Clap.wav
475,192,250335,1,0,0:0:0:70:Kick.wav
182,192,250426,1,0,0:0:0:70:Kick.wav
329,192,250516,1,0,0:0:0:70:Kick.wav
475,192,250606,1,0,0:0:0:70:Kick.wav
36,192,250697,1,0,0:0:0:70:Crash.wav
256,192,250697,1,0,0:0:0:100:Clap.wav
402,192,250697,1,0,0:0:0:70:Kick.wav
109,192,250787,1,0,0:0:0:70:Kick.wav
182,192,250878,1,0,0:0:0:70:Kick.wav
256,192,250968,1,0,0:0:0:70:Kick.wav
402,192,251058,1,0,0:0:0:70:Crash.wav
475,192,251058,1,0,0:0:0:100:Clap.wav
329,192,251149,1,0,0:0:0:70:Kick.wav
182,192,251239,1,0,0:0:0:70:Kick.wav
36,192,251329,1,0,0:0:0:70:Kick.wav
109,192,251420,1,0,0:0:0:100:Crash.wav
256,192,251420,128,0,251781:0:0:0:70:Kick.wav
475,192,251420,1,0,0:0:0:0:
402,192,251781,1,0,0:0:0:0:
182,192,251962,1,0,0:0:0:70:Kick.wav
329,192,251962,1,0,0:0:0:0:
36,192,252143,1,0,0:0:0:50:Calp.wav
256,192,252143,1,0,0:0:0:0:
475,192,252143,1,0,0:0:0:0:
109,192,252504,1,0,0:0:0:70:Kick.wav
402,192,252504,1,0,0:0:0:0:
182,192,252865,1,0,0:0:0:70:Crash.wav
256,192,252865,128,0,253227:0:0:0:70:Kick.wav
329,192,252865,1,0,0:0:0:0:
109,192,253227,1,0,0:0:0:0:
182,192,253408,1,0,0:0:0:70:Kick.wav
329,192,253408,1,0,0:0:0:0:
109,192,253588,1,0,0:0:0:50:Calp.wav
256,192,253588,1,0,0:0:0:0:
402,192,253588,1,0,0:0:0:0:
182,192,253769,1,0,0:0:0:70:Kick.wav
329,192,253769,1,0,0:0:0:0:
36,192,253950,1,0,0:0:0:70:Kick.wav
475,192,253950,1,0,0:0:0:0:
109,192,254311,1,0,0:0:0:70:Kick.wav
256,192,254311,128,0,254673:0:0:0:0:
402,192,254311,1,0,0:0:0:0:
329,192,254673,1,0,0:0:0:0:
36,192,254853,1,0,0:0:0:70:Kick.wav
475,192,254853,1,0,0:0:0:0:
182,192,255034,1,0,0:0:0:50:Calp.wav
256,192,255034,1,0,0:0:0:0:
329,192,255034,1,0,0:0:0:0:
109,192,255396,1,0,0:0:0:70:Kick.wav
402,192,255396,1,0,0:0:0:0:
36,192,255757,1,0,0:0:0:70:Kick.wav
256,192,255757,128,0,256118:0:0:0:0:
475,192,255757,1,0,0:0:0:0:
329,192,255938,1,0,0:0:0:70:clapdefault.wav
402,192,255938,1,0,0:0:0:0:
36,192,256118,128,0,256480:0:0:0:0:
402,192,256299,1,0,0:0:0:70:Kick.wav
475,192,256299,1,0,0:0:0:0:
109,192,256480,1,0,0:0:0:50:Calp.wav
182,192,256480,1,0,0:0:0:0:
256,192,256480,128,0,256841:0:0:0:0:
329,192,256600,1,8,0:0:0:40:drum-hitclap.wav
36,192,256691,1,4,0:0:0:40:drum-hitfinish.wav
475,192,256841,128,0,257203:0:0:0:70:Kick.wav
182,192,257022,1,0,0:0:0:70:Kick.wav
36,192,257203,1,0,0:0:0:70:Crash.wav
329,192,257203,1,0,0:0:0:0:
402,192,257203,1,0,0:0:0:0:
109,192,257384,1,0,0:0:0:70:Kick.wav
256,192,257384,1,0,0:0:0:0:
109,192,257564,1,0,0:0:0:70:Kick.wav
329,192,257564,1,0,0:0:0:0:
182,192,257745,1,0,0:0:0:70:Crash.wav
256,192,257745,1,0,0:0:0:0:
475,192,257745,1,0,0:0:0:0:
36,192,257926,1,0,0:0:0:70:Kick.wav
329,192,257926,1,0,0:0:0:0:
109,192,258106,1,0,0:0:0:70:Kick.wav
329,192,258106,1,0,0:0:0:0:
182,192,258287,1,0,0:0:0:70:Crash2.wav
256,192,258287,1,0,0:0:0:0:
475,192,258287,1,0,0:0:0:0:
36,192,258468,1,0,0:0:0:70:Kick.wav
475,192,258468,1,0,0:0:0:0:
36,192,258649,1,0,0:0:0:70:Crash.wav
256,192,258649,1,0,0:0:0:0:
402,192,258649,1,0,0:0:0:0:
109,192,258829,1,0,0:0:0:70:Kick.wav
329,192,258829,1,0,0:0:0:0:
182,192,259010,1,0,0:0:0:70:Kick.wav
329,192,259010,1,0,0:0:0:0:
109,192,259191,1,0,0:0:0:70:Crash.wav
256,192,259191,1,0,0:0:0:0:
475,192,259191,1,0,0:0:0:0:
182,192,259371,1,0,0:0:0:70:Kick.wav
402,192,259371,1,0,0:0:0:0:
182,192,259552,1,0,0:0:0:70:Kick.wav
329,192,259552,1,0,0:0:0:0:
36,192,259733,1,0,0:0:0:70:Crash.wav
256,192,259733,1,0,0:0:0:0:
475,192,259733,1,0,0:0:0:0:
109,192,259914,1,0,0:0:0:70:Kick.wav
402,192,259914,1,0,0:0:0:0:
182,192,260094,128,0,260365:0:0:0:70:clapdefault.wav
256,192,260094,128,0,260365:0:0:0:0:
329,192,260094,128,0,260365:0:0:0:0:
109,192,260456,128,0,260727:0:0:0:70:clapdefault.wav
256,192,260456,128,0,260727:0:0:0:0:
329,192,260456,128,0,260727:0:0:0:0:
182,192,260817,128,0,261088:0:0:0:70:clapdefault.wav
256,192,260817,128,0,261088:0:0:0:0:
475,192,260817,128,0,261088:0:0:0:0:
109,192,261179,128,0,261450:0:0:0:70:clapdefault.wav
256,192,261179,128,0,261450:0:0:0:0:
402,192,261179,128,0,261450:0:0:0:0:
36,192,261540,128,0,261811:0:0:0:70:Crash2.wav
256,192,261540,128,0,261811:0:0:0:70:clapdefault.wav
329,192,261540,128,0,261811:0:0:0:0:
109,192,261902,128,0,262173:0:0:0:70:Crash.wav
256,192,261902,128,0,262173:0:0:0:70:clapdefault.wav
402,192,261902,128,0,262173:0:0:0:0:
182,192,262263,1,0,0:0:0:70:drumsound.wav
475,192,262263,1,0,0:0:0:0:
402,192,262353,1,0,0:0:0:70:drumsound.wav
256,192,262444,1,0,0:0:0:70:drumsound.wav
36,192,262534,1,0,0:0:0:70:drumsound.wav
182,192,262625,1,0,0:0:0:70:drumsound.wav
475,192,262625,1,0,0:0:0:0:
402,192,262715,1,0,0:0:0:70:drumsound.wav
256,192,262805,1,0,0:0:0:70:drumsound.wav
36,192,262896,1,0,0:0:0:70:drumsound.wav
182,192,262986,1,0,0:0:0:50:ting.wav
329,192,262986,1,0,0:0:0:40:Kick.wav
36,192,263347,1,0,0:0:0:20:bell1.wav
256,192,263347,1,0,0:0:0:0:
402,192,263528,1,0,0:0:0:40:Kick.wav
475,192,263528,1,0,0:0:0:0:
109,192,263709,1,0,0:0:0:20:bell2.wav
329,192,263709,1,0,0:0:0:0:
182,192,264070,1,0,0:0:0:20:bell3.wav
402,192,264070,1,0,0:0:0:0:
329,192,264251,1,0,0:0:0:0:
256,192,264432,1,0,0:0:0:20:bell4.wav
475,192,264432,1,0,0:0:0:0:
182,192,264612,1,0,0:0:0:0:
256,192,264793,1,0,0:0:0:40:Kick.wav
329,192,264793,1,0,0:0:0:0:
109,192,264974,128,0,265155:0:0:0:0:
402,192,265155,1,0,0:0:0:0:
329,192,265335,1,0,0:0:0:0:
182,192,265516,1,0,0:0:0:40:Kick.wav
256,192,265516,1,0,0:0:0:0:
36,192,265878,1,0,0:0:0:40:Kick.wav
475,192,265878,1,0,0:0:0:0:
182,192,265968,1,0,0:0:0:0:
256,192,266239,1,0,0:0:0:20:bell5.wav
475,192,266239,1,0,0:0:0:0:
36,192,266420,1,0,0:0:0:40:Kick.wav
109,192,266420,1,0,0:0:0:0:
182,192,266600,1,0,0:0:0:20:bell6.wav
402,192,266600,1,0,0:0:0:0:
256,192,266781,1,0,0:0:0:0:
109,192,266962,1,0,0:0:0:20:bell7.wav
329,192,266962,1,0,0:0:0:0:
182,192,267143,1,0,0:0:0:0:
36,192,267323,1,0,0:0:0:20:bell8.wav
256,192,267323,1,0,0:0:0:0:
256,192,267504,1,0,0:0:0:0:
182,192,267685,1,0,0:0:0:40:Kick.wav
402,192,267685,1,0,0:0:0:0:
36,192,268046,1,0,0:0:0:10:bell1.wav
109,192,268046,1,0,0:0:0:0:
182,192,268227,1,0,0:0:0:0:
256,192,268408,1,0,0:0:0:40:Kick.wav
402,192,268408,1,0,0:0:0:0:
256,192,268769,1,0,0:0:0:40:Kick.wav
475,192,268769,1,0,0:0:0:0:
36,192,269131,1,0,0:0:0:20:bell12.wav
182,192,269131,1,0,0:0:0:0:
402,192,269311,1,0,0:0:0:40:Kick.wav
475,192,269311,1,0,0:0:0:0:
109,192,269492,1,0,0:0:0:20:bell1.wav
256,192,269492,1,0,0:0:0:0:
182,192,269853,1,0,0:0:0:20:bell2.wav
329,192,269853,1,0,0:0:0:0:
36,192,270034,1,0,0:0:0:0:
256,192,270215,1,0,0:0:0:20:bell3.wav
402,192,270215,1,0,0:0:0:0:
329,192,270396,128,0,270576:0:0:0:0:
109,192,270576,1,0,0:0:0:40:Kick.wav
182,192,270576,1,0,0:0:0:0:
109,192,270938,1,0,0:0:0:0:
256,192,270938,1,0,0:0:0:0:
329,192,271118,1,0,0:0:0:0:
182,192,271299,1,0,0:0:0:40:Kick.wav
402,192,271299,1,0,0:0:0:0:
109,192,271480,1,0,0:0:0:40:Kick.wav
36,192,271661,1,0,0:0:0:40:Kick.wav
329,192,271661,1,0,0:0:0:20:bell9.wav
256,192,271841,1,0,0:0:0:0:
182,192,272022,1,0,0:0:0:20:bell7.wav
475,192,272022,1,0,0:0:0:0:
256,192,272203,1,0,0:0:0:40:Kick.wav
329,192,272203,1,0,0:0:0:0:
109,192,272384,128,0,272564:0:0:0:10:bell10.wav
475,192,272384,1,0,0:0:0:0:
329,192,272504,1,0,0:0:0:10:bell8.wav
182,192,272625,1,0,0:0:0:10:bell10.wav
36,192,272745,1,0,0:0:0:10:bell1.wav
475,192,272745,1,0,0:0:0:0:
182,192,272926,1,0,0:0:0:0:
329,192,272926,1,0,0:0:0:0:
256,192,273106,128,0,274552:0:0:0:0:
36,192,273468,128,0,273829:0:0:0:0:
109,192,273829,1,0,0:0:0:0:
402,192,273829,1,0,0:0:0:0:
182,192,274010,128,0,274552:0:0:0:0:
329,192,274010,128,0,274552:0:0:0:0:
36,192,274552,1,0,0:0:0:0:
109,192,274552,128,0,275998:0:0:0:0:
475,192,274552,128,0,274914:0:0:0:0:
182,192,274914,128,0,275998:0:0:0:10:bell1.wav
329,192,275275,128,0,275998:0:0:0:10:bell2.wav
475,192,275637,128,0,275998:0:0:0:10:bell3.wav
256,192,275998,128,0,277444:0:0:0:10:bell4.wav
402,192,275998,128,0,277444:0:0:0:0:
182,192,277444,128,0,278890:0:0:0:0:
329,192,277444,128,0,277805:0:0:0:0:
402,192,277805,128,0,278890:0:0:0:10:bell5.wav
329,192,278167,128,0,278890:0:0:0:10:bell6.wav
475,192,278167,128,0,278890:0:0:0:0:
36,192,278347,1,0,0:0:0:0:
109,192,278528,1,0,0:0:0:0:
109,192,278890,128,0,280354:0:0:0:10:bell8.wav
256,192,278890,128,0,280354:0:0:0:0:
402,192,279251,128,0,280354:0:0:0:10:bell7.wav
182,192,279612,128,0,280354:0:0:0:0:
36,192,280354,128,0,281920:0:0:0:0:
329,192,280354,128,0,280721:0:0:0:0:
475,192,280354,1,0,0:0:0:0:
109,192,280721,128,0,281920:0:0:0:10:bell12.wav
182,192,281110,128,0,281920:0:0:0:10:bell1.wav
329,192,281515,128,0,281920:0:0:0:10:bell2.wav
256,192,281920,128,0,282857:0:0:0:10:bell3.wav
475,192,281920,128,0,283795:0:0:0:0:
182,192,282857,128,0,283795:0:0:0:0:
402,192,283736,1,0,0:0:0:0:
36,192,283795,1,0,0:0:0:8:bell1.wav
109,192,283795,128,0,290251:0:0:0:0:
256,192,283795,128,0,285403:0:0:0:0:
182,192,284262,128,0,285403:0:0:0:8:bell13.wav
329,192,284797,128,0,285403:0:0:0:8:bell14.wav
402,192,285403,128,0,287221:0:0:0:8:bell1.wav
