osu file format v14

[General]
AudioFilename: audio.ogg
AudioLeadIn: 0
PreviewTime: 189875
Countdown: 0
SampleSet: Soft
StackLeniency: 1
Mode: 0
LetterboxInBreaks: 0
WidescreenStoryboard: 0

[Editor]
DistanceSpacing: 1.4
BeatDivisor: 4
GridSize: 32
TimelineZoom: 2.3

[Metadata]
Title:HYDRA
TitleUnicode:HYDRA
Artist:MYTH & ROID
ArtistUnicode:MYTH & ROID
Creator:Sajinn
Version:Despair
Source:オーバーロードⅡ
Tags:Overlord Season 2 ed Ending Full anime japanese rock jrock j-rock
BeatmapID:4219543
BeatmapSetID:2025369

[Difficulty]
HPDrainRate:6
CircleSize:4
OverallDifficulty:7
ApproachRate:8.7
SliderMultiplier:1.7
SliderTickRate:1

[Events]
//Background and Video events
0,0,"6Yr83ViG_2x.jpg",0,0
//Break Periods
2,86611,96790
2,179321,190043
//Storyboard Layer 0 (Background)
//Storyboard Layer 1 (Fail)
//Storyboard Layer 2 (Pass)
//Storyboard Layer 3 (Foreground)
//Storyboard Layer 4 (Overlay)
//Storyboard Sound Samples

[TimingPoints]
2746,361.44578313253,4,2,0,50,1,0
3288,-200,4,2,0,50,0,0
8890,-125,4,2,0,50,0,0
9974,-200,4,2,0,50,0,0
10697,-142.857142857143,4,2,0,50,0,0
11420,-71.4285714285714,4,2,0,70,0,0
11962,-100,4,2,0,70,0,0
15035,-333.333333333333,4,2,0,50,0,0
25878,-125,4,2,0,50,0,0
34553,-125,4,2,0,70,0,0
37444,361.11947035811,4,2,0,60,1,0
37444,-500,4,2,0,60,0,0
49011,361.44578313253,4,2,0,60,1,0
49011,-166.666666666667,4,2,0,70,0,0
54071,-83.3333333333334,4,2,0,70,0,0
54794,-100,4,2,0,70,0,0
57866,346.820809248555,4,2,0,70,1,0
57866,-83.3333333333334,4,2,0,70,0,0
58386,350.877192982456,4,2,0,70,1,0
58429,-100,4,2,0,5,0,0
58561,-100,4,2,0,70,0,0
58605,-100,4,2,0,5,0,0
58736,-100,4,2,0,70,0,0
58780,-100,4,2,0,5,0,0
58912,-100,4,2,0,70,0,0
58956,-100,4,2,0,5,0,0
59087,361.44578313253,4,2,0,70,1,0
59087,-100,4,2,0,70,0,0
59131,-100,4,2,0,5,0,0
59809,379.746835443038,4,2,0,70,1,0
60568,361.44578313253,4,2,0,80,1,0
64182,-90.9090909090909,4,2,0,80,0,0
65989,-100,4,2,0,80,0,0
69242,-71.4285714285714,4,2,0,80,0,0
70327,-100,4,2,0,80,0,0
70688,-71.4285714285714,4,2,0,80,0,0
71772,-100,4,2,0,80,0,0
72495,-100,4,2,0,70,0,0
97435,-100,4,2,0,60,0,0
97796,-125,4,2,0,60,0,0
98158,-142.857142857143,4,2,0,60,0,0
101772,-100,4,2,0,60,0,0
102314,-142.857142857143,4,2,0,60,0,0
107104,-142.857142857143,4,2,0,70,0,0
107917,-71.4285714285714,4,2,0,70,0,0
109724,-142.857142857143,4,2,0,60,0,0
110808,-111.111111111111,4,2,0,60,0,0
121561,-111.111111111111,4,2,0,70,0,0
122375,-166.666666666666,4,2,0,70,0,0
125628,-83.3333333333332,4,2,0,70,0,0
127074,-100,4,2,0,70,0,0
128700,-76.9230769230769,4,2,0,70,0,0
129242,-100,4,2,0,70,0,0
130688,-100,4,2,0,70,0,0
130733,-100,4,2,0,5,0,0
130869,-100,4,2,0,70,0,0
130914,-100,4,2,0,5,0,0
131049,-100,4,2,0,70,0,0
131094,-100,4,2,0,5,0,0
131230,-100,4,2,0,70,0,0
131275,-100,4,2,0,5,0,0
131411,-100,4,2,0,70,0,0
131456,-100,4,2,0,5,0,0
131953,-100,4,2,0,70,0,0
132857,-100,4,2,0,80,0,0
140086,-90.9090909090909,4,2,0,80,0,0
140808,-100,4,2,0,80,0,0
141712,-76.9230769230769,4,2,0,80,0,0
144423,-100,4,2,0,70,0,0
155989,-83.3333333333333,4,2,0,80,0,0
157074,-100,4,2,0,80,0,0
159965,-76.9230769230769,4,2,0,80,0,0
160507,-100,4,2,0,80,0,0
161772,-71.4285714285714,4,2,0,80,0,0
162314,-83.3333333333333,4,2,0,80,0,0
162857,-76.9230769230769,4,2,0,80,0,0
164664,-100,4,2,0,80,0,0
166652,-76.9230769230769,4,2,0,80,0,0
173339,-76.9230769230769,4,2,0,80,0,0
173881,-100,4,2,0,80,0,0
174423,-76.9230769230769,4,2,0,80,0,0
174965,-100,4,2,0,80,0,0
175507,-71.4285714285714,4,2,0,80,0,0
177043,-71.4285714285714,4,2,0,5,0,0
177134,-71.4285714285714,4,2,0,80,0,0
177224,-71.4285714285714,4,2,0,5,0,0
177314,-71.4285714285714,4,2,0,80,0,0
177405,-71.4285714285714,4,2,0,5,0,0
177495,-71.4285714285714,4,2,0,80,0,0
177586,-71.4285714285714,4,2,0,5,0,0
177676,-333.333333333333,4,2,0,80,0,0
193580,-200,4,2,0,50,0,0
196481,359.281437125748,4,2,0,50,1,0
196481,-142.857142857143,4,2,0,50,0,0
199372,361.44578313253,4,2,0,50,1,0
205155,-71.4285714285714,4,2,0,70,0,0
207323,-142.857142857143,4,2,0,70,0,0
208046,-166.666666666667,4,2,0,70,0,0
208588,-100,4,2,0,70,0,0
212384,-71.4285714285714,4,2,0,70,0,0
213106,-142.857142857143,4,2,0,70,0,0
214010,-71.4285714285715,4,2,0,70,0,0
214914,-90.9090909090909,4,2,0,70,0,0
216721,-76.9230769230769,4,2,0,80,0,0
217263,-100,4,2,0,80,0,0
225034,-71.4285714285714,4,2,0,80,0,0
226841,-100,4,2,0,80,0,0
228287,-100,4,2,0,70,0,0
230817,-83.3333333333333,4,2,0,70,0,0
231179,-90.9090909090909,4,2,0,70,0,0
232263,-100,4,2,0,70,0,0
235516,-83.3333333333333,4,2,0,70,0,0
236962,-71.4285714285714,4,2,0,70,0,0
238408,-100,4,2,0,70,0,0
239492,-71.4285714285714,4,2,0,70,0,0
240215,-100,4,2,0,70,0,0
242384,-83.3333333333333,4,2,0,70,0,0
242745,-100,4,2,0,70,0,0
245637,-76.9230769230769,4,2,0,70,0,0
247082,-100,4,2,0,70,0,0
248167,-76.9230769230769,4,2,0,70,0,0
248528,-100,4,2,0,70,0,0
251962,-100,4,2,0,60,0,0
254311,-90.9090909090909,4,2,0,60,0,0
255034,-100,4,2,0,60,0,0
257022,-71.4285714285714,4,2,0,60,0,0
257203,-71.4285714285714,4,2,0,70,0,0
259371,-100,4,2,0,70,0,0
260094,-76.9230769230769,4,2,0,70,0,0
279614,370.37037037037,4,2,0,70,1,0
280721,389.61038961039,4,2,0,70,1,0
281110,405.405405405405,4,2,0,70,1,0
281920,468.75,4,2,0,70,1,0
284262,535.714285714286,4,2,0,70,1,0
284797,606.060606060606,4,2,0,70,1,0

[Colours]
Combo1 : 151,224,78
Combo2 : 202,202,202
Combo3 : 108,108,108
Combo4 : 255,66,66
Combo5 : 236,0,0
Combo6 : 155,236,244
Combo7 : 91,202,255
Combo8 : 190,236,104

[HitObjects]
65,307,2746,5,2,0:0:0:0:
59,303,2926,1,2,0:0:0:0:
54,307,3107,1,2,0:0:0:0:
59,313,3288,2,0,L|189:335,1,127.5,2|0,0:0|0:0,0:0:0:0:
184,334,4191,5,2,0:0:0:0:
215,334,4372,1,2,0:0:0:0:
257,335,4553,1,2,0:0:0:0:
321,328,4733,1,2,0:0:0:0:
361,330,4914,1,2,0:0:0:0:
378,314,5276,102,0,P|386:247|387:213,1,85,2|2,0:0|0:0,0:0:0:0:
403,213,5999,1,2,0:0:0:0:
404,143,6179,2,0,B|349:131|331:181|274:166,1,127.5,2|0,0:0|0:0,0:0:0:0:
281,167,7083,5,2,0:0:0:0:
265,159,7264,1,2,0:0:0:0:
248,130,7444,1,2,0:0:0:0:
267,77,7625,1,2,0:0:0:0:
257,27,7806,1,2,0:0:0:0:
234,13,7986,1,2,0:0:0:0:
219,22,8167,2,0,P|216:54|213:78,1,42.5,2|0,0:0|0:0,0:0:0:0:
122,192,8529,102,0,L|127:218,2,21.25,2|2|2,0:0|0:0|0:0,0:0:0:0:
87,281,8800,1,2,0:0:0:0:
87,281,8890,2,0,B|28:267|28:267|43:168,1,136,2|0,0:0|0:0,0:0:0:0:
109,88,9432,5,2,0:0:0:0:
39,62,9613,2,0,P|72:80|110:88,1,68,2|0,0:0|0:0,0:0:0:0:
240,152,9974,102,0,P|202:176|120:191,1,127.5,2|0,0:0|0:0,0:0:0:0:
121,191,10697,2,0,B|201:166|211:254|297:233,1,178.499994552612,2|0,0:0|0:0,0:0:0:0:
464,78,11420,38,0,B|398:140|291:73|365:20|394:58,1,178.499994552612,12|0,0:0|0:0,0:0:0:0:
464,78,11782,1,0,3:0:0:0:
286,235,11962,2,0,B|301:197|301:197|280:126,1,85,12|0,0:0|3:0,0:0:0:0:
487,357,12324,1,0,3:0:0:0:
372,231,12505,101,12,0:0:0:0:
504,247,12685,2,0,P|465:276|423:274,1,85,0|0,3:0|3:0,0:0:0:0:
181,371,13047,6,0,B|226:300|226:300|303:358,1,170,12|0,0:0|3:0,0:0:0:0:
297,373,13589,101,8,0:0:0:0:
265,352,13770,5,8,0:0:0:0:
214,282,13950,101,8,0:0:0:0:
187,166,14131,5,12,0:0:0:0:
219,39,14312,101,2,0:0:0:0:
236,53,15035,86,0,L|244:108,1,50.9999984436036,2|0,0:0|0:0,0:0:0:0:
297,150,15577,1,2,0:0:0:0:
295,159,15758,1,2,0:0:0:0:
129,267,16119,5,2,0:0:0:0:
124,279,16480,2,0,P|84:283|23:313,1,101.999996887207,2|2,0:0|0:0,0:0:0:0:
28,308,17565,101,2,0:0:0:0:
28,308,17926,1,2,0:0:0:0:
181,339,19011,6,0,L|216:343,1,25.4999992218018,2|0,0:0|0:0,0:0:0:0:
281,348,19372,1,2,0:0:0:0:
292,353,19733,1,2,0:0:0:0:
206,354,20095,102,0,P|163:321|186:228,1,152.999995330811,2|2,0:0|0:0,0:0:0:0:
192,234,21541,5,2,0:0:0:0:
185,227,21721,1,2,0:0:0:0:
197,225,21902,1,2,0:0:0:0:
310,158,22264,102,0,P|280:160|253:166,1,50.9999984436036,2|0,0:0|0:0,0:0:0:0:
208,114,22806,1,2,0:0:0:0:
208,114,22986,2,0,P|168:109|101:88,1,101.999996887207,2|0,0:0|0:0,0:0:0:0:
109,91,24071,5,2,0:0:0:0:
109,91,24432,1,2,0:0:0:0:
108,113,24794,101,2,0:0:0:0:
70,179,24974,1,2,0:0:0:0:
66,235,25155,1,0,1:0:0:0:
79,276,25336,1,2,0:0:0:0:
94,293,25517,1,2,0:0:0:0:
177,319,25697,101,2,0:0:0:0:
177,319,25788,1,2,0:0:0:0:
177,319,25878,2,0,P|118:321|46:378,1,136,4|0,1:2|0:0,0:0:0:0:
250,250,26420,101,0,1:0:0:0:
301,359,26601,2,0,B|315:328|315:328|307:284,1,68,0|0,1:0|0:0,0:0:0:0:
173,179,26962,2,0,B|158:139|158:139|194:68,1,102,0|0,1:0|0:0,0:0:0:0:
184,86,27324,6,0,L|262:99,1,68,0|0,1:0|0:0,0:0:0:0:
295,153,27685,1,2,0:0:0:0:
406,81,27866,1,0,1:0:0:0:
471,134,28047,2,0,P|433:165|433:253,1,136,0|0,1:0|1:0,0:0:0:0:
448,233,28679,101,0,3:0:0:0:
448,233,28770,2,0,P|408:242|378:265,1,68,0|0,1:0|0:0,0:0:0:0:
301,359,29131,5,2,0:0:0:0:
196,371,29312,2,0,B|212:331|212:331|314:363,1,136,0|0,1:0|0:0,0:0:0:0:
397,365,29854,101,0,1:0:0:0:
457,325,30035,1,2,0:0:0:0:
296,255,30215,6,0,B|308:226|308:226|294:176,1,68,0|0,1:0|0:0,0:0:0:0:
187,245,30577,2,0,P|143:253|114:272,1,68,2|0,0:0|1:0,0:0:0:0:
26,136,30938,2,0,L|164:157,2,136,0|0|4,1:0|1:0|1:2,0:0:0:0:
35,159,32023,101,2,0:0:0:0:
105,122,32203,1,0,1:0:0:0:
121,144,32384,5,0,1:0:0:0:
34,82,32565,1,2,0:0:0:0:
164,40,32745,102,0,P|200:57|234:59,1,68,0|0,1:0|0:0,0:0:0:0:
410,96,33107,2,0,P|343:107|292:165,1,136,2|0,1:2|0:0,0:0:0:0:
410,96,33649,1,0,1:0:0:0:
265,224,33830,6,0,B|275:191|275:191|262:141,1,68,0|0,1:0|0:0,0:0:0:0:
325,310,34191,2,0,L|467:333,1,136,0|14,1:0|0:0,0:0:0:0:
459,331,34914,53,8,0:0:0:0:
438,323,35095,101,8,0:0:0:0:
361,334,35276,5,8,0:0:0:0:
251,284,35456,101,8,0:0:0:0:
123,300,35637,5,8,3:0:0:0:
7,215,35818,101,8,3:0:0:0:
9,231,35999,5,2,0:0:0:0:
9,231,37444,69,2,0:0:0:0:
77,212,37624,1,0,0:0:0:0:
111,225,37805,1,0,0:0:0:0:
190,288,37985,1,2,0:0:0:0:
258,280,38166,1,0,0:0:0:0:
286,206,38346,1,0,0:0:0:0:
204,145,38527,5,2,0:0:0:0:
195,135,38707,1,0,0:0:0:0:
120,101,38888,101,2,0:0:0:0:
192,109,39069,1,0,0:0:0:0:
264,93,39249,1,0,0:0:0:0:
310,99,39430,1,0,0:0:0:0:
386,158,39610,1,2,0:0:0:0:
467,137,39791,1,0,0:0:0:0:
388,132,39971,1,0,0:0:0:0:
465,161,40152,1,0,0:0:0:0:
443,232,40332,1,2,0:0:0:0:
133,337,40694,5,2,0:0:0:0:
122,332,40874,1,0,0:0:0:0:
83,332,41055,1,0,0:0:0:0:
14,304,41235,1,0,0:0:0:0:
4,327,41416,1,2,0:0:0:0:
73,258,41596,1,0,0:0:0:0:
141,239,41777,1,2,0:0:0:0:
185,20,42138,101,2,0:0:0:0:
171,27,42319,1,0,0:0:0:0:
190,49,42499,1,0,0:0:0:0:
229,60,42680,1,0,0:0:0:0:
261,128,42860,1,2,0:0:0:0:
197,161,43041,1,0,0:0:0:0:
130,117,43221,1,2,0:0:0:0:
288,243,43583,5,2,0:0:0:0:
355,269,43763,1,0,0:0:0:0:
380,287,43944,1,0,0:0:0:0:
394,291,44124,1,0,0:0:0:0:
447,353,44305,1,2,0:0:0:0:
378,377,44485,1,0,0:0:0:0:
471,270,44666,101,2,0:0:0:0:
480,256,44846,1,0,0:0:0:0:
478,206,45027,1,0,0:0:0:0:
430,148,45208,1,0,0:0:0:0:
415,161,45388,1,2,0:0:0:0:
367,103,45569,1,0,0:0:0:0:
365,53,45750,1,0,0:0:0:0:
374,39,45930,1,2,0:0:0:0:
460,72,46110,5,2,0:0:0:0:
460,72,46471,101,0,0:0:0:0:
399,114,46652,5,2,0:0:0:0:
311,95,46833,101,2,0:0:0:0:
220,138,47013,5,2,0:0:0:0:
142,114,47194,101,2,0:0:0:0:
80,139,47374,5,2,0:0:0:0:
64,134,47555,101,2,0:0:0:0:
64,134,49011,101,4,1:2:0:0:
83,146,49101,1,0,1:0:0:0:
107,151,49191,1,0,1:0:0:0:
145,145,49282,1,0,1:0:0:0:
184,117,49372,1,0,1:0:0:0:
228,113,49462,1,0,1:0:0:0:
259,121,49553,1,0,1:0:0:0:
279,137,49643,1,0,1:0:0:0:
287,145,49733,102,0,L|282:179,1,25.4999992218018,0|0,1:0|1:0,0:0:0:0:
210,189,49914,2,0,L|215:223,1,25.4999992218018,0|0,1:0|1:0,0:0:0:0:
313,249,50095,6,0,L|308:283,1,25.4999992218018,0|0,1:0|1:0,0:0:0:0:
121,259,50276,2,0,L|126:293,1,25.4999992218018,0|0,1:0|1:0,0:0:0:0:
189,356,50456,101,4,1:2:0:0:
205,346,50547,1,0,1:0:0:0:
211,335,50637,2,0,L|254:348,1,25.4999992218018,0|0,1:0|1:0,0:0:0:0:
332,257,50818,1,0,1:0:0:0:
360,271,50909,1,0,1:0:0:0:
381,302,50998,1,0,1:0:0:0:
381,357,51089,1,0,1:0:0:0:
361,367,51179,5,4,1:2:0:0:
345,353,51270,1,0,1:0:0:0:
350,313,51360,1,0,1:0:0:0:
390,281,51450,1,0,1:0:0:0:
424,240,51541,1,0,1:0:0:0:
421,196,51631,1,0,1:0:0:0:
404,158,51721,1,0,1:0:0:0:
382,144,51812,1,0,1:0:0:0:
370,144,51902,102,0,L|336:153,1,25.4999992218018,4|0,1:2|1:0,0:0:0:0:
323,228,52083,2,0,L|298:221,1,25.4999992218018,0|0,1:0|1:0,0:0:0:0:
278,106,52264,2,0,L|253:112,1,25.4999992218018,0|0,1:0|1:0,0:0:0:0:
208,173,52444,2,0,L|183:167,1,25.4999992218018,0|0,1:0|1:0,0:0:0:0:
106,262,52625,2,0,L|81:268,1,25.4999992218018,0|0,1:0|1:0,0:0:0:0:
125,90,52806,2,0,L|100:84,1,25.4999992218018,0|0,1:0|1:0,0:0:0:0:
13,132,52986,5,0,1:0:0:0:
36,142,53077,1,0,1:0:0:0:
43,157,53167,2,0,L|36:188,1,25.4999992218018,0|0,1:0|1:0,0:0:0:0:
5,314,53348,101,4,1:2:0:0:
17,331,53438,1,0,1:0:0:0:
55,351,53529,1,0,1:0:0:0:
132,347,53619,1,0,1:0:0:0:
184,300,53709,1,0,1:0:0:0:
221,280,53800,1,0,1:0:0:0:
264,284,53890,1,0,1:0:0:0:
281,297,53980,1,0,1:0:0:0:
284,304,54071,6,0,B|278:324|278:324|281:342|281:342|274:367,1,50.9999984436036,0|0,1:0|1:0,0:0:0:0:
138,221,54251,2,0,B|146:202|146:202|139:170,1,50.9999984436036,0|0,1:0|1:0,0:0:0:0:
298,35,54432,53,8,3:0:0:0:
305,54,54523,1,8,3:0:0:0:
289,73,54613,1,4,3:0:0:0:
303,110,54703,1,4,3:0:0:0:
303,110,54794,2,0,B|232:97|232:97|251:-5,1,170,12|0,0:0|3:0,0:0:0:0:
359,216,55336,2,0,B|401:200|401:200|445:208,1,85,12|0,0:0|3:0,0:0:0:0:
487,154,55697,1,0,3:0:0:0:
361,350,55878,101,12,0:0:0:0:
245,188,56059,1,0,3:0:0:0:
245,188,56149,1,0,3:0:0:0:
245,188,56239,1,0,3:0:0:0:
156,315,56420,6,0,B|73:294|87:377|-22:362,1,170,12|0,0:0|3:0,0:0:0:0:
156,315,56962,101,12,0:0:0:0:
19,207,57143,1,0,3:0:0:0:
27,345,57324,5,12,0:0:0:0:
162,146,57504,1,0,3:0:0:0:
329,361,57685,102,0,B|315:324|315:324|333:274,1,85,12|8,0:0|0:0,0:0:0:0:
314,268,57952,5,8,0:0:0:0:
322,258,58039,1,8,0:0:0:0:
353,253,58126,101,8,0:0:0:0:
398,270,58212,1,8,0:0:0:0:
431,341,58299,5,8,0:0:0:0:
422,350,58386,2,0,L|418:375,1,21.25,4|0,3:0|0:0,0:0:0:0:
502,219,58561,102,0,L|506:244,1,21.25,4|0,3:0|0:0,0:0:0:0:
384,148,58736,6,0,L|380:173,1,21.25,4|0,3:0|0:0,0:0:0:0:
444,73,58912,102,0,L|448:98,1,21.25,4|0,3:0|0:0,0:0:0:0:
417,37,59087,6,0,L|413:62,1,21.25,4|0,3:0|0:0,0:0:0:0:
404,26,59809,5,12,3:0:0:0:
404,26,60062,5,12,3:0:0:0:
427,98,60188,101,12,3:0:0:0:
400,163,60315,5,12,3:0:0:0:
421,207,60441,101,12,3:0:0:0:
421,207,60568,6,0,B|346:191|346:191|372:73,1,170,4|0,3:2|0:0,0:0:0:0:
144,316,61110,1,0,3:0:0:0:
144,316,61200,1,0,3:0:0:0:
144,316,61290,2,0,L|57:333,1,85,12|0,0:0|0:0,0:0:0:0:
4,285,61652,1,0,3:0:0:0:
181,182,61833,1,2,0:0:0:0:
297,272,62013,101,0,3:2:0:0:
343,330,62194,2,0,B|425:315|408:388|515:364,1,170,8|0,0:0|3:0,0:0:0:0:
318,126,62736,6,0,B|355:50|355:50|426:97,1,170,14|0,0:0|3:0,0:0:0:0:
468,265,63278,101,0,3:0:0:0:
468,265,63369,1,0,3:0:0:0:
468,265,63459,1,4,3:2:0:0:
389,227,63640,1,2,0:0:0:0:
458,178,63821,5,2,0:0:0:0:
366,217,64001,1,0,3:0:0:0:
212,303,64182,102,0,B|185:365|109:374|51:318|86:271|142:301,1,187.000005706787,14|0,0:0|3:0,0:0:0:0:
212,303,64724,1,2,0:0:0:0:
61,131,64905,5,0,3:0:0:0:
154,186,65086,1,8,0:0:0:0:
205,87,65266,101,0,3:0:0:0:
62,168,65447,1,0,3:0:0:0:
256,216,65628,5,10,0:0:0:0:
377,122,65808,101,0,3:0:0:0:
377,122,65899,1,0,3:0:0:0:
377,122,65989,2,0,B|361:82|361:82|373:35,1,85,4|0,3:2|0:0,0:0:0:0:
512,203,66351,6,0,L|377:228,1,127.5,6|0,3:2|0:0,0:0:0:0:
371,222,66712,1,0,1:0:0:0:
349,249,66893,1,0,1:0:0:0:
348,301,67074,1,0,1:0:0:0:
391,356,67254,1,0,1:0:0:0:
512,320,67435,102,0,P|469:309|425:291,1,85,0|0,1:0|1:0,0:0:0:0:
256,216,67796,2,0,P|212:247|204:299,1,85,0|0,1:0|1:0,0:0:0:0:
251,335,68158,5,0,1:0:0:0:
335,229,68339,1,0,1:0:0:0:
198,132,68519,1,0,1:0:0:0:
325,47,68700,1,0,1:0:0:0:
237,224,68881,1,0,1:0:0:0:
131,70,69061,101,0,3:0:0:0:
131,70,69152,1,0,3:0:0:0:
131,70,69242,2,0,B|28:93|28:93|38:17,1,178.499994552612,14|0,0:0|0:0,0:0:0:0:
37,20,69604,1,0,3:0:0:0:
284,142,69784,6,0,B|377:118|342:207|465:179,1,178.499994552612,14|0,0:0|0:0,0:0:0:0:
284,142,70146,1,0,3:0:0:0:
465,97,70327,101,14,0:0:0:0:
260,217,70507,1,0,3:0:0:0:
372,129,70688,101,8,3:0:0:0:
375,132,70778,1,8,3:0:0:0:
378,134,70869,2,0,B|382:155|382:155|380:178|380:178|384:192,1,59.4999981842042,8|8,3:0|3:0,0:0:0:0:
121,242,71049,101,4,3:0:0:0:
118,245,71139,1,4,3:0:0:0:
115,247,71230,2,0,B|110:268|110:268|112:291|112:291|108:305,1,59.4999981842042,4|4,3:0|3:0,0:0:0:0:
224,60,71411,5,12,3:0:0:0:
247,91,71501,1,12,3:0:0:0:
225,121,71592,1,12,3:0:0:0:
243,136,71682,1,12,3:0:0:0:
243,136,71772,2,0,B|167:116|167:116|199:-8,1,170,14|4,0:0|3:2,0:0:0:0:
328,308,72495,54,0,P|374:314|403:345,1,85,8|0,0:0|0:0,0:0:0:0:
485,233,72857,2,0,B|490:180|490:180|346:223,1,170,0|8,3:2|0:0,0:0:0:0:
485,233,73399,1,0,3:0:0:0:
340,140,73580,101,0,3:0:0:0:
213,258,73760,1,2,0:0:0:0:
99,158,73941,2,0,B|117:196|117:196|101:258,1,85,8|0,0:0|3:0,0:0:0:0:
287,30,74302,5,0,3:2:0:0:
216,150,74483,1,2,0:0:0:0:
272,195,74664,101,10,0:0:0:0:
217,18,74845,1,0,3:0:0:0:
123,156,75025,5,0,3:0:0:0:
285,112,75206,1,0,3:0:0:0:
384,259,75387,1,8,0:0:0:0:
480,167,75568,2,0,B|436:162|436:162|402:185,1,85,2|0,0:0|3:0,0:0:0:0:
245,337,75929,2,0,L|253:285,2,42.5,0|0|8,3:0|3:0|0:0,0:0:0:0:
100,245,76290,101,0,3:0:0:0:
100,245,76381,1,0,3:0:0:0:
100,245,76471,2,0,B|81:210|110:187|110:187|222:228,1,170,0|8,3:0|0:0,0:0:0:0:
144,331,77013,2,0,P|102:337|61:359,1,85,2|0,0:0|3:0,0:0:0:0:
214,136,77375,5,8,3:0:0:0:
229,120,77465,1,8,3:0:0:0:
273,112,77555,1,8,0:0:0:0:
321,140,77646,1,12,3:0:0:0:
356,158,77736,1,12,3:0:0:0:
382,154,77827,1,12,3:0:0:0:
382,154,77917,102,0,B|400:70|400:70|297:45,1,170,4|0,3:2|3:0,0:0:0:0:
314,259,78459,6,0,B|409:241|384:315|494:299,1,170,14|0,0:0|3:0,0:0:0:0:
312,351,79001,101,12,0:0:0:0:
482,212,79182,1,0,3:0:0:0:
341,239,79363,5,8,3:0:0:0:
433,333,79543,101,12,3:0:0:0:
433,333,79634,1,12,3:0:0:0:
233,227,79814,5,12,3:0:0:0:
233,227,79905,1,12,3:0:0:0:
93,369,80086,102,0,L|79:236,1,127.5,12|0,3:0|0:0,0:0:0:0:
79,229,80447,5,12,3:0:0:0:
133,265,80537,101,12,3:0:0:0:
144,308,80628,5,12,3:0:0:0:
129,341,80718,101,12,3:0:0:0:
117,352,80808,5,4,3:2:0:0:
117,352,81531,53,8,1:2:0:0:
129,341,81621,1,8,1:0:0:0:
144,308,81711,1,8,1:0:0:0:
133,265,81802,1,8,1:0:0:0:
79,229,81892,1,8,1:0:0:0:
44,175,81983,1,8,1:0:0:0:
51,106,82074,1,8,1:0:0:0:
112,64,82164,1,8,1:0:0:0:
345,159,83700,102,0,B|445:179|445:179|431:92,1,170,14|0,0:0|3:0,0:0:0:0:
324,35,84242,2,0,P|267:65|274:99,1,85,12|0,0:0|3:0,0:0:0:0:
199,116,84604,1,0,3:0:0:0:
237,244,84784,5,12,0:0:0:0:
259,314,84965,2,0,B|355:300|311:387|442:374,1,170,0|14,3:0|0:0,0:0:0:0:
409,375,85688,101,8,0:0:0:0:
374,358,85869,5,8,0:0:0:0:
278,341,86049,101,8,0:0:0:0:
159,267,86230,5,8,0:0:0:0:
0,261,86411,101,12,0:0:0:0:
162,324,97435,101,2,0:0:0:0:
168,320,97555,101,2,0:0:0:0:
173,324,97676,5,2,0:0:0:0:
168,330,97796,102,0,L|34:352,1,136,6|4,0:2|3:2,0:0:0:0:
52,325,98700,5,0,3:0:0:0:
119,350,98881,2,0,P|181:354|242:386,1,118.999996368408,8|0,0:0|0:0,0:0:0:0:
453,306,99423,101,8,0:0:0:0:
439,298,99604,2,0,L|366:315,1,59.4999981842042
337,370,99965,1,0,3:0:0:0:
337,370,100327,5,8,0:0:0:0:
279,315,100507,2,0,L|292:192,1,118.999996368408,0|0,3:0|3:0,0:0:0:0:
291,196,101049,102,0,B|196:176|207:257|111:236,1,178.499994552612,0|0,3:0|3:0,0:0:0:0:
76,166,101682,1,0,3:0:0:0:
76,166,101772,2,0,B|150:123|150:123|197:225,1,170,8|0,0:0|0:0,0:0:0:0:
292,86,102314,5,8,0:0:0:0:
292,86,102495,2,0,P|252:81|217:66,1,59.4999981842042,2|0,0:0|0:0,0:0:0:0:
157,108,102857,1,0,3:0:0:0:
157,108,103218,101,8,0:0:0:0:
274,181,103399,1,0,3:0:0:0:
358,153,103580,2,0,P|363:197|368:214,1,59.4999981842042,0|0,3:0|0:0,0:0:0:0:
280,330,103941,6,0,P|225:287|254:183,1,178.499994552612,0|0,3:0|3:0,0:0:0:0:
362,301,104664,2,0,L|479:327,1,118.999996368408,8|0,0:0|0:0,0:0:0:0:
273,298,105206,101,8,0:0:0:0:
228,352,105387,2,0,L|111:378,1,118.999996368408,2|0,0:0|3:0,0:0:0:0:
109,377,106110,5,8,0:0:0:0:
42,352,106290,1,0,3:0:0:0:
93,296,106471,101,2,0:0:0:0:
181,268,106652,1,0,3:0:0:0:
78,154,106833,5,12,3:0:0:0:
61,143,107103,21,8,1:0:0:0:
68,136,107193,1,8,1:0:0:0:
86,131,107284,1,8,1:0:0:0:
121,129,107374,1,8,1:0:0:0:
156,147,107465,1,8,1:0:0:0:
200,176,107555,1,8,1:0:0:0:
259,191,107646,1,8,1:0:0:0:
322,169,107736,1,8,1:0:0:0:
355,106,107827,1,8,1:0:0:0:
355,106,107917,102,0,B|347:87|347:87|349:54|349:54|337:29,1,59.4999981842042,8|8,1:0|1:0,0:0:0:0:
106,292,108098,2,0,B|112:261|112:261|103:212,1,59.4999981842042,8|8,1:0|1:0,0:0:0:0:
106,233,109724,70,0,L|237:258,1,118.999996368408,4|0,1:2|1:0,0:0:0:0:
274,306,110266,1,0,1:0:0:0:
365,236,110447,1,0,1:0:0:0:
462,358,110628,101,0,1:0:0:0:
462,358,110718,1,0,1:0:0:0:
462,358,110808,2,0,B|453:326|453:326|467:276,1,76.4999976654053,0|0,1:0|1:0,0:0:0:0:
385,141,111170,2,0,L|303:158,1,76.4999976654053,0|0,1:0|1:0,0:0:0:0:
171,76,111531,5,0,1:0:0:0:
55,165,111712,1,0,1:0:0:0:
191,212,111893,1,0,1:0:0:0:
53,361,112074,2,0,P|70:322|53:273,1,76.4999976654053,0|0,1:0|1:0,0:0:0:0:
140,154,112435,101,0,1:0:0:0:
140,154,112525,1,0,1:0:0:0:
140,154,112616,1,4,1:2:0:0:
289,288,112977,5,0,1:0:0:0:
314,316,113158,1,0,1:0:0:0:
387,340,113339,1,0,1:0:0:0:
469,320,113519,1,0,1:0:0:0:
382,228,113700,102,0,P|404:188|383:132,1,76.4999976654053,0|0,1:0|1:0,0:0:0:0:
476,22,114061,2,0,P|430:52|398:50,1,76.4999976654053,0|0,1:0|1:0,0:0:0:0:
252,46,114423,5,0,1:0:0:0:
369,130,114604,1,0,1:0:0:0:
222,213,114784,2,0,P|259:218|302:232,1,76.4999976654053,0|0,1:0|1:0,0:0:0:0:
160,112,115146,1,0,1:0:0:0:
37,261,115327,101,0,1:0:0:0:
37,261,115417,1,0,1:0:0:0:
37,261,115507,1,4,1:2:0:0:
411,359,115869,6,0,B|398:323|398:323|409:271,1,76.4999976654053,0|0,1:0|1:0,0:0:0:0:
278,352,116230,2,0,L|192:365,1,76.4999976654053,0|0,1:0|1:0,0:0:0:0:
153,308,116592,1,0,1:0:0:0:
248,207,116772,1,0,1:0:0:0:
130,114,116953,101,0,1:0:0:0:
247,14,117134,1,0,1:0:0:0:
164,185,117314,1,0,1:0:0:0:
36,29,117495,5,0,1:0:0:0:
241,116,117676,2,0,P|294:125|338:148,1,76.4999976654053,0|0,1:0|1:0,0:0:0:0:
378,83,118037,1,0,1:0:0:0:
474,262,118218,101,0,1:0:0:0:
474,262,118308,1,0,1:0:0:0:
474,262,118399,2,0,L|303:298,1,152.999995330811,4|0,1:2|1:0,0:0:0:0:
269,248,118941,1,0,1:0:0:0:
173,347,119122,1,0,1:0:0:0:
20,283,119302,1,0,1:0:0:0:
145,182,119483,6,0,P|153:139|156:102,1,76.4999976654053,0|0,1:0|1:0,0:0:0:0:
96,36,119845,101,0,1:0:0:0:
32,62,120025,1,0,1:0:0:0:
40,147,120206,5,0,1:0:0:0:
158,178,120387,1,0,1:0:0:0:
239,269,120567,101,4,1:2:0:0:
79,357,120748,5,12,3:0:0:0:
87,350,120839,1,12,3:0:0:0:
73,326,120929,1,12,3:0:0:0:
95,295,121019,1,12,3:0:0:0:
95,295,121110,2,0,B|108:262|108:262|88:206,1,76.4999976654053,12|12,3:0|0:0,0:0:0:0:
94,223,121561,101,0,1:0:0:0:
112,218,121652,1,0,1:0:0:0:
142,211,121742,1,0,1:0:0:0:
183,222,121833,1,0,1:0:0:0:
210,254,121923,1,0,1:0:0:0:
258,278,122013,1,0,1:0:0:0:
294,281,122104,1,0,1:0:0:0:
325,269,122194,1,0,1:0:0:0:
340,247,122284,1,0,1:0:0:0:
345,238,122375,6,0,L|341:200,1,25.4999992218018,0|0,1:0|1:0,0:0:0:0:
263,183,122555,2,0,L|267:145,1,25.4999992218018,0|0,1:0|1:0,0:0:0:0:
382,48,122736,101,4,1:2:0:0:
397,44,122827,1,0,1:0:0:0:
421,63,122917,1,0,1:0:0:0:
414,96,123007,1,0,1:0:0:0:
385,115,123098,1,0,1:0:0:0:
342,107,123188,1,0,1:0:0:0:
304,67,123278,1,0,1:0:0:0:
259,62,123369,1,0,1:0:0:0:
240,73,123459,6,0,L|202:84,1,25.4999992218018,4|0,1:2|1:0,0:0:0:0:
176,16,123640,2,0,L|151:8,1,25.4999992218018,0|0,1:0|1:0,0:0:0:0:
130,85,123821,2,0,L|105:92,1,25.4999992218018,0|0,1:0|1:0,0:0:0:0:
195,161,124001,2,0,L|170:153,1,25.4999992218018,0|0,1:0|1:0,0:0:0:0:
56,35,124182,101,4,1:2:0:0:
30,48,124272,1,0,1:0:0:0:
15,83,124363,1,0,1:0:0:0:
27,125,124453,1,0,1:0:0:0:
67,157,124543,1,0,1:0:0:0:
89,197,124634,1,0,1:0:0:0:
84,228,124724,1,0,1:0:0:0:
66,243,124814,1,0,1:0:0:0:
47,245,124905,5,0,1:0:0:0:
26,227,124995,1,0,1:0:0:0:
53,199,125086,1,0,1:0:0:0:
106,195,125176,1,0,1:0:0:0:
161,230,125266,1,0,1:0:0:0:
202,256,125357,1,0,1:0:0:0:
243,260,125447,1,0,1:0:0:0:
268,246,125537,1,0,1:0:0:0:
276,237,125628,102,0,B|288:240|288:240|304:254|304:254|329:264,1,50.9999984436036,4|0,1:2|1:0,0:0:0:0:
426,333,125808,1,0,1:0:0:0:
431,348,125899,1,0,1:0:0:0:
417,356,125989,2,0,B|387:357|387:357|351:374,1,50.9999984436036,0|0,1:0|1:0,0:0:0:0:
431,238,126170,5,0,1:0:0:0:
444,227,126260,1,0,1:0:0:0:
442,216,126351,2,0,B|436:199|436:199|439:174|439:174|430:147,1,50.9999984436036,0|0,1:0|1:0,0:0:0:0:
198,138,126531,2,0,B|204:121|204:121|201:96|201:96|210:69,1,50.9999984436036,0|0,1:0|1:0,0:0:0:0:
340,18,126712,53,12,3:0:0:0:
325,35,126802,1,12,3:0:0:0:
346,55,126893,1,12,3:0:0:0:
328,92,126983,1,12,3:0:0:0:
328,92,127074,2,0,B|307:131|353:173|314:269,1,170,14|0,0:0|3:0,0:0:0:0:
136,336,127616,101,14,0:0:0:0:
227,264,127796,1,0,3:0:0:0:
100,194,127977,1,0,3:0:0:0:
226,302,128158,5,14,0:0:0:0:
64,268,128339,1,0,3:0:0:0:
214,131,128519,1,0,3:0:0:0:
34,74,128700,102,0,B|117:92|117:92|139:-1,1,165.749992412568,14|0,0:0|0:0,0:0:0:0:
34,74,129061,1,0,3:0:0:0:
395,241,129242,2,0,B|350:236|350:236|303:268,1,85,14|0,0:0|3:0,0:0:0:0:
42,357,129604,6,0,P|115:340|143:241,1,170,14|8,0:0|0:0,0:0:0:0:
129,254,130055,101,8,0:0:0:0:
116,273,130146,1,8,0:0:0:0:
133,310,130236,1,8,0:0:0:0:
184,323,130327,1,8,0:0:0:0:
229,285,130417,1,8,0:0:0:0:
274,275,130507,1,8,0:0:0:0:
311,298,130598,1,8,0:0:0:0:
315,313,130688,6,0,L|307:348,1,21.25,4|0,3:0|0:0,0:0:0:0:
389,204,130869,102,0,L|397:239,1,21.25,4|0,3:0|0:0,0:0:0:0:
285,126,131049,6,0,L|277:161,1,21.25,4|0,3:0|0:0,0:0:0:0:
352,50,131230,102,0,L|360:85,1,21.25,4|0,3:0|0:0,0:0:0:0:
326,20,131411,6,0,L|318:55,1,21.25,4|0,3:0|0:0,0:0:0:0:
328,51,131953,21,0,3:0:0:0:
328,51,132043,1,0,3:0:0:0:
328,51,132134,1,8,0:0:0:0:
188,100,132314,1,8,3:0:0:0:
102,239,132495,101,4,3:0:0:0:
230,281,132676,1,4,3:0:0:0:
165,334,132857,6,0,B|79:314|89:389|-8:364,1,170,6|0,3:2|0:0,0:0:0:0:
279,159,133399,101,0,3:0:0:0:
335,204,133580,2,0,B|413:186|413:186|392:91,1,170,14|0,0:0|3:0,0:0:0:0:
212,70,134122,2,0,L|219:17,2,42.5,0|0|0,3:0|3:0|3:0,0:0:0:0:
68,205,134483,2,0,B|29:194|49:150|49:150|171:117,1,170,8|0,0:0|3:0,0:0:0:0:
167,204,134935,5,0,3:0:0:0:
160,220,135025,2,0,B|210:201|244:235|244:235|269:278|316:273,1,170,12|0,0:0|3:0,0:0:0:0:
353,196,135567,1,0,3:0:0:0:
155,334,135748,102,0,B|57:359|57:359|61:282,1,170,6|2,3:2|0:0,0:0:0:0:
155,334,136290,1,0,3:0:0:0:
68,205,136471,1,14,0:0:0:0:
194,61,136652,2,0,L|200:108,2,42.5,0|0|0,3:0|3:0|3:0,0:0:0:0:
71,83,137013,5,0,3:0:0:0:
71,83,137104,1,0,3:0:0:0:
71,83,137194,1,0,3:0:0:0:
176,193,137375,1,8,0:0:0:0:
305,97,137555,102,0,L|444:70,1,127.5,2|0,0:0|0:0,0:0:0:0:
449,69,137917,2,0,B|433:107|433:107|446:158,1,85,14|8,0:0|3:0,0:0:0:0:
382,245,138188,5,8,3:0:0:0:
380,231,138278,2,0,P|351:226|328:218,1,42.5,8|8,3:0|3:0,0:0:0:0:
195,161,138459,101,4,3:0:0:0:
197,185,138549,1,4,3:0:0:0:
199,198,138640,1,14,0:0:0:0:
150,263,139001,5,0,3:0:0:0:
273,172,139182,1,8,0:0:0:0:
130,111,139363,101,0,3:0:0:0:
265,253,139543,1,8,0:0:0:0:
130,111,139724,2,0,L|33:131,1,85,8|8,0:0|0:0,0:0:0:0:
260,28,140086,6,0,B|286:90|362:99|420:43|385:-4|329:26,1,187.000005706787,14|8,0:0|0:0,0:0:0:0:
260,28,140628,1,8,0:0:0:0:
460,241,140808,2,0,B|444:203|444:203|466:137,1,85,8|8,0:0|0:0,0:0:0:0:
273,172,141170,101,8,0:0:0:0:
410,342,141351,1,8,0:0:0:0:
346,228,141531,101,8,0:0:0:0:
357,243,141622,1,8,0:0:0:0:
355,256,141712,2,0,B|338:262|338:262|323:279|323:279|303:289,1,55.2499974708558,8|8,0:0|0:0,0:0:0:0:
138,357,141893,101,8,3:0:0:0:
155,367,141983,1,8,3:0:0:0:
167,361,142074,2,0,B|176:334|176:334|165:294,1,55.2499974708558,8|8,3:0|3:0,0:0:0:0:
36,134,142254,5,4,3:0:0:0:
23,154,142345,1,4,3:0:0:0:
27,167,142435,2,0,P|62:173|88:195,1,55.2499974708558,4|4,3:0|3:0,0:0:0:0:
229,246,142616,101,12,3:0:0:0:
218,233,142706,1,12,3:0:0:0:
235,203,142796,1,12,3:0:0:0:
211,171,142887,1,12,3:0:0:0:
211,171,142977,6,0,B|225:78|225:78|308:116,1,165.749992412568,14|0,0:0|0:0,0:0:0:0:
306,93,143339,1,14,0:0:0:0:
460,207,143519,101,0,3:0:0:0:
479,217,143610,1,0,3:0:0:0:
494,217,143700,1,14,0:0:0:0:
283,324,143881,5,0,3:0:0:0:
261,331,143971,1,0,3:0:0:0:
254,341,144061,1,14,0:0:0:0:
446,357,144242,101,0,3:0:0:0:
394,384,144333,5,0,3:0:0:0:
362,378,144423,102,0,B|343:309|408:325|374:203,1,170,4|8,3:2|0:0,0:0:0:0:
356,35,144965,69,2,0:0:0:0:
408,86,145146,2,0,L|502:104,1,85,0|0,3:0|3:0,0:0:0:0:
252,182,145507,2,0,L|112:207,1,127.5,8|0,0:0|0:0,0:0:0:0:
104,208,145869,102,0,B|116:168|116:168|101:115,1,85,0|0,3:2|0:0,0:0:0:0:
160,74,146230,1,8,0:0:0:0:
274,170,146411,1,2,0:0:0:0:
166,295,146592,1,0,3:0:0:0:
277,350,146772,5,0,3:0:0:0:
277,350,146863,1,0,3:0:0:0:
277,350,146953,2,0,P|331:357|371:377,1,85,8|0,0:0|3:0,0:0:0:0:
499,250,147314,102,0,P|456:263|392:273,1,85,4|0,3:2|3:0,0:0:0:0:
331,237,147676,1,8,0:0:0:0:
405,254,147857,2,0,P|462:268|503:364,1,170,2|0,0:0|3:0,0:0:0:0:
285,307,148399,5,8,0:0:0:0:
436,178,148580,1,0,3:0:0:0:
232,82,148760,101,0,3:0:0:0:
280,132,148941,1,2,0:0:0:0:
345,92,149122,1,8,0:0:0:0:
169,145,149302,5,8,0:0:0:0:
150,162,149393,1,8,0:0:0:0:
143,196,149483,1,8,0:0:0:0:
173,235,149574,1,8,3:0:0:0:
210,276,149664,1,8,3:0:0:0:
201,320,149754,1,8,3:0:0:0:
185,335,149845,2,0,P|131:345|92:369,1,85,12|0,0:0|3:0,0:0:0:0:
77,101,150206,101,14,0:0:0:0:
245,202,150387,1,0,3:0:0:0:
67,282,150567,1,0,3:0:0:0:
245,202,150748,6,0,B|324:182|324:182|304:96,1,170,14|0,0:0|3:0,0:0:0:0:
359,320,151290,2,0,B|404:316|404:316|454:337,1,85,14|0,0:0|3:0,0:0:0:0:
502,289,151652,1,0,3:0:0:0:
345,197,151833,102,0,B|261:184|293:256|182:248,1,170,14|0,0:0|3:0,0:0:0:0:
89,306,152375,5,8,0:0:0:0:
191,350,152555,1,8,0:0:0:0:
330,177,152736,101,8,0:0:0:0:
191,226,152917,1,8,0:0:0:0:
91,79,153098,5,14,0:0:0:0:
91,79,153821,53,8,1:0:0:0:
105,70,153911,1,8,1:0:0:0:
132,65,154001,1,8,1:0:0:0:
174,79,154092,1,8,1:0:0:0:
211,113,154182,1,8,1:0:0:0:
256,142,154272,1,8,1:0:0:0:
326,134,154363,1,8,1:0:0:0:
373,77,154453,1,8,1:0:0:0:
343,266,155628,101,12,3:0:0:0:
343,266,155989,6,0,B|389:267|389:267|416:315|416:315|495:345,1,152.999995330811,14|0,0:0|0:0,0:0:0:0:
455,355,156351,1,0,3:0:0:0:
284,357,156531,102,0,B|275:316|275:316|154:355,1,152.999995330811,14|0,0:0|0:0,0:0:0:0:
284,357,156893,1,0,3:0:0:0:
151,334,157074,6,0,P|143:277|255:267,1,170,14|0,0:0|3:0,0:0:0:0:
433,283,157616,2,0,B|426:256|426:256|431:225|431:225|418:183,1,85,14|0,0:0|3:0,0:0:0:0:
259,157,157977,101,0,3:0:0:0:
259,157,158067,1,0,3:0:0:0:
259,157,158158,1,14,0:0:0:0:
382,83,158339,1,0,3:0:0:0:
412,172,158519,5,14,0:0:0:0:
274,48,158700,1,0,3:0:0:0:
412,172,158881,102,0,B|336:152|336:152|360:60,1,170,14|0,0:0|3:0,0:0:0:0:
96,239,159423,2,0,B|78:205|105:190|105:190|236:232,1,170,14|0,0:0|3:0,0:0:0:0:
311,229,159965,6,0,P|234:228|231:320,1,165.749992412568,14|0,0:0|0:0,0:0:0:0:
311,229,160327,1,0,3:0:0:0:
217,302,160507,2,0,L|114:324,1,85,14|0,0:0|3:0,0:0:0:0:
337,332,160869,101,0,3:0:0:0:
204,215,161049,1,14,0:0:0:0:
359,110,161230,1,0,3:0:0:0:
178,62,161411,5,8,3:0:0:0:
151,60,161501,1,8,3:0:0:0:
93,26,161592,101,8,3:0:0:0:
62,25,161682,1,8,3:0:0:0:
30,52,161772,6,0,B|66:34|66:34|104:53|104:53|150:122|202:89,1,178.499994552612,14|0,0:0|0:0,0:0:0:0:
261,34,162134,1,0,3:0:0:0:
73,142,162314,102,0,B|77:171|77:171|65:207,1,50.9999984436036,14|0,0:0|0:0,0:0:0:0:
105,200,162495,2,0,P|100:227|95:277,1,50.9999984436036,0|0,3:0|0:0,0:0:0:0:
216,342,162676,6,0,B|225:343|225:343|246:359|246:359|274:366,1,50.9999984436036,0|0,3:0|0:0,0:0:0:0:
312,305,162857,2,0,L|133:347,1,165.749992412568,14|0,0:0|0:0,0:0:0:0:
141,329,163218,1,0,0:0:0:0:
300,168,163399,102,0,B|344:157|373:183|373:183|398:229|453:227,1,165.749992412568,14|0,0:0|0:0,0:0:0:0:
300,168,163760,1,0,3:0:0:0:
449,131,163941,5,14,0:0:0:0:
305,263,164122,1,0,3:0:0:0:
238,100,164302,101,14,0:0:0:0:
439,252,164483,1,0,3:0:0:0:
360,5,164664,6,0,B|340:43|340:43|352:96,1,85,14|0,0:0|3:0,0:0:0:0:
177,231,165025,101,0,3:0:0:0:
76,164,165206,2,0,B|160:148|160:148|182:258,1,170,14|0,0:0|3:0,0:0:0:0:
149,337,165748,5,14,0:0:0:0:
19,292,165929,1,0,3:0:0:0:
25,269,166019,1,8,0:0:0:0:
29,255,166110,1,8,0:0:0:0:
149,337,166290,2,0,B|176:342|176:342|201:365|201:365|252:372,1,85,4|0,3:0|0:0,0:0:0:0:
309,384,166561,101,8,0:0:0:0:
297,379,166652,2,0,B|310:365|310:365|297:320,1,55.2499974708558,8|0,0:0|0:0,0:0:0:0:
232,288,166833,1,2,3:0:0:0:
300,43,167013,5,8,0:0:0:0:
333,55,167104,1,8,0:0:0:0:
373,99,167194,101,8,3:0:0:0:
398,99,167284,1,8,3:0:0:0:
454,72,167375,5,4,3:0:0:0:
469,82,167465,1,4,3:0:0:0:
450,54,167555,102,0,B|411:64|411:64|394:114|394:114|304:163,1,165.749992412568,14|0,0:0|0:0,0:0:0:0:
244,137,167917,2,0,B|232:110|232:110|279:124,1,55.2499974708558,0|0,3:0|0:0,0:0:0:0:
374,312,168098,6,0,B|450:291|450:291|424:195,1,165.749992412568,14|0,0:0|0:0,0:0:0:0:
374,312,168459,1,0,0:0:0:0:
276,222,168640,102,0,B|252:281|307:274|272:392,1,165.749992412568,14|0,0:0|0:0,0:0:0:0:
259,373,169001,1,0,3:0:0:0:
87,296,169182,6,0,B|69:301|69:301|47:319|47:319|35:325,1,55.2499974708558,14|0,0:0|0:0,0:0:0:0:
21,355,169363,2,0,B|36:310|36:310|164:371,1,165.749992412568,0|0,3:0|0:0,0:0:0:0:
190,293,169724,101,14,0:0:0:0:
79,101,169905,1,0,3:0:0:0:
254,112,170086,5,14,0:0:0:0:
70,197,170266,1,0,3:0:0:0:
70,197,170357,1,0,3:0:0:0:
70,197,170447,2,0,B|146:169|146:169|195:188|195:188|155:211,1,165.749992412568,14|0,0:0|0:0,0:0:0:0:
101,275,170808,102,0,B|96:294|96:294|98:311|98:311|91:337,1,55.2499974708558,0|0,3:0|0:0,0:0:0:0:
85,354,170989,1,14,0:0:0:0:
258,351,171170,6,0,L|321:339,1,55.2499974708558,0|0,3:0|0:0,0:0:0:0:
315,360,171351,2,0,B|344:363|344:363|369:370,1,55.2499974708558,0|0,3:0|0:0,0:0:0:0:
477,257,171531,102,0,B|474:246|474:246|476:219|476:219|465:190,1,55.2499974708558,14|0,0:0|0:0,0:0:0:0:
455,184,171712,2,0,B|377:204|377:204|332:266|394:297,1,165.749992412568,0|0,3:0|0:0,0:0:0:0:
455,184,172074,1,14,0:0:0:0:
371,281,172254,2,0,P|293:256|306:158,1,165.749992412568,0|0,3:0|0:0,0:0:0:0:
236,92,172616,5,14,0:0:0:0:
370,147,172796,1,0,3:0:0:0:
248,262,172977,101,14,0:0:0:0:
101,315,173158,1,0,3:0:0:0:
101,315,173248,1,0,3:0:0:0:
101,315,173339,2,0,B|145:304|174:330|174:330|199:376|254:374,1,165.749992412568,14|8,0:0|3:0,0:0:0:0:
321,338,173700,6,0,B|333:313|333:313|291:334,1,55.2499974708558,8|0,3:0|0:0,0:0:0:0:
161,239,173881,2,0,B|164:217|164:217|187:186|187:186|191:133,1,85,14|0,0:0|3:0,0:0:0:0:
136,102,174152,1,4,3:0:0:0:
265,250,174333,101,0,3:0:0:0:
262,258,174423,2,0,B|267:204|267:204|140:245,1,165.749992412568,14|0,0:0|0:0,0:0:0:0:
63,236,174784,6,0,B|76:217|76:217|65:186,1,55.2499974708558,0|0,3:0|3:0,0:0:0:0:
218,43,174965,2,0,L|337:66,1,85,14|0,0:0|3:0,0:0:0:0:
317,49,175236,101,0,3:0:0:0:
296,50,175327,1,0,3:0:0:0:
261,66,175417,1,0,3:0:0:0:
239,121,175507,2,0,B|256:152|256:152|223:197|223:197|243:300,1,178.499994552612,14|0,0:0|0:0,0:0:0:0:
207,294,175869,2,0,P|271:264|275:351,1,178.499994552612,14|0,0:0|0:0,0:0:0:0:
214,377,176230,5,14,0:0:0:0:
234,375,176321,1,12,3:0:0:0:
263,355,176411,1,12,3:0:0:0:
289,304,176501,1,12,3:0:0:0:
279,235,176592,1,12,3:0:0:0:
221,182,176682,1,12,3:0:0:0:
195,149,176772,1,12,3:0:0:0:
201,117,176863,1,12,3:0:0:0:
213,111,176953,102,0,B|214:96|214:96|227:63|227:63|225:44,1,59.4999981842042,8|0,0:0|0:0,0:0:0:0:
112,196,177134,6,0,P|94:166|97:127,1,59.4999981842042,8|0,0:0|0:0,0:0:0:0:
357,237,177314,102,0,P|367:209|353:145,1,59.4999981842042,8|0,0:0|0:0,0:0:0:0:
169,327,177495,6,0,B|136:335|136:335|105:361,1,59.4999981842042,8|0,0:0|0:0,0:0:0:0:
114,296,177676,102,0,B|214:274|183:359|310:346,1,203.999993774414,6|2,0:0|0:0,0:0:0:0:
377,288,190688,101,6,0:0:0:0:
377,288,190869,1,0,0:0:0:0:
445,314,191049,1,2,0:0:0:0:
455,314,191230,1,0,0:0:0:0:
122,315,192134,101,2,0:0:0:0:
122,315,192315,1,0,0:0:0:0:
54,341,192495,1,2,0:0:0:0:
44,341,192676,1,0,0:0:0:0:
131,48,193580,6,0,L|34:66,1,85,2|2,0:0|0:0,0:0:0:0:
141,158,194122,101,2,0:0:0:0:
199,117,194302,2,0,P|240:131|296:135,1,85,2|2,0:0|0:0,0:0:0:0:
492,27,195025,5,2,0:0:0:0:
492,27,195206,1,0,0:0:0:0:
431,76,195387,1,2,0:0:0:0:
426,84,195567,2,0,L|431:133,2,42.5,0|0|2,0:0|0:0|0:0,0:0:0:0:
414,109,196481,102,0,P|408:150|402:176,1,59.4999981842042,6|0,0:0|0:0,0:0:0:0:
341,203,196840,1,2,0:0:0:0:
481,280,197019,2,0,P|431:285|359:330,1,118.999996368408,2|0,0:0|0:0,0:0:0:0:
371,317,197738,1,2,0:0:0:0:
312,365,197918,2,0,P|273:360|237:347,2,59.4999981842042,2|0|0,0:0|0:0|0:0,0:0:0:0:
276,267,198457,5,2,0:0:0:0:
221,253,198636,101,2,0:0:0:0:
150,274,198816,5,2,0:0:0:0:
99,320,198995,101,2,0:0:0:0:
36,339,199175,5,2,0:0:0:0:
18,333,199372,101,2,0:0:0:0:
458,48,202263,5,2,0:0:0:0:
458,48,202986,1,2,0:0:0:0:
403,101,203709,101,2,0:0:0:0:
403,101,204432,1,2,0:0:0:0:
131,354,205155,38,0,B|139:287,1,59.4999981842042,4|0,3:2|0:0,0:0:0:0:
346,210,206600,102,0,B|338:143,1,59.4999981842042,4|0,3:2|0:0,0:0:0:0:
338,150,207323,70,0,B|245:129|269:211|155:191,1,178.499994552612,4|0,3:2|0:0,0:0:0:0:
172,194,208046,102,0,L|240:209,2,50.9999984436036,4|0|0,1:2|1:0|1:0,0:0:0:0:
94,61,208588,5,0,1:0:0:0:
38,112,208769,2,0,B|59:149|59:149|46:207,1,85,0|0,1:0|1:0,0:0:0:0:
235,318,209131,2,0,L|141:336,1,85,0|0,1:0|1:0,0:0:0:0:
234,345,209492,101,0,1:0:0:0:
141,308,209673,1,0,1:0:0:0:
52,225,209853,5,0,1:0:0:0:
179,174,210034,1,0,1:0:0:0:
299,81,210215,101,0,1:0:0:0:
119,31,210396,1,0,1:0:0:0:
152,195,210576,5,0,1:0:0:0:
234,0,210757,101,12,3:0:0:0:
234,0,210847,1,12,3:0:0:0:
234,0,210938,1,4,3:2:0:0:
234,0,212384,70,0,B|224:61,1,59.4999981842042,4|0,3:2|0:0,0:0:0:0:
224,58,213106,102,0,P|280:65|320:176,1,178.499994552612,4|0,3:2|0:0,0:0:0:0:
119,294,213829,5,8,0:0:0:0:
97,309,213920,1,8,3:0:0:0:
93,323,214010,2,0,B|80:328|80:328|64:341|64:341|27:356,1,59.4999981842042,8|8,3:0|3:0,0:0:0:0:
224,196,214191,101,8,3:0:0:0:
236,206,214281,1,8,3:0:0:0:
238,218,214372,2,0,B|229:242|229:242|234:283,1,59.4999981842042,8|8,3:0|3:0,0:0:0:0:
88,162,214552,5,4,3:0:0:0:
75,147,214643,1,4,3:0:0:0:
97,115,214733,1,4,3:0:0:0:
73,71,214823,1,4,3:0:0:0:
73,71,214914,2,0,B|166:47|135:135|281:101,1,187.000005706787,8|2,0:0|0:0,0:0:0:0:
268,143,216721,22,0,B|286:94|286:94|156:132,1,165.749992412568,4|0,3:2|0:0,0:0:0:0:
268,143,217082,1,8,0:0:0:0:
80,32,217263,2,0,L|70:94,2,42.5,0|0|0,3:0|3:0|3:0,0:0:0:0:
175,32,217625,101,0,3:0:0:0:
36,154,217805,1,8,0:0:0:0:
205,285,217986,1,0,3:0:0:0:
99,345,218167,6,0,B|125:262|125:262|219:289,1,170,4|8,3:2|0:0,0:0:0:0:
435,339,218709,2,0,B|389:337|389:337|348:362,1,85,2|0,0:0|3:0,0:0:0:0:
448,207,219070,101,0,3:0:0:0:
448,207,219161,1,0,3:0:0:0:
448,207,219251,1,8,0:0:0:0:
259,44,219432,5,8,3:0:0:0:
300,32,219522,1,8,3:0:0:0:
312,39,219612,2,0,B|286:108|351:83|338:214,1,170,4|8,3:2|0:0,0:0:0:0:
339,201,220155,1,2,0:0:0:0:
408,55,220335,102,0,P|451:83|502:84,1,85,0|0,3:2|3:0,0:0:0:0:
408,55,220697,1,8,0:0:0:0:
240,160,220878,5,0,3:0:0:0:
189,211,221058,2,0,L|42:235,1,127.5,4|0,3:2|0:0,0:0:0:0:
49,217,221420,2,0,B|65:178|65:178|46:118,1,85,8|0,0:0|0:0,0:0:0:0:
162,52,221781,1,4,3:2:0:0:
369,281,222052,101,8,3:0:0:0:
369,281,222143,2,0,B|417:291|417:291|434:346|434:346|516:378,1,170,8|4,0:0|3:2,0:0:0:0:
493,353,222685,1,2,0:0:0:0:
314,355,222865,6,0,L|227:380,1,85,8|0,0:0|0:0,0:0:0:0:
172,332,223227,1,0,3:0:0:0:
287,228,223408,2,0,L|279:177,2,42.5,0|0|8,3:0|3:0|0:0,0:0:0:0:
43,221,223769,101,0,3:0:0:0:
43,221,223859,1,0,3:0:0:0:
43,221,223950,2,0,B|26:188|53:167|53:167|170:211,1,170,4|8,3:2|0:0,0:0:0:0:
248,93,224492,5,2,0:0:0:0:
402,171,224673,1,0,3:0:0:0:
419,60,224853,101,0,3:0:0:0:
419,60,224944,1,0,3:0:0:0:
419,60,225034,2,0,B|364:49|336:86|336:86|310:132|259:127,1,178.499994552612,12|0,0:0|0:0,0:0:0:0:
165,116,225396,6,0,B|145:31|145:31|251:0,1,178.499994552612,4|0,3:2|0:0,0:0:0:0:
165,116,225757,1,8,0:0:0:0:
324,206,225938,1,2,0:0:0:0:
217,348,226118,1,0,3:0:0:0:
14,222,226299,85,12,3:0:0:0:
42,195,226390,1,12,3:0:0:0:
104,193,226480,1,12,3:0:0:0:
158,233,226570,101,12,3:0:0:0:
203,235,226661,1,12,3:0:0:0:
231,200,226751,1,12,3:0:0:0:
231,200,226841,6,0,B|233:174|233:174|249:152|249:152|251:102,1,85,12|8,0:0|0:0,0:0:0:0:
250,41,227112,1,8,0:0:0:0:
250,27,227203,1,4,3:2:0:0:
93,296,227384,101,8,0:0:0:0:
70,312,227474,1,8,0:0:0:0:
56,312,227564,1,4,3:2:0:0:
402,316,227745,5,8,0:0:0:0:
440,327,227835,1,8,0:0:0:0:
454,340,227926,1,4,3:2:0:0:
232,305,228106,101,8,0:0:0:0:
238,356,228197,5,8,0:0:0:0:
259,373,228287,102,0,B|233:305|307:323|259:187,1,170,4|8,3:2|0:0,0:0:0:0:
421,90,228829,53,2,0:0:0:0:
421,171,229010,2,0,B|407:130|407:130|425:80,1,85,0|0,3:0|3:0,0:0:0:0:
265,101,229372,2,0,L|122:126,1,127.5,8|0,0:0|0:0,0:0:0:0:
50,123,229733,6,0,B|90:48|90:48|170:91,1,170,4|8,3:2|0:0,0:0:0:0:
50,123,230275,1,0,3:0:0:0:
192,214,230456,1,0,3:0:0:0:
42,313,230637,101,0,3:0:0:0:
42,313,230727,1,0,3:0:0:0:
42,313,230817,2,0,B|25:289|51:270|51:270|156:294,1,152.999995330811,12|0,0:0|0:0,0:0:0:0:
253,302,231179,6,0,B|226:364|150:373|92:317|127:270|183:300,1,187.000005706787,4|8,3:2|0:0,0:0:0:0:
253,302,231721,1,2,0:0:0:0:
112,183,231902,1,0,3:0:0:0:
268,53,232082,1,0,3:0:0:0:
223,168,232263,2,0,P|197:131|204:85,1,85,8|0,0:0|3:0,0:0:0:0:
389,150,232625,102,0,B|490:164|490:164|465:82,1,170,4|8,3:2|0:0,0:0:0:0:
336,283,233167,1,8,3:0:0:0:
336,283,233257,1,8,3:0:0:0:
336,283,233347,2,0,L|235:305,1,85,8|0,3:0|3:0,0:0:0:0:
406,348,233709,5,8,0:0:0:0:
224,292,233890,1,0,3:0:0:0:
356,186,234070,53,8,3:2:0:0:
370,178,234161,1,8,3:0:0:0:
383,151,234251,1,8,3:0:0:0:
352,112,234341,1,8,3:0:0:0:
308,77,234432,1,8,3:0:0:0:
305,46,234522,1,8,3:0:0:0:
316,28,234612,1,8,3:0:0:0:
333,22,234703,1,8,3:0:0:0:
347,34,234793,101,8,3:2:0:0:
333,70,234884,1,8,3:0:0:0:
289,87,234974,1,8,3:0:0:0:
236,72,235064,1,8,3:0:0:0:
228,58,235155,1,8,3:2:0:0:
165,45,235245,1,8,3:0:0:0:
130,68,235335,1,8,3:0:0:0:
121,87,235426,1,8,3:0:0:0:
121,96,235516,6,0,L|133:156,1,50.9999984436036,0|8,3:0|3:0,0:0:0:0:
311,286,235697,2,0,L|299:346,1,50.9999984436036,8|8,3:0|3:0,0:0:0:0:
294,347,235878,101,8,3:2:0:0:
276,330,235968,1,8,3:0:0:0:
265,291,236058,1,8,3:0:0:0:
296,242,236149,1,8,3:0:0:0:
285,231,236239,5,8,3:2:0:0:
263,261,236329,1,8,3:0:0:0:
209,267,236420,1,8,3:0:0:0:
164,237,236510,1,8,3:0:0:0:
119,219,236600,1,8,3:0:0:0:
83,225,236691,1,8,3:0:0:0:
65,239,236781,1,8,3:0:0:0:
59,253,236872,1,8,3:0:0:0:
59,261,236962,102,0,B|140:243|140:243|118:140,1,178.499994552612,14|0,0:0|0:0,0:0:0:0:
94,67,237323,5,8,0:0:0:0:
43,117,237504,1,8,0:0:0:0:
306,178,237685,101,8,0:0:0:0:
250,71,237865,1,8,0:0:0:0:
60,268,238046,5,8,0:0:0:0:
244,322,238227,1,8,0:0:0:0:
172,159,238408,102,0,B|189:197|189:197|173:259,1,85,4|0,3:2|0:0,0:0:0:0:
151,257,238679,5,8,1:0:0:0:
164,244,238769,1,8,1:0:0:0:
199,231,238859,1,8,1:0:0:0:
262,237,238950,1,8,1:0:0:0:
318,278,239040,1,8,1:0:0:0:
371,300,239131,1,8,1:0:0:0:
421,294,239221,1,8,1:0:0:0:
448,270,239311,1,8,1:0:0:0:
455,250,239402,1,8,1:0:0:0:
452,243,239492,102,0,B|447:229|447:229|451:207|451:207|440:171,1,59.4999981842042,8|8,1:0|1:0,0:0:0:0:
231,103,239673,2,0,B|236:89|236:89|232:67|232:67|243:31,1,59.4999981842042,8|8,1:0|1:0,0:0:0:0:
342,16,239853,70,0,B|307:90|379:76|341:203,1,178.499994552612,4|0,3:2|0:0,0:0:0:0:
330,190,240215,1,8,0:0:0:0:
427,59,240396,1,2,0:0:0:0:
505,74,240576,2,0,B|468:52|468:52|422:59,1,85,0|0,3:0|3:0,0:0:0:0:
258,233,240938,2,0,B|191:207|191:207|232:103,1,170,8|4,0:0|3:2,0:0:0:0:
359,214,241480,101,0,3:0:0:0:
402,276,241661,2,0,L|514:298,1,85,8|0,0:0|0:0,0:0:0:0:
299,330,242022,1,0,3:0:0:0:
446,196,242203,5,0,3:0:0:0:
446,196,242293,1,0,3:0:0:0:
446,196,242384,2,0,B|426:151|426:151|448:105|448:105|436:40,1,152.999995330811,12|0,0:0|0:0,0:0:0:0:
451,38,242745,102,0,B|465:84|465:84|339:45,1,170,4|8,3:2|0:0,0:0:0:0:
200,125,243287,2,0,L|206:172,2,42.5,0|0|0,3:0|3:0|3:0,0:0:0:0:
151,53,243649,5,0,3:0:0:0:
304,152,243829,1,8,0:0:0:0:
166,283,244010,1,0,3:0:0:0:
284,353,244191,102,0,B|268:316|268:316|285:259,1,85,0|0,3:0|0:0,0:0:0:0:
122,207,244552,2,0,L|25:226,1,85,8|0,0:0|0:0,0:0:0:0:
161,141,244914,1,0,3:0:0:0:
279,258,245094,1,0,3:0:0:0:
353,21,245275,5,8,0:0:0:0:
342,41,245365,1,8,0:0:0:0:
368,65,245456,1,8,0:0:0:0:
359,95,245546,1,8,0:0:0:0:
359,95,245637,2,0,B|435:67|435:67|484:86|484:86|444:109,1,165.749992412568,4|0,3:2|0:0,0:0:0:0:
422,192,245998,102,0,B|377:181|341:215|341:215|318:262|263:264,1,165.749992412568,12|0,0:0|0:0,0:0:0:0:
422,192,246359,5,0,3:0:0:0:
275,135,246540,1,0,3:0:0:0:
174,307,246721,101,8,0:0:0:0:
104,338,246902,1,0,3:0:0:0:
104,338,246992,1,0,3:0:0:0:
104,338,247082,2,0,B|84:255|84:255|181:227,1,170,4|8,3:2|0:0,0:0:0:0:
282,261,247625,2,0,L|274:312,2,42.5,0|0|0,3:0|3:0|3:0,0:0:0:0:
98,68,247986,5,0,3:0:0:0:
98,68,248076,1,0,3:0:0:0:
98,68,248167,2,0,B|51:85|51:85|165:122,1,165.749992412568,12|0,0:0|0:0,0:0:0:0:
243,126,248528,102,0,P|267:56|194:52,1,170,4|8,3:2|0:0,0:0:0:0:
407,333,249161,5,8,0:0:0:0:
407,333,249251,2,0,B|453:327|453:327|502:354,1,85,0|0,3:0|3:0,0:0:0:0:
392,138,249612,54,0,B|367:145|367:145|343:167|343:167|306:178,1,85,8|0,0:0|3:0,0:0:0:0:
246,207,249884,1,0,3:0:0:0:
235,212,249974,1,14,0:0:0:0:
286,98,250155,101,0,3:0:0:0:
298,70,250245,1,0,3:0:0:0:
295,59,250335,1,14,0:0:0:0:
288,313,250516,5,0,3:0:0:0:
307,338,250606,1,0,3:0:0:0:
318,341,250697,1,14,0:0:0:0:
117,207,250878,101,0,3:0:0:0:
88,195,250968,1,0,3:0:0:0:
78,201,251058,1,14,0:0:0:0:
391,241,251239,5,0,3:0:0:0:
399,202,251329,1,0,3:0:0:0:
393,187,251420,2,0,B|314:162|339:242|213:218,1,170,4|0,3:2|0:0,0:0:0:0:
63,352,251962,53,0,3:0:0:0:
7,309,252143,2,0,B|42:229|42:229|129:270,1,170,12|0,0:0|3:0,0:0:0:0:
457,349,252775,101,8,3:0:0:0:
457,349,252865,2,0,B|476:320|454:300|454:300|333:352,1,170,4|0,3:2|3:0,0:0:0:0:
251,360,253408,5,8,3:0:0:0:
255,330,253498,1,8,3:0:0:0:
257,316,253588,1,12,0:0:0:0:
269,175,253769,101,0,3:0:0:0:
277,93,253950,1,12,0:0:0:0:
379,83,254221,5,8,3:0:0:0:
379,83,254311,2,0,B|352:21|276:12|218:68|253:115|309:85,1,187.000005706787,4|0,3:2|0:0,0:0:0:0:
109,198,254853,101,0,3:0:0:0:
98,276,255034,2,0,B|179:254|148:329|280:314,1,170,12|0,0:0|3:0,0:0:0:0:
450,314,255576,5,0,3:0:0:0:
450,314,255667,1,0,3:0:0:0:
450,314,255757,1,4,3:2:0:0:
482,160,255938,102,0,B|433:169|433:169|414:217|414:217|341:248,1,170,8|0,0:0|3:0,0:0:0:0:
482,160,256480,1,8,0:0:0:0:
226,23,256661,5,4,3:0:0:0:
243,47,256751,1,4,3:0:0:0:
229,72,256841,1,4,3:0:0:0:
241,86,256932,1,4,3:0:0:0:
241,86,257022,2,0,B|241:100|241:100|230:121|230:121|228:147,1,59.4999981842042,4|4,3:0|3:0,0:0:0:0:
134,300,257203,53,14,0:0:0:0:
308,203,257384,1,0,3:0:0:0:
143,98,257564,1,0,3:0:0:0:
302,176,257745,101,14,0:0:0:0:
138,223,257926,1,0,3:0:0:0:
292,351,258106,1,0,3:0:0:0:
241,293,258287,6,0,B|156:269|180:366|61:338,1,178.499994552612,14|0,0:0|0:0,0:0:0:0:
0,187,258649,102,0,B|86:168|86:168|114:283,1,178.499994552612,14|0,0:0|0:0,0:0:0:0:
0,187,259010,1,0,3:0:0:0:
203,26,259191,5,14,0:0:0:0:
308,203,259371,2,0,B|352:198|352:198|393:223,1,85,0|0,3:0|3:0,0:0:0:0:
383,39,259733,1,14,0:0:0:0:
198,168,259914,101,0,3:0:0:0:
198,168,260004,1,0,3:0:0:0:
198,168,260094,1,14,0:0:0:0:
271,204,260456,5,8,0:2:0:0:
129,117,260817,1,8,0:0:0:0:
283,117,261179,101,8,0:0:0:0:
91,244,261540,1,12,0:0:0:0:
350,287,261902,5,8,0:0:0:0:
41,154,262263,101,8,0:0:0:0:
60,143,262353,1,8,0:0:0:0:
99,139,262444,1,8,0:0:0:0:
148,169,262534,1,8,0:0:0:0:
193,210,262625,1,8,0:0:0:0:
238,212,262715,1,8,0:0:0:0:
277,197,262805,1,8,0:0:0:0:
286,182,262896,1,8,0:0:0:0:
