osu file format v14

[General]
AudioFilename: audio.mp3
AudioLeadIn: 0
PreviewTime: 57884
Countdown: 0
SampleSet: Normal
StackLeniency: 0.7
Mode: 0
LetterboxInBreaks: 0
WidescreenStoryboard: 0

[Editor]
DistanceSpacing: 1
BeatDivisor: 4
GridSize: 16
TimelineZoom: 1.8

[Metadata]
Title:HYDRA
TitleUnicode:HYDRA
Artist:MYTH & ROID
ArtistUnicode:MYTH & ROID
Creator:Rejuvie
Version:Normal
Source:オーバーロードII
Tags:overlord season 2 ending end ed tv size short cut ver version
BeatmapID:1521318
BeatmapSetID:720077

[Difficulty]
HPDrainRate:4
CircleSize:3.5
OverallDifficulty:4
ApproachRate:5
SliderMultiplier:1.2
SliderTickRate:1

[Events]
//Background and Video events
0,0,"bg.png",0,0
//Break Periods
//Storyboard Layer 0 (Background)
//Storyboard Layer 1 (Fail)
//Storyboard Layer 2 (Pass)
//Storyboard Layer 3 (Foreground)
//Storyboard Sound Samples

[TimingPoints]
234,361.44578313253,4,2,1,30,1,0
234,-100,4,2,1,30,0,0
866,-100,4,2,1,5,0,0
956,-100,4,2,1,30,0,0
1589,-100,4,2,1,5,0,0
1679,-100,4,2,2,50,0,0
10354,-100,4,1,1,60,0,0
12523,-100,4,1,1,70,0,0
12884,-100,4,1,1,80,0,0
13246,-100,4,2,1,50,0,0
24812,-100,4,2,2,70,0,0
33487,-100,4,1,1,70,0,0
34209,-100,4,1,1,80,0,0
34932,-100,4,2,1,20,0,0
36378,-100,4,2,1,50,0,0
37824,-100,4,2,2,50,0,0
46499,-100,4,2,1,20,0,0
47221,-100,4,2,1,20,0,0
47944,-100,4,1,1,70,0,0
48035,-100,4,1,1,40,0,0
49390,-100,4,1,1,45,0,0
50836,-100,4,1,1,50,0,0
52282,-100,4,1,1,55,0,0
53727,-100,4,1,1,60,0,0
56619,-100,4,1,1,70,0,0
58065,-100,4,2,1,70,0,0
58788,-100,4,2,1,70,0,0
59511,-100,4,1,1,80,0,1
64932,-100,4,1,1,80,0,0
65294,-100,4,1,1,100,0,1
65384,-100,4,1,1,50,0,0
66017,-100,4,1,1,60,0,0
66740,-100,4,1,1,70,0,0
67462,-100,4,1,1,80,0,0
68185,-100,4,1,1,100,0,1
69993,-100,4,3,1,80,0,1
70354,-100,4,2,1,60,0,1
70715,-100,4,1,1,80,0,0
70987,-100,4,1,1,5,0,0
71077,-100,4,1,1,80,0,1
76499,-100,4,1,1,80,0,0
76860,-100,4,1,1,80,0,1
79390,-100,4,3,1,70,0,0
79752,-100,4,1,1,80,0,1
80474,-100,4,1,1,60,0,0
81197,-100,4,2,1,50,0,0
81830,-100,4,2,1,5,0,0
81920,-100,4,2,1,50,0,0
82553,-100,4,2,1,5,0,0
82643,-100,4,1,1,100,0,0

[Colours]
Combo1 : 128,0,0
Combo2 : 0,128,255
Combo3 : 0,0,128
Combo4 : 255,0,0

[HitObjects]
300,239,1679,6,0,P|380:216|480:232,2,180,2|0|0,0:0|0:0|0:0,0:0:0:0:
198,303,3125,1,2,0:0:0:0:
198,303,3848,2,0,L|191:182,1,120,0|0,0:0|0:0,0:0:0:0:
235,71,4571,2,0,P|326:83|411:54,2,180,2|0|0,0:0|0:0|0:0,0:0:0:0:
134,4,6017,1,2,0:0:0:0:
134,4,7462,6,0,P|66:108|237:111,1,360,2|0,0:0|0:0,0:0:0:0:
258,6,8908,1,2,0:0:0:0:
258,6,9631,1,2,0:0:0:0:
304,241,10354,6,0,B|182:249,1,120,12|0,0:0|0:0,0:0:0:0:
124,253,10896,1,12,0:0:0:0:
252,126,11438,2,0,B|381:142,1,120,12|0,0:0|0:0,0:0:0:0:
430,151,11980,1,12,0:0:0:0:
393,327,12523,1,8,0:0:0:0:
304,241,12884,1,8,0:0:0:0:
208,313,13246,22,0,P|151:331|88:323,1,120,4|0,0:0|0:0,0:0:0:0:
22,222,13968,2,0,P|79:206|139:214,1,120,8|0,0:0|0:0,0:0:0:0:
253,177,14691,1,0,0:0:0:0:
253,177,15414,2,0,P|244:234|264:291,1,120,0|2,0:0|0:0,0:0:0:0:
363,223,16137,2,0,P|370:161|349:107,1,120,2|0,0:0|0:0,0:0:0:0:
299,75,16679,1,2,0:0:0:0:
239,70,16860,2,0,L|112:82,1,120,8|0,0:0|0:0,0:0:0:0:
77,193,17583,1,0,0:0:0:0:
77,193,18306,2,0,L|204:180,1,120,8|2,0:0|0:0,0:0:0:0:
251,73,19029,6,0,P|314:168|305:229,1,180,2|2,0:0|0:0,0:0:0:0:
272,278,19752,1,8,0:0:0:0:
196,180,20113,1,0,0:0:0:0:
151,291,20474,2,0,P|90:300|30:278,1,120,0|2,0:0|0:0,0:0:0:0:
102,182,21197,2,0,P|159:172|219:188,1,120,8|2,0:0|0:0,0:0:0:0:
269,296,21920,2,0,P|323:309|391:297,1,120,2|0,0:0|0:0,0:0:0:0:
440,274,22462,1,2,0:0:0:0:
470,222,22643,2,0,L|475:154,2,60,8|0|0,0:0|0:0|0:0,0:0:0:0:
358,176,23366,2,0,P|382:90|466:48,2,180,0|0|2,0:0|0:0|0:0,0:0:0:0:
258,244,24812,38,0,L|74:252,1,180,2|2,0:0|0:0,0:0:0:0:
18,257,25535,1,0,0:0:0:0:
6,137,25896,1,2,0:0:0:0:
87,48,26258,2,0,P|164:22|257:57,1,180,2|2,0:0|0:0,0:0:0:0:
292,99,26980,2,0,L|298:218,1,120,0|2,0:0|0:0,0:0:0:0:
385,300,27703,6,0,P|306:267|216:310,1,180,2|2,0:0|0:0,0:0:0:0:
189,351,28426,1,0,0:0:0:0:
305,379,28788,1,2,0:0:0:0:
274,263,29149,2,0,P|191:232|106:260,1,180,2|2,0:0|0:0,0:0:0:0:
53,286,29872,2,0,L|61:165,1,120,0|2,0:0|0:0,0:0:0:0:
19,53,30595,38,0,B|65:36|108:55|108:55|151:74|197:65,1,180,2|2,0:0|0:0,0:0:0:0:
251,47,31318,1,0,0:0:0:0:
362,4,31679,1,2,0:0:0:0:
440,95,32041,2,0,P|447:179|436:277,1,180,2|2,0:0|0:0,0:0:0:0:
412,328,32764,1,0,0:0:0:0:
297,291,33125,1,2,0:0:0:0:
187,341,33487,22,0,B|130:353|130:353|66:348,1,120,8|8,0:0|0:0,0:0:0:0:
59,228,34209,2,0,B|121:215|121:215|190:222,1,120,8|8,0:0|0:0,0:0:0:0:
296,236,34932,21,0,0:0:0:0:
296,236,35655,1,0,0:0:0:0:
449,51,36378,6,0,B|408:41|362:57|362:57|312:71|271:58,1,180,4|0,0:0|0:0,0:0:0:0:
414,168,37462,1,0,0:0:0:0:
371,280,37824,1,2,0:0:0:0:
371,280,38547,2,0,P|323:246|293:193,1,120,0|0,0:0|0:0,0:0:0:0:
274,74,39270,2,0,P|204:110|100:111,1,180,2|0,0:0|0:0,0:0:0:0:
8,264,40354,1,0,0:0:0:0:
123,232,40715,2,0,B|170:209|240:214|240:214|289:257|352:267,1,240,2|0,0:0|0:0,0:0:0:0:
509,89,42161,38,0,P|450:75|389:94,1,120,2|0,0:0|0:0,0:0:0:0:
346,127,42703,2,0,P|286:146|225:133,1,120,0|0,0:0|0:0,0:0:0:0:
177,107,43246,1,0,0:0:0:0:
281,47,43607,1,2,0:0:0:0:
342,279,44330,1,2,0:0:0:0:
110,215,45053,1,2,0:0:0:0:
425,183,46499,5,0,0:0:0:0:
425,183,47221,1,0,0:0:0:0:
220,58,47944,6,0,P|162:50|105:73,1,120,4|0,0:0|0:0,0:0:0:0:
65,116,48487,2,0,L|72:246,1,120,8|0,0:0|0:0,0:0:0:0:
79,295,49029,1,8,0:0:0:0:
187,346,49390,2,0,P|266:315|358:328,1,180,8|0,0:0|0:0,0:0:0:0:
406,363,50113,1,8,0:0:0:0:
443,249,50474,1,8,0:0:0:0:
398,137,50836,6,0,L|275:146,1,120,8|0,0:0|0:0,0:0:0:0:
222,167,51378,2,0,P|232:108|216:45,1,120,8|0,0:0|0:0,0:0:0:0:
175,7,51920,1,8,0:0:0:0:
67,60,52282,2,0,B|46:141|46:141|64:298,1,240,8|8,0:0|0:0,0:0:0:0:
237,346,53547,1,0,0:0:0:0:
295,356,53727,38,0,B|357:363|357:363|412:348,1,120,12|0,0:0|0:0,0:0:0:0:
469,327,54270,1,8,0:0:0:0:
444,148,54812,2,0,B|382:141|382:141|327:156,1,120,8|0,0:0|0:0,0:0:0:0:
269,176,55355,1,8,0:0:0:0:
163,321,55896,1,8,0:0:0:0:
143,202,56258,1,8,0:0:0:0:
256,192,56619,12,0,58065,0:0:0:0:
155,218,59511,6,0,B|211:211|211:211|272:227|272:227|335:221,1,180,4|2,0:0|0:0,0:0:0:0:
391,215,60233,1,8,0:0:0:0:
472,126,60595,1,0,0:0:0:0:
393,35,60956,2,0,P|308:14|228:57,1,180,6|2,0:0|0:0,0:0:0:0:
205,110,61679,1,8,0:0:0:0:
290,194,62041,2,0,L|352:191,1,60,0|0,0:0|0:0,0:0:0:0:
384,142,62402,38,0,B|372:207|372:207|391:320,1,180,4|2,0:0|0:0,0:0:0:0:
402,378,63125,1,8,0:0:0:0:
293,326,63487,2,0,L|282:264,1,60,0|0,0:0|0:0,0:0:0:0:
272,207,63848,1,6,0:0:0:0:
217,232,64029,2,0,P|159:246|93:229,1,120,2|2,0:0|0:0,0:0:0:0:
61,187,64571,1,8,0:0:0:0:
158,117,64932,1,0,0:0:0:0:
246,198,65294,22,0,L|240:321,1,120,12|8,0:0|0:0,0:0:0:0:
342,380,66017,1,8,0:0:0:0:
354,260,66378,1,8,0:0:0:0:
337,140,66740,2,0,P|288:103|226:96,1,120,8|8,0:0|0:0,0:0:0:0:
132,163,67462,1,8,0:0:0:0:
242,210,67824,1,8,0:0:0:0:
337,140,68185,22,0,B|347:81|347:81|339:20,1,120,12|0,0:0|0:0,0:0:0:0:
279,23,68727,2,0,B|220:33|220:33|158:27,1,120,12|0,0:0|0:0,0:0:0:0:
101,12,69270,1,12,0:0:0:0:
182,99,69631,5,8,0:0:0:0:
166,218,69993,1,0,0:0:0:0:
47,202,70354,1,2,0:0:0:0:
63,83,70716,1,12,0:0:0:0:
158,155,71077,6,0,P|165:220|144:271,1,120,4|8,0:0|0:0,0:0:0:0:
36,321,71800,1,2,0:0:0:0:
54,202,72161,1,8,0:0:0:0:
150,274,72523,2,0,P|204:297|270:298,1,120,6|8,0:0|0:0,0:0:0:0:
373,248,73246,1,2,0:0:0:0:
387,129,73607,1,8,0:0:0:0:
305,42,73968,6,0,L|181:30,2,120,6|8|0,0:0|0:0|0:0,0:0:0:0:
418,0,75053,1,8,0:0:0:0:
398,118,75414,2,0,P|394:180|402:240,1,120,6|8,0:0|0:0,0:0:0:0:
440,350,76137,1,2,0:0:0:0:
323,378,76499,1,8,0:0:0:0:
220,316,76860,6,0,B|227:186,1,120,12|0,0:0|0:0,0:0:0:0:
253,142,77402,2,0,B|191:147|191:147|129:125,1,120,12|0,0:0|0:0,0:0:0:0:
80,105,77944,1,12,0:0:0:0:
153,10,78306,1,2,0:0:0:0:
200,120,78667,2,0,L|184:251,2,120,0|0|0,0:0|0:0|0:0,0:0:0:0:
296,47,79752,2,0,B|358:40|408:78|408:78|414:107|427:135,1,180,4|0,0:0|0:0,0:0:0:0:
457,186,80474,1,8,0:0:0:0:
229,110,81197,21,0,0:0:0:0:
229,110,81920,1,0,0:0:0:0:
273,346,82643,38,0,B|329:333|329:333|391:341,1,120,12|0,0:0|0:0,0:0:0:0:
449,355,83185,1,12,0:0:0:0:
511,204,83727,2,0,B|455:217|455:217|393:209,1,120,12|0,0:0|0:0,0:0:0:0:
333,198,84269,1,12,0:0:0:0:
231,49,84812,1,8,0:0:0:0:
204,165,85173,1,8,0:0:0:0:
