osu file format v14

[General]
AudioFilename: audio.mp3
AudioLeadIn: 0
PreviewTime: 57884
Countdown: 0
SampleSet: Normal
StackLeniency: 0.6
Mode: 0
LetterboxInBreaks: 0
WidescreenStoryboard: 0

[Editor]
DistanceSpacing: 1
BeatDivisor: 2
GridSize: 16
TimelineZoom: 1.8

[Metadata]
Title:HYDRA
TitleUnicode:HYDRA
Artist:MYTH & ROID
ArtistUnicode:MYTH & ROID
Creator:Rejuvie
Version:Easy
Source:オーバーロードII
Tags:overlord season 2 ending end ed tv size short cut ver version
BeatmapID:1521292
BeatmapSetID:720077

[Difficulty]
HPDrainRate:2
CircleSize:3
OverallDifficulty:2
ApproachRate:3
SliderMultiplier:0.85
SliderTickRate:1

[Events]
//Background and Video events
0,0,"bg.png",0,0
//Break Periods
//Storyboard Layer 0 (Background)
//Storyboard Layer 1 (Fail)
//Storyboard Layer 2 (Pass)
//Storyboard Layer 3 (Foreground)
//Storyboard Sound Samples

[TimingPoints]
234,361.44578313253,4,2,1,30,1,0
234,-100,4,2,1,30,0,0
866,-100,4,2,1,5,0,0
956,-100,4,2,1,30,0,0
1589,-100,4,2,1,5,0,0
1679,-100,4,2,2,50,0,0
10354,-100,4,1,1,60,0,0
12523,-100,4,1,1,70,0,0
12884,-100,4,1,1,80,0,0
13246,-100,4,2,1,50,0,0
24812,-100,4,2,2,70,0,0
33487,-100,4,1,1,70,0,0
34209,-100,4,1,1,80,0,0
34932,-100,4,2,1,20,0,0
36378,-100,4,2,1,50,0,0
37824,-100,4,2,2,50,0,0
46499,-100,4,2,1,20,0,0
47221,-100,4,2,1,20,0,0
47944,-100,4,1,1,70,0,0
48035,-100,4,1,1,40,0,0
49390,-100,4,1,1,45,0,0
50836,-100,4,1,1,50,0,0
52282,-100,4,1,1,55,0,0
53727,-100,4,1,1,60,0,0
56619,-100,4,1,1,70,0,0
58065,-100,4,2,1,70,0,0
58788,-100,4,2,1,70,0,0
59511,-100,4,1,1,80,0,1
64932,-100,4,1,1,80,0,0
65294,-100,4,1,1,100,0,1
65384,-100,4,1,1,50,0,0
66017,-100,4,1,1,60,0,0
66740,-100,4,1,1,70,0,0
67462,-100,4,1,1,80,0,0
68185,-100,4,1,1,100,0,1
69993,-100,4,3,1,80,0,1
70354,-100,4,2,1,60,0,1
70715,-100,4,1,1,80,0,0
70987,-100,4,1,1,5,0,0
71077,-100,4,1,1,80,0,1
76499,-100,4,1,1,80,0,0
76860,-100,4,1,1,80,0,1
79390,-100,4,3,1,70,0,0
79752,-100,4,1,1,80,0,1
80474,-100,4,1,1,60,0,0
81197,-100,4,2,1,50,0,0
81830,-100,4,2,1,5,0,0
81920,-100,4,2,1,50,0,0
82553,-100,4,2,1,5,0,0
82643,-100,4,1,1,100,0,0

[Colours]
Combo1 : 128,0,0
Combo2 : 0,128,255
Combo3 : 0,0,128
Combo4 : 255,0,0

[HitObjects]
318,137,1679,6,0,P|381:124|445:135,2,127.5,2|0|0,0:0|0:0|0:0,0:0:0:0:
245,181,3125,1,2,0:0:0:0:
181,338,3848,2,0,L|176:253,1,85,0|0,0:0|0:0,0:0:0:0:
120,188,4571,2,0,P|183:194|244:180,2,127.5,2|0|0,0:0|0:0|0:0,0:0:0:0:
45,147,6017,1,2,0:0:0:0:
45,147,7462,6,0,P|165:74|161:221,1,340,2|2,0:0|0:0,0:0:0:0:
37,321,9631,1,2,0:0:0:0:
202,359,10354,6,0,B|266:348|266:348|329:352,1,127.5,12|12,0:0|0:0,0:0:0:0:
413,257,11438,2,0,B|350:269|350:269|286:264,1,127.5,12|12,0:0|0:0,0:0:0:0:
347,151,12523,1,8,0:0:0:0:
268,119,12884,1,8,0:0:0:0:
189,87,13246,22,0,L|203:266,1,170,4|8,0:0|0:0,0:0:0:0:
238,333,14330,1,0,0:0:0:0:
288,264,14691,1,0,0:0:0:0:
118,277,15414,1,0,0:0:0:0:
118,277,16137,6,0,P|136:198|84:119,1,170,2|8,0:0|0:0,0:0:0:0:
19,80,17221,1,0,0:0:0:0:
95,41,17583,1,0,0:0:0:0:
264,57,18306,2,0,P|254:101|256:147,1,85,8|2,0:0|0:0,0:0:0:0:
237,223,19029,38,0,P|317:201|410:211,1,170,2|8,0:0|0:0,0:0:0:0:
481,241,20113,1,0,0:0:0:0:
414,293,20474,1,0,0:0:0:0:
269,382,21197,2,0,L|264:297,1,85,8|2,0:0|0:0,0:0:0:0:
258,212,21920,6,0,P|176:196|98:230,1,170,2|8,0:0|0:0,0:0:0:0:
42,292,23005,1,0,0:0:0:0:
45,207,23366,2,0,L|52:73,2,127.5,0|0|2,0:0|0:0|0:0,0:0:0:0:
73,287,24812,38,0,P|133:309|197:301,1,127.5,2|2,0:0|0:0,0:0:0:0:
233,283,25535,1,0,0:0:0:0:
307,242,25896,1,2,0:0:0:0:
390,257,26258,2,0,L|400:384,2,127.5,2|2|2,0:0|0:0|0:0,0:0:0:0:
354,179,27703,6,0,P|347:120|365:53,1,127.5,2|2,0:0|0:0,0:0:0:0:
386,18,28426,1,0,0:0:0:0:
302,1,28788,1,2,0:0:0:0:
251,69,29149,2,0,L|244:207,2,127.5,2|2|2,0:0|0:0|0:0,0:0:0:0:
177,104,30595,38,0,P|119:125|51:120,2,127.5,2|2|2,0:0|0:0|0:0,0:0:0:0:
233,40,32041,2,0,P|291:19|359:24,2,127.5,2|2|2,0:0|0:0|0:0,0:0:0:0:
177,104,33487,22,0,L|184:194,1,85,8|8,0:0|0:0,0:0:0:0:
262,220,34209,2,0,L|255:310,1,85,8|8,0:0|0:0,0:0:0:0:
177,339,34932,21,0,0:0:0:0:
177,339,35655,1,0,0:0:0:0:
78,200,36378,6,0,P|71:141|91:75,2,127.5,4|0|0,0:0|0:0|0:0,0:0:0:0:
119,274,37824,1,2,0:0:0:0:
288,257,38547,2,0,L|376:250,1,85,0|0,0:0|0:0,0:0:0:0:
446,208,39270,2,0,P|453:149|433:83,2,127.5,2|0|0,0:0|0:0|0:0,0:0:0:0:
405,282,40716,1,2,0:0:0:0:
405,282,41438,1,0,0:0:0:0:
256,364,42161,38,0,P|197:371|131:351,2,127.5,2|0|0,0:0|0:0|0:0,0:0:0:0:
330,323,43607,1,2,0:0:0:0:
330,323,44330,1,2,0:0:0:0:
316,153,45053,1,2,0:0:0:0:
112,197,46499,5,0,0:0:0:0:
112,197,47221,1,0,0:0:0:0:
234,315,47944,6,0,L|372:308,1,127.5,4|8,0:0|0:0,0:0:0:0:
456,223,49029,1,8,0:0:0:0:
446,138,49390,2,0,B|377:88|377:88|282:78,1,170,8|8,0:0|0:0,0:0:0:0:
208,94,50474,1,8,0:0:0:0:
162,166,50836,6,0,L|176:302,1,127.5,8|8,0:0|0:0,0:0:0:0:
265,382,51920,1,8,0:0:0:0:
342,345,52282,2,0,B|353:261|353:261|343:178|343:178|357:86,1,255,8|8,0:0|0:0,0:0:0:0:
421,37,53727,38,0,B|360:50|360:50|294:42,1,127.5,12|8,0:0|0:0,0:0:0:0:
169,19,54812,2,0,B|104:13|104:13|43:30,1,127.5,8|8,0:0|0:0,0:0:0:0:
114,136,55896,1,8,0:0:0:0:
195,112,56258,1,8,0:0:0:0:
256,192,56619,12,0,58065,0:0:0:0:
436,314,59511,6,0,B|352:301|352:301|270:325,1,170,4|8,0:0|0:0,0:0:0:0:
186,336,60595,1,0,0:0:0:0:
125,276,60956,2,0,P|111:194|170:140,1,170,6|8,0:0|0:0,0:0:0:0:
246,101,62041,1,0,0:0:0:0:
173,57,62402,38,0,B|89:42|89:42|5:67,1,170,4|8,0:0|0:0,0:0:0:0:
10,151,63487,1,0,0:0:0:0:
91,128,63848,2,0,P|158:178|144:263,1,170,6|8,0:0|0:0,0:0:0:0:
103,328,64932,1,0,0:0:0:0:
188,332,65294,22,0,B|224:315|271:326|271:326|317:336|359:324,1,170,12|8,0:0|0:0,0:0:0:0:
427,279,66378,1,8,0:0:0:0:
459,200,66740,2,0,L|464:110,1,85,8|8,0:0|0:0,0:0:0:0:
493,35,67462,1,8,0:0:0:0:
412,6,67824,1,8,0:0:0:0:
382,85,68185,22,0,B|376:213,2,127.5,12|12|12,0:0|0:0|0:0,0:0:0:0:
299,85,69631,1,8,0:0:0:0:
282,166,69993,1,0,0:0:0:0:
354,207,70354,1,2,0:0:0:0:
416,152,70715,1,12,0:0:0:0:
382,76,71077,6,0,P|298:63|221:99,1,170,4|2,0:0|0:0,0:0:0:0:
184,171,72161,1,8,0:0:0:0:
231,241,72523,2,0,P|259:210|268:168,1,85,6|8,0:0|0:0,0:0:0:0:
222,97,73246,1,2,0:0:0:0:
138,97,73607,1,8,0:0:0:0:
98,171,73968,6,0,L|92:265,2,85,6|8|0,0:0|0:0|0:0,0:0:0:0:
55,97,75053,1,8,0:0:0:0:
14,171,75414,2,0,L|9:259,1,85,6|8,0:0|0:0,0:0:0:0:
52,329,76137,1,2,0:0:0:0:
137,326,76499,1,8,0:0:0:0:
216,297,76860,22,0,P|274:286|346:287,2,127.5,12|12|12,0:0|0:0|0:0,0:0:0:0:
151,241,78306,1,2,0:0:0:0:
107,167,78667,2,0,P|100:122|118:78,2,85,0|0|0,0:0|0:0|0:0,0:0:0:0:
184,131,79752,22,0,B|241:122|241:122|363:139,1,170,4|8,0:0|0:0,0:0:0:0:
254,276,81197,1,0,0:0:0:0:
254,276,81920,1,0,0:0:0:0:
255,105,82643,38,0,B|189:99|189:99|127:114,1,127.5,12|12,0:0|0:0,0:0:0:0:
203,217,83727,2,0,B|267:222|267:222|331:207,1,127.5,12|12,0:0|0:0,0:0:0:0:
450,169,84812,1,8,0:0:0:0:
463,252,85173,1,8,0:0:0:0:
