osu file format v14

[General]
AudioFilename: audio.mp3
AudioLeadIn: 0
PreviewTime: 46378
Countdown: 0
SampleSet: None
StackLeniency: 0.7
Mode: 0
LetterboxInBreaks: 0
WidescreenStoryboard: 1

[Editor]
DistanceSpacing: 1.1
BeatDivisor: 4
GridSize: 16
TimelineZoom: 1

[Metadata]
Title:HYDRA
TitleUnicode:HYDRA
Artist:MYTH & ROID
ArtistUnicode:MYTH & ROID
Creator:Naotoshi
Version:NORMAL
Source:オーバーロードII
Tags:nao tomori toybot lasse kalibe lince chekito akitoshi cris- isekai Ainz Ooal Gown albedo momonga second season 2 ending cut version Mayu Tom-H@ck tv size
BeatmapID:1523372
BeatmapSetID:720129

[Difficulty]
HPDrainRate:2.6
CircleSize:3.2
OverallDifficulty:3.7
ApproachRate:5
SliderMultiplier:1.1
SliderTickRate:1

[Events]
//Background and Video events
0,0,"overlord-3.jpg",0,0
//Break Periods
2,13235,23582
//Storyboard Layer 0 (Background)
//Storyboard Layer 1 (Fail)
//Storyboard Layer 2 (Pass)
//Storyboard Layer 3 (Foreground)
//Storyboard Sound Samples

[TimingPoints]
1650,361.44578313253,4,2,2,80,1,0
1650,-133.333333333333,4,2,2,80,0,0
2011,-133.333333333333,4,2,2,50,0,0
3095,-133.333333333333,4,2,2,80,0,0
3818,-133.333333333333,4,2,2,50,0,0
4541,-133.333333333333,4,2,2,80,0,0
4903,-133.333333333333,4,2,2,50,0,0
5987,-100,4,2,2,80,0,0
10312,-100,4,2,2,80,0,0
10324,-100,4,2,1,90,0,0
12493,-100,4,2,1,100,0,0
13939,-100,4,2,2,70,0,0
15565,-100,4,2,2,50,0,0
16107,-100,4,2,2,80,0,0
16469,-100,4,2,2,60,0,0
16830,-100,4,2,2,50,0,0
18276,-100,4,2,2,40,0,0
18999,-100,4,2,2,70,0,0
19541,-100,4,2,2,50,0,0
19722,-100,4,2,2,70,0,0
20083,-100,4,2,2,50,0,0
21890,-100,4,2,2,60,0,0
22613,-100,4,2,2,40,0,0
23336,-100,4,2,2,50,0,0
24770,-111.111111111111,4,2,2,50,0,0
24782,-111.111111111111,4,2,2,60,0,0
24872,-111.111111111111,4,2,2,60,0,0
27674,-111.111111111111,4,2,2,70,0,0
30565,-111.111111111111,4,2,2,80,0,0
33445,-100,4,2,2,80,0,0
33457,-100,4,2,1,80,0,0
34180,-100,4,2,1,90,0,0
34541,-100,4,2,1,100,0,0
34903,-100,4,2,1,70,0,0
36348,-100,4,2,2,50,0,0
38517,-100,4,2,2,40,0,0
39240,-100,4,2,2,50,0,0
40674,-133.333333333333,4,2,2,50,0,0
46469,359.281437125748,4,2,1,50,1,0
47903,-100,4,2,1,50,0,0
47907,359.281437125748,4,3,1,90,1,0
47907,-100,4,3,1,90,0,0
53655,363.636363636364,4,2,1,90,1,0
53655,-100,4,2,1,90,0,0
56564,361.44578313253,4,2,1,80,1,0
56564,-100,4,2,1,80,0,0
57286,-100,4,2,1,100,0,0
58009,-100,4,2,1,80,0,0
59455,-111.111111111111,4,2,1,100,0,1
66865,-111.111111111111,4,2,1,70,0,1
67045,-111.111111111111,4,2,1,80,0,1
67407,-111.111111111111,4,2,1,90,0,1
67768,-111.111111111111,4,2,1,100,0,1
70298,357.142857142857,4,2,1,100,1,0
70298,-100,4,2,1,100,0,0
71012,361.44578313253,4,2,1,100,1,1
71035,-100,4,2,1,100,0,1
71192,-100,4,2,1,90,0,1
76795,-100,4,2,1,100,0,1
79686,-100,4,2,1,90,0,0
80409,-100,4,2,1,70,0,0
80590,-100,4,2,1,80,0,0
80771,-100,4,2,1,90,0,0
81042,-100,4,2,1,60,0,0
82578,-100,4,2,1,90,0,0
84234,361.44578313253,4,2,1,90,1,0
84234,-100,4,2,1,90,0,0
84776,-100,4,2,2,100,0,0
85499,-100,4,2,2,30,0,0

[Colours]
Combo1 : 250,238,218
Combo2 : 208,49,21
Combo3 : 237,177,67

[HitObjects]
198,244,1650,6,0,B|194:212|181:181|181:181|201:124,2,123.750004720688,2|0|0,0:1|0:0|0:0,0:0:0:0:
153,322,3095,1,2,0:1:0:0:
153,322,3818,1,0,0:0:0:0:
241,344,4180,1,0,0:0:0:0:
321,301,4541,6,0,P|377:285|451:308,2,123.750004720688,2|0|0,0:1|0:0|0:0,0:0:0:0:
250,243,5987,1,2,0:1:0:0:
250,243,7433,5,2,0:1:0:0:
250,243,8878,5,2,0:1:0:0:
250,243,9601,1,2,0:1:0:0:
417,182,10324,6,0,P|466:168|515:272,2,165,12|12|12,1:2|1:1|1:2,0:0:0:0:
308,161,11770,1,0,1:0:0:0:
308,161,11951,2,0,B|267:166|237:153|237:153|182:162|155:197,1,165,12|12,1:1|0:0,0:0:0:0:
164,304,12854,1,8,0:0:0:0:
171,358,13035,1,12,0:1:0:0:
190,202,24782,6,0,P|245:226|336:210,2,148.49999546814,2|2|2,0:1|0:0|0:0,0:0:0:0:
140,116,26228,2,0,P|85:92|-6:108,2,148.49999546814,2|2|2,0:0|0:0|0:0,0:0:0:0:
222,61,27674,2,0,B|283:76|283:76|380:57,2,148.49999546814,2|2|2,0:0|0:0|0:0,0:0:0:0:
129,96,29119,2,0,B|85:141|85:141|53:234,2,148.49999546814,2|2|2,0:0|0:0|0:0,0:0:0:0:
200,164,30565,6,0,P|251:185|350:154,1,148.49999546814,2|2,0:0|0:0,0:0:0:0:
380,136,31288,2,0,P|398:190|390:251,1,98.9999969787599,0|2,0:0|0:0,0:0:0:0:
318,293,32011,2,0,B|249:311|254:250|165:286,1,148.49999546814,2|2,0:0|0:0,0:0:0:0:
136,313,32734,1,0,0:0:0:0:
58,251,33095,1,2,0:0:0:0:
127,165,33457,6,0,B|187:150|187:150|248:174,1,110,6|8,1:2|0:0,0:0:0:0:
279,195,33999,1,8,0:0:0:0:
333,186,34180,2,0,B|350:116,2,55,8|8|8,0:0|0:0|0:0,0:0:0:0:
359,234,34722,1,8,0:0:0:0:
257,184,36348,5,2,0:1:0:0:
257,184,37794,1,2,0:1:0:0:
257,184,39240,1,2,0:1:0:0:
257,184,40686,6,0,B|183:164|176:226|88:195,1,165.000006294251,2|0,0:1|0:0,0:0:0:0:
65,72,42131,2,0,P|107:57|229:73,2,165.000006294251,2|0|2,0:1|0:0|0:1,0:0:0:0:
20,196,44300,1,2,0:1:0:0:
70,318,45023,5,2,0:1:0:0:
255,193,46469,5,0,0:0:0:0:
356,277,47187,1,0,0:0:0:0:
465,202,47907,6,0,P|474:133|444:85,1,110,12|8,1:2|1:2,0:0:0:0:
403,83,48445,2,0,P|336:115|282:106,1,110,0|0,0:0|0:0,0:0:0:0:
251,90,48984,1,8,1:2:0:0:
155,145,49344,1,12,1:2:0:0:
127,251,49703,1,8,1:2:0:0:
197,335,50062,2,0,P|260:325|310:339,1,110,8|8,1:2|1:2,0:0:0:0:
410,367,50781,6,0,L|452:245,1,110,12|8,1:2|1:2,0:0:0:0:
406,223,51320,2,0,P|343:233|293:219,1,110,0|0,0:0|0:0,0:0:0:0:
249,245,51859,1,8,1:2:0:0:
171,322,52218,1,12,1:2:0:0:
76,266,52577,2,0,P|74:197|105:157,1,110,8|12,1:2|1:1,0:0:0:0:
212,149,53296,1,8,1:2:0:0:
212,149,53475,1,8,1:2:0:0:
212,149,53655,6,0,P|287:142|332:113,1,110,12|0,1:2|1:0,0:0:0:0:
353,86,54200,2,0,L|364:213,1,110,12|0,1:1|1:0,0:0:0:0:
397,238,54745,2,0,L|385:356,1,110,12|0,1:2|1:0,0:0:0:0:
332,362,55291,6,0,P|297:340|224:336,1,110,12|0,1:1|1:0,0:0:0:0:
178,354,55836,1,12,1:2:0:0:
105,270,56200,1,12,1:1:0:0:
256,192,56564,12,4,58009,0:0:0:0:
186,128,59455,6,0,P|243:158|324:140,1,148.49999546814,6|0,1:2|1:0,0:0:0:0:
357,105,60178,1,8,0:0:0:0:
426,174,60539,1,0,0:0:0:0:
368,255,60901,2,0,B|335:292|335:292|278:278|222:279,1,148.49999546814,4|0,1:2|1:0,0:0:0:0:
191,298,61624,1,12,0:1:0:0:
114,234,61985,1,0,1:0:0:0:
114,234,62166,1,0,1:0:0:0:
114,234,62347,6,0,P|154:175|145:134,1,98.9999969787599,4|0,1:2|1:0,0:0:0:0:
59,114,63070,2,0,P|19:173|28:214,1,98.9999969787599,12|0,0:1|1:0,0:0:0:0:
76,279,63792,1,12,1:1:0:0:
125,276,63973,2,0,P|183:261|254:306,1,148.49999546814,12|12,0:1|1:2,0:0:0:0:
330,369,64877,1,0,1:0:0:0:
412,313,65238,6,0,P|442:241|411:167,1,148.49999546814,4|0,1:2|1:0,0:0:0:0:
383,144,65961,1,12,0:1:0:0:
301,199,66323,1,0,0:0:0:0:
221,140,66684,1,12,1:2:0:0:
135,189,67045,1,8,0:0:0:0:
60,123,67407,2,0,P|53:71|73:27,1,98.9999969787599,8|8,0:0|0:0,0:0:0:0:
154,83,68130,6,0,P|206:90|250:70,1,98.9999969787599,12|0,1:2|1:0,0:0:0:0:
291,48,68672,2,0,L|361:143,1,98.9999969787599,12|0,1:1|1:0,0:0:0:0:
336,175,69214,1,12,1:2:0:0:
257,234,69576,5,4,1:2:0:0:
319,311,69937,1,4,1:1:0:0:
401,256,70298,1,4,1:2:0:0:
336,175,70655,1,4,1:1:0:0:
421,105,71012,6,0,P|396:57|339:18,1,110,12|8,1:2|0:0,0:0:0:0:
262,86,71734,1,8,0:0:0:0:
159,45,72096,1,8,0:0:0:0:
67,106,72457,2,0,P|55:158|74:225,1,110,12|8,0:1|0:0,0:0:0:0:
169,254,73180,1,8,0:0:0:0:
136,359,73542,1,8,0:0:0:0:
58,281,73903,6,0,B|39:225|39:225|66:158,1,110,12|8,0:0|0:0,0:0:0:0:
106,152,74445,2,0,L|220:167,1,110,0|0,1:0|1:0,0:0:0:0:
270,168,74987,1,8,0:0:0:0:
341,251,75349,2,0,P|401:257|449:241,2,110,12|8|8,0:1|0:0|0:0,0:0:0:0:
249,312,76433,1,8,0:0:0:0:
160,247,76795,6,0,P|161:200|121:136,1,110,12|0,1:2|0:0,0:0:0:0:
173,109,77337,2,0,P|188:64|247:18,1,110,12|0,1:1|0:0,0:0:0:0:
281,51,77879,2,0,L|308:175,1,110,12|0,1:2|0:0,0:0:0:0:
226,235,78602,5,8,1:2:0:0:
284,328,78963,1,8,0:0:0:0:
377,269,79325,1,0,3:0:0:0:
325,171,79686,1,4,1:2:0:0:
110,188,80409,6,0,B|218:223|219:144|325:171,1,220,8|0,3:2|0:0,0:0:0:0:
323,170,82578,5,12,1:2:0:0:
177,246,83120,1,12,1:1:0:0:
31,170,83662,1,12,1:2:0:0:
180,99,84234,2,0,P|235:127|296:118,1,110,12|0,1:1|1:0,0:0:0:0:
319,82,84776,2,0,L|327:14,2,55,12|8|8,1:2|0:0|0:0,0:0:0:0:
354,124,85318,5,12,1:1:0:0:
