osu file format v14

[General]
AudioFilename: audio.mp3
AudioLeadIn: 0
PreviewTime: 46378
Countdown: 0
SampleSet: Soft
StackLeniency: 0.7
Mode: 0
LetterboxInBreaks: 0
WidescreenStoryboard: 1

[Editor]
Bookmarks: 58009,59455,68943,71047
DistanceSpacing: 0.1
BeatDivisor: 4
GridSize: 16
TimelineZoom: 2.5

[Metadata]
Title:HYDRA
TitleUnicode:HYDRA
Artist:MYTH & ROID
ArtistUnicode:MYTH & ROID
Creator:Naotoshi
Version:LASSE'S EXPERT
Source:オーバーロードII
Tags:nao tomori toybot lasse kalibe lince chekito akitoshi cris- isekai Ainz Ooal Gown albedo momonga second season 2 ending cut version Mayu Tom-H@ck tv size
BeatmapID:1521305
BeatmapSetID:720129

[Difficulty]
HPDrainRate:6
CircleSize:4
OverallDifficulty:8.5
ApproachRate:9
SliderMultiplier:1.4
SliderTickRate:1

[Events]
//Background and Video events
0,0,"641970.jpg",0,0
//Break Periods
//Storyboard Layer 0 (Background)
//Storyboard Layer 1 (Fail)
//Storyboard Layer 2 (Pass)
//Storyboard Layer 3 (Foreground)
//Storyboard Sound Samples

[TimingPoints]
1650,361.44578313253,4,2,2,40,1,0
1650,-200,4,2,2,40,0,0
2011,-100,4,2,2,40,0,0
3095,-100,4,2,2,40,0,0
3818,-100,4,2,2,40,0,0
4541,-200,4,2,2,40,0,0
4903,-100,4,2,2,40,0,0
5987,-100,4,2,2,40,0,0
10324,-100,4,2,1,70,0,0
11951,-33.3333333333333,4,2,1,70,0,0
12312,-100,4,2,1,70,0,0
12493,-100,4,2,1,80,0,0
13939,-200,4,2,2,40,0,0
15565,-200,4,2,2,40,0,0
16107,-200,4,2,2,40,0,0
16469,-200,4,2,2,40,0,0
16830,-200,4,2,2,40,0,0
18276,-200,4,2,2,40,0,0
18999,-200,4,2,2,40,0,0
19541,-200,4,2,2,40,0,0
19722,-200,4,2,2,40,0,0
20083,-200,4,2,2,40,0,0
21890,-200,4,2,2,40,0,0
22613,-200,4,2,2,40,0,0
23336,-200,4,2,2,45,0,0
24782,-142.857142857143,4,2,2,45,0,0
24872,-142.857142857143,4,2,2,45,0,0
27674,-142.857142857143,4,2,2,45,0,0
30565,-142.857142857143,4,2,2,50,0,0
33457,-47.6190476190476,4,2,1,60,0,0
33818,-100,4,2,1,60,0,0
34180,-100,4,2,1,70,0,0
34541,-100,4,2,1,80,0,0
34903,-500,4,2,1,40,0,0
35625,-500,4,2,1,20,0,0
36348,-200,4,2,2,30,0,0
38517,-200,4,2,2,40,0,0
39240,-200,4,2,2,50,0,0
46469,359.281437125748,4,2,1,30,1,0
46469,-500,4,2,1,30,0,0
47907,359.281437125748,4,3,1,90,1,1
47907,-83.3333333333333,4,3,1,90,0,1
53655,363.636363636364,4,2,1,90,1,1
53655,-83.3333333333333,4,2,1,90,0,1
54200,-71.4285714285714,4,2,1,90,0,1
54745,-62.5,4,2,1,90,0,1
55291,-55.5555555555556,4,2,1,90,0,1
55836,-41.6666666666667,4,2,1,90,0,1
56109,-41.6666666666667,4,2,1,5,0,1
56200,-35.7142857142857,4,2,1,90,0,1
56473,-41.6666666666667,4,2,1,5,0,1
56564,361.44578313253,4,2,1,80,1,1
56564,-55.5555555555556,4,2,1,80,0,1
57286,-100,4,2,1,100,0,1
58009,-200,4,2,1,80,0,0
58732,-100,4,2,1,80,0,0
59455,-66.6666666666667,4,2,1,100,0,1
66865,-66.6666666666667,4,2,1,70,0,1
67045,-66.6666666666667,4,2,1,80,0,1
67407,-66.6666666666667,4,2,1,90,0,1
67768,-66.6666666666667,4,2,1,100,0,1
69576,-100,4,2,1,100,0,0
70298,357.142857142857,4,2,1,100,1,0
70298,-100,4,2,1,100,0,0
70655,-50,4,2,1,100,0,0
70921,-50,4,2,1,5,0,0
71012,361.44578313253,4,2,1,100,1,1
71012,-100,4,2,1,100,0,1
71047,-60.6060606060606,4,2,1,100,0,1
71192,-60.6060606060606,4,2,1,90,0,1
76795,-55.5555555555556,4,2,1,100,0,1
77337,-52.6315789473684,4,2,1,100,0,1
77879,-58.8235294117647,4,2,1,100,0,1
79686,-100,4,2,1,90,0,0
80409,-100,4,2,1,70,0,1
80590,-100,4,2,1,80,0,1
80771,-100,4,2,1,90,0,1
81042,-100,4,2,1,60,0,1
81132,-100,4,2,1,60,0,0
82578,-100,4,2,1,90,0,0
84234,361.44578313253,4,2,1,90,1,0
84234,-27.7777777777778,4,2,1,90,0,0
84776,-100,4,2,2,100,0,0
85499,-100,4,2,2,30,0,0

[Colours]
Combo1 : 250,238,218
Combo2 : 208,49,21
Combo3 : 237,177,67

[HitObjects]
154,129,1650,6,0,L|146:17,2,105,2|0|0,0:1|0:0|0:0,0:0:0:0:
162,240,3095,1,2,0:1:0:0:
256,304,3818,1,2,0:0:0:0:
358,129,4541,6,0,L|365:17,2,105,2|0|0,0:1|0:0|0:0,0:0:0:0:
358,129,5987,1,2,0:0:0:0:
350,240,7433,1,2,0:1:0:0:
248,210,8878,5,2,0:1:0:0:
135,296,9601,5,2,0:1:0:0:
135,296,10324,5,12,1:2:0:0:
51,176,10505,1,0,0:0:0:0:
112,43,10686,1,0,1:0:0:0:
343,150,10866,5,12,1:1:0:0:
281,282,11047,1,0,0:0:0:0:
135,296,11228,1,0,1:0:0:0:
112,43,11409,5,12,1:2:0:0:
257,30,11589,2,0,L|345:23,1,70,0|0,0:0|1:0,0:0:0:0:
512,247,11951,6,0,B|350:226|350:226|293:154|293:154|130:134,1,420.000016021729,12|0,1:1|1:0,0:0:0:0:
0,0,12493,5,12,0:0:0:0:
37,228,12674,1,8,0:0:0:0:
337,309,12854,1,8,0:0:0:0:
512,0,13035,1,12,0:1:0:0:
512,0,13939,5,2,0:1:0:0:
512,0,15384,2,0,P|505:39|508:78,1,70,2|0,0:0|0:0,0:0:0:0:
441,177,16107,2,0,P|434:136|420:98,2,70,2|2|2,0:1|0:0|0:0,0:0:0:0:
441,177,18276,5,2,0:0:0:0:
370,131,18637,1,2,0:0:0:0:
305,184,18999,2,0,P|236:201|189:159,1,140,2|2,0:1|0:0,0:0:0:0:
136,92,20083,2,0,P|102:76|65:82,1,70,0|2,0:0|0:0,0:0:0:0:
71,80,21168,5,0,0:0:0:0:
30,153,21529,1,2,0:0:0:0:
102,195,21890,2,0,L|180:193,1,70,2|0,0:1|0:0,0:0:0:0:
241,226,22613,1,2,0:0:0:0:
244,239,22734,1,2,0:0:0:0:
247,252,22854,1,2,0:0:0:0:
247,266,22975,6,0,L|234:339,1,70,2|2,0:0|0:1,0:0:0:0:
149,355,23698,1,0,0:0:0:0:
149,355,23878,2,0,P|101:336|49:335,1,105,0|2,0:0|0:0,0:0:0:0:
5,226,24782,6,0,L|-1:118,1,97.9999970092774,2|0,0:1|0:0,0:0:0:0:
41,61,25324,1,2,0:0:0:0:
109,98,25505,2,0,P|158:105|206:68,2,97.9999970092774,0|2|2,0:0|0:0|0:0,0:0:0:0:
109,98,26951,6,0,L|100:206,1,97.9999970092774,2|0,0:0|0:0,0:0:0:0:
245,257,27674,2,0,B|342:233|337:297|435:273,2,195.999994018555,2|0|2,0:0|0:0|0:0,0:0:0:0:
245,257,29842,2,0,P|205:265|150:249,1,97.9999970092774,0|2,0:0|0:0,0:0:0:0:
110,97,30565,6,0,P|224:53|207:174,1,293.999991027832,2|2,0:0|0:0,0:0:0:0:
91,219,32011,2,0,P|-3:141|109:96,1,293.999991027832,2|2,0:0|0:0,0:0:0:0:
206,175,33457,6,0,P|185:295|90:220,1,293.999991027832,6|8,1:2|0:0,0:0:0:0:
110,97,33999,1,8,0:0:0:0:
187,318,34180,5,8,0:0:0:0:
365,352,34360,1,8,0:0:0:0:
500,196,34541,1,8,0:0:0:0:
354,0,34722,1,8,0:0:0:0:
253,47,34903,6,0,B|195:40,2,56,2|2|2,0:0|0:0|0:1,0:0:0:0:
465,116,37794,5,2,0:1:0:0:
465,116,38517,6,0,P|472:155|472:193,1,70,2|0,0:0|0:0,0:0:0:0:
398,268,39240,2,0,P|342:243|287:255,2,105,2|0|0,0:1|0:0|0:0,0:0:0:0:
473,185,40686,2,0,P|476:117|480:44,1,140,2|0,0:1|0:0,0:0:0:0:
314,13,41951,5,0,0:0:0:0:
267,70,42131,2,0,P|227:76|169:51,1,105,2|2,0:1|0:0,0:0:0:0:
64,91,43035,5,0,0:0:0:0:
133,120,43216,2,0,P|144:146|142:194,1,70,2|2,0:0|0:1,0:0:0:0:
144,187,44300,6,0,P|134:227|134:263,1,70,2|0,0:1|0:0,0:0:0:0:
284,358,45023,1,2,0:1:0:0:
284,358,46469,6,0,P|312:355|344:356,1,56
339,355,47907,5,12,3:2:0:0:
359,354,47996,1,0,3:0:0:0:
380,353,48086,1,0,3:0:0:0:
401,352,48176,1,0,3:0:0:0:
422,351,48266,1,8,3:2:0:0:
443,350,48356,1,0,3:0:0:0:
464,350,48445,5,2,3:2:0:0:
436,330,48535,1,0,3:0:0:0:
421,299,48625,1,8,3:2:0:0:
423,264,48715,1,0,3:0:0:0:
443,236,48805,1,0,3:0:0:0:
474,221,48895,1,0,3:0:0:0:
508,223,48984,5,10,3:2:0:0:
509,259,49074,1,0,3:0:0:0:
490,290,49164,1,0,3:0:0:0:
457,305,49254,1,0,3:0:0:0:
421,299,49344,5,12,3:2:0:0:
412,292,49433,1,0,3:0:0:0:
403,288,49523,1,0,3:0:0:0:
393,284,49613,1,0,3:0:0:0:
383,281,49703,1,8,3:2:0:0:
372,280,49793,1,0,3:0:0:0:
362,280,49883,1,0,3:0:0:0:
351,281,49972,1,0,3:0:0:0:
341,283,50062,6,0,L|277:269,3,41.9999987182618,10|0|0|0,3:2|0:0|0:0|0:0,0:0:0:0:
234,319,50421,2,0,L|169:304,3,41.9999987182618,10|0|0|0,3:2|0:0|0:0|0:0,0:0:0:0:
106,251,50781,5,12,3:2:0:0:
104,223,50871,1,0,3:0:0:0:
102,195,50960,1,0,3:0:0:0:
100,167,51050,1,0,3:0:0:0:
99,139,51140,1,8,3:2:0:0:
97,111,51230,1,0,3:0:0:0:
95,83,51320,5,2,3:2:0:0:
121,106,51409,1,0,3:0:0:0:
153,119,51499,1,8,3:2:0:0:
187,123,51589,1,0,3:0:0:0:
221,115,51679,1,0,3:0:0:0:
251,96,51769,1,0,3:0:0:0:
263,62,51859,5,10,3:2:0:0:
297,29,51948,1,0,3:0:0:0:
341,14,52038,1,0,3:0:0:0:
388,17,52128,1,0,3:0:0:0:
431,31,52218,1,12,3:2:0:0:
460,66,52308,1,0,3:0:0:0:
472,111,52398,5,2,3:2:0:0:
462,123,52487,1,0,3:0:0:0:
454,136,52577,1,8,3:2:0:0:
447,151,52667,1,0,3:0:0:0:
443,166,52757,1,0,3:0:0:0:
440,181,52847,1,0,3:0:0:0:
440,197,52936,1,8,3:1:0:0:
442,213,53026,1,0,3:0:0:0:
446,228,53116,5,2,3:2:0:0:
478,252,53206,1,0,3:0:0:0:
482,293,53296,1,8,3:2:0:0:
455,323,53386,1,0,3:0:0:0:
414,324,53475,6,0,L|354:309,1,41.9999987182618,8|0,1:2|0:0,0:0:0:0:
222,198,53655,6,0,P|268:259|262:350,1,167.999994873047,12|0,1:2|1:0,0:0:0:0:
390,41,54200,6,0,P|343:102|361:237,1,195.999994018555,12|0,1:1|1:0,0:0:0:0:
106,198,54745,6,0,P|213:193|274:281,1,224,12|0,1:2|1:0,0:0:0:0:
500,34,55291,6,0,P|381:49|339:162,1,251.999992309571,12|0,1:1|1:0,0:0:0:0:
71,228,55836,6,0,P|182:183|270:264,1,251.999992309571,12|0,1:2|0:0,0:0:0:0:
378,295,56200,2,0,P|270:379|163:295,1,293.999991027832,12|0,1:1|0:0,0:0:0:0:
146,161,56564,6,0,L|137:78,1,62.9999980773926,4|0,3:2|3:0,0:0:0:0:
326,194,56744,1,4,3:2:0:0:
338,161,56835,1,0,3:0:0:0:
351,129,56925,2,0,L|356:54,1,62.9999980773926,0|0,3:0|3:0,0:0:0:0:
71,228,57106,5,0,3:0:0:0:
59,195,57196,1,0,3:0:0:0:
46,163,57286,1,0,3:0:0:0:
85,30,57467,1,0,3:0:0:0:
290,8,57648,1,4,3:3:0:0:
424,179,57829,1,4,3:3:0:0:
499,118,58009,6,2,P|457:87|428:86,1,70,4|0,0:0|0:0,0:1:0:0:
326,339,58732,6,0,P|276:349|229:327,1,93.3333333333333,8|8,1:3|1:3,0:0:0:0:
165,259,59094,5,4,3:3:0:0:
150,181,59214,1,4,3:3:0:0:
119,107,59335,1,4,3:3:0:0:
209,49,59455,6,0,P|271:32|431:49,1,210.000008010865,6|0,1:2|0:0,0:0:0:0:
499,140,59997,1,0,1:0:0:0:
211,151,60178,6,0,P|199:94|215:35,1,105.000004005432,8|0,0:0|0:0,0:0:0:0:
499,140,60539,2,0,P|511:191|502:243,1,105.000004005432,0|0,0:0|0:0,0:0:0:0:
201,253,60901,5,4,1:2:0:0:
349,194,61082,1,0,1:0:0:0:
502,242,61262,1,0,0:0:0:0:
379,38,61443,5,0,1:0:0:0:
371,58,61533,1,0,0:0:0:0:
366,79,61624,2,0,P|351:186|342:311,1,210.000008010865,12|0,0:1|1:0,0:0:0:0:
264,26,62166,1,0,1:0:0:0:
5,167,62347,6,0,P|45:197|127:139,1,157.500006008148,4|0,1:2|0:0,0:0:0:0:
125,147,62708,2,0,L|119:271,1,105.000004005432,0|0,1:0|0:0,0:0:0:0:
416,97,63070,6,0,P|348:128|295:77,1,157.500006008148,12|0,0:1|0:0,0:0:0:0:
295,77,63431,1,0,1:0:0:0:
324,221,63612,1,0,3:0:0:0:
462,13,63792,5,12,1:1:0:0:
416,97,63973,2,0,P|348:128|223:56,1,210.000008010865,12|0,0:1|0:0,0:0:0:0:
0,146,64515,6,0,P|41:125|109:140,1,105.000004005432,12|0,1:2|3:0,0:0:0:0:
159,192,64786,1,0,3:0:0:0:
170,209,64877,2,0,P|164:263|164:326,1,105.000004005432,0|0,1:0|0:0,0:0:0:0:
304,123,65238,2,0,P|317:228|322:341,1,210.000008010865,4|0,1:2|0:0,0:0:0:0:
428,92,65780,5,0,1:0:0:0:
321,233,65961,2,0,P|249:236|194:175,1,157.500006008148,12|0,0:1|0:0,0:0:0:0:
194,176,66323,2,0,L|203:65,1,105.000004005432
7,53,66684,5,12,1:2:0:0:
144,0,66865,1,8,0:0:0:0:
197,137,67045,1,8,0:0:0:0:
60,190,67226,1,8,0:0:0:0:
250,274,67407,5,8,0:0:0:0:
250,274,67588,1,8,0:0:0:0:
334,84,67768,1,8,0:0:0:0:
334,84,67949,1,8,0:0:0:0:
440,358,68130,5,12,1:2:0:0:
495,200,68310,1,0,0:0:0:0:
440,40,68491,1,0,1:0:0:0:
371,248,68672,5,12,1:1:0:0:
298,97,68853,1,0,0:0:0:0:
146,23,69033,1,0,1:0:0:0:
244,218,69214,5,12,1:2:0:0:
85,163,69395,1,0,0:0:0:0:
0,358,69576,5,6,1:1:0:0:
0,358,69666,1,8,0:3:0:0:
0,358,69756,1,8,0:3:0:0:
165,207,69937,5,6,1:1:0:0:
165,207,70027,1,4,0:3:0:0:
165,207,70118,1,4,0:3:0:0:
352,334,70298,5,6,1:1:0:0:
352,334,70387,1,8,0:3:0:0:
352,334,70476,1,8,0:3:0:0:
484,98,70655,6,2,B|458:36|458:36|433:176,1,210,4|0,1:1|0:0,0:1:0:0:
373,246,71012,5,12,1:2:0:0:
130,85,71192,1,0,1:0:0:0:
332,44,71373,1,8,0:0:0:0:
171,287,71554,1,0,1:0:0:0:
130,85,71734,6,0,P|79:59|25:73,1,115.500001101494,8|0,0:0|1:0,0:0:0:0:
171,287,72096,2,0,P|222:313|276:299,1,115.500001101494,8|0,0:0|1:0,0:0:0:0:
424,7,72457,6,0,P|404:104|393:208,1,173.250001652241,12|0,0:1|0:0,0:0:0:0:
425,264,72819,1,8,0:0:0:0:
327,36,72999,1,0,1:0:0:0:
114,179,73180,6,0,L|-20:166,1,115.500001101494,8|0,0:0|1:0,0:0:0:0:
310,252,73542,2,0,L|444:265,1,115.500001101494,8|0,0:0|1:0,0:0:0:0:
232,23,73903,5,12,0:0:0:0:
140,291,74084,1,0,1:0:0:0:
89,43,74265,1,8,0:0:0:0:
310,252,74445,2,0,L|444:265,1,115.500001101494,0|8,1:0|0:0,0:0:0:0:
232,23,74807,5,0,1:0:0:0:
140,291,74987,2,0,L|25:279,1,115.500001101494,8|0,0:0|1:0,0:0:0:0:
315,99,75349,5,12,0:1:0:0:
220,347,75530,1,0,1:0:0:0:
101,70,75710,1,8,0:0:0:0:
310,252,75891,1,0,1:0:0:0:
232,23,76072,5,8,0:0:0:0:
220,347,76252,1,4,1:3:0:0:
91,157,76433,1,8,0:0:0:0:
59,143,76524,1,8,0:0:0:0:
24,144,76614,1,8,0:0:0:0:
310,252,76795,6,0,P|413:253|523:225,1,188.999994232178,12|0,1:2|0:0,0:0:0:0:
496,234,77156,1,0,0:0:0:0:
220,347,77337,6,0,P|117:346|18:317,1,199.499994672775,12|0,1:1|0:0,0:0:0:0:
24,319,77698,1,0,0:0:0:0:
155,50,77879,5,12,1:2:0:0:
241,185,78060,1,8,0:0:0:0:
220,347,78240,1,0,0:0:0:0:
79,150,78421,5,4,3:3:0:0:
101,157,78512,1,4,3:3:0:0:
309,106,78692,1,8,3:0:0:0:
324,123,78783,1,8,3:0:0:0:
469,295,78963,6,0,P|418:272|320:272,1,119.000002269745,8|0,0:0|0:0,0:0:0:0:
37,338,79325,1,8,3:3:0:0:
80,343,79415,1,8,3:3:0:0:
118,321,79505,1,8,3:3:0:0:
134,280,79596,1,8,3:3:0:0:
121,238,79686,5,4,3:2:0:0:
121,238,80409,5,8,3:2:0:0:
85,213,80499,1,8,3:2:0:0:
68,174,80590,1,8,3:2:0:0:
74,131,80680,1,8,3:2:0:0:
102,98,80771,5,8,3:2:0:0:
146,136,80861,1,8,3:2:0:0:
205,132,80951,1,8,3:2:0:0:
245,89,81042,1,2,0:0:0:0:
248,101,81132,5,0,0:0:0:0:
85,356,82578,5,12,1:2:0:0:
1,236,82759,1,0,0:0:0:0:
62,103,82939,1,0,1:0:0:0:
293,210,83120,5,12,1:1:0:0:
231,342,83301,1,0,0:0:0:0:
85,356,83482,1,0,1:0:0:0:
62,103,83662,5,12,1:2:0:0:
207,90,83843,2,0,L|295:83,1,70,0|0,0:0|1:0,0:0:0:0:
354,340,84234,6,0,B|363:268|294:211|209:226|182:293|182:293|157:354|67:374|7:317|11:248,1,503.999984619141,12|0,1:1|1:0,0:0:0:0:
0,0,84776,5,12,1:2:0:0:
99,256,84956,1,8,0:0:0:0:
392,288,85137,1,8,0:0:0:0:
512,0,85318,1,12,1:1:0:0:
