osu file format v14

[General]
AudioFilename: audio.mp3
AudioLeadIn: 0
PreviewTime: 46378
Countdown: 0
SampleSet: Soft
StackLeniency: 0.7
Mode: 0
LetterboxInBreaks: 0
WidescreenStoryboard: 1

[Editor]
Bookmarks: 49180
DistanceSpacing: 1
BeatDivisor: 12
GridSize: 16
TimelineZoom: 2.899999

[Metadata]
Title:HYDRA
TitleUnicode:HYDRA
Artist:MYTH & ROID
ArtistUnicode:MYTH & ROID
Creator:Naotoshi
Version:KALIBE'S INSANE
Source:オーバーロードII
Tags:nao tomori toybot lasse kalibe lince chekito akitoshi cris- isekai Ainz Ooal Gown albedo momonga second season 2 ending cut version Mayu Tom-H@ck tv size
BeatmapID:1522181
BeatmapSetID:720129

[Difficulty]
HPDrainRate:5
CircleSize:4.5
OverallDifficulty:7.7
ApproachRate:8.7
SliderMultiplier:1.7
SliderTickRate:1

[Events]
//Background and Video events
0,0,"good.jpg",0,0
//Break Periods
//Storyboard Layer 0 (Background)
//Storyboard Layer 1 (Fail)
//Storyboard Layer 2 (Pass)
//Storyboard Layer 3 (Foreground)
//Storyboard Sound Samples

[TimingPoints]
1650,361.44578313253,4,2,0,50,1,0
7433,-166.666666666667,4,2,0,50,0,0
10312,-100,4,2,0,50,0,0
10324,-100,4,2,0,80,0,0
13487,-133.333333333333,4,2,0,80,0,0
13927,-200,4,2,0,80,0,0
13939,-200,4,2,0,40,0,0
24770,-133.333333333333,4,2,0,40,0,0
24782,-133.333333333333,4,2,0,20,0,0
24872,-133.333333333333,4,2,0,50,0,0
33445,-100,4,2,0,50,0,0
36336,-166.666666666667,4,2,0,50,0,0
46469,359.281437125748,4,2,0,50,1,0
47907,359.281437125748,4,2,0,90,1,1
47907,-166.666666666667,4,2,0,90,0,1
48445,-100,4,2,0,90,0,1
48625,-166.666666666667,4,2,0,90,0,1
48984,-100,4,2,0,90,0,1
49348,-166.666666666667,4,2,0,90,0,1
50062,-100,4,2,0,90,0,1
50794,-166.666666666667,4,2,0,90,0,1
51320,-100,4,2,0,90,0,1
53655,363.636363636364,4,2,0,90,1,1
53655,-83.3333333333333,4,2,0,90,0,1
56564,361.44578313253,4,2,0,90,1,1
56564,-100,4,2,0,90,0,1
58009,-133.333333333333,4,2,0,80,0,0
58732,-80,4,2,0,80,0,0
59455,-90.9090909090909,4,2,0,90,0,1
68130,-83.3333333333333,4,2,0,90,0,1
69576,-83.3333333333333,4,2,0,90,0,0
70298,357.142857142857,4,2,0,90,1,0
70298,-83.3333333333333,4,2,0,90,0,0
71012,361.44578313253,4,2,0,90,1,1
71012,-83.3333333333333,4,2,0,90,0,1
79686,-111.111111111111,4,2,0,90,0,0
80409,-133.333333333333,4,2,0,90,0,1
81132,-133.333333333333,4,2,0,90,0,0
84234,361.44578313253,4,2,0,90,1,0
84234,-100,4,2,0,90,0,0
85137,-83.3333333333333,4,2,0,90,0,0
85289,-56.8181818181818,4,2,0,90,0,0

[Colours]
Combo1 : 250,238,218
Combo2 : 208,49,21
Combo3 : 237,177,67

[HitObjects]
117,106,1650,5,2,1:2:0:0:
122,114,1830,1,0,0:0:0:0:
112,117,2011,1,0,0:0:0:0:
107,108,2192,1,2,0:0:0:0:
175,177,2372,5,2,0:0:0:0:
193,186,2553,1,0,0:0:0:0:
213,189,2734,1,0,0:0:0:0:
233,185,2915,1,2,0:0:0:0:
346,134,3095,5,2,1:2:0:0:
376,128,3276,1,0,0:0:0:0:
405,134,3457,1,0,0:0:0:0:
429,152,3637,1,0,0:0:0:0:
479,246,3818,5,2,0:0:0:0:
477,256,3999,1,0,0:0:0:0:
475,266,4180,1,2,0:0:0:0:
474,276,4360,1,0,0:0:0:0:
358,359,4541,5,2,1:2:0:0:
348,340,4722,1,0,0:0:0:0:
347,319,4903,1,0,0:0:0:0:
352,299,5083,1,2,0:0:0:0:
362,281,5264,1,0,0:0:0:0:
368,261,5445,1,0,0:0:0:0:
366,240,5625,1,0,0:0:0:0:
356,221,5806,1,0,0:0:0:0:
249,137,5987,5,2,0:0:0:0:
228,160,6168,1,0,0:0:0:0:
216,188,6348,1,0,0:0:0:0:
216,218,6529,1,0,0:0:0:0:
226,246,6710,5,0,0:0:0:0:
230,255,6890,1,0,0:0:0:0:
232,265,7071,1,0,0:0:0:0:
230,275,7252,1,0,0:0:0:0:
226,284,7433,6,0,L|190:277,1,25.4999992218018,2|0,0:0|0:0,0:0:0:0:
138,329,7613,2,0,L|102:336,1,25.4999992218018,2|0,0:0|0:0,0:0:0:0:
34,281,7794,6,0,L|50:219,1,50.9999984436036,0|0,0:0|0:0,0:0:0:0:
77,165,8065,1,2,0:0:0:0:
73,160,8156,2,0,L|89:98,1,50.9999984436036,2|0,0:0|0:0,0:0:0:0:
121,41,8517,6,0,L|91:147,1,101.999996887207,0|2,0:0|0:0,0:0:0:0:
93,139,9421,1,0,0:0:0:0:
225,86,9601,5,2,0:0:0:0:
155,60,9782,1,0,0:0:0:0:
243,112,9963,5,0,0:0:0:0:
173,138,10143,1,0,0:0:0:0:
312,58,10324,5,6,1:2:0:0:
341,236,10505,1,0,1:0:0:0:
431,156,10686,1,0,1:0:0:0:
242,207,10866,6,0,B|328:232|319:151|406:176,1,170,4|0,1:2|1:0,0:0:0:0:
401,174,11409,2,0,L|377:256,1,85,4|0,1:2|0:0,0:0:0:0:
271,135,11770,5,0,0:0:0:0:
362,358,11951,2,0,P|399:344|444:334,1,85,4|0,1:2|0:0,0:0:0:0:
377,255,12312,5,0,1:0:0:0:
168,384,12493,5,8,1:3:0:0:
246,222,12674,1,8,1:3:0:0:
362,358,12854,1,8,1:3:0:0:
139,275,13035,5,6,1:2:0:0:
352,174,13487,6,0,L|280:163,1,63.7500024318696,2|2,0:0|0:0,0:0:0:0:
244,108,13758,1,2,0:0:0:0:
244,108,13939,6,0,L|256:208,1,85,0|2,1:0|0:0,0:0:0:0:
191,330,14481,1,0,0:0:0:0:
167,257,14662,2,0,L|187:199,1,42.5,2|0,0:0|0:0,0:0:0:0:
348,309,15023,2,0,L|334:268,1,42.5,0|0,3:0|0:0,0:0:0:0:
346,250,15565,5,0,0:0:0:0:
253,363,15746,2,0,P|210:352|168:344,1,85,0|0,3:0|0:0,0:0:0:0:
86,381,16469,6,0,P|84:358|79:332,1,42.5,0|0,0:0|3:0,0:0:0:0:
14,259,16830,1,2,0:3:0:0:
19,255,17011,2,0,P|33:214|46:162,1,85,0|0,0:0|0:0,0:0:0:0:
5,105,17553,6,0,L|57:95,1,42.5,2|0,0:0|0:0,0:0:0:0:
192,35,17915,2,0,P|219:68|210:113,1,85,0|2,0:0|0:3,0:0:0:0:
198,112,18457,5,0,0:0:0:0:
296,73,18637,1,0,3:0:0:0:
248,277,18999,5,2,0:0:0:0:
303,222,19180,1,0,0:0:0:0:
307,226,19360,6,0,L|364:215,1,42.5,0|0,0:0|3:3,0:0:0:0:
187,343,19722,2,0,P|228:349|279:361,1,85,0|2,0:0|0:3,0:0:0:0:
337,320,20264,5,0,0:0:0:0:
236,271,20445,2,0,P|230:250|226:219,1,42.5,2|0,0:0|0:0,0:0:0:0:
326,137,20806,2,0,P|367:134|404:155,1,85,0|0,3:0|0:0,0:0:0:0:
398,164,21348,1,0,0:0:0:0:
475,46,21529,6,0,L|465:94,1,42.5,0|0,3:0|0:0,0:0:0:0:
430,242,21890,1,2,0:0:0:0:
492,187,22071,6,0,L|517:183,2,21.25,0|0|0,0:0|0:0|3:0,0:0:0:0:
426,246,22433,2,0,L|369:236,1,42.5,0|2,0:0|0:3,0:0:0:0:
503,295,22734,6,0,L|513:254,1,28.3333333333333,2|2,0:3|0:3,0:0:0:0:
398,333,22975,6,0,L|407:382,1,42.5,2|0,0:3|0:3,0:0:0:0:
312,278,23336,6,0,P|277:303|232:297,1,85,2|2,0:0|2:0,0:0:0:0:
218,307,23878,1,2,2:0:0:0:
146,221,24059,2,0,P|169:226|190:230,1,42.5,0|0,0:0|0:0,0:0:0:0:
128,379,24421,2,0,P|151:374|172:370,1,42.5,0|0,3:0|0:0,0:0:0:0:
30,321,24782,6,0,B|14:279|14:279|38:230,1,95.6250036478044,4|0,0:0|0:0,0:0:0:0:
51,223,25143,1,2,0:3:0:0:
136,192,25324,1,0,3:0:0:0:
17,134,25505,5,0,0:0:0:0:
143,176,25866,1,0,3:0:0:0:
258,110,26228,2,0,P|293:169|272:226,1,127.500004863739,0|2,3:0|0:3,0:0:0:0:
205,278,26770,5,0,3:0:0:0:
246,347,26951,2,0,P|211:352|169:362,1,63.7500024318696,0|0,0:0|0:0,0:0:0:0:
346,247,27312,2,0,P|311:242|269:232,1,63.7500024318696,0|0,3:0|0:0,0:0:0:0:
451,356,27674,6,0,P|379:366|316:375,1,127.500004863739,2|2,3:0|0:3,0:0:0:0:
378,277,28216,1,0,3:0:0:0:
447,242,28396,6,0,P|375:232|312:223,1,127.500004863739,0|0,0:0|3:0,0:0:0:0:
310,210,28939,1,2,0:3:0:0:
228,266,29119,6,0,P|200:213|232:155,1,127.500004863739,0|0,3:0|0:0,0:0:0:0:
230,157,29662,2,0,P|198:165|160:172,1,63.7500024318696,0|0,3:0|0:0,0:0:0:0:
234,359,30204,2,0,P|202:350|164:344,1,63.7500024318696,0|0,3:0|0:0,0:0:0:0:
77,384,30565,6,0,B|60:328|110:318|83:252,1,127.500004863739,2|2,3:0|0:3,0:0:0:0:
68,251,31107,1,0,3:0:0:0:
169,201,31288,2,0,P|233:237|285:220,1,127.500004863739,0|0,0:0|3:0,0:0:0:0:
292,240,32011,6,0,P|328:176|311:124,1,127.500004863739,0|2,3:0|0:3,0:0:0:0:
239,47,32553,1,0,3:0:0:0:
312,16,32734,2,0,L|391:30,1,63.7500024318696,0|0,0:0|0:0,0:0:0:0:
226,135,33095,2,0,L|305:149,1,63.7500024318696,0|0,3:0|0:0,0:0:0:0:
506,109,33457,6,0,B|485:154|485:154|498:185|498:185|478:235,1,127.5,4|0,1:2|0:0,0:0:0:0:
452,301,33818,5,0,1:0:0:0:
399,227,33999,1,2,0:0:0:0:
314,374,34180,5,8,3:0:0:0:
384,219,34360,1,8,3:0:0:0:
153,320,34541,5,8,3:0:0:0:
369,211,34722,1,8,3:0:0:0:
369,211,35625,6,0,B|250:188|285:290|164:275|144:204|188:159|263:213,1,297.5,0|0,0:0|0:0,0:0:0:0:
257,209,36348,6,0,B|283:279|223:296|239:358,1,152.999995330811,2|0,0:2|0:0,0:0:0:0:
256,361,37071,5,0,0:0:0:0:
322,322,37252,1,0,0:0:0:0:
398,313,37433,1,0,0:0:0:0:
471,334,37613,1,0,0:0:0:0:
351,244,37794,5,2,0:2:0:0:
278,218,37975,1,0,0:0:0:0:
204,238,38156,1,0,0:0:0:0:
141,282,38336,1,0,0:0:0:0:
322,322,38517,6,0,L|262:306,1,50.9999984436036,0|0,0:0|0:0,0:0:0:0:
147,192,38878,2,0,L|196:205,1,50.9999984436036,0|0,0:0|0:0,0:0:0:0:
20,359,39240,6,0,P|-7:316|33:228,1,152.999995330811,2|0,1:2|0:0,0:0:0:0:
156,171,39963,5,0,0:0:0:0:
202,231,40143,1,0,0:0:0:0:
211,307,40324,1,0,0:0:0:0:
170,372,40505,1,0,0:0:0:0:
223,217,40686,5,2,1:2:0:0:
283,171,40866,1,0,0:0:0:0:
359,162,41047,1,0,0:0:0:0:
424,203,41228,1,0,0:0:0:0:
512,70,41409,5,2,0:0:0:0:
452,116,41589,1,0,0:0:0:0:
376,125,41770,1,0,0:0:0:0:
311,84,41951,1,0,0:0:0:0:
265,22,42131,6,0,L|193:33,1,50.9999984436036,2|0,1:2|0:0,0:0:0:0:
376,125,42493,5,0,0:0:0:0:
317,179,42674,2,0,P|265:167|206:156,1,101.999996887207,2|0,0:0|0:0,0:0:0:0:
217,157,43216,2,0,L|223:214,1,50.9999984436036,0|0,0:0|0:0,0:0:0:0:
235,360,43577,5,2,0:0:0:0:
275,294,43758,1,0,0:0:0:0:
240,225,43939,1,0,0:0:0:0:
205,157,44119,1,0,0:0:0:0:
244,91,44300,5,2,0:0:0:0:
317,111,44481,1,0,0:0:0:0:
167,245,44662,5,0,0:0:0:0:
240,225,44842,1,0,0:0:0:0:
111,185,45023,6,0,P|79:227|88:280,1,101.999996887207,2|2,0:0|0:0,0:0:0:0:
28,363,45565,1,2,0:0:0:0:
99,305,45746,1,0,0:0:0:0:
195,261,45927,1,2,0:0:0:0:
305,237,46107,1,2,0:0:0:0:
437,284,46288,1,0,0:0:0:0:
437,284,47906,5,6,3:2:0:0:
416,269,47996,1,0,3:0:0:0:
391,261,48086,1,0,3:0:0:0:
365,263,48176,1,0,3:0:0:0:
340,270,48266,1,2,3:0:0:0:
319,284,48356,1,0,3:0:0:0:
288,314,48445,6,0,L|291:368,5,42.5,2|0|2|0|0|0,0:2|0:0|3:0|3:0|3:0|3:0,0:0:0:0:
208,245,48984,6,0,L|216:195,3,42.5,2|0|0|0,0:2|0:0|0:0|0:0,0:0:0:0:
150,157,49344,5,2,3:2:0:0:
172,136,49433,1,0,3:0:0:0:
200,124,49523,1,0,3:0:0:0:
230,125,49613,1,0,3:0:0:0:
258,136,49703,1,0,3:0:0:0:
278,158,49793,1,0,3:0:0:0:
298,180,49883,1,0,3:0:0:0:
327,189,49972,1,0,3:0:0:0:
376,175,50062,6,0,L|388:123,3,42.5,2|0|0|0,0:2|0:0|0:0|0:0,0:0:0:0:
272,112,50421,6,0,L|281:70,3,42.5,2|0|0|0,0:2|0:0|0:0|0:0,0:0:0:0:
349,38,50781,5,6,1:2:0:0:
318,42,50871,1,0,3:0:0:0:
287,48,50960,1,0,3:0:0:0:
257,54,51050,1,0,3:0:0:0:
226,60,51140,1,2,3:0:0:0:
195,65,51230,1,0,3:0:0:0:
145,75,51320,6,0,L|158:19,5,42.5,2|0|2|0|0|0,0:2|0:0|3:0|3:0|3:0|3:0,0:0:0:0:
66,93,51859,5,2,0:2:0:0:
35,122,51948,1,0,0:0:0:0:
25,163,52038,1,0,3:0:0:0:
42,202,52128,1,0,3:0:0:0:
78,223,52218,6,0,L|127:213,3,42.5,0|0|0|0,0:0|3:0|3:0|3:0,0:0:0:0:
76,309,52577,5,2,1:2:0:0:
114,290,52667,1,0,1:0:0:0:
156,290,52757,1,0,1:0:0:0:
193,309,52847,1,0,1:0:0:0:
221,340,52936,1,2,3:0:0:0:
257,362,53026,1,2,3:0:0:0:
299,367,53116,1,2,3:0:0:0:
339,355,53206,1,2,3:0:0:0:
373,330,53296,6,0,L|390:263,1,42.5,8|0,3:0|3:0,0:0:0:0:
406,196,53475,2,0,L|413:154,1,42.5,4|0,3:0|3:0,0:0:0:0:
360,87,53655,6,0,P|324:122|325:175,1,101.999996887207,4|0,0:0|0:0,0:0:0:0:
476,290,54018,1,0,3:0:0:0:
210,270,54200,6,0,P|245:306|298:305,1,101.999996887207,4|0,0:0|0:0,0:0:0:0:
413,154,54564,1,0,3:0:0:0:
439,374,54745,6,0,P|475:339|474:286,1,101.999996887207,4|0,1:2|0:0,0:0:0:0:
323,171,55109,1,0,3:0:0:0:
497,190,55291,6,0,P|462:154|409:155,1,101.999996887207,4|0,1:2|0:0,0:0:0:0:
294,306,55655,1,0,3:0:0:0:
189,229,55836,6,0,P|205:182|216:121,1,101.999996887207,4|0,1:2|3:0,0:0:0:0:
386,26,56200,6,0,P|395:76|411:124,1,101.999996887207,4|0,1:2|3:0,0:0:0:0:
475,289,56564,5,2,0:0:0:0:
438,269,56654,1,0,0:0:0:0:
397,265,56744,1,2,0:3:0:0:
360,282,56835,1,0,0:0:0:0:
331,311,56925,1,2,0:3:0:0:
302,339,57015,1,0,0:0:0:0:
266,359,57106,1,2,0:0:0:0:
224,359,57196,1,0,0:0:0:0:
202,345,57286,5,2,0:3:0:0:
194,320,57377,1,0,0:0:0:0:
206,297,57467,1,2,0:3:0:0:
223,278,57557,1,0,0:0:0:0:
239,258,57648,1,2,0:0:0:0:
245,233,57738,1,0,0:0:0:0:
237,208,57829,1,2,0:3:0:0:
222,186,57919,1,0,0:0:0:0:
209,176,58009,6,0,P|164:174|120:201,1,95.6250036478044,4|0,0:0|0:0,0:0:0:0:
25,93,58371,6,0,P|63:111|121:100,1,95.6250036478044,0|0,0:0|0:0,0:0:0:0:
250,64,58732,6,0,P|198:111|210:178,1,141.666666666667,4|4,3:0|3:0,0:0:0:0:
301,265,59094,5,4,3:0:0:0:
334,275,59214,5,0,3:0:0:0:
368,267,59335,5,4,3:0:0:0:
390,245,59455,6,0,P|322:185|236:208,1,187.000005706787,4|0,1:1|0:0,0:0:0:0:
193,27,59997,2,0,L|245:39,1,46.7500014266968,2|0,0:3|0:0,0:0:0:0:
334,62,60178,6,0,B|357:104|357:104|336:153,1,93.5000028533936,8|0,1:3|0:0,0:0:0:0:
152,263,60539,2,0,B|129:221|129:221|150:172,1,93.5000028533936,2|0,0:2|0:0,0:0:0:0:
240,114,60901,5,4,1:3:0:0:
327,260,61082,2,0,L|307:359,1,93.5000028533936,8|0,1:3|0:0,0:0:0:0:
228,241,61443,1,0,3:0:0:0:
405,207,61624,6,0,B|316:180|324:274|223:244,1,187.000005706787,8|0,1:3|3:0,0:0:0:0:
319,382,62166,2,0,L|334:318,1,46.7500014266968,0|0,3:0|0:0,0:0:0:0:
457,147,62347,6,0,P|485:188|476:240,1,93.5000028533936,4|0,1:2|0:0,0:0:0:0:
314,61,62708,2,0,P|351:34|396:36,1,93.5000028533936,2|0,0:2|3:0,0:0:0:0:
260,219,63070,6,0,B|193:209|193:209|159:168|159:168|86:158,1,187.000005706787,0|0,1:0|3:3,0:0:0:0:
225,47,63612,2,0,L|213:92,1,46.7500014266968,0|0,3:0|3:0,0:0:0:0:
70,173,63792,5,4,1:3:0:0:
254,291,63973,2,0,B|282:252|282:252|267:198,1,93.5000028533936,8|0,1:3|0:0,0:0:0:0:
109,344,64335,5,4,1:3:0:0:
109,344,64425,1,0,0:0:0:0:
109,344,64515,2,0,B|213:309|187:407|301:361,1,187.000005706787,4|4,1:3|1:3,0:0:0:0:
500,275,65057,2,0,L|432:263,1,46.7500014266968,2|2,1:2|0:2,0:0:0:0:
364,218,65238,6,0,P|343:262|357:307,1,93.5000028533936,4|8,1:3|3:3,0:0:0:0:
508,168,65600,2,0,P|501:120|497:63,1,93.5000028533936,4|2,0:0|0:0,0:0:0:0:
443,17,65961,1,2,1:3:0:0:
320,151,66142,1,2,0:0:0:0:
393,186,66323,1,2,1:2:0:0:
292,39,66503,1,2,0:3:0:0:
221,281,66684,5,2,1:3:0:0:
382,202,66865,1,2,0:0:0:0:
206,91,67045,1,2,1:2:0:0:
314,313,67226,1,2,0:3:0:0:
316,40,67407,5,2,1:3:0:0:
121,231,67588,1,2,0:3:0:0:
182,60,67768,5,4,3:0:0:0:
339,294,67949,1,4,3:0:0:0:
339,294,68039,1,0,0:0:0:0:
339,294,68130,6,0,P|387:284|449:277,1,101.999996887207,4|0,1:2|0:0,0:0:0:0:
456,264,68491,1,0,0:0:0:0:
237,141,68672,6,0,P|285:151|347:158,1,101.999996887207,4|0,1:2|0:0,0:0:0:0:
405,115,69033,1,0,0:0:0:0:
84,273,69214,6,0,P|132:263|194:256,1,101.999996887207,4|0,1:2|0:0,0:0:0:0:
321,341,69576,5,8,1:3:0:0:
282,325,69666,1,4,1:3:0:0:
241,325,69756,1,4,1:3:0:0:
204,342,69847,1,4,3:0:0:0:
174,370,69937,2,0,P|148:376|110:383,3,50.9999984436036,8|4|4|0,1:3|1:3|1:3|0:0,0:0:0:0:
81,295,70298,6,0,P|55:289|17:282,3,50.9999984436036,4|4|4|0,1:3|1:3|1:3|0:0,0:0:0:0:
163,192,70655,6,0,B|176:149|200:91|200:91|145:120,1,152.999995330811,8|0,1:3|0:0,0:0:0:0:
80,218,71012,6,0,B|165:197|144:266|227:242,1,152.999995330811,4|0,1:2|0:0,0:0:0:0:
300,189,71373,2,0,P|322:234|306:283,1,101.999996887207,2|0,1:2|3:0,0:0:0:0:
261,345,71644,1,0,1:0:0:0:
261,345,71734,1,2,1:2:0:0:
429,200,71915,1,0,3:0:0:0:
484,290,72096,6,0,P|432:294|378:310,1,101.999996887207,2|0,1:2|3:0,0:0:0:0:
262,98,72457,2,0,P|311:111|361:115,1,101.999996887207,2|0,1:2|3:0,0:0:0:0:
251,329,72819,6,0,P|247:277|231:223,1,101.999996887207,2|0,1:2|3:0,0:0:0:0:
462,78,73180,2,0,P|448:127|444:177,1,101.999996887207,2|0,1:2|3:0,0:0:0:0:
485,253,73451,1,0,1:0:0:0:
485,253,73542,2,0,P|411:207|334:225,1,152.999995330811,2|0,1:2|1:0,0:0:0:0:
263,277,73903,5,2,1:2:0:0:
370,134,74084,1,0,0:0:0:0:
171,70,74265,1,2,1:2:0:0:
279,38,74445,6,0,P|277:89|284:144,1,101.999996887207,2|2,0:0|1:2,0:0:0:0:
187,376,74807,2,0,P|193:325|191:274,1,101.999996887207,2|2,0:0|1:2,0:0:0:0:
59,143,75168,1,0,0:0:0:0:
23,254,75349,6,0,P|75:260|121:231,1,101.999996887207,2|0,1:2|0:0,0:0:0:0:
197,51,75710,2,0,P|153:26|103:33,1,101.999996887207,2|0,1:2|0:0,0:0:0:0:
59,143,76072,6,0,P|87:134|112:129,2,50.9999984436036,2|0|0,1:2|0:0|0:0,0:0:0:0:
210,315,76433,2,0,P|185:307|160:301,2,50.9999984436036,8|8|0,1:3|1:3|1:3,0:0:0:0:
365,295,76795,6,0,B|265:262|282:370|177:335,1,203.999993774414,4|0,1:2|3:0,0:0:0:0:
108,129,77337,6,0,P|188:163|130:228,1,203.999993774414,4|0,1:2|3:0,0:0:0:0:
313,13,77879,6,0,B|292:86|292:86|308:139|308:139|290:209,1,203.999993774414,4|0,1:2|3:0,0:0:0:0:
279,218,78421,1,8,1:3:0:0:
403,36,78602,2,0,L|389:85,2,50.9999984436036,2|0|4,0:0|3:0|1:3,0:0:0:0:
431,179,78963,5,0,1:0:0:0:
313,13,79144,1,0,0:0:0:0:
197,121,79325,5,8,1:3:0:0:
157,132,79415,1,8,1:3:0:0:
117,124,79505,1,8,1:3:0:0:
86,97,79596,1,8,1:3:0:0:
84,71,79686,6,0,B|116:56|136:34|136:34|132:83|146:113|146:113|116:164|116:164|125:230,1,267.749991828919,4|0,1:0|0:0,0:0:0:0:
76,277,80409,5,8,1:3:0:0:
102,259,80499,1,2,1:2:0:0:
133,255,80590,1,2,1:2:0:0:
164,263,80680,1,8,1:3:0:0:
188,283,80771,1,2,1:2:0:0:
213,302,80861,1,2,1:2:0:0:
244,305,80951,1,4,1:3:0:0:
273,292,81042,1,4,3:3:0:0:
298,273,81132,1,2,0:0:0:0:
312,337,82578,5,4,1:2:0:0:
362,158,82758,1,4,1:3:0:0:
392,228,82939,1,4,1:3:0:0:
225,384,83120,5,12,1:2:0:0:
173,170,83301,1,4,1:3:0:0:
143,240,83481,1,4,1:3:0:0:
261,183,83662,5,12,1:2:0:0:
67,270,83843,1,4,1:3:0:0:
157,163,84024,5,4,1:3:0:0:
298,303,84234,2,0,B|376:328|388:250|464:276,1,170,12|0,1:2|1:0,0:0:0:0:
464,280,84775,6,0,L|454:327,1,42.5,4|0,0:3|0:0,0:0:0:0:
346,171,84956,2,0,L|336:218,1,42.5,12|0,0:3|0:0,0:0:0:0:
458,129,85137,6,0,L|448:185,1,50.9999984436036,12|0,1:3|0:0,0:0:0:0:
284,48,85318,6,0,L|266:120,1,74.8000022827149,6|0,1:2|0:0,0:0:0:0:
