osu file format v14

[General]
AudioFilename: audio.mp3
AudioLeadIn: 0
PreviewTime: 46378
Countdown: 0
SampleSet: Soft
StackLeniency: 0.7
Mode: 0
LetterboxInBreaks: 0
WidescreenStoryboard: 1

[Editor]
Bookmarks: 49180
DistanceSpacing: 1.1
BeatDivisor: 4
GridSize: 16
TimelineZoom: 2.899999

[Metadata]
Title:HYDRA
TitleUnicode:HYDRA
Artist:MYTH & ROID
ArtistUnicode:MYTH & ROID
Creator:Naotoshi
Version:EXTRA
Source:オーバーロードII
Tags:nao tomori toybot lasse kalibe lince chekito akitoshi cris- isekai Ainz Ooal Gown albedo momonga second season 2 ending cut version Mayu Tom-H@ck tv size
BeatmapID:1521304
BeatmapSetID:720129

[Difficulty]
HPDrainRate:5.3
CircleSize:4.3
OverallDifficulty:8.5
ApproachRate:9
SliderMultiplier:1.6
SliderTickRate:1

[Events]
//Background and Video events
0,0,"overlord-3.jpg",0,0
//Break Periods
//Storyboard Layer 0 (Background)
//Storyboard Layer 1 (Fail)
//Storyboard Layer 2 (Pass)
//Storyboard Layer 3 (Foreground)
//Storyboard Sound Samples

[TimingPoints]
1650,361.44578313253,4,2,0,50,1,0
1650,-166.666666666667,4,2,0,50,0,0
10324,-100,4,2,0,80,0,0
13939,-200,4,2,0,40,0,0
24782,-133.333333333333,4,2,0,20,0,0
24872,-133.333333333333,4,2,0,50,0,0
33457,-100,4,2,0,50,0,0
36348,-166.666666666667,4,2,0,50,0,0
46469,359.281437125748,4,2,0,50,1,0
47907,359.281437125748,4,2,0,90,1,1
47915,-166.666666666667,4,2,0,90,0,1
48457,-100,4,2,0,90,0,1
48637,-166.666666666667,4,2,0,90,0,1
48999,-100,4,2,0,90,0,1
49360,-166.666666666667,4,2,0,90,0,1
50083,-100,4,2,0,90,0,1
50806,-166.666666666667,4,2,0,90,0,1
51348,-100,4,2,0,90,0,1
53655,363.636363636364,4,2,0,90,1,1
53655,-83.3333333333333,4,2,0,90,0,1
56564,361.44578313253,4,2,0,90,1,1
56564,-100,4,2,0,90,0,1
57826,-83.3333333333333,4,2,0,90,0,1
58009,-133.333333333333,4,2,0,80,0,0
58758,-80,4,2,0,80,0,0
59455,-90.9090909090909,4,2,0,90,0,1
68156,-83.3333333333333,4,2,0,90,0,1
69576,-83.3333333333333,4,2,0,90,0,0
70298,357.142857142857,4,2,0,90,1,8
70298,-100,4,2,0,90,0,0
70655,-83.3333333333333,4,2,0,90,0,0
71012,361.44578313253,4,2,0,90,1,1
71012,-100,4,2,0,90,0,1
71047,-83.3333333333333,4,2,0,90,0,1
79686,-133.333333333333,4,2,0,90,0,0
80409,-133.333333333333,4,2,0,90,0,1
81132,-133.333333333333,4,2,0,90,0,0
84234,361.44578313253,4,2,0,90,1,0
84234,-100,4,2,0,90,0,0
85324,-56.8181818181818,4,2,0,90,0,0

[Colours]
Combo1 : 250,238,218
Combo2 : 208,49,21
Combo3 : 237,177,67

[HitObjects]
144,200,1650,5,2,1:2:0:0:
144,58,2192,1,2,0:0:0:0:
266,129,2734,1,0,0:0:0:0:
184,130,3095,1,2,1:2:0:0:
315,78,3818,5,0,0:0:0:0:
282,195,4180,1,0,0:0:0:0:
160,124,4541,5,2,1:2:0:0:
282,195,5083,1,2,0:0:0:0:
160,265,5625,1,0,0:0:0:0:
200,193,5987,1,2,0:0:0:0:
200,193,7433,5,2,0:0:0:0:
200,193,8878,5,2,0:0:0:0:
135,158,9601,1,2,0:0:0:0:
69,198,10324,5,6,1:2:0:0:
69,269,10505,1,0,0:0:0:0:
131,234,10686,1,0,1:0:0:0:
272,269,10866,5,8,1:3:0:0:
283,340,11047,1,0,0:0:0:0:
216,314,11228,1,0,1:0:0:0:
365,160,11409,5,8,1:3:0:0:
382,228,11589,1,0,0:0:0:0:
434,179,11770,1,0,0:0:0:0:
240,115,11951,5,8,1:3:0:0:
251,186,12131,1,0,1:0:0:0:
184,160,12312,1,0,0:0:0:0:
346,145,12493,5,8,1:3:0:0:
276,349,12674,1,8,1:3:0:0:
103,278,12854,1,8,1:3:0:0:
177,90,13035,1,6,1:2:0:0:
230,218,13939,5,0,1:0:0:0:
306,195,14300,1,2,0:0:0:0:
368,245,14662,2,0,L|370:292,1,40,2|0,0:0|0:0,0:0:0:0:
440,198,15023,1,0,3:0:0:0:
294,96,15746,5,0,3:0:0:0:
228,141,16107,1,0,0:0:0:0:
156,104,16469,2,0,P|140:129|132:149,1,40,0|0,0:0|3:0,0:0:0:0:
122,29,16830,1,2,0:3:0:0:
50,70,17192,2,0,L|54:117,2,40,2|0|2,0:0|0:0|0:0,0:0:0:0:
3,177,17915,1,0,0:0:0:0:
63,228,18276,5,2,0:3:0:0:
131,187,18637,1,0,3:0:0:0:
193,237,18999,2,0,L|238:244,1,40,2|0,0:0|0:0,0:0:0:0:
297,200,19360,2,0,L|322:236,1,40,0|0,0:0|3:3,0:0:0:0:
398,236,19722,1,0,0:0:0:0:
324,328,20083,1,2,0:3:0:0:
246,305,20445,5,2,0:0:0:0:
246,305,20625,1,0,0:0:0:0:
246,305,20806,1,0,3:0:0:0:
181,353,21168,6,0,P|133:356|96:340,1,80,0|0,0:0|3:0,0:0:0:0:
59,273,21710,1,0,0:0:0:0:
119,216,21890,5,2,0:0:0:0:
69,153,22252,2,0,L|68:113,1,40,0|0,3:0|0:0,0:0:0:0:
135,63,22613,1,2,0:3:0:0:
158,72,22734,1,2,0:3:0:0:
179,85,22854,1,2,0:3:0:0:
200,106,22975,6,0,L|249:110,1,40,2|0,0:3|0:3,0:0:0:0:
301,59,23336,1,2,0:0:0:0:
366,104,23698,1,2,2:0:0:0:
377,142,23878,1,2,2:0:0:0:
368,181,24059,2,0,L|325:188,1,40,0|0,0:0|0:0,0:0:0:0:
279,251,24421,1,0,3:0:0:0:
150,172,24782,5,4,0:0:0:0:
105,325,25143,1,2,0:3:0:0:
105,325,25324,1,0,3:0:0:0:
244,299,25505,1,0,0:0:0:0:
65,219,25866,1,0,3:0:0:0:
183,357,26228,5,0,3:0:0:0:
240,197,26589,1,2,0:3:0:0:
240,197,26770,1,0,3:0:0:0:
336,239,26951,2,0,P|352:279|340:369,1,120.000004577637,0|0,0:0|3:0,0:0:0:0:
262,296,27674,5,2,3:0:0:0:
327,159,28035,1,2,0:3:0:0:
327,159,28216,1,0,3:0:0:0:
327,159,28396,2,0,P|265:169|202:133,1,120.000004577637,0|0,0:0|3:0,0:0:0:0:
194,118,28939,1,2,0:3:0:0:
181,84,29119,5,0,3:0:0:0:
74,204,29662,1,0,3:0:0:0:
98,230,29842,2,0,P|118:278|126:345,1,120.000004577637,0|0,0:0|3:0,0:0:0:0:
29,309,30565,5,2,3:0:0:0:
160,363,30927,1,2,0:3:0:0:
160,363,31107,1,0,3:0:0:0:
144,224,31288,1,0,0:0:0:0:
264,283,31649,1,0,3:0:0:0:
143,224,32011,6,0,P|139:279|158:356,1,120.000004577637,0|2,3:0|0:3,0:0:0:0:
240,277,32553,1,0,3:0:0:0:
348,360,32734,2,0,P|289:351|233:369,1,120.000004577637,0|0,0:0|3:0,0:0:0:0:
479,351,33457,5,4,1:2:0:0:
395,222,33637,1,2,0:0:0:0:
322,361,33818,5,0,1:0:0:0:
456,273,33999,1,2,0:0:0:0:
313,165,34180,5,8,3:0:0:0:
468,204,34360,1,8,3:0:0:0:
254,332,34541,1,8,3:0:0:0:
266,67,34722,1,8,3:0:0:0:
313,165,34903,5,0,0:0:0:0:
256,192,34993,12,2,36348,0:2:0:0:
255,193,37794,5,2,0:2:0:0:
255,193,39240,5,2,1:2:0:0:
255,193,40686,5,2,1:2:0:0:
136,160,41409,1,2,0:0:0:0:
235,89,42131,5,2,1:2:0:0:
261,91,42854,1,0,0:0:0:0:
325,158,43577,5,2,0:0:0:0:
299,160,44300,1,2,0:0:0:0:
219,220,45023,5,2,0:0:0:0:
279,136,46469,5,0,0:0:0:0:
275,133,47907,5,6,3:2:0:0:
272,152,47996,1,0,3:0:0:0:
269,172,48086,1,0,3:0:0:0:
267,192,48176,1,0,3:0:0:0:
264,212,48266,1,2,3:0:0:0:
261,232,48356,1,0,3:0:0:0:
257,252,48445,5,2,0:2:0:0:
280,265,48535,1,0,0:0:0:0:
305,272,48625,1,2,3:0:0:0:
332,272,48715,1,0,3:0:0:0:
358,266,48805,1,0,3:0:0:0:
381,254,48895,1,0,3:0:0:0:
401,236,48984,5,2,0:2:0:0:
444,259,49074,1,0,0:0:0:0:
459,305,49164,1,0,0:0:0:0:
439,349,49254,1,0,0:0:0:0:
392,368,49344,5,2,3:2:0:0:
365,369,49433,1,0,3:0:0:0:
338,370,49523,1,0,3:0:0:0:
311,371,49613,1,0,3:0:0:0:
284,372,49703,1,0,3:0:0:0:
257,374,49793,1,0,3:0:0:0:
230,375,49883,1,0,3:0:0:0:
203,376,49972,1,0,3:0:0:0:
176,377,50062,5,2,0:2:0:0:
168,330,50152,1,0,0:0:0:0:
160,281,50242,1,0,0:0:0:0:
152,232,50332,1,0,0:0:0:0:
143,182,50421,5,2,0:2:0:0:
95,174,50511,1,0,0:0:0:0:
50,194,50601,1,0,0:0:0:0:
23,236,50691,1,0,0:0:0:0:
24,285,50781,5,6,1:2:0:0:
46,277,50871,1,0,3:0:0:0:
70,271,50960,1,0,3:0:0:0:
93,268,51050,1,0,3:0:0:0:
117,268,51140,1,2,3:0:0:0:
141,272,51230,1,0,3:0:0:0:
164,279,51320,1,2,0:2:0:0:
187,286,51409,1,0,0:0:0:0:
210,292,51499,1,2,3:0:0:0:
234,294,51589,1,0,3:0:0:0:
258,291,51679,1,0,3:0:0:0:
280,283,51769,1,0,3:0:0:0:
302,272,51859,5,2,0:2:0:0:
337,318,51948,1,0,0:0:0:0:
395,322,52038,1,0,3:0:0:0:
436,281,52128,1,0,0:0:0:0:
432,223,52218,5,2,3:2:0:0:
403,229,52308,1,0,3:0:0:0:
374,223,52398,1,0,3:0:0:0:
350,206,52487,1,0,3:0:0:0:
314,205,52577,5,2,1:2:0:0:
302,176,52667,1,0,1:0:0:0:
303,147,52757,1,0,1:0:0:0:
316,120,52847,1,0,1:0:0:0:
301,80,52936,5,2,3:0:0:0:
328,68,53026,1,2,3:0:0:0:
358,69,53116,1,2,3:0:0:0:
384,82,53206,1,2,3:0:0:0:
420,73,53296,5,8,3:0:0:0:
434,99,53386,1,0,3:0:0:0:
438,128,53475,1,4,3:0:0:0:
433,157,53565,1,0,3:0:0:0:
417,183,53655,6,0,L|331:187,5,47.9999985351563,4|0|0|0|0|0,0:0|0:0|0:0|0:0|3:0|0:0,0:0:0:0:
275,255,54200,2,0,L|189:259,5,47.9999985351563,4|0|0|0|0|0,0:0|0:0|0:0|0:0|3:0|0:0,0:0:0:0:
146,169,54745,5,4,1:2:0:0:
146,161,54836,1,0,0:0:0:0:
147,153,54927,1,0,0:0:0:0:
148,145,55018,1,0,0:0:0:0:
149,137,55109,1,0,3:0:0:0:
150,129,55200,1,0,0:0:0:0:
153,118,55291,5,4,1:2:0:0:
168,113,55382,1,0,0:0:0:0:
183,109,55473,1,0,0:0:0:0:
199,104,55564,1,0,0:0:0:0:
214,100,55655,1,0,3:0:0:0:
229,96,55745,1,0,0:0:0:0:
247,90,55836,5,4,1:2:0:0:
274,129,55927,1,0,0:0:0:0:
281,176,56018,1,0,3:0:0:0:
268,221,56109,1,0,0:0:0:0:
243,251,56200,5,4,1:2:0:0:
284,227,56291,1,0,0:0:0:0:
331,227,56382,1,0,3:0:0:0:
372,252,56473,1,0,0:0:0:0:
389,295,56564,5,2,0:0:0:0:
434,266,56654,1,0,0:0:0:0:
460,220,56744,1,2,0:3:0:0:
462,166,56835,1,0,0:0:0:0:
439,118,56925,1,2,0:3:0:0:
395,87,57015,1,0,0:0:0:0:
342,80,57106,1,2,0:0:0:0:
292,98,57196,1,0,0:0:0:0:
257,138,57286,5,2,0:3:0:0:
288,137,57377,1,0,0:0:0:0:
316,152,57467,1,2,0:3:0:0:
332,179,57557,1,0,0:0:0:0:
332,211,57648,1,2,0:0:0:0:
316,238,57738,1,0,0:0:0:0:
288,252,57829,2,0,L|235:257,1,47.9999985351563,2|0,0:3|0:0,0:0:0:0:
108,204,58009,6,0,L|99:152,2,40.000001525879,4|0|0,0:0|0:0|0:0,0:0:0:0:
39,264,58371,2,0,L|30:316,2,40.000001525879,0|0|0,0:0|0:0|0:0,0:0:0:0:
131,284,58732,5,4,3:0:0:0:
174,297,58853,1,4,3:0:0:0:
220,293,58973,1,4,3:0:0:0:
263,277,59094,5,4,3:0:0:0:
307,261,59214,1,4,3:0:0:0:
353,260,59335,1,4,3:0:0:0:
398,272,59455,5,4,1:1:0:0:
336,358,59636,1,8,3:0:0:0:
423,153,59997,1,2,0:3:0:0:
263,178,60178,5,8,1:3:0:0:
394,128,60359,1,0,0:0:0:0:
260,9,60539,1,2,0:2:0:0:
398,31,60720,1,0,0:0:0:0:
154,89,60901,5,4,1:3:0:0:
268,208,61082,1,8,1:3:0:0:
15,268,61443,1,0,3:0:0:0:
89,187,61624,6,0,B|145:184|145:184|214:211,1,88.000002685547,8|0,1:3|0:0,0:0:0:0:
269,320,61985,1,0,3:0:0:0:
142,349,62166,1,0,3:0:0:0:
293,194,62347,6,0,P|308:143|298:110,1,88.000002685547,4|0,1:2|0:0,0:0:0:0:
164,81,62708,2,0,P|149:132|159:165,1,88.000002685547,2|0,0:2|3:0,0:0:0:0:
305,215,63070,1,0,1:0:0:0:
272,325,63250,1,0,0:0:0:0:
203,244,63431,1,0,3:3:0:0:
374,293,63612,1,0,3:0:0:0:
374,293,63702,1,0,3:0:0:0:
374,293,63792,5,4,1:3:0:0:
397,152,63973,1,8,1:3:0:0:
184,79,64335,1,4,1:3:0:0:
227,171,64515,2,0,L|219:239,1,44.0000013427735,4|0,1:3|0:0,0:0:0:0:
313,106,64696,2,0,L|300:56,1,44.0000013427735,0|2,1:3|1:3,0:0:0:0:
161,101,64877,1,4,1:3:0:0:
130,113,64967,1,0,0:2:0:0:
97,115,65057,1,2,1:2:0:0:
66,106,65148,1,2,0:2:0:0:
39,86,65238,5,4,1:3:0:0:
83,216,65419,1,8,3:3:0:0:
270,102,65780,1,2,0:0:0:0:
330,205,65961,2,0,P|336:256|312:299,1,88.000002685547,2|2,1:3|0:0,0:0:0:0:
213,195,66323,2,0,P|205:152|221:111,1,88.000002685547,2|2,1:2|0:3,0:0:0:0:
372,53,66684,5,2,1:3:0:0:
420,216,66865,1,2,0:0:0:0:
486,85,67045,1,2,1:2:0:0:
323,133,67226,1,2,0:3:0:0:
448,249,67407,5,2,1:3:0:0:
302,155,67588,1,2,0:3:0:0:
254,342,67768,5,4,3:0:0:0:
276,173,67949,1,4,3:0:0:0:
122,231,68130,5,4,1:2:0:0:
238,256,68310,1,0,0:0:0:0:
211,142,68491,1,0,0:0:0:0:
389,47,68672,5,4,1:2:0:0:
275,81,68853,1,0,0:0:0:0:
354,167,69033,1,0,0:0:0:0:
155,27,69214,5,4,1:2:0:0:
95,134,69395,1,0,0:0:0:0:
224,276,69576,5,8,1:3:0:0:
199,275,69666,1,4,1:3:0:0:
174,276,69756,1,4,1:3:0:0:
295,345,69937,1,8,1:3:0:0:
320,346,70027,1,4,1:3:0:0:
345,345,70118,1,4,1:3:0:0:
465,266,70298,5,4,1:3:0:0:
440,265,70387,1,4,1:3:0:0:
415,266,70476,1,4,1:3:0:0:
329,108,70655,2,0,P|309:157|297:230,1,95.9999970703126,8|0,1:3|0:0,0:0:0:0:
448,176,71012,5,0,1:2:0:0:
412,61,71192,1,0,3:0:0:0:
334,142,71373,1,2,1:2:0:0:
298,27,71554,1,0,3:0:0:0:
165,201,71734,5,2,1:2:0:0:
238,109,71915,1,0,3:0:0:0:
288,255,72096,1,2,1:2:0:0:
279,238,72186,1,0,1:0:0:0:
274,222,72277,1,0,3:0:0:0:
400,290,72457,5,2,1:2:0:0:
289,358,72638,1,0,3:0:0:0:
163,290,72819,1,2,1:2:0:0:
274,222,72999,1,0,3:0:0:0:
164,101,73180,5,2,1:2:0:0:
150,254,73361,1,0,3:0:0:0:
291,56,73542,5,2,1:2:0:0:
305,209,73722,1,0,1:0:0:0:
305,209,73813,1,0,1:0:0:0:
305,209,73903,5,2,1:2:0:0:
390,70,74084,1,0,0:0:0:0:
217,160,74265,1,2,1:2:0:0:
407,214,74445,2,0,P|407:261|395:308,1,95.9999970703126,0|2,0:0|1:2,0:0:0:0:
323,170,74807,1,0,0:0:0:0:
215,272,74987,2,0,P|147:287|88:270,1,95.9999970703126,2|0,1:2|0:0,0:0:0:0:
74,120,75349,5,2,1:2:0:0:
153,191,75530,1,0,0:0:0:0:
168,94,75710,1,2,1:2:0:0:
247,165,75891,1,0,0:0:0:0:
245,16,76072,5,2,1:2:0:0:
381,72,76252,1,0,0:0:0:0:
262,128,76433,1,8,1:3:0:0:
253,150,76524,1,8,1:3:0:0:
251,174,76614,1,0,1:3:0:0:
254,197,76704,1,8,1:3:0:0:
264,219,76795,5,4,1:2:0:0:
361,285,76975,2,0,L|454:243,1,95.9999970703126,0|0,3:0|3:0,0:0:0:0:
289,186,77337,5,4,1:2:0:0:
159,260,77518,2,0,P|142:322|167:370,1,95.9999970703126,0|0,3:0|3:0,0:0:0:0:
288,148,77879,5,4,1:2:0:0:
253,306,78060,1,0,3:0:0:0:
175,164,78240,1,0,3:0:0:0:
387,264,78421,5,8,1:3:0:0:
387,264,78512,1,0,1:3:0:0:
451,137,78692,1,0,3:0:0:0:
451,137,78783,1,4,1:3:0:0:
364,29,78963,2,0,P|298:48|256:46,1,95.9999970703126,0|0,1:0|0:0,0:0:0:0:
143,34,79325,1,8,1:3:0:0:
132,68,79415,1,8,1:3:0:0:
130,104,79505,1,8,1:3:0:0:
136,139,79596,1,8,1:3:0:0:
149,172,79686,6,0,B|229:178|229:178|280:136|327:156,1,180.000006866455,4|0,1:0|0:0,0:0:0:0:
424,352,80409,5,8,1:3:0:0:
392,364,80499,1,2,1:2:0:0:
358,365,80590,1,2,1:2:0:0:
326,352,80680,1,8,1:3:0:0:
301,329,80771,1,2,1:2:0:0:
286,298,80861,1,2,1:2:0:0:
284,264,80951,1,4,1:3:0:0:
294,232,81042,5,4,3:3:0:0:
305,106,82578,5,4,1:2:0:0:
256,165,82758,1,4,1:3:0:0:
186,133,82939,1,4,1:3:0:0:
370,228,83120,5,8,1:3:0:0:
445,240,83300,1,4,1:3:0:0:
452,317,83481,1,4,1:3:0:0:
219,281,83662,5,8,1:3:0:0:
193,210,83842,1,4,1:3:0:0:
256,165,84023,1,4,1:3:0:0:
445,240,84234,6,0,P|403:176|440:109,1,160,4|0,1:2|1:0,0:0:0:0:
270,313,84776,5,4,0:3:0:0:
68,256,84956,1,12,0:3:0:0:
113,50,85137,1,12,1:3:0:0:
315,107,85319,1,6,1:2:0:0:
