osu file format v14

[General]
AudioFilename: audio.mp3
AudioLeadIn: 0
PreviewTime: 71637
Countdown: 0
SampleSet: Soft
StackLeniency: 0.7
Mode: 0
LetterboxInBreaks: 0
WidescreenStoryboard: 1

[Editor]
Bookmarks: 14733,37866,60998,72565,118820,141952,188217,211350,234482
DistanceSpacing: 1.1
BeatDivisor: 8
GridSize: 32
TimelineZoom: 1.5

[Metadata]
Title:Forever Lost
TitleUnicode:Forever Lost
Artist:MYTH & ROID
ArtistUnicode:MYTH & ROID
Creator:AirinCat
Version:Normal
Source:メイドインアビス 深き魂の黎明
Tags:and android Gekijouban Made in Abyss : Fukaki Tamashii no Reimei Dawn of the Deep Soul anime movie third three ending theme 劇場版 english pop kevin penkin kihow Tom-H@ck hack hotaru museum the best of
BeatmapID:3644651
BeatmapSetID:1760782

[Difficulty]
HPDrainRate:3
CircleSize:3.8
OverallDifficulty:4
ApproachRate:5.4
SliderMultiplier:1.4
SliderTickRate:1

[Events]
//Background and Video events
0,0,"test.jpg",0,0
//Break Periods
2,119011,122732
2,165275,187069
//Storyboard Layer 0 (Background)
//Storyboard Layer 1 (Fail)
//Storyboard Layer 2 (Pass)
//Storyboard Layer 3 (Foreground)
//Storyboard Layer 4 (Overlay)
//Storyboard Sound Samples

[TimingPoints]
257,722.89156626506,4,2,1,30,1,0
37485,-90.9090909090909,4,2,1,30,0,0
60979,-95.2380952380952,4,2,1,30,0,0
71100,-90.9090909090909,4,2,1,40,0,0
71823,-83.3333333333333,4,2,1,50,0,0
72546,-83.3333333333333,4,2,1,60,0,0
118811,-83.3333333333333,4,2,2,40,0,0
123871,-111.111111111111,4,2,1,30,0,0
126040,-100,4,2,1,30,0,0
129654,-125,4,2,1,30,0,0
130377,-90.9090909090909,4,2,1,40,0,0
132546,-90.9090909090909,4,2,1,40,0,0
133269,-90.9090909090909,4,2,1,40,0,0
135437,-90.9090909090909,4,2,1,40,0,0
136160,-90.9090909090909,4,2,1,40,0,0
138329,-90.9090909090909,4,2,1,40,0,0
138961,-90.9090909090909,4,2,1,40,0,0
141943,-90.9090909090909,4,2,1,50,0,0
164263,-100,4,2,1,5,0,0
164353,-100,4,2,1,50,0,0
165076,-100,4,2,44,50,0,0
188208,-76.9230769230769,4,2,1,70,0,1
210799,-83.3333333333333,4,2,1,60,0,0
211341,-83.3333333333333,4,2,1,60,0,0
222907,-83.3333333333333,4,2,1,50,0,0

[Colours]
Combo1 : 91,181,138
Combo2 : 180,207,180

[HitObjects]
13,293,37485,5,0,0:2:0:0:
50,216,37847,2,0,P|45:175|34:138,1,77.0000023498536,2|0,0:2|0:2,0:2:0:0:
56,103,38389,2,0,P|113:94|183:75,1,115.50000352478,2|0,0:2|0:2,0:2:0:0:
252,90,39293,2,0,P|266:145|274:203,1,115.50000352478,2|2,0:2|0:2,0:2:0:0:
245,326,40377,1,2,0:2:0:0:
317,369,40738,6,0,P|356:358|391:350,1,77.0000023498536,2|0,0:2|0:2,0:0:0:0:
428,328,41281,2,0,P|437:272|408:223,1,115.50000352478,2|0,0:2|0:2,0:2:0:0:
417,139,42184,2,0,P|456:125|504:119,1,77.0000023498536,2|2,0:2|0:2,0:0:0:0:
510,36,42907,1,0,0:2:0:0:
432,2,43269,1,2,0:2:0:0:
362,50,43630,6,0,P|331:60|283:71,1,77.0000023498536,2|0,0:2|0:2,0:2:0:0:
259,101,44172,2,0,P|199:94|133:68,1,115.50000352478,2|0,0:2|0:2,0:2:0:0:
64,94,45076,2,0,P|48:141|36:211,1,115.50000352478,2|2,0:2|0:2,0:0:0:0:
87,321,46160,1,2,0:2:0:0:
162,281,46522,6,0,B|242:288|227:310|313:325,1,154.000004699707,2|0,0:2|0:2,0:2:0:0:
376,273,47606,1,2,0:2:0:0:
335,198,47967,2,0,P|341:160|350:122,1,77.0000023498536,2|0,0:2|0:0,0:0:0:0:
430,94,48690,1,2,0:2:0:0:
508,126,49052,1,2,0:2:0:0:
506,210,49413,6,0,P|498:242|494:299,1,77.0000023498536,2|0,3:2|0:2,0:0:0:0:
465,317,49955,2,0,P|406:317|348:302,1,115.50000352478,2|0,0:2|0:2,0:2:0:0:
276,263,50859,2,0,P|218:268|164:287,1,115.50000352478,2|2,0:2|0:2,0:2:0:0:
49,233,51943,1,2,0:2:0:0:
97,163,52305,2,0,P|101:88|45:39,1,154.000004699707,2|0,0:2|0:2,0:2:0:0:
215,40,53750,2,0,P|254:33|295:19,1,77.0000023498536,2|2,0:2|0:2,0:0:0:0:
369,48,54473,1,2,0:2:0:0:
345,129,54835,1,2,0:2:0:0:
416,174,55196,6,0,P|435:248|446:324,1,154.000004699707,2|0,3:2|0:0,0:0:0:0:
364,348,56281,2,0,P|354:308|351:272,1,77.0000023498536,2|0,0:2|0:2,0:2:0:0:
202,190,57365,2,0,P|154:195|114:210,1,77.0000023498536,2|2,0:2|0:2,0:2:0:0:
71,268,58088,1,2,0:2:0:0:
256,192,58449,12,2,60979,0:2:0:0:
70,289,61702,6,0,L|32:298,2,36.749998878479,2|2|2,0:2|0:2|0:2,0:2:0:0:
104,215,62425,2,0,P|96:178|86:137,1,73.4999977569581,2|0,0:2|0:2,0:2:0:0:
127,72,63148,2,0,L|116:29,2,36.749998878479,2|2|2,0:2|0:2|0:2,0:2:0:0:
202,100,63871,2,0,L|280:84,1,73.4999977569581,2|0,0:2|0:2,0:2:0:0:
342,126,64594,2,0,L|420:141,1,73.4999977569581,2|0,0:2|0:2,0:2:0:0:
483,99,65317,1,2,0:2:0:0:
499,259,66040,2,0,L|490:304,2,36.749998878479,2|2|2,0:2|0:2|0:2,0:2:0:0:
418,259,66763,6,0,L|341:243,1,73.4999977569581,2|0,0:2|0:2,0:2:0:0:
292,183,67485,2,0,L|302:136,2,36.749998878479,2|2|2,0:2|0:2|0:2,0:0:0:0:
217,214,68208,2,0,L|203:289,1,73.4999977569581,2|0,0:2|0:2,0:2:0:0:
145,342,68931,1,2,0:2:0:0:
64,335,69293,1,2,0:2:0:0:
18,268,69654,2,0,L|37:189,1,73.4999977569581,2|0,0:2|0:2,0:2:0:0:
34,115,70377,2,0,L|21:60,2,36.749998878479,2|2|2,0:2|0:2|0:2,0:0:0:0:
113,143,71100,5,2,0:2:0:0:
189,107,71461,1,0,0:2:0:0:
270,150,71823,1,2,0:2:0:0:
356,118,72184,1,2,0:2:0:0:
441,154,72546,6,0,P|487:225|460:310,1,167.999994873047,4|8,1:1|3:2,0:2:0:0:
396,359,73630,2,0,L|355:351,1,41.9999987182618,0|0,3:2|1:2,0:2:0:0:
315,326,73991,2,0,P|275:333|233:345,1,83.9999974365235,2|0,2:2|3:2,0:2:0:0:
193,332,74534,1,0,3:2:0:0:
193,332,74714,2,0,P|179:290|175:245,1,83.9999974365235,8|0,0:1|1:2,0:2:0:0:
239,183,75437,5,2,1:2:0:0:
322,223,75799,1,2,1:2:0:0:
385,156,76160,1,10,0:2:0:0:
355,68,76522,2,0,P|328:61|305:54,1,41.9999987182618,2|0,3:2|1:2,0:2:0:0:
279,26,76883,2,0,P|223:40|146:53,1,125.999996154785,2|0,2:2|3:2,0:2:0:0:
117,26,77606,1,10,0:2:0:0:
31,60,77967,1,2,1:3:0:0:
14,150,78329,6,0,P|28:189|40:229,1,83.9999974365235,2|2,1:2|3:2,0:2:0:0:
32,321,79052,1,10,0:2:0:0:
110,369,79413,2,0,L|157:356,1,41.9999987182618,2|0,3:2|1:2,0:2:0:0:
188,330,79775,2,0,P|230:333|282:350,1,83.9999974365235,2|0,2:2|3:2,0:2:0:0:
317,333,80317,1,0,3:2:0:0:
317,333,80497,1,8,0:1:0:0:
380,265,80859,1,0,1:1:0:0:
323,191,81220,6,0,P|330:142|345:105,1,83.9999974365235,2|2,1:2|1:2,0:2:0:0:
425,67,81943,1,10,0:2:0:0:
489,133,82305,2,0,P|484:156|479:185,1,41.9999987182618,2|0,3:2|1:2,0:2:0:0:
444,202,82666,2,0,P|452:240|461:298,1,83.9999974365235,2|0,0:2|3:2,0:2:0:0:
493,323,83208,1,0,3:2:0:0:
493,323,83389,1,10,0:2:0:0:
417,376,83750,1,2,1:2:0:0:
332,338,84112,6,0,P|248:350|146:386,1,167.999994873047,2|8,1:2|0:2,0:2:0:0:
78,355,85196,2,0,L|63:314,1,41.9999987182618,0|0,3:2|1:2,0:2:0:0:
24,290,85558,2,0,L|37:207,1,83.9999974365235,2|0,2:2|3:2,0:2:0:0:
74,178,86100,1,0,3:2:0:0:
74,178,86281,2,0,L|163:191,1,83.9999974365235,8|0,0:1|1:2,0:2:0:0:
217,260,87003,5,2,1:2:0:0:
294,310,87365,1,2,1:2:0:0:
384,291,87726,1,10,0:2:0:0:
446,222,88088,2,0,L|434:176,1,41.9999987182618,2|0,3:2|1:2,0:2:0:0:
453,138,88449,2,0,B|363:150|382:187|296:194,1,167.999994873047,2|10,2:2|0:2,0:2:0:0:
222,138,89534,1,2,1:2:0:0:
174,217,89895,6,0,P|182:252|194:302,1,83.9999974365235,2|2,1:2|3:2,0:2:0:0:
171,339,90437,2,0,P|144:344|117:352,1,41.9999987182618,2|8,3:2|0:2,0:2:0:0:
87,343,90799,1,2,3:2:0:0:
87,343,90979,1,2,3:2:0:0:
15,284,91341,2,0,P|7:244|-2:189,1,83.9999974365235,2|0,2:2|3:2,0:2:0:0:
40,118,92064,1,8,0:1:0:0:
130,137,92425,1,0,1:2:0:0:
178,58,92787,6,0,P|223:45|268:34,1,83.9999974365235,2|2,1:2|1:2,0:2:0:0:
301,53,93329,2,0,L|315:107,1,41.9999987182618,2|8,3:2|0:2,0:2:0:0:
352,125,93690,1,0,3:2:0:0:
352,125,93871,2,0,L|343:169,1,41.9999987182618,2|0,3:2|1:2,0:2:0:0:
366,206,94232,2,0,L|459:226,1,83.9999974365235,2|0,2:2|3:2,0:0:0:0:
480,310,94955,1,10,0:2:0:0:
418,378,95317,1,2,1:2:0:0:
337,332,95678,6,0,P|247:327|186:377,1,167.999994873047,6|8,1:2|0:2,0:2:0:0:
101,343,96763,2,0,L|87:290,1,41.9999987182618,0|0,3:2|1:2,0:2:0:0:
51,277,97124,2,0,L|66:190,1,83.9999974365235,2|0,2:2|3:2,0:2:0:0:
107,171,97666,1,0,3:2:0:0:
107,171,97847,2,0,P|97:132|85:82,1,83.9999974365235,8|0,0:1|1:2,0:2:0:0:
141,14,98570,5,2,1:2:0:0:
233,14,98931,1,2,1:2:0:0:
280,93,99293,1,10,0:2:0:0:
234,173,99654,2,0,P|216:178|190:189,1,41.9999987182618,2|0,3:2|1:2,0:2:0:0:
148,179,100016,2,0,P|106:257|148:327,1,167.999994873047,2|8,2:2|0:2,0:2:0:0:
221,365,101100,2,0,L|271:352,1,41.9999987182618,2|2,1:3|3:3,0:0:0:0:
296,323,101461,6,0,L|384:334,1,83.9999974365235,2|2,1:2|3:2,0:2:0:0:
454,278,102184,1,10,0:2:0:0:
418,192,102546,2,0,L|427:149,1,41.9999987182618,2|0,3:2|1:2,0:2:0:0:
410,107,102907,2,0,L|320:87,1,83.9999974365235,2|0,2:2|3:2,0:2:0:0:
238,111,103630,1,8,0:1:0:0:
169,48,103991,1,0,1:2:0:0:
79,70,104353,6,0,L|61:156,1,83.9999974365235,2|2,1:2|1:2,0:2:0:0:
7,227,105076,1,10,0:2:0:0:
63,299,105437,2,0,L|111:309,1,41.9999987182618,2|0,3:2|1:2,0:2:0:0:
146,327,105799,2,0,L|165:233,1,83.9999974365235,2|0,0:2|3:2,0:2:0:0:
234,186,106522,1,8,0:1:0:0:
325,196,106883,1,2,1:2:0:0:
392,259,107244,6,0,P|465:224|475:132,1,167.999994873047,2|10,1:2|0:2,0:2:0:0:
436,63,108329,2,0,L|392:74,1,41.9999987182618,0|0,3:2|1:2,0:2:0:0:
363,107,108690,1,2,0:2:0:0:
281,62,109052,1,2,3:2:0:0:
226,136,109413,2,0,P|230:176|238:226,1,83.9999974365235,8|0,0:1|1:2,0:2:0:0:
212,308,110136,5,2,1:2:0:0:
123,335,110497,1,2,1:2:0:0:
37,300,110859,1,10,0:2:0:0:
3,213,111220,2,0,L|17:166,1,41.9999987182618,2|0,3:2|1:2,0:2:0:0:
38,132,111582,2,0,P|118:157|191:107,1,167.999994873047,2|8,0:2|0:2,0:2:0:0:
247,46,112666,1,2,1:3:0:0:
337,66,113028,6,0,P|346:106|357:151,1,83.9999974365235,2|0,1:2|3:2,0:2:0:0:
394,173,113570,2,0,L|434:163,1,41.9999987182618,2|8,3:2|0:2,0:2:0:0:
454,253,114112,2,0,L|413:262,1,41.9999987182618,2|0,3:2|1:2,0:2:0:0:
396,305,114473,2,0,P|351:311|303:326,1,83.9999974365235,2|0,0:2|0:2,0:2:0:0:
285,359,115016,1,2,3:2:0:0:
285,359,115196,1,8,0:1:0:0:
209,305,115558,1,2,1:2:0:0:
242,219,115919,6,0,P|233:134|211:47,1,167.999994873047,2|8,1:3|0:2,0:2:0:0:
132,9,117003,2,0,P|103:14|79:21,1,41.9999987182618,0|0,3:2|1:2,0:0:0:0:
59,52,117365,2,0,P|62:101|72:153,1,83.9999974365235,2|2,0:3|3:3,0:0:0:0:
108,218,118088,1,8,0:2:0:0:
44,285,118449,1,2,1:2:0:0:
101,357,118811,1,4,0:2:0:0:
22,201,123871,5,2,0:2:0:0:
31,339,124594,2,0,P|105:284|197:297,1,188.999994232178,2|0,0:2|0:0,0:2:0:0:
267,326,126040,2,0,B|263:259|314:216|318:251|358:203|354:139,1,210,2|0,0:2|0:0,0:2:0:0:
321,75,127485,2,0,L|233:53,1,70,2|0,0:2|0:2,0:2:0:0:
184,92,128208,2,0,L|166:167,1,70,0|0,0:2|0:2,0:2:0:0:
204,227,128931,2,0,L|272:242,1,70,0|0,0:2|0:2,0:2:0:0:
338,198,129654,1,2,0:2:0:0:
259,348,130377,6,0,P|220:339|181:330,1,77.0000023498536,0|0,3:2|3:2,0:2:0:0:
100,347,131100,2,0,L|88:388,2,38.5000011749268,8|0|0,0:2|3:2|3:2,0:2:0:0:
39,287,131823,1,2,3:2:0:0:
52,203,132184,1,0,3:3:0:0:
129,169,132546,2,0,P|190:173|247:190,1,115.50000352478,8|0,0:2|0:2,0:2:0:0:
280,171,133269,6,0,P|285:130|291:95,1,77.0000023498536,0|0,3:2|3:2,0:0:0:0:
323,67,133811,1,0,3:2:0:0:
323,67,133991,2,0,P|365:71|403:75,1,77.0000023498536,8|0,0:2|3:2,0:0:0:0:
481,51,134714,1,0,3:2:0:0:
509,130,135076,1,0,3:2:0:0:
444,185,135437,2,0,P|439:222|435:265,1,77.0000023498536,8|2,0:2|0:2,0:2:0:0:
375,321,136160,6,0,L|295:308,1,77.0000023498536,2|0,3:2|3:2,0:0:0:0:
265,292,136702,1,0,3:2:0:0:
265,292,136883,2,0,L|189:308,1,77.0000023498536,8|0,0:2|3:2,0:0:0:0:
114,268,137606,2,0,P|91:273|70:280,2,38.5000011749268,0|0|0,3:2|3:2|3:2,0:0:0:0:
166,200,138329,2,0,P|163:142|147:87,1,115.50000352478,8|0,0:2|0:2,0:2:0:0:
114,60,139052,6,0,P|75:64|38:74,1,77.0000023498536,0|0,3:2|3:2,0:0:0:0:
20,114,139594,1,0,3:2:0:0:
20,114,139775,2,0,P|28:147|37:194,1,77.0000023498536,8|0,0:2|3:2,0:0:0:0:
70,266,140497,2,0,P|66:281|62:314,2,38.5000011749268,0|0|0,3:2|3:2|3:2,0:2:0:0:
132,208,141220,1,10,0:2:0:0:
198,260,141582,1,2,0:2:0:0:
264,207,141943,6,0,P|272:166|278:132,1,77.0000023498536,6|2,1:3|0:2,0:2:0:0:
236,57,142666,1,10,0:2:0:0:
308,12,143028,2,0,L|362:23,1,38.5000011749268,2|0,3:2|1:2,0:2:0:0:
376,48,143389,1,2,1:2:0:0:
453,13,143750,1,2,0:2:0:0:
494,86,144112,2,0,L|479:166,1,77.0000023498536,10|2,0:2|1:2,0:2:0:0:
418,219,144835,5,2,1:2:0:0:
451,296,145196,1,2,1:2:0:0:
383,346,145558,1,10,0:2:0:0:
302,321,145919,2,0,P|284:325|261:333,1,38.5000011749268,2|0,0:2|1:3,0:0:0:0:
223,320,146281,2,0,P|213:286|200:242,1,77.0000023498536,2|2,0:2|0:2,0:2:0:0:
245,174,147003,2,0,L|253:130,1,38.5000011749268,10|0,0:2|0:2,0:2:0:0:
280,104,147365,2,0,L|264:44,1,38.5000011749268,2|0,0:2|0:2,0:2:0:0:
240,36,147726,6,0,L|165:56,1,77.0000023498536,2|2,1:2|0:2,0:0:0:0:
101,111,148449,2,0,L|121:197,1,77.0000023498536,10|2,0:2|0:2,0:0:0:0:
103,227,148991,1,0,1:2:0:0:
103,227,149172,2,0,L|24:247,1,77.0000023498536,2|2,1:2|0:2,0:0:0:0:
59,324,149895,2,0,L|105:315,1,38.5000011749268,10|0,0:2|0:2,0:0:0:0:
131,340,150256,1,2,1:2:0:0:
210,311,150618,6,0,L|285:326,1,77.0000023498536,2|2,1:2|1:2,0:0:0:0:
366,302,151341,2,0,L|382:226,1,77.0000023498536,10|2,0:2|0:2,0:0:0:0:
414,199,151883,1,0,1:2:0:0:
414,199,152064,2,0,L|467:209,1,38.5000011749268,2|0,0:2|0:0,0:0:0:0:
487,183,152425,2,0,L|496:139,1,38.5000011749268,2|0,0:2|0:0,0:0:0:0:
473,108,152787,1,10,0:0:0:0:
504,29,153148,1,2,1:2:0:0:
422,6,153510,6,0,L|334:23,1,77.0000023498536,6|2,1:3|0:2,0:2:0:0:
278,70,154232,1,10,0:2:0:0:
258,153,154594,2,0,L|270:200,1,38.5000011749268,2|0,3:2|1:3,0:2:0:0:
253,230,154955,2,0,L|179:251,1,77.0000023498536,2|2,1:2|0:2,0:2:0:0:
132,321,155678,2,0,L|48:305,1,77.0000023498536,10|2,0:2|1:2,0:2:0:0:
25,285,156220,1,0,1:2:0:0:
25,285,156401,5,2,1:2:0:0:
65,210,156763,1,2,1:2:0:0:
18,139,157124,1,10,0:2:0:0:
66,68,157485,2,0,L|110:60,1,38.5000011749268,2|0,0:2|1:2,0:2:0:0:
133,30,157847,2,0,L|212:43,1,77.0000023498536,2|2,0:2|0:2,0:0:0:0:
288,73,158570,2,0,L|331:63,2,38.5000011749268,10|0|2,0:2|0:2|1:2,0:0:0:0:
241,143,159293,6,0,L|258:219,1,77.0000023498536,2|2,1:2|0:2,0:0:0:0:
237,256,159835,1,0,1:2:0:0:
237,256,160016,1,10,0:2:0:0:
306,303,160377,2,0,P|328:297|351:290,1,38.5000011749268,2|0,3:2|1:2,0:2:0:0:
377,317,160738,2,0,P|414:303|453:294,1,77.0000023498536,2|2,0:2|0:2,0:2:0:0:
476,213,161461,1,10,0:2:0:0:
411,157,161823,1,2,1:2:0:0:
450,82,162184,6,0,P|439:44|431:7,1,77.0000023498536,2|2,1:2|1:2,0:0:0:0:
351,35,162907,2,0,P|310:45|274:53,1,77.0000023498536,10|2,0:2|0:0,0:0:0:0:
241,38,163449,1,0,1:0:0:0:
241,38,163630,1,2,1:2:0:0:
188,104,163991,1,2,0:2:0:0:
244,164,164353,6,0,P|257:244|268:322,1,140,4|6,0:3|0:2,0:0:0:0:
116,65,188208,6,0,P|37:114|39:203,1,181.999991668702,4|8,1:1|0:2,0:2:0:0:
94,278,189293,2,0,L|141:289,1,45.4999979171754,0|0,3:2|1:2,0:2:0:0:
174,323,189654,2,0,P|217:311|262:301,1,90.9999958343508,2|0,0:2|3:2,0:2:0:0:
302,271,190196,1,0,3:2:0:0:
302,271,190377,2,0,P|347:274|394:286,1,90.9999958343508,8|0,0:1|3:2,0:2:0:0:
487,256,191100,5,2,1:2:0:0:
498,156,191461,1,2,1:2:0:0:
421,91,191823,1,10,0:2:0:0:
321,99,192184,2,0,P|295:105|259:117,1,45.4999979171754,2|0,0:2|1:2,0:2:0:0:
252,154,192546,2,0,B|188:135|188:135|136:187,1,136.499993751526,2|2,0:3|0:3,0:3:0:0:
121,232,193269,1,8,0:1:0:0:
26,200,193630,1,0,1:2:0:0:
10,101,193991,6,0,P|61:89|105:77,1,90.9999958343508,2|2,1:2|3:2,0:2:0:0:
166,5,194714,1,10,0:2:0:0:
263,27,195076,2,0,P|272:47|278:76,1,45.4999979171754,2|0,3:2|1:2,0:2:0:0:
312,105,195437,2,0,P|301:141|291:204,1,90.9999958343508,2|0,0:2|3:2,0:2:0:0:
338,280,196160,2,0,P|360:289|382:295,1,45.4999979171754,8|2,0:2|0:3,0:0:0:0:
407,339,196522,2,0,P|429:338|452:334,1,45.4999979171754,2|2,1:3|0:3,0:0:0:0:
493,306,196883,6,0,P|486:263|478:212,1,90.9999958343508,2|2,1:2|1:2,0:2:0:0:
508,120,197606,1,10,0:2:0:0:
430,56,197967,2,0,L|385:65,1,45.4999979171754,2|0,3:2|1:2,0:2:0:0:
344,95,198329,2,0,P|298:88|245:74,1,90.9999958343508,2|2,0:2|0:3,0:2:0:0:
224,44,198871,1,2,0:3:0:0:
224,44,199052,1,8,0:1:0:0:
129,75,199413,1,2,1:3:0:0:
170,166,199775,6,0,P|149:255|131:346,1,181.999991668702,2|8,1:2|0:2,0:2:0:0:
224,381,200859,2,0,L|236:327,1,45.4999979171754,2|0,3:2|1:2,0:0:0:0:
277,312,201220,2,0,P|325:320|369:331,1,90.9999958343508,2|0,0:2|3:2,0:0:0:0:
417,318,201763,1,0,0:2:0:0:
417,318,201943,2,0,P|426:275|432:224,1,90.9999958343508,10|0,0:2|1:2,0:2:0:0:
383,140,202666,5,2,1:2:0:0:
297,192,203028,1,2,1:2:0:0:
209,143,203389,1,10,0:2:0:0:
131,206,203750,2,0,L|78:214,1,45.4999979171754,2|0,3:2|1:2,0:2:0:0:
43,186,204112,2,0,B|10:126|10:126|47:61,1,136.499993751526,2|2,0:3|0:3,0:3:0:0:
88,44,204835,1,8,0:2:0:0:
183,72,205196,2,0,P|211:65|231:59,1,45.4999979171754,2|2,1:3|3:3,0:3:0:0:
265,27,205558,6,0,P|307:33|366:45,1,90.9999958343508,2|0,1:2|0:2,0:2:0:0:
402,21,206100,1,2,0:2:0:0:
402,21,206281,1,8,0:2:0:0:
476,87,206642,2,0,P|468:109|464:138,1,45.4999979171754,2|0,3:2|1:2,0:2:0:0:
426,163,207003,2,0,P|435:205|441:256,1,90.9999958343508,2|0,0:2|0:2,0:2:0:0:
409,292,207546,1,2,0:2:0:0:
409,292,207726,1,8,0:2:0:0:
324,238,208088,1,2,0:2:0:0:
265,319,208449,6,0,P|193:331|124:357,1,136.499993751526,2|0,1:3|3:2,0:2:0:0:
87,333,209172,1,8,0:2:0:0:
19,258,209534,2,0,P|14:235|9:210,1,45.4999979171754,0|0,3:2|1:2,0:2:0:0:
27,166,209895,2,0,B|65:136|65:136|107:150,1,90.9999958343508,2|0,0:3|3:2,0:1:0:0:
195,190,210618,2,0,L|242:177,1,45.4999979171754,8|8,0:1|0:3,0:0:0:0:
260,137,210979,1,6,0:3:0:0:
352,128,211341,6,0,B|418:171|418:171|401:258,1,167.999994873047,2|8,1:3|0:2,0:2:0:0:
329,316,212425,2,0,L|280:307,1,41.9999987182618,2|2,0:3|1:3,0:0:0:0:
244,291,212787,2,0,P|208:299|162:316,1,83.9999974365235,2|2,0:3|0:3,0:2:0:0:
135,352,213329,1,2,0:3:0:0:
135,352,213510,1,8,0:2:0:0:
44,332,213871,2,0,P|36:306|27:285,1,41.9999987182618,2|2,1:3|0:3,0:0:0:0:
3,254,214232,6,0,P|14:213|22:172,1,83.9999974365235,0|2,1:2|1:3,0:0:0:0:
63,148,214775,1,2,0:3:0:0:
63,148,214955,2,0,P|105:157|151:162,1,83.9999974365235,8|2,0:2|0:3,0:2:0:0:
217,103,215678,2,0,P|221:84|225:58,1,41.9999987182618,10|10,0:3|0:3,0:0:0:0:
258,29,216040,1,2,0:3:0:0:
349,19,216401,1,8,0:2:0:0:
410,88,216763,1,2,1:3:0:0:
346,154,217124,6,0,P|336:195|330:236,1,83.9999974365235,2|0,1:3|0:2,0:2:0:0:
359,279,217666,1,0,1:2:0:0:
359,279,217847,1,8,0:2:0:0:
451,274,218208,2,0,P|455:253|459:232,1,41.9999987182618,2|0,3:2|1:2,0:2:0:0:
495,203,218570,2,0,P|486:160|470:58,1,125.999996154785,2|2,0:2|3:2,0:2:0:0:
441,45,219293,1,8,0:2:0:0:
362,92,219654,1,2,1:2:0:0:
277,54,220016,6,0,P|240:63|187:73,1,83.9999974365235,2|0,1:2|1:2,0:2:0:0:
156,56,220558,1,2,0:2:0:0:
156,56,220738,1,8,0:2:0:0:
86,117,221100,2,0,L|94:169,1,41.9999987182618,2|0,3:2|1:2,0:2:0:0:
89,204,221461,2,0,P|49:219|-11:225,1,83.9999974365235,2|0,0:2|3:2,0:2:0:0:
6,274,222003,1,0,3:2:0:0:
6,274,222184,1,8,0:1:0:0:
70,340,222546,2,0,P|87:335|112:330,1,41.9999987182618,0|0,1:2|3:2,0:0:0:0:
148,303,222907,6,0,P|201:301|273:332,1,125.999996154785,2|2,1:2|1:2,0:2:0:0:
296,364,223630,1,8,0:2:0:0:
366,304,223991,2,0,P|372:281|378:263,1,41.9999987182618,2|0,3:2|1:2,0:2:0:0:
377,217,224353,2,0,P|332:199|284:191,1,83.9999974365235,2|0,0:2|3:2,0:0:0:0:
274,158,224895,1,2,3:2:0:0:
274,158,225076,1,8,0:1:0:0:
200,214,225437,1,2,1:2:0:0:
125,159,225799,6,0,P|129:117|145:61,1,83.9999974365235,2|0,1:2|1:2,0:0:0:0:
172,44,226341,1,2,0:2:0:0:
172,44,226522,1,8,0:2:0:0:
255,4,226883,2,0,P|277:6|301:14,1,41.9999987182618,2|0,3:2|1:2,0:2:0:0:
318,52,227244,2,0,P|383:54|445:23,1,125.999996154785,2|2,0:2|1:2,0:0:0:0:
483,35,227967,2,0,B|510:70|510:70|501:120,1,83.9999974365235,8|0,0:1|1:2,0:2:0:0:
450,185,228690,6,0,P|388:173|326:161,1,125.999996154785,2|2,1:2|1:2,0:2:0:0:
281,175,229413,1,8,0:2:0:0:
209,234,229775,2,0,L|199:287,1,41.9999987182618,2|0,3:2|1:2,0:0:0:0:
171,310,230136,2,0,P|129:306|77:293,1,83.9999974365235,2|0,0:2|3:2,0:0:0:0:
60,266,230678,1,2,3:2:0:0:
60,266,230859,1,8,0:2:0:0:
44,174,231220,1,2,1:2:0:0:
117,118,231582,6,0,P|161:121|208:132,1,83.9999974365235,2|0,1:2|1:2,0:2:0:0:
243,110,232124,1,2,0:2:0:0:
243,110,232305,1,8,0:2:0:0:
292,188,232666,2,0,L|284:235,1,41.9999987182618,2|0,3:2|1:2,0:2:0:0:
312,266,233028,2,0,P|374:294|435:271,1,125.999996154785,2|2,0:2|1:2,0:0:0:0:
465,252,233750,2,0,P|453:212|445:163,2,83.9999974365235,8|0|4,0:2|1:2|0:2,0:2:0:0:
