osu file format v14

[General]
AudioFilename: audio.mp3
AudioLeadIn: 0
PreviewTime: 38177
Countdown: 0
SampleSet: Soft
StackLeniency: 0.7
Mode: 0
LetterboxInBreaks: 0
WidescreenStoryboard: 1

[Editor]
DistanceSpacing: 1.2
BeatDivisor: 4
GridSize: 4
TimelineZoom: 1.5

[Metadata]
Title:Endless Embrace (TV Size)
TitleUnicode:Endless Embrace (TV Size)
Artist:MYTH & ROID
ArtistUnicode:MYTH & ROID
Creator:VINXIS
Version:Normal
Source:メイドインアビス 烈日の黄金郷
Tags:Made in Abyss: abyss The Golden City of the Scorching Sun Retsujitsu no Ougonkyou 2nd s2 season ed ending TVアニメ tv theme song オープニングテーマ japanese english anime j-pop pop orchestral kevin penkin tom-h@ck tom hack eternal KIHOW and android
BeatmapID:3721671
BeatmapSetID:1813042

[Difficulty]
HPDrainRate:3
CircleSize:2
OverallDifficulty:3
ApproachRate:5
SliderMultiplier:1
SliderTickRate:1

[Events]
//Background and Video events
0,0,"1iXhLPG.png",0,0
Video,-35,"ed.mp4"
//Break Periods
2,68986,70035
2,71435,72483
2,73883,74932
//Storyboard Layer 0 (Background)
//Storyboard Layer 1 (Fail)
//Storyboard Layer 2 (Pass)
//Storyboard Layer 3 (Foreground)
//Storyboard Layer 4 (Overlay)
//Storyboard Sound Samples

[TimingPoints]
222,306.091215182124,4,2,1,60,1,0
10016,-100,4,2,1,70,0,0
19811,-100,4,2,1,60,0,0
36952,-100,4,2,1,80,0,0
38043,-100,4,2,0,5,0,0
38330,-100,4,2,1,80,0,0
39401,-100,4,2,2,100,0,0
69092,-100,4,2,1,40,0,0
78581,-100,4,2,1,50,0,0
83478,-100,4,2,1,30,0,0

[Colours]
Combo1 : 88,88,88
Combo2 : 192,192,192

[HitObjects]
21,300,222,6,0,L|120:277,1,100,2|0,1:2|1:2,0:0:0:0:
226,366,834,2,0,P|277:327|327:319,1,100,0|0,1:0|1:0,0:0:0:0:
248,193,1446,2,0,P|311:184|358:202,1,100,0|0,1:0|1:0,0:0:0:0:
354,54,2058,2,0,P|413:78|445:117,1,100,0|0,1:0|1:0,0:0:0:0:
487,234,2670,6,0,P|490:294|375:360,1,200,2|0,1:2|1:0,0:0:0:0:
248,320,3589,1,0,1:0:0:0:
117,269,3895,2,0,P|64:267|17:273,1,100,0|0,1:2|1:0,0:0:0:0:
96,157,4507,1,0,1:0:0:0:
55,23,4813,1,0,1:0:0:0:
191,0,5119,5,2,1:2:0:0:
233,133,5425,1,0,1:2:0:0:
340,222,5731,2,0,P|391:183|482:160,1,150,0|0,1:0|0:0,0:0:0:0:
509,125,6343,2,0,P|483:69|478:28,2,100,0|0|0,1:0|1:0|1:0,0:0:0:0:
492,264,7262,1,0,1:0:0:0:
352,249,7568,5,2,1:2:0:0:
310,116,7874,1,0,1:2:0:0:
203,27,8180,2,0,P|152:66|61:89,1,150,0|0,1:0|0:0,0:0:0:0:
34,124,8792,2,0,P|60:180|65:221,1,100,0|0,1:0|1:0,0:0:0:0:
174,304,9404,1,0,1:0:0:0:
312,281,9710,1,0,1:0:0:0:
291,142,10016,5,6,1:2:0:0:
153,165,10323,1,0,1:0:0:0:
16,141,10629,2,0,P|47:96|94:63,1,100,0|0,1:0|1:0,0:0:0:0:
222,78,11241,2,0,P|271:54|328:49,1,100,0|0,1:0|1:0,0:0:0:0:
416,144,11853,2,0,P|470:148|522:172,1,100,0|0,1:0|1:0,0:0:0:0:
489,303,12465,6,0,P|390:300|292:263,1,200,0|0,1:0|1:0,0:0:0:0:
167,321,13383,1,0,1:0:0:0:
43,253,13690,2,0,P|55:205|61:147,1,100,0|0,1:0|1:0,0:0:0:0:
181,83,14302,1,0,1:0:0:0:
201,221,14608,1,0,1:0:0:0:
339,198,14914,5,2,1:2:0:0:
319,60,15220,1,0,1:0:0:0:
451,104,15526,1,0,1:0:0:0:
471,242,15832,1,0,1:0:0:0:
363,331,16138,6,0,P|287:299|267:298,1,100,0|0,1:0|1:0,0:0:0:0:
157,216,16750,2,0,P|233:184|253:183,1,100,0|0,1:0|1:0,0:0:0:0:
329,67,17363,2,0,P|257:39|125:42,1,200,2|0,1:2|1:0,0:0:0:0:
23,122,18281,1,0,1:0:0:0:
131,210,18587,1,0,1:0:0:0:
270,219,18893,6,2,B|359:208|359:208|381:221|381:221|475:208,1,200,0|0,1:0|1:0,0:0:0:0:
504,76,19811,5,6,1:2:0:0:
364,85,20117,1,0,0:0:0:0:
224,94,20424,2,0,P|169:86|72:134,1,150,2|0,1:2|0:0,0:0:0:0:
78,181,21036,2,0,P|36:251|32:278,1,100,2|0,1:2|0:0,0:0:0:0:
128,369,21648,1,0,1:0:0:0:
255,310,21954,2,0,P|278:301|302:294,1,50,2|0,0:0|0:0,0:0:0:0:
361,285,22260,6,0,P|330:236|321:127,1,150,2|0,1:2|0:0,0:0:0:0:
358,101,22872,1,0,1:0:0:0:
497,84,23178,1,2,0:0:0:0:
501,223,23484,1,0,1:0:0:0:
501,363,23791,2,0,P|450:370|402:373,2,100,2|2|2,0:0|1:2|0:0,0:0:0:0:
402,264,24709,5,0,1:0:0:0:
262,273,25015,2,0,P|240:243|230:180,1,100,2|2,0:0|1:2,0:0:0:0:
289,55,25627,1,2,0:0:0:0:
152,24,25933,1,2,1:2:0:0:
20,74,26239,2,0,P|21:152|46:237,1,150,2|0,0:0|0:0,0:0:0:0:
97,235,26851,1,2,0:0:0:0:
19,351,27158,5,0,1:0:0:0:
159,361,27464,2,0,P|201:337|252:322,1,100,2|2,0:0|1:2,0:0:0:0:
389,339,28076,2,0,P|361:286|352:138,2,200,2|2|2,0:0|0:0|0:0,0:0:0:0:
498,251,29606,5,2,1:2:0:0:
448,119,29912,2,0,L|459:57,1,50,0|0,3:0|3:0,3:0:0:0:
431,15,30218,2,0,P|378:46|276:52,1,150,2|0,1:2|3:0,0:0:0:0:
241,88,30831,2,0,P|187:71|138:43,1,100,2|0,1:2|3:0,0:0:0:0:
12,19,31443,1,0,1:0:0:0:
55,151,31749,2,0,P|76:187|83:207,1,50,2|0,3:2|3:0,0:0:0:0:
55,249,32055,6,0,P|148:225|214:241,1,150,2|0,1:2|3:0,0:0:0:0:
224,289,32667,1,0,1:0:0:0:
241,150,32973,1,0,3:0:0:0:
380,155,33279,6,0,P|442:152|492:157,1,100,2|0,1:2|3:0,0:0:0:0:
485,295,33892,2,0,P|422:303|321:288,1,150,2|0,1:2|3:0,0:0:0:0:
282,318,34504,6,0,P|231:294|171:289,1,100,2|0,1:2|1:0,0:0:0:0:
49,273,35116,2,0,L|42:164,1,100,0|0,1:0|1:0,0:0:0:0:
180,150,35728,2,0,L|173:41,1,100,0|0,1:0|1:0,0:0:0:0:
306,6,36340,1,0,1:0:0:0:
439,48,36646,1,0,1:0:0:0:
323,127,36952,6,0,L|338:194,1,50,0|0,1:0|1:0,0:0:0:0:
320,234,37259,1,0,1:0:0:0:
456,264,37565,2,0,L|471:331,1,50,0|0,1:0|1:0,0:0:0:0:
453,371,37871,1,0,1:0:0:0:
453,371,38024,1,0,1:0:0:0:
278,360,38406,6,0,P|207:350|168:353,1,100,2|2,0:0|0:0,0:0:0:0:
81,250,39019,2,0,P|125:248|177:234,1,75,2|0,0:0|0:0,0:0:0:0:
188,193,39401,2,0,P|159:129|150:30,2,150,6|2|2,1:2|0:0|0:3,0:0:0:0:
421,347,40932,1,2,1:2:0:0:
480,219,41238,1,2,0:3:0:0:
409,98,41544,1,2,1:2:0:0:
271,114,41850,6,0,P|212:74|118:60,2,150,2|2|2,1:2|0:0|0:3,0:0:0:0:
49,288,43380,1,2,0:0:0:0:
180,337,43686,1,2,0:3:0:0:
298,262,43993,2,0,L|353:295,1,50,2|0,1:2|0:0,0:0:0:0:
392,318,44299,6,0,P|401:244|435:151,2,150,2|2|2,1:2|0:0|0:3,0:0:0:0:
368,39,45829,1,2,1:2:0:0:
271,140,46135,1,2,0:3:0:0:
244,2,46441,1,2,1:2:0:0:
120,66,46747,6,0,P|111:140|77:233,2,150,2|2|2,1:2|0:0|0:3,0:0:0:0:
318,263,48278,1,2,1:2:0:0:
325,123,48584,1,2,0:3:0:0:
448,57,48890,2,0,L|461:123,1,50,2|0,1:2|0:0,0:0:0:0:
496,152,49196,6,0,L|477:257,1,100,6|0,1:2|0:0,0:0:0:0:
418,256,49655,2,0,L|399:361,1,100,0|0,3:0|0:0,0:0:0:0:
340,360,50114,1,2,0:3:0:0:
205,319,50420,1,2,0:0:0:0:
234,181,50727,1,2,1:2:0:0:
104,127,51033,2,0,L|96:66,2,50,2|0|0,0:3|0:0|1:0,0:0:0:0:
208,33,51645,6,0,L|322:50,1,100,2|0,1:2|0:0,0:0:0:0:
341,104,52104,1,0,0:0:0:0:
341,104,52257,2,0,P|333:169|313:217,1,100,2|2,0:0|0:3,0:0:0:0:
465,197,52869,2,0,P|444:275|443:348,1,150,2|0,0:0|0:0,0:0:0:0:
390,373,53481,2,0,P|318:349|245:348,1,150,2|0,0:3|0:0,0:0:0:0:
198,309,54094,6,0,L|79:303,1,100,2|0,1:2|0:0,0:0:0:0:
119,247,54553,2,0,L|0:241,1,100,0|0,3:0|0:0,0:0:0:0:
29,182,55012,1,2,0:3:0:0:
158,129,55318,2,0,L|147:29,1,100,2|0,0:0|1:0,0:0:0:0:
291,39,55930,2,0,L|301:138,1,100,2|0,0:3|1:0,0:0:0:0:
431,201,56542,5,2,1:2:0:0:
309,271,56848,1,0,0:0:0:0:
193,192,57154,1,2,0:3:0:0:
56,224,57461,1,2,0:0:0:0:
311,110,58073,5,2,0:0:0:0:
186,46,58379,1,2,0:3:0:0:
53,90,58685,2,0,L|59:139,1,50,2|0,0:0|0:0,0:0:0:0:
95,188,58991,2,0,P|107:246|108:303,1,100,6|0,1:2|0:0,0:0:0:0:
93,344,59450,2,0,P|151:332|208:331,1,100,2|0,0:0|0:0,0:0:0:0:
241,363,59909,1,2,0:3:0:0:
327,96,60521,5,2,0:0:0:0:
311,236,60828,1,2,0:3:0:0:
450,241,61134,1,2,1:2:0:0:
427,380,61440,2,0,P|378:366|270:361,2,150,2|2|2,1:2|0:0|0:3,0:0:0:0:
139,33,62970,5,2,1:2:0:0:
66,153,63276,1,2,0:3:0:0:
158,257,63582,2,0,L|218:243,1,50,2|0,1:2|0:0,0:0:0:0:
228,189,63888,2,0,P|300:170|337:168,1,100,2|0,1:2|0:0,0:0:0:0:
379,193,64348,2,0,P|398:265|400:302,1,100,2|0,0:0|0:0,0:0:0:0:
373,338,64807,1,2,0:3:0:0:
94,311,65419,5,2,0:0:0:0:
101,171,65725,1,2,0:3:0:0:
108,31,66031,1,2,1:2:0:0:
205,131,66337,2,0,P|272:95|310:86,1,100,2|0,1:2|0:0,0:0:0:0:
354,89,66796,2,0,P|401:105|443:131,1,100,2|0,0:0|0:0,0:0:0:0:
502,122,67255,6,0,B|473:252|540:184|508:338,1,200,2|0,0:3|1:0,0:0:0:0:
384,375,68174,2,0,L|392:264,1,100,2|0,0:3|1:0,0:0:0:0:
341,144,68786,5,6,1:2:0:0:
171,240,71235,5,2,0:0:0:0:
341,240,73683,5,2,0:0:0:0:
171,144,76132,6,0,P|115:167|27:375,2,300,2|2|2,0:0|0:0|0:0,0:0:0:0:
427,212,78581,6,0,B|436:262|436:262|419:311,1,100,6|0,1:2|0:0,0:0:0:0:
374,347,79040,1,2,0:0:0:0:
374,347,79193,1,2,0:0:0:0:
237,318,79499,1,0,1:0:0:0:
99,346,79805,1,2,0:3:0:0:
18,77,80417,1,0,1:0:0:0:
292,18,81030,2,0,B|340:107|340:107|327:214,2,200,2|0|2,0:0|1:0|0:3,0:0:0:0:
136,250,82866,1,4,1:3:0:0:
400,340,83478,5,2,0:0:0:0:
256,192,83555,12,2,86539,0:0:0:0:
