osu file format v14

[General]
AudioFilename: audio.mp3
AudioLeadIn: 0
PreviewTime: 38177
Countdown: 0
SampleSet: Soft
StackLeniency: 0.7
Mode: 0
LetterboxInBreaks: 0
WidescreenStoryboard: 1

[Editor]
DistanceSpacing: 1.4
BeatDivisor: 4
GridSize: 4
TimelineZoom: 1.5

[Metadata]
Title:Endless Embrace (TV Size)
TitleUnicode:Endless Embrace (TV Size)
Artist:MYTH & ROID
ArtistUnicode:MYTH & ROID
Creator:VINXIS
Version:Hard
Source:メイドインアビス 烈日の黄金郷
Tags:Made in Abyss: abyss The Golden City of the Scorching Sun Retsujitsu no Ougonkyou 2nd s2 season ed ending TVアニメ tv theme song オープニングテーマ japanese english anime j-pop pop orchestral kevin penkin tom-h@ck tom hack eternal KIHOW and android
BeatmapID:3721646
BeatmapSetID:1813042

[Difficulty]
HPDrainRate:4.5
CircleSize:3
OverallDifficulty:5.5
ApproachRate:7
SliderMultiplier:1.2
SliderTickRate:1

[Events]
//Background and Video events
0,0,"1iXhLPG.png",0,0
Video,-35,"ed.mp4"
//Break Periods
//Storyboard Layer 0 (Background)
//Storyboard Layer 1 (Fail)
//Storyboard Layer 2 (Pass)
//Storyboard Layer 3 (Foreground)
//Storyboard Layer 4 (Overlay)
//Storyboard Sound Samples

[TimingPoints]
222,306.091215182124,4,2,1,60,1,0
222,-125,4,2,1,60,0,0
10016,-100,4,2,1,70,0,0
19811,-125,4,2,1,60,0,0
36952,-125,4,2,1,80,0,0
38043,-125,4,2,0,5,0,0
38062,-100,4,2,0,5,0,0
38330,-83.3333333333333,4,2,1,80,0,0
38712,-71.4285714285714,4,2,1,80,0,0
39019,-62.5,4,2,1,80,0,0
39401,-62.5,4,2,2,100,0,0
39860,-71.4285714285714,4,2,2,100,0,0
40932,-100,4,2,2,100,0,0
41850,-83.3333333333333,4,2,2,100,0,0
42309,-71.4285714285714,4,2,2,100,0,0
43380,-83.3333333333333,4,2,2,100,0,0
43686,-71.4285714285714,4,2,2,100,0,0
43993,-62.5,4,2,2,100,0,0
44758,-71.4285714285714,4,2,2,100,0,0
45829,-100,4,2,2,100,0,0
46747,-83.3333333333333,4,2,2,100,0,0
47207,-71.4285714285714,4,2,2,100,0,0
48278,-100,4,2,2,100,0,0
58073,-83.3333333333333,4,2,2,100,0,0
58379,-71.4285714285714,4,2,2,100,0,0
58685,-62.5,4,2,2,100,0,0
59450,-71.4285714285714,4,2,2,100,0,0
60521,-100,4,2,2,100,0,0
61440,-83.3333333333333,4,2,2,100,0,0
61899,-71.4285714285714,4,2,2,100,0,0
62970,-83.3333333333333,4,2,2,100,0,0
63276,-71.4285714285714,4,2,2,100,0,0
63582,-62.5,4,2,2,100,0,0
64348,-71.4285714285714,4,2,2,100,0,0
65419,-100,4,2,2,100,0,0
66337,-83.3333333333333,4,2,2,100,0,0
66796,-71.4285714285714,4,2,2,100,0,0
67255,-62.5,4,2,2,100,0,0
69092,-125,4,2,1,40,0,0
78581,-100,4,2,1,50,0,0
83478,-125,4,2,1,30,0,0

[Colours]
Combo1 : 88,88,88
Combo2 : 192,192,192

[HitObjects]
330,78,222,6,0,L|230:93,1,96,2|0,1:2|1:2,0:0:0:0:
0,135,834,2,0,P|7:204|21:235,1,96,0|0,1:0|1:0,0:0:0:0:
175,204,1446,2,0,P|208:253|249:280,1,96,0|0,1:0|1:0,0:0:0:0:
399,234,2058,2,0,P|452:259|502:263,1,96,0|0,1:0|1:0,0:0:0:0:
425,351,2517,1,0,0:0:0:0:
425,351,2670,6,0,P|371:325|316:320,1,96,2|0,1:2|1:0,0:0:0:0:
155,284,3282,1,0,1:0:0:0:
216,109,3589,2,0,P|221:68|227:44,1,48,0|0,1:0|0:0,0:0:0:0:
150,0,3895,2,0,P|91:44|53:50,1,96,0|0,1:2|1:0,0:0:0:0:
18,140,4354,1,0,0:0:0:0:
18,140,4507,2,0,L|34:208,1,48,0|0,1:0|0:0,0:0:0:0:
119,146,4813,2,0,L|132:199,1,48,0|0,1:0|0:0,0:0:0:0:
220,152,5119,5,2,1:2:0:0:
135,325,5425,1,0,1:2:0:0:
320,382,5731,2,0,P|370:348|421:338,1,96,0|0,1:0|1:0,0:0:0:0:
302,210,6343,2,0,P|245:243|207:250,2,96,0|0|0,1:0|1:0|1:0,0:0:0:0:
408,216,7109,1,0,0:0:0:0:
408,216,7262,2,0,L|470:230,1,48,0|0,1:0|0:0,0:0:0:0:
492,140,7568,5,2,1:2:0:0:
293,118,7874,1,0,1:2:0:0:
94,96,8180,2,0,P|124:147|138:201,1,96,0|0,1:0|1:0,0:0:0:0:
255,335,8792,2,0,P|225:284|215:229,2,96,0|0|0,1:0|1:0|1:0,0:0:0:0:
361,334,9557,1,0,0:0:0:0:
361,334,9710,2,0,L|407:322,1,48,0|0,1:0|0:0,0:0:0:0:
463,226,10016,6,0,L|443:149,1,60,6|0,1:2|0:0,0:0:0:0:
352,209,10323,2,0,L|332:132,1,60,0|0,1:0|0:0,0:0:0:0:
241,192,10629,6,0,P|179:168|105:172,1,120,0|0,1:0|1:0,0:0:0:0:
25,150,11088,1,0,0:0:0:0:
25,150,11241,2,0,P|1:212|5:286,1,120,0|0,1:0|1:0,0:0:0:0:
100,293,11700,1,0,0:0:0:0:
100,293,11853,6,0,P|162:317|236:313,1,120,0|0,1:0|1:0,0:0:0:0:
324,356,12312,1,0,0:0:0:0:
324,356,12465,6,0,P|347:283|415:242,2,120,0|0|0,1:0|1:0|1:0,0:0:0:0:
433,376,13230,1,0,0:0:0:0:
433,376,13383,2,0,P|456:316|456:269,1,60,0|0,1:0|0:0,0:0:0:0:
475,217,13690,6,0,P|453:146|458:56,1,120,0|0,1:0|1:0,0:0:0:0:
366,43,14149,1,0,0:0:0:0:
366,43,14302,2,0,L|221:68,1,120,0|0,1:0|1:0,0:0:0:0:
276,160,14761,1,0,0:0:0:0:
276,160,14914,6,0,L|186:182,1,60,2|0,1:2|0:0,0:0:0:0:
246,266,15220,2,0,L|156:288,1,60,0|0,1:0|0:2,0:0:0:0:
216,372,15526,1,0,1:0:0:0:
17,297,15832,6,0,P|16:267|10:237,1,60,0|0,1:0|0:0,0:0:0:0:
91,195,16138,2,0,P|105:168|115:140,1,60,0|0,1:0|0:0,0:0:0:0:
206,143,16444,2,0,P|231:127|254:107,1,60,0|0,1:0|0:0,0:0:0:0:
331,156,16750,2,0,P|360:155|461:223,1,120,0|0,1:0|1:0,0:0:0:0:
280,287,17363,6,0,P|362:279|455:303,1,180,2|0,1:2|0:0,0:0:0:0:
491,204,17975,2,0,L|483:112,1,60,0|0,1:0|0:0,0:0:0:0:
421,71,18281,2,0,L|413:-21,1,60,0|0,1:0|0:0,0:0:0:0:
510,36,18587,5,0,1:0:0:0:
325,82,18893,2,2,B|241:67|241:67|209:80|209:80|184:68|184:68|136:66,1,180,0|0,1:0|0:0,0:0:0:0:
35,68,19505,1,0,1:0:0:0:
212,174,19811,6,0,L|197:336,1,144,6|0,1:2|0:0,0:0:0:0:
296,360,20424,2,0,P|343:306|445:279,1,144,2|0,1:2|0:0,0:0:0:0:
388,182,21036,2,0,P|340:190|298:212,1,96,2|0,1:2|0:0,0:0:0:0:
203,174,21495,1,0,0:0:0:0:
203,174,21648,1,0,1:0:0:0:
102,354,21954,2,0,P|160:368|179:377,1,48,2|0,0:0|0:0,0:0:0:0:
56,383,22260,6,0,P|62:308|83:234,1,144,2|0,1:2|0:0,0:0:0:0:
41,146,22872,2,0,L|33:77,1,48,0|0,1:0|0:0,0:0:0:0:
101,28,23178,1,2,0:0:0:0:
207,197,23484,5,0,1:0:0:0:
330,59,23791,2,0,P|336:82|344:104,1,48,2|0,0:0|0:0,0:0:0:0:
406,15,24097,2,0,P|429:19|452:24,1,48,2|0,1:2|0:0,0:0:0:0:
451,114,24403,2,0,P|445:137|440:160,1,48,2|0,0:0|0:0,0:0:0:0:
486,240,24709,5,0,1:0:0:0:
287,223,25015,2,0,P|295:255|298:279,1,48,2|0,0:0|0:0,0:0:0:0:
226,337,25321,2,0,P|202:341|179:347,1,48,2|0,1:2|0:0,0:0:0:0:
98,298,25627,2,0,P|91:274|87:251,1,48,2|0,0:0|0:0,0:0:0:0:
167,205,25933,6,0,P|160:147|151:118,1,48,2|0,1:2|0:0,0:0:0:0:
81,95,26239,2,0,P|140:62|161:11,1,96,2|0,0:0|1:0,0:0:0:0:
252,0,26698,1,0,0:0:0:0:
252,0,26851,1,2,0:0:0:0:
465,39,27158,5,0,1:0:0:0:
243,37,27464,2,0,P|253:66|265:124,1,48,2|0,0:0|0:0,0:0:0:0:
331,159,27770,2,0,P|331:182|322:204,1,48,2|0,1:2|0:0,0:0:0:0:
397,283,28076,2,0,P|359:324|294:294,1,96,2|0,0:0|1:0,0:0:0:0:
130,276,28688,2,0,P|113:205|136:158,1,96,2|0,0:0|1:0,0:0:0:0:
232,69,29300,2,0,P|253:62|289:57,1,48,2|0,0:0|0:0,0:0:0:0:
364,110,29606,5,2,1:2:0:0:
505,200,29912,2,0,L|511:247,1,48,0|0,3:0|3:0,3:0:0:0:
470,178,30218,2,0,P|491:109|473:12,1,144,2|0,1:2|3:0,0:0:0:0:
387,77,30831,2,0,P|380:132|354:182,1,96,2|0,1:2|3:0,0:0:0:0:
271,202,31290,1,0,3:0:0:0:
271,202,31443,1,0,1:0:0:0:
52,168,31749,2,0,P|46:130|48:98,1,48,2|0,3:2|3:0,0:0:0:0:
124,55,32055,6,0,P|177:26|250:20,1,96,2|0,1:2|3:0,0:0:0:0:
298,67,32514,1,0,3:0:0:0:
298,67,32667,1,0,1:0:0:0:
156,153,32973,2,0,L|173:224,1,48,0|0,3:0|3:0,3:0:0:0:
88,252,33279,6,0,P|120:301|133:387,1,144,2|0,1:2|3:0,0:0:0:0:
215,305,33892,2,0,P|264:273|350:260,1,144,2|0,1:2|3:0,0:0:0:0:
271,176,34504,6,0,P|279:105|316:43,1,144,2|0,1:2|0:0,0:0:0:0:
398,0,35116,1,0,1:0:0:0:
223,14,35422,1,0,1:0:0:0:
237,189,35728,1,0,1:0:0:0:
412,174,36034,1,0,1:0:0:0:
200,103,36340,1,0,1:0:0:0:
207,326,36646,1,0,1:0:0:0:
0,203,36952,6,0,L|11:136,1,48,0|0,1:0|1:0,0:0:0:0:
77,97,37259,2,0,L|88:30,1,48,0|0,1:0|1:0,0:0:0:0:
175,7,37565,1,0,1:0:0:0:
225,93,37718,1,0,1:0:0:0:
311,32,37871,1,0,1:0:0:0:
417,64,38024,1,0,1:0:0:0:
95,64,38406,6,0,P|120:152|119:181,1,107.999996704102,2|0,0:0|0:0,0:0:0:0:
89,185,38712,6,0,B|167:195|138:216|209:228,1,125.999996154785,2|0,0:0|0:0,0:0:0:0:
230,261,39019,6,0,B|108:298|146:246|28:285,1,192,2|0,0:0|0:0,0:0:0:0:
42,316,39401,6,0,P|131:359|278:351,1,240,6|0,1:2|0:0,0:0:0:0:
291,350,39860,2,0,P|360:327|424:247,1,167.999994873047,2|0,0:0|0:0,0:0:0:0:
443,125,40319,1,2,0:3:0:0:
443,125,40932,6,0,P|454:84|454:54,1,60,2|0,1:2|0:0,0:0:0:0:
330,65,41238,2,0,P|313:89|291:109,1,60,2|0,0:3|0:0,0:0:0:0:
195,24,41544,2,0,P|225:17|252:5,1,60,2|0,1:2|0:0,0:0:0:0:
181,116,41850,6,0,P|111:130|38:170,1,143.999995605469,2|0,1:2|0:0,0:0:0:0:
86,259,42309,2,0,P|19:268|21:380,1,167.999994873047,2|0,0:0|0:0,0:0:0:0:
96,383,42768,1,2,0:3:0:0:
96,383,43380,6,0,P|166:334|179:328,1,71.9999978027344,2|0,0:0|0:0,0:0:0:0:
254,367,43686,6,0,P|331:363|369:355,1,83.9999974365235,2|0,0:3|0:0,0:0:0:0:
381,263,43993,6,0,P|428:273|473:290,1,96,2|0,1:2|0:0,0:0:0:0:
504,183,44299,6,0,P|446:156|346:3,1,240,2|0,1:2|0:0,0:0:0:0:
371,34,44758,2,0,P|338:134|254:168,1,167.999994873047,2|0,0:0|0:0,0:0:0:0:
156,124,45217,1,2,0:3:0:0:
156,124,45829,6,0,P|167:177|167:202,1,60,2|0,1:2|0:0,0:0:0:0:
248,239,46135,2,0,P|245:268|246:298,1,60,2|0,0:3|0:0,0:0:0:0:
348,323,46441,2,0,P|333:349|322:377,1,60,2|0,1:2|0:0,0:0:0:0:
450,373,46747,6,0,P|463:291|456:218,1,143.999995605469,2|0,1:2|0:0,0:0:0:0:
386,149,47207,2,0,P|426:122|395:7,1,167.999994873047,2|0,0:0|0:0,0:0:0:0:
308,0,47666,1,2,0:3:0:0:
308,0,48278,6,0,P|267:29|241:33,1,60,2|0,1:2|0:0,0:0:0:0:
194,116,48584,2,0,P|222:124|252:122,1,60,2|0,0:3|0:0,0:0:0:0:
109,201,48890,2,0,P|85:182|70:156,1,60,2|0,1:2|0:0,0:0:0:0:
17,280,49196,6,0,L|143:302,1,120,6|0,1:2|0:0,0:0:0:0:
224,249,49655,2,0,L|350:271,1,120,0|0,3:0|0:0,0:0:0:0:
431,218,50114,1,2,0:3:0:0:
210,146,50420,5,2,0:0:0:0:
259,376,50727,1,2,1:2:0:0:
17,280,51033,6,0,L|30:196,1,60,2|0,0:3|0:0,0:0:0:0:
100,148,51339,2,0,L|113:64,1,60,0|0,1:0|0:0,0:0:0:0:
183,16,51645,6,0,L|370:32,1,180,2|0,1:2|0:0,0:0:0:0:
436,98,52257,2,0,P|388:138|371:213,1,120,2|2,0:0|0:3,0:0:0:0:
127,205,52869,2,0,P|175:245|202:365,1,180,2|0,0:0|0:0,0:0:0:0:
94,330,53481,2,0,P|46:290|19:170,1,180,2|0,0:3|0:0,0:0:0:0:
0,84,54094,6,0,L|134:67,1,120,2|0,1:2|0:0,0:0:0:0:
183,150,54553,2,0,L|317:133,1,120,0|0,3:0|0:0,0:0:0:0:
366,216,55012,1,2,0:3:0:0:
125,79,55318,6,0,L|198:71,1,60,2|0,0:0|0:0,0:0:0:0:
168,171,55624,2,0,L|241:163,1,60,0|0,1:0|0:0,0:0:0:0:
201,270,55930,2,0,L|274:262,1,60,2|0,0:3|0:0,0:0:0:0:
234,369,56236,2,0,L|307:361,1,60,0|0,1:0|0:0,0:0:0:0:
386,322,56542,6,0,L|371:257,1,60,2|0,1:2|0:0,0:0:0:0:
444,194,56848,2,0,L|429:129,1,60
502,66,57154,2,0,L|487:1,1,60,2|0,0:3|0:0,0:0:0:0:
392,40,57461,2,0,L|328:51,1,60,2|0,0:0|0:0,0:0:0:0:
16,163,58073,6,0,P|51:160|87:163,1,71.9999978027344,2|0,0:0|0:0,0:0:0:0:
212,165,58379,2,0,P|223:198|232:247,1,83.9999974365235,2|0,0:3|0:0,0:0:0:0:
346,167,58685,2,0,P|372:142|404:88,1,96,2|0,0:0|0:0,0:0:0:0:
509,185,58991,6,0,P|449:236|398:393,1,240,6|0,1:2|0:0,0:0:0:0:
367,384,59450,2,0,P|328:314|229:281,1,167.999994873047,2|0,0:0|0:0,0:0:0:0:
115,330,59909,1,2,0:3:0:0:
115,330,60521,6,0,P|123:273|123:249,1,60,2|0,0:0|0:0,0:0:0:0:
95,169,60828,2,0,P|75:191|53:212,1,60,2|0,0:3|0:0,0:0:0:0:
109,62,61134,2,0,P|138:58|167:51,1,60,2|0,1:2|0:0,0:0:0:0:
195,157,61440,6,0,P|237:120|329:102,1,143.999995605469,2|0,1:2|0:0,0:0:0:0:
329,0,61899,2,0,P|376:29|496:26,1,167.999994873047,2|0,0:0|0:0,0:0:0:0:
512,133,62358,1,2,0:3:0:0:
512,133,62970,6,0,P|474:127|431:131,1,71.9999978027344,2|0,1:2|0:0,0:0:0:0:
347,170,63276,2,0,P|329:135|297:103,1,83.9999974365235,2|0,0:3|0:0,0:0:0:0:
199,192,63582,2,0,P|157:198|97:195,1,96,2|0,1:2|0:0,0:0:0:0:
0,270,63888,6,0,P|74:335|208:381,1,240,2|0,1:2|0:0,0:0:0:0:
244,357,64348,2,0,P|305:297|341:216,1,167.999994873047,2|0,0:0|0:0,0:0:0:0:
310,80,64807,1,2,0:3:0:0:
310,80,65419,6,0,P|306:122|292:157,1,60,2|0,0:0|0:0,0:0:0:0:
198,161,65725,2,0,P|202:119|216:84,1,60,2|0,0:3|0:0,0:0:0:0:
96,207,66031,2,0,P|92:249|78:284,1,60,2|0,1:2|0:0,0:0:0:0:
4,320,66337,6,0,P|68:303|200:304,1,179.999994506836,2|0,1:2|0:0,0:0:0:0:
173,326,66796,2,0,P|238:301|415:304,1,209.999993591309,2|0,0:0|0:0,0:0:0:0:
354,319,67255,6,0,B|399:134|331:208|384:34,1,288,2|0,0:3|0:0,0:0:0:0:
237,9,67868,2,0,L|217:119,1,96,0|0,1:0|0:0,0:0:0:0:
101,185,68174,2,0,L|118:90,1,96,2|0,0:3|0:0,0:0:0:0:
4,0,68480,1,0,1:0:0:0:
0,192,68786,5,6,1:2:0:0:
143,277,69092,1,2,0:0:0:0:
286,192,69398,1,2,0:0:0:0:
429,277,69704,1,2,0:0:0:0:
0,192,70622,2,0,P|23:132|3:2,1,192,2|2,0:0|0:0,0:0:0:0:
449,106,73683,5,2,0:0:0:0:
429,277,73989,1,2,0:0:0:0:
286,192,74296,1,2,0:0:0:0:
143,277,74602,2,0,P|120:217|140:87,1,192,2|0,0:0|0:0,0:0:0:0:
279,15,75520,1,2,0:0:0:0:
286,362,76132,6,0,P|278:276|284:153,1,192,2|0,0:0|0:0,0:0:0:0:
116,113,77050,2,0,P|124:199|118:322,1,192,2|0,0:0|0:0,0:0:0:0:
254,379,77969,2,0,P|306:351|348:340,1,96,2|0,0:0|0:0,0:0:0:0:
439,227,78581,6,0,B|351:237|351:237|261:213,1,180,6|2,1:2|0:0,0:0:0:0:
214,131,79193,2,0,L|227:55,2,60,2|0|0,0:0|0:0|1:0,0:0:0:0:
152,279,79805,1,2,0:3:0:0:
37,156,80111,1,0,0:0:0:0:
37,156,80264,1,0,0:0:0:0:
37,156,80417,2,0,L|29:219,1,60,0|0,1:0|0:0,0:0:0:0:
359,374,81030,6,0,B|396:348|396:348|449:349,2,90,2|2|2,0:0|0:0|0:0,0:0:0:0:
231,384,81642,2,0,L|247:251,1,120,0|0,1:0|0:0,0:0:0:0:
207,68,82254,1,2,0:3:0:0:
231,384,82866,1,4,1:3:0:0:
428,117,83478,5,2,0:0:0:0:
428,117,84090,2,0,L|434:177,1,48,2|2,0:0|0:0,0:0:0:0:
362,231,84397,2,0,L|369:266,3,32,2|2|2|2,0:0|0:0|0:0|0:0,0:0:0:0:
107,82,85315,1,2,0:0:0:0:
178,250,85621,1,2,0:0:0:0:
302,118,85927,5,2,0:0:0:0:
409,272,86233,2,0,L|401:325,2,48,2|2|2,0:0|0:0|0:0,0:0:0:0:
