osu file format v14

[General]
AudioFilename: audio.mp3
AudioLeadIn: 0
PreviewTime: 406585
Countdown: 0
SampleSet: Soft
StackLeniency: 0.7
Mode: 0
LetterboxInBreaks: 0
WidescreenStoryboard: 0

[Editor]
Bookmarks: 139983
DistanceSpacing: 3.7
BeatDivisor: 4
GridSize: 32
TimelineZoom: 2.391104

[Metadata]
Title:Crazy Scary Songs Compilation
TitleUnicode:Crazy Scary Songs Compilation
Artist:MYTH & ROID
ArtistUnicode:MYTH & ROID
Creator:wafer
Version:Tragedy Eternity
Source:
Tags:japanese pop rock L.L.L panta rhei voracity tit for tat shadowgraph paradisus-paradoxum hydra holy fantasy 慎重勇者~この勇者が俺TUEEEくせに慎重すぎる~ 異世界チート魔術師 ブギーポップは笑わない オーバーロードⅢ オーバーロードⅡ オーバーロード 劇場版総集編 オーバーロード 不死者の王 Re:ゼロから始める異世界生活 Overlord Season 3 2 1 The Undead King Isekai Cheat Magician Kono Yusha ga Ore Tsue Kuse ni Shincho Sugiru Boogiepop Phantom Re:Zero – Starting Life in Another World opening op ending ed anime english and attendant
BeatmapID:2518730
BeatmapSetID:1209786

[Difficulty]
HPDrainRate:5.5
CircleSize:4
OverallDifficulty:9
ApproachRate:9.3
SliderMultiplier:1.8
SliderTickRate:1

[Events]
//Background and Video events
0,0,"compilation.jpg",0,0
//Break Periods
2,69172,71181
2,76924,80516
2,87283,93820
2,144983,147714
2,179188,180594
2,238538,239761
2,241709,250507
2,301604,308607
2,357799,363794
2,466076,469937
2,474184,475255
2,499489,510311
//Storyboard Layer 0 (Background)
//Storyboard Layer 1 (Fail)
//Storyboard Layer 2 (Pass)
//Storyboard Layer 3 (Foreground)
//Storyboard Layer 4 (Overlay)
//Storyboard Sound Samples

[TimingPoints]
-45,346.820809248555,4,2,2,70,1,0
2382,-100,4,2,2,40,0,0
3076,-142.857142857143,4,2,2,40,0,0
3770,-333.333333333333,4,2,2,40,0,0
4116,-200,4,2,2,40,0,0
4463,-142.857142857143,4,2,2,40,0,0
10012,-125,4,2,2,43,0,0
10359,-111.111111111111,4,2,2,46,0,0
10706,-111.111111111111,4,2,2,50,0,0
11400,-125,4,2,2,50,0,0
23018,-125,4,2,2,55,0,0
24232,-83.3333333333333,4,2,2,55,0,0
24579,-76.9230769230769,4,2,2,70,0,0
32556,-333.333333333333,4,2,2,70,0,0
32902,-76.9230769230769,4,2,2,70,0,0
40533,-62.5,4,2,2,70,0,0
41226,-76.9230769230769,4,2,2,70,0,0
43654,-333.333333333333,4,2,2,70,0,0
44001,-76.9230769230769,4,2,2,70,0,0
46775,-100,4,2,2,60,0,0
52324,-83.3333333333333,4,2,2,70,0,0
54405,-100,4,2,2,70,0,0
55099,-100,4,2,2,60,0,0
57874,-76.9230769230769,4,2,2,70,0,0
60648,-90.9090909090909,4,2,2,70,0,0
67585,-90.9090909090909,4,2,2,72,0,0
68278,-90.9090909090909,4,2,2,75,0,0
68625,-90.9090909090909,4,2,2,78,0,0
68972,-90.9090909090909,4,2,2,50,0,0
71746,-90.9090909090909,4,2,2,60,0,0
75340,307.692307692308,4,2,0,40,1,0
75340,-250,4,2,0,40,0,0
81070,342.857142857143,4,2,3,50,1,0
81070,-133.333333333333,4,2,3,50,0,0
82441,-181.818181818181,4,2,3,45,0,0
83470,413.793103448276,4,2,3,50,1,0
83470,-133.333333333333,4,2,3,55,0,0
83883,300,4,2,3,50,1,0
84883,-133.333333333333,4,2,3,55,0,0
87083,-133.333333333333,4,2,3,20,0,0
94383,-66.6666666666667,4,2,3,60,0,0
96683,-83.3333333333333,4,2,3,70,0,0
100383,-58.8235294117647,4,2,3,73,0,0
100683,-58.8235294117647,4,2,3,76,0,0
100983,-58.8235294117647,4,2,3,80,0,0
101583,-133.333333333333,4,2,3,65,0,0
106383,-111.111111111111,4,2,3,65,0,0
111083,-83.3333333333333,4,2,3,70,0,0
113583,-83.3333333333333,4,2,3,65,0,0
114183,-100,4,2,3,62,0,0
114783,-111.111111111111,4,2,3,58,0,0
115283,-111.111111111111,4,2,3,55,0,0
115683,-125,4,2,3,55,0,0
115883,-125,4,2,3,60,0,0
115983,-111.111111111111,4,2,3,60,0,0
119883,-90.9090909090909,4,2,3,64,0,0
120183,-76.9230769230769,4,2,3,68,0,0
120683,-100,4,2,3,68,0,0
120783,-100,4,2,3,60,0,0
122583,-166.666666666667,4,2,3,60,0,0
123183,-100,4,2,3,60,0,0
124983,-166.666666666667,4,2,3,60,0,0
125583,-100,4,2,3,60,0,0
127383,-166.666666666667,4,2,3,60,0,0
127983,-100,4,2,3,60,0,0
129783,-166.666666666667,4,2,3,60,0,0
130383,-100,4,2,3,60,0,0
132183,-166.666666666667,4,2,3,60,0,0
132783,-100,4,2,3,60,0,0
134583,-166.666666666667,4,2,3,60,0,0
135183,-100,4,2,3,60,0,0
136983,-166.666666666667,4,2,3,60,0,0
137583,-100,4,2,3,55,0,0
138783,-100,4,2,3,52,0,0
139383,-166.666666666667,4,2,3,52,0,0
139983,-100,4,2,3,46,0,0
141183,-100,4,2,3,44,0,0
141783,-166.666666666667,4,2,3,44,0,0
142383,-100,4,2,3,40,0,0
143583,-100,4,2,3,38,0,0
144183,-166.666666666667,4,2,3,38,0,0
144783,-166.666666666667,4,2,3,30,0,0
147783,480,4,2,4,40,1,0
148268,480,4,2,4,40,1,0
148268,-222.222222222221,4,2,4,40,0,0
150188,-222.222222222221,4,2,4,37,0,0
152108,-222.222222222221,4,2,4,34,0,0
154028,-222.222222222221,4,2,4,38,0,0
155948,-222.222222222221,4,2,4,40,0,0
157868,-222.222222222221,4,2,4,37,0,0
159788,-222.222222222221,4,2,4,34,0,0
161708,-222.222222222221,4,2,4,38,0,0
163628,-222.222222222221,4,2,4,44,0,0
164108,-222.222222222221,4,2,4,41,0,0
164588,-222.222222222221,4,2,4,36,0,0
164828,-222.222222222221,4,2,4,32,0,0
165308,-222.222222222221,4,2,4,38,0,0
165548,-222.222222222221,4,2,4,42,0,0
165668,-222.222222222221,4,2,4,43,0,0
165788,-222.222222222221,4,2,4,44,0,0
165908,-222.222222222221,4,2,4,45,0,0
166028,-117.647058823529,4,2,4,47,0,0
166148,-117.647058823529,4,2,4,49,0,0
166268,-117.647058823529,4,2,4,51,0,0
166388,-117.647058823529,4,2,4,53,0,0
166508,-95.2380952380954,4,2,4,55,0,0
166628,-95.2380952380954,4,2,4,56,0,0
166748,-95.2380952380954,4,2,4,58,0,0
166868,-95.2380952380954,4,2,4,60,0,0
166988,-66.6666666666667,4,2,4,62,0,0
167108,-66.6666666666667,4,2,4,64,0,0
167228,-66.6666666666667,4,2,4,66,0,0
167348,-66.6666666666667,4,2,4,68,0,0
167468,-76.9230769230769,4,2,4,50,0,0
171788,-100,4,2,4,50,0,0
173228,-76.9230769230769,4,2,4,50,0,0
175148,-71.4285714285714,4,2,4,50,0,0
176108,-100,4,2,4,50,0,0
177068,-66.6666666666667,4,2,4,50,0,0
178028,-100,4,2,4,50,0,0
181148,-50,4,2,4,60,0,0
182348,-50,4,2,4,50,0,0
182828,-55.5555555555556,4,2,4,65,0,0
183308,-71.4285714285714,4,2,4,65,0,0
183788,-55.5555555555556,4,2,4,65,0,0
184268,-71.4285714285714,4,2,4,65,0,0
184748,-55.5555555555556,4,2,4,65,0,0
185228,-62.5,4,2,4,65,0,0
185708,-83.3333333333333,4,2,4,65,0,0
186188,-52.6315789473684,4,2,4,65,0,0
186668,-50,4,2,4,65,0,0
187148,-58.8235294117647,4,2,4,65,0,0
187628,-66.6666666666667,4,2,4,65,0,0
188588,-45.4545454545455,4,2,4,65,0,0
189068,-41.6666666666667,4,2,4,65,0,0
189548,-133.333333333333,4,2,4,65,0,0
190508,-55.5555555555556,4,2,4,65,0,0
190988,-222.222222222221,4,2,4,65,0,0
191468,-55.5555555555556,4,2,4,65,0,0
191948,-71.4285714285714,4,2,4,65,0,0
192428,-55.5555555555556,4,2,4,65,0,0
192908,-62.5,4,2,4,65,0,0
193148,-40,4,2,4,65,0,0
193388,-200,4,2,4,65,0,0
194588,-66.6666666666667,4,2,4,65,0,0
194828,-66.6666666666667,4,2,4,68,0,0
195308,-66.6666666666667,4,2,4,72,0,0
195788,-66.6666666666667,4,2,4,75,0,0
196508,-47.6190476190476,4,2,4,70,0,0
196748,-333.333333333333,4,2,4,70,0,0
196988,-47.6190476190476,4,2,4,70,0,0
197228,-333.333333333333,4,2,4,70,0,0
197468,-333.333333333333,4,2,4,50,0,0
198188,-66.6666666666667,4,2,4,60,0,0
202028,-55.5555555555556,4,2,4,60,0,0
202508,-71.4285714285714,4,2,4,60,0,0
202988,-55.5555555555556,4,2,4,60,0,0
203468,-71.4285714285714,4,2,4,60,0,0
203948,-55.5555555555556,4,2,4,60,0,0
204428,-62.5,4,2,4,60,0,0
204908,-83.3333333333333,4,2,4,60,0,0
205388,-52.6315789473684,4,2,4,60,0,0
205868,-50,4,2,4,55,0,0
206348,-50,4,2,4,50,0,0
206828,-83.3333333333333,4,2,4,50,0,0
207428,-250,4,2,4,50,0,0
207788,-133.333333333333,4,2,4,50,0,0
208268,-90.9090909090909,4,2,4,50,0,0
208748,-71.4285714285714,4,2,4,50,0,0
209228,-200,4,2,4,50,0,0
209708,-58.8235294117647,4,2,4,50,0,0
210188,-52.6315789473684,4,2,4,55,0,0
210668,-47.6190476190476,4,2,4,60,0,0
211148,-38.4615384615385,4,2,4,70,0,0
211868,-250,4,2,4,55,0,0
213068,-250,4,2,4,50,0,0
213548,-50,4,2,4,65,0,0
214508,-142.857142857143,4,2,4,65,0,0
214988,-55.5555555555556,4,2,4,65,0,0
215468,-50,4,2,4,65,0,0
215948,-200,4,2,4,65,0,0
216428,-66.6666666666667,4,2,4,65,0,0
216908,-90.9090909090909,4,2,4,65,0,0
219308,-111.111111111111,4,2,4,65,0,0
220988,-249.999999999999,4,2,4,65,0,0
221228,-50,4,2,4,65,0,0
222188,-142.857142857143,4,2,4,65,0,0
222668,-55.5555555555556,4,2,4,65,0,0
223148,-50,4,2,4,65,0,0
223628,-200,4,2,4,65,0,0
224108,-66.6666666666667,4,2,4,65,0,0
224588,-90.9090909090909,4,2,4,65,0,0
225308,-100,4,2,4,65,0,0
227228,-50,4,2,4,65,0,0
228188,-50,4,2,4,50,0,0
228428,-133.333333333333,4,2,4,50,0,0
228908,-166.666666666667,4,2,4,45,0,0
230828,-400,4,2,4,45,0,0
232748,-100,4,2,4,45,0,0
234668,-500,4,2,4,45,0,0
236588,-500,4,2,4,40,0,0
240315,298.507462686567,4,2,0,30,1,0
240315,-166.666666666667,4,2,0,30,0,0
241509,-166.666666666667,4,2,99,30,0,0
251061,-133.333333333333,4,2,99,30,0,0
255315,-133.333333333333,4,2,99,32,0,0
255389,-133.333333333333,4,2,99,34,0,0
255464,-133.333333333333,4,2,99,36,0,0
255538,-133.333333333333,4,2,99,38,0,0
255613,-133.333333333333,4,2,99,40,0,0
255688,-133.333333333333,4,2,99,42,0,0
255762,-133.333333333333,4,2,99,44,0,0
255837,-133.333333333333,4,2,5,50,0,0
256434,-100,4,2,5,50,0,0
258225,-100,4,2,5,60,0,0
260613,-76.9230769230769,4,2,5,70,0,0
265389,-76.9230769230769,4,2,5,65,0,0
274046,-100,4,2,5,65,0,0
274941,-100,4,2,5,55,0,0
277329,-166.666666666667,4,2,5,55,0,0
279717,-100,4,2,5,60,0,0
296732,-83.3333333333333,4,2,5,60,0,0
298822,-83.3333333333333,4,2,5,50,0,0
299867,-125,4,2,5,50,0,0
300613,-125,4,2,5,20,0,0
301583,315.789473684211,4,2,0,70,1,0
309161,-100,4,2,6,40,0,0
309793,-125,4,2,6,40,0,0
311688,-125,4,2,6,50,0,0
314214,-125,4,2,6,45,0,0
321161,-500,4,2,6,45,0,0
321793,-117.647058823529,4,2,6,55,0,0
324319,-79.9999999999998,4,2,6,70,0,0
331898,-74.0740740740741,4,2,6,75,0,0
333793,-333.333333333333,4,2,6,75,0,0
334425,-90.9090909090909,4,2,6,70,0,0
343267,-76.9230769230769,4,2,6,75,0,0
343898,-66.6666666666667,4,2,6,80,0,0
344372,-66.6666666666667,4,2,6,75,0,0
344530,-100,4,2,6,70,0,0
354635,-100,4,2,6,50,0,0
354951,-111.111111111111,4,2,6,50,0,0
355898,-125,4,2,6,50,0,0
357491,285.714285714286,4,2,7,70,1,0
364348,-83.3333333333333,4,2,7,40,0,0
365491,-133.333333333333,4,2,7,40,0,0
366062,-285.714285714284,4,2,7,40,0,0
366348,-285.714285714284,4,2,7,38,0,0
367776,-100,4,2,7,55,0,0
376633,-333.333333333333,4,2,7,55,0,0
376919,-76.9230769230769,4,2,7,70,0,0
385491,-58.8235294117647,4,2,7,70,0,0
386062,-90.9090909090909,4,2,7,65,0,0
395205,-111.111111111111,4,2,7,60,0,0
397491,-333.333333333332,4,2,7,60,0,0
398919,-111.111111111111,4,2,7,60,0,0
399110,-333.333333333333,4,2,7,60,0,0
400348,-111.111111111111,4,2,7,60,0,0
403776,-200,4,2,7,60,0,0
404062,-111.111111111111,4,2,7,60,0,0
404348,-333.333333333332,4,2,7,45,0,0
405776,-333.333333333332,4,2,7,15,0,0
407030,288.461538461538,4,2,0,45,1,0
407030,-133.333333333333,4,2,0,45,0,0
412799,-133.333333333333,4,2,0,50,0,0
413664,-90.9090909090909,4,2,0,52,0,0
413736,-90.9090909090909,4,2,0,54,0,0
413808,-90.9090909090909,4,2,0,56,0,0
413880,-90.9090909090909,4,2,0,58,0,0
413953,-90.9090909090909,4,2,0,60,0,0
416549,-90.9090909090909,4,2,0,63,0,0
418856,-90.9090909090909,4,2,0,66,0,0
420587,-90.9090909090909,4,2,0,55,0,0
421741,-76.9230769230769,4,2,0,55,0,0
424770,-125,4,2,0,55,0,0
425491,-66.6666666666667,4,2,0,55,0,0
425635,-133.333333333333,4,2,0,55,0,0
425924,-117.647058823529,4,2,0,55,0,0
426212,-105.263157894737,4,2,0,55,0,0
426501,-95.2380952380951,4,2,0,55,0,0
427222,-66.6666666666667,4,2,0,55,0,0
427510,-500,4,2,0,55,0,0
427799,-76.9230769230769,4,2,0,70,0,0
429962,-250,4,2,0,70,0,0
430106,-76.9230769230769,4,2,0,70,0,0
432414,-86.9565217391304,4,2,0,70,0,0
432703,-100,4,2,0,70,0,0
437029,-76.9230769230769,4,2,0,70,0,0
441645,-86.9565217391304,4,2,0,70,0,0
441933,-100,4,2,0,70,0,0
442799,-86.9565217391304,4,2,0,70,0,0
443087,-100,4,2,0,70,0,0
443808,-83.3333333333333,4,2,0,70,0,0
445828,-333.333333333333,4,2,0,70,0,0
446188,-90.9090909090909,4,2,0,70,0,0
446260,-90.9090909090909,4,2,0,60,0,0
455203,-166.666666666667,4,2,0,60,0,0
455491,-90.9090909090909,4,2,0,60,0,0
465876,-90.9090909090909,4,2,0,50,0,0
470491,-90.9090909090909,4,2,0,45,0,0
471645,-333.333333333333,4,2,0,45,0,0
472222,-333.333333333333,4,2,2,35,0,0
472799,-333.333333333333,4,2,0,25,0,0
473376,-333.333333333333,4,2,2,10,0,0
473953,-333.333333333333,4,2,0,5,0,0
474725,361.44578313253,4,2,0,70,1,0
475809,-200,4,2,8,70,0,0
476170,-83.3333333333333,4,2,8,70,0,0
489002,-82.6446280991736,4,2,8,70,0,0
489182,359.281437125748,4,2,8,70,1,0
489541,-100,4,2,8,70,0,0
490619,365.853658536585,4,2,8,70,1,0
491899,-83.3333333333333,4,2,8,70,0,0
492082,357.142857142857,4,2,8,70,1,0
492260,-100,4,2,8,70,0,0
494046,-83.3333333333333,4,2,8,70,0,0
494582,-71.4285714285714,4,2,8,70,0,0
495117,365.853658536585,4,2,8,70,1,0
495117,-66.6666666666667,4,2,8,70,0,0
496397,-83.3333333333333,4,2,8,70,0,0
497129,355.029585798817,4,2,8,70,1,0
497839,362.537764350453,4,2,8,40,1,0
497839,-333.333333333333,4,2,8,80,0,0
499292,362.537764350453,4,2,8,40,1,0
499292,-333.333333333333,4,2,8,40,0,0
510168,348.837209302325,4,2,8,20,1,0
510865,361.44578313253,4,2,8,30,1,0
510865,-142.857142857143,4,2,8,40,0,0
519539,-333.333333333334,4,2,8,40,0,0
524599,-200,4,2,8,40,0,0
525308,361.44578313253,4,2,8,50,1,0
526768,363.636363636364,4,2,8,50,1,0
527495,-166.666666666667,4,2,8,50,0,0
528221,361.44578313253,4,2,8,50,1,0
531105,361.44578313253,4,2,8,50,1,0
532550,357.142857142857,4,2,8,50,1,0
532550,-333.333333333333,4,2,8,50,0,0
533264,-200,4,2,8,50,0,0
533978,361.44578313253,4,2,8,50,1,0
533978,-100,4,2,8,50,0,0
534700,370.37037037037,4,2,8,70,1,0
535070,-58.8235294117647,4,2,8,70,0,0
535442,361.44578313253,4,2,8,50,1,0
535442,-100,4,2,8,70,0,0
535803,-83.3333333333333,4,2,8,70,0,0
536164,-71.4285714285714,4,2,8,70,0,0
536526,-66.6666666666667,4,2,8,70,0,0
536887,-76.9230769230769,4,2,8,70,0,0
554779,-100,4,2,8,70,0,0
557128,-90.9090909090909,4,2,8,70,0,0
560020,-100,4,2,8,70,0,0
570120,361.44578313253,4,2,8,80,1,0
571586,361.44578313253,4,2,8,70,1,0
575925,352.941176470588,4,2,8,70,1,0
576982,375,4,2,8,70,1,0
577356,361.44578313253,4,2,8,80,1,0
580609,-76.9230769230769,4,2,8,70,0,0
580970,-62.5,4,2,8,70,0,0
581331,-52.6315789473684,4,2,8,70,0,0
581693,-47.6190476190476,4,2,8,70,0,0
582054,-43.4782608695652,4,2,8,70,0,0
582416,-40,4,2,8,70,0,0
583139,362.537764350453,4,2,2,20,1,0
583139,-200,4,2,8,30,0,0
593290,-250,4,2,8,30,0,0
594746,710.059171597633,4,2,8,20,1,0
594746,-333.333333333333,4,2,8,30,0,0
596168,722.89156626506,4,2,8,20,1,0
596168,-333.333333333333,4,2,8,20,0,0
599062,370.37037037037,4,2,8,70,1,0
599062,-333.333333333333,4,2,8,20,0,0
600510,764.331210191083,4,2,8,20,1,0
600510,-111.111111111111,4,2,8,20,0,0
600892,-133.333333333333,4,2,8,20,0,0
601269,810.810810810811,4,2,8,20,1,0
601269,-64.5161290322581,4,2,8,20,0,0
601661,425.531914893616,4,2,8,20,1,0
602086,454.545454545454,4,2,8,20,1,0
602086,-333.333333333333,4,2,8,20,0,0
603904,526.315789473683,4,2,8,70,1,0
603904,-333.333333333333,4,2,8,20,0,0
604430,540.540540540539,4,2,8,70,1,0
604430,-100,4,2,8,17,0,0
604970,594.059405940593,4,2,8,70,1,0
604970,-333.333333333333,4,2,8,17,0,0
605564,-666.666666666667,4,2,8,12,0,0
609722,-666.666666666667,4,2,8,5,0,0

[Colours]
Combo1 : 211,199,160
Combo2 : 186,122,122
Combo3 : 172,184,193
Combo4 : 181,186,158
Combo5 : 157,155,172

[HitObjects]
206,116,2382,5,4,3:2:0:0:
322,172,2729,1,2,0:0:0:0:
322,172,2816,1,2,0:0:0:0:
378,120,3076,2,0,P|417:111|513:90,1,125.999996154785,0|0,3:0|3:0,0:0:0:0:
500,92,3596,1,0,0:0:0:0:
461,177,3770,6,0,P|455:192|449:210,1,26.9999991760254,2|0,3:0|0:0,0:0:0:0:
379,233,4116,2,0,P|388:254|399:274,1,45,2|0,3:0|0:0,0:0:0:0:
337,336,4463,2,0,B|403:332|384:377|465:388,1,125.999996154785,2|0,3:2|3:0,0:0:0:0:
306,264,4983,1,2,0:0:0:0:
306,264,5070,1,2,0:0:0:0:
306,264,5157,5,2,3:2:0:0:
337,336,5330,1,2,0:0:0:0:
225,232,5504,2,0,P|184:217|158:212,1,62.9999980773926,2|0,3:2|0:0,0:0:0:0:
20,167,5850,2,0,P|67:186|108:131,1,125.999996154785,0|0,3:0|3:0,0:0:0:0:
41,91,6371,1,0,0:0:0:0:
109,135,6544,2,0,P|115:87|128:24,1,94.499997116089,2|0,3:2|0:0,0:0:0:0:
110,26,6891,1,0,3:2:0:0:
188,106,7064,1,2,0:0:0:0:
258,55,7238,2,0,P|326:42|392:32,1,125.999996154785,0|2,3:0|3:2,0:0:0:0:
480,92,7758,1,2,0:0:0:0:
480,92,7845,1,2,0:0:0:0:
480,92,7931,2,0,P|461:125|398:128,1,94.499997116089,2|0,3:2|0:0,0:0:0:0:
378,147,8278,5,0,3:2:0:0:
378,147,8452,1,2,0:0:0:0:
432,216,8625,2,0,L|443:280,1,62.9999980773926,2|0,0:0|0:0,0:0:0:0:
403,345,8972,1,0,3:0:0:0:
442,278,9145,1,0,0:0:0:0:
312,208,9319,1,0,3:2:0:0:
358,270,9492,5,2,0:0:0:0:
284,198,9665,6,0,P|264:270|258:304,1,94.499997116089,2|0,3:0|0:0,0:0:0:0:
186,333,10012,2,0,P|175:280|160:228,1,108,2|0,3:0|0:0,0:0:0:0:
95,178,10359,2,0,P|78:236|67:296,1,121.499996292114,2|0,3:2|0:0,0:0:0:0:
5,347,10706,5,2,3:2:0:0:
67,296,10879,1,2,0:0:0:0:
8,186,11053,1,2,3:2:0:0:
8,186,11226,1,4,0:3:0:0:
95,178,11400,2,0,P|104:143|116:109,1,72,2|0,3:2|3:2,0:0:0:0:
65,49,11746,1,4,3:3:0:0:
160,109,11920,1,0,3:0:0:0:
160,109,12007,1,0,3:0:0:0:
160,109,12093,2,0,P|198:76|185:12,1,108,2|0,3:2|0:0,0:0:0:0:
158,14,12440,5,2,3:2:0:0:
234,88,12613,1,4,0:3:0:0:
320,13,12787,1,0,3:0:0:0:
269,81,12960,1,4,3:3:0:0:
364,163,13134,1,0,3:0:0:0:
368,180,13220,1,0,3:0:0:0:
371,198,13307,1,0,3:0:0:0:
374,215,13394,1,0,3:0:0:0:
375,232,13481,6,0,B|456:217|426:294|512:280,1,144,2|0,3:2|3:0,0:0:0:0:
382,325,14001,1,4,0:3:0:0:
382,325,14174,1,2,3:2:0:0:
311,278,14348,1,0,3:3:0:0:
221,363,14521,1,4,3:3:0:0:
153,321,14694,2,0,P|164:287|178:241,1,72,0|2,3:2|3:2,0:0:0:0:
48,142,15041,1,4,0:3:0:0:
37,224,15215,2,0,P|71:213|117:199,1,72,0|2,3:0|3:2,0:0:0:0:
256,88,15561,1,2,3:2:0:0:
338,197,15735,1,0,3:0:0:0:
338,197,15822,1,0,3:0:0:0:
338,197,15908,1,0,3:0:0:0:
363,192,15995,1,0,3:0:0:0:
383,173,16082,1,0,3:0:0:0:
390,148,16168,1,0,3:0:0:0:
382,123,16255,5,2,3:2:0:0:
256,88,16428,1,2,0:0:0:0:
130,123,16602,1,2,3:2:0:0:
130,123,16775,1,4,0:3:0:0:
241,74,16949,2,0,L|250:-3,1,72,2|0,3:2|3:2,0:0:0:0:
65,49,17296,1,4,3:3:0:0:
130,123,17469,2,0,P|96:136|64:152,2,72,0|2|0,3:0|3:2|3:2,0:0:0:0:
249,2,17989,5,2,3:2:0:0:
323,78,18163,1,4,0:3:0:0:
248,164,18336,1,0,3:0:0:0:
316,113,18509,1,4,3:3:0:0:
393,207,18683,1,0,3:0:0:0:
410,211,18770,1,0,3:0:0:0:
428,214,18856,1,0,3:0:0:0:
445,217,18943,1,0,3:0:0:0:
463,220,19030,6,0,B|485:258|485:258|438:383,1,144,2|0,3:2|3:0,0:0:0:0:
319,244,19550,1,2,3:0:0:0:
382,174,19723,1,0,3:0:0:0:
367,167,20070,1,0,3:0:0:0:
430,95,20244,1,2,3:2:0:0:
430,95,20330,1,0,3:2:0:0:
430,95,20417,2,0,L|502:78,1,72,2|2,3:2|3:0,0:0:0:0:
333,37,20764,2,0,L|261:20,1,72,0|4,3:0|0:3,0:0:0:0:
350,147,21111,5,0,3:0:0:0:
260,272,21284,1,0,3:0:0:0:
282,105,21457,5,4,3:0:0:0:
260,272,21631,1,4,3:0:0:0:
130,14,23018,5,0,3:2:0:0:
136,45,23105,1,0,3:0:0:0:
143,77,23191,2,0,L|137:128,1,36,10|0,0:2|3:0,0:0:0:0:
99,234,23365,2,0,L|94:198,1,36,8|8,0:2|0:2,0:0:0:0:
213,188,23538,6,0,L|162:182,1,36,10|0,0:2|3:0,0:0:0:0:
27,127,23712,2,0,L|62:122,1,36,8|0,0:2|3:0,0:0:0:0:
299,188,23885,6,0,L|350:182,1,36,8|0,0:2|3:0,0:0:0:0:
485,127,24059,2,0,L|449:122,1,36,2|0,3:0|3:0,0:0:0:0:
260,228,24232,6,2,L|260:50,1,161.999995056153,6|0,3:2|0:0,0:1:0:0:
143,77,24579,6,0,B|75:72|34:137|34:137|64:106|97:114,1,175.499991966248,6|0,3:2|0:0,0:0:0:0:
171,219,24926,1,10,0:2:0:0:
126,282,25099,2,0,P|151:288|153:211,1,116.999994644165,2|0,3:2|3:2,0:0:0:0:
24,278,25446,1,2,0:2:0:0:
166,370,25619,2,0,B|256:360|215:273|340:278,1,175.499991966248,10|0,0:2|0:0,0:0:0:0:
471,240,25966,2,0,P|479:342|378:331,1,233.999989288331,6|8,3:2|0:2,0:0:0:0:
459,239,26660,5,6,3:2:0:0:
356,100,26833,1,2,0:2:0:0:
437,38,27007,1,10,0:2:0:0:
494,87,27180,1,2,0:2:0:0:
382,260,27353,6,0,B|384:208|319:181|319:181|274:185|260:239,1,175.499991966248,6|0,3:2|0:0,0:0:0:0:
230,319,27700,1,10,0:2:0:0:
168,274,27874,2,0,P|162:299|239:301,1,116.999994644165,4|0,3:3|3:2,0:0:0:0:
190,196,28220,1,2,0:2:0:0:
42,194,28394,2,0,B|132:184|91:97|216:102,1,175.499991966248,10|0,0:2|0:0,0:0:0:0:
306,0,28741,2,0,B|285:43|319:101|319:101|285:43|219:25,1,233.999989288331,6|8,3:2|0:2,0:0:0:0:
460,15,29434,2,0,P|446:101|428:261,1,233.999989288331,2|10,3:2|0:2,0:0:0:0:
419,262,30128,6,0,P|439:328|452:377,1,116.999994644165,6|0,3:2|0:0,0:0:0:0:
284,281,30475,2,0,B|278:251|290:223|290:223|323:213|356:229,1,116.999994644165,10|2,0:2|0:2,0:0:0:0:
197,343,30822,2,0,P|109:317|70:308,1,116.999994644165,2|2,3:2|0:2,0:0:0:0:
5,377,31168,1,2,3:2:0:0:
42,172,31342,2,0,P|98:178|127:227,1,116.999994644165,2|0,0:2|3:2,0:0:0:0:
84,311,31689,1,2,3:2:0:0:
0,102,31862,1,10,0:2:0:0:
0,102,32035,1,2,0:2:0:0:
42,172,32209,2,0,B|110:158|110:158|137:128|137:128|201:118,1,175.499991966248,2|0,3:2|0:0,0:0:0:0:
264,22,32556,6,0,L|258:62,1,40.4999987640381,10|0,0:2|0:0,0:0:0:0:
256,192,32902,5,2,3:2:0:0:
320,125,33076,1,2,0:2:0:0:
341,269,33249,1,10,0:2:0:0:
320,125,33423,1,2,0:2:0:0:
440,100,33596,1,2,3:2:0:0:
256,192,33770,1,2,0:2:0:0:
465,214,33943,5,10,0:2:0:0:
465,214,34116,2,0,P|450:156|439:94,1,116.999994644165,2|0,0:2|3:2,0:0:0:0:
316,384,34463,5,2,0:2:0:0:
316,384,34637,2,0,P|331:326|342:264,1,116.999994644165,0|0,3:2|0:0,0:0:0:0:
64,192,34983,5,6,3:2:0:0:
130,305,35157,1,10,0:2:0:0:
227,156,35330,1,10,0:2:0:0:
184,147,35417,1,8,0:2:0:0:
145,166,35504,1,8,0:2:0:0:
108,188,35590,1,8,0:2:0:0:
64,192,35677,6,0,B|16:145|56:65|56:65|69:103,1,175.499991966248,6|0,3:2|0:0,0:0:0:0:
177,29,36024,1,10,0:2:0:0:
261,82,36197,2,0,P|200:75|177:28,1,116.999994644165,2|0,3:2|3:2,0:0:0:0:
363,43,36544,1,2,0:2:0:0:
432,128,36718,2,0,P|419:214|408:301,1,175.499991966248,10|0,0:2|0:0,0:0:0:0:
252,297,37064,2,0,B|353:299|304:373|396:380,1,175.499991966248,6|0,3:2|0:0,0:0:0:0:
141,342,37411,1,8,0:2:0:0:
216,280,37585,1,0,0:0:0:0:
99,149,37758,5,6,3:2:0:0:
216,280,37931,1,2,0:2:0:0:
300,171,38105,1,10,0:2:0:0:
219,114,38278,1,2,0:2:0:0:
90,295,38452,6,0,B|63:122,1,175.499991966248,6|0,3:2|0:0,0:0:0:0:
163,34,38798,1,10,0:2:0:0:
219,114,38972,2,0,P|204:47|143:41,1,116.999994644165,4|0,3:3|3:2,0:0:0:0:
164,210,39319,1,2,0:2:0:0:
256,272,39492,2,0,B|340:274|320:191|409:192,1,175.499991966248,10|0,0:2|0:0,0:0:0:0:
498,298,39839,2,0,P|462:265|434:385,1,233.999989288331,6|8,3:2|0:2,0:0:0:0:
358,202,40359,1,0,3:2:0:0:
492,84,40533,6,2,B|419:72|443:30|402:11|402:8|402:8|360:-20|299:10|299:10|341:100,1,288,2|8,0:1|0:2,0:1:0:0:
334,78,41226,6,0,P|258:99|204:118,1,116.999994644165,6|0,3:2|3:2,0:0:0:0:
72,13,41573,2,0,P|78:71|144:65,1,116.999994644165,10|0,0:2|0:0,0:0:0:0:
256,206,41920,2,0,P|180:185|126:166,1,116.999994644165,2|0,3:2|3:2,0:0:0:0:
8,243,42267,1,10,0:2:0:0:
56,314,42440,2,0,P|112:308|141:259,1,116.999994644165,2|0,0:2|3:2,0:0:0:0:
25,141,42787,1,2,3:2:0:0:
0,384,42960,1,10,0:2:0:0:
0,384,43134,1,2,0:2:0:0:
56,314,43307,2,0,L|175:302,1,116.999994644165,10|2,0:2|3:2,0:0:0:0:
264,362,43654,6,0,L|258:322,1,40.4999987640381,8|0,0:2|0:0,0:0:0:0:
256,192,44001,5,6,3:2:0:0:
320,259,44174,1,2,0:2:0:0:
341,115,44348,1,10,0:2:0:0:
342,336,44521,1,6,3:2:0:0:
350,344,44868,1,0,3:2:0:0:
425,234,45041,5,6,3:2:0:0:
358,170,45214,1,2,0:2:0:0:
502,149,45388,1,10,0:2:0:0:
281,148,45561,1,6,3:2:0:0:
271,168,45908,1,0,3:2:0:0:
208,83,46082,6,0,B|53:0|53:0|64:63,1,233.999989288331,10|8,0:2|0:2,0:0:0:0:
161,203,46602,1,2,0:2:0:0:
161,203,46689,1,2,0:2:0:0:
161,203,46775,6,0,P|93:174|-8:133,1,180,6|8,3:2|0:2,0:0:0:0:
256,240,47296,1,2,3:2:0:0:
351,203,47469,1,2,0:2:0:0:
512,134,47642,1,0,3:2:0:0:
464,256,47816,1,8,0:2:0:0:
376,216,47989,1,2,0:2:0:0:
487,0,48163,6,0,P|470:72|447:178,1,180,6|8,3:2|0:2,0:0:0:0:
256,368,48683,1,2,3:2:0:0:
214,275,48856,1,2,0:2:0:0:
146,109,49030,1,0,3:2:0:0:
97,233,49203,2,0,B|166:221|135:167|243:165,1,135,8|0,0:2|0:0,0:0:0:0:
246,151,49550,6,0,B|232:103|250:48|250:48|220:70,1,135,4|0,3:2|0:0,0:0:0:0:
146,109,49897,1,8,0:2:0:0:
340,67,50070,1,0,3:2:0:0:
411,140,50244,1,2,0:2:0:0:
411,140,50417,1,0,3:2:0:0:
502,59,50590,1,8,0:2:0:0:
502,59,50764,1,2,0:2:0:0:
391,170,50937,2,0,P|404:238|417:317,1,135,2|0,3:0|0:0,0:0:0:0:
383,338,51284,1,8,0:2:0:0:
478,215,51457,1,0,3:2:0:0:
344,103,51631,6,0,P|314:144|321:194,1,90,2|0,0:2|3:2,0:0:0:0:
159,287,51978,1,10,0:2:0:0:
213,175,52151,1,2,0:2:0:0:
291,323,52324,6,0,B|213:286|221:385|131:357,1,161.999995056153,6|0,3:2|0:0,0:0:0:0:
81,312,52671,1,10,0:2:0:0:
204,196,52845,2,0,B|170:152|170:152|55:200,1,161.999995056153,2|0,3:2|0:0,0:0:0:0:
2,236,53191,1,2,0:2:0:0:
160,68,53365,2,0,B|244:47|214:147|309:124,1,161.999995056153,10|0,0:2|0:0,0:0:0:0:
451,100,53712,2,0,P|350:111|325:210,1,215.999993408203,6|8,3:2|0:2,0:0:0:0:
485,274,54232,1,0,3:2:0:0:
485,274,54405,2,0,P|495:220|506:166,1,90,2|0,0:2|3:2,0:0:0:0:
311,147,54752,1,8,0:2:0:0:
382,361,54926,1,0,3:2:0:0:
377,214,55099,5,2,3:2:0:0:
256,256,55272,1,2,0:2:0:0:
256,368,55446,1,10,0:2:0:0:
135,215,55619,1,6,3:2:0:0:
147,223,55966,1,0,3:2:0:0:
256,112,56139,5,10,0:2:0:0:
377,154,56313,1,2,0:2:0:0:
377,266,56486,1,10,0:2:0:0:
501,112,56660,1,6,3:2:0:0:
492,119,57007,1,0,3:2:0:0:
405,34,57180,6,0,L|434:228,1,180,10|10,0:2|0:2,0:0:0:0:
365,292,57700,1,2,0:2:0:0:
228,226,57874,6,0,B|185:174|102:206|102:206|138:223,1,175.499991966248,6|0,3:2|0:0,0:0:0:0:
190,315,58220,1,10,0:2:0:0:
106,367,58394,2,0,P|167:360|190:313,1,116.999994644165,2|0,3:2|3:2,0:0:0:0:
21,192,58741,1,2,0:2:0:0:
91,122,58914,2,0,P|77:208|66:295,1,175.499991966248,10|0,0:2|0:0,0:0:0:0:
230,128,59261,2,0,B|138:121|187:47|77:44,1,175.499991966248,6|0,3:2|0:0,0:0:0:0:
16,100,59608,1,8,0:2:0:0:
85,44,59781,1,2,0:2:0:0:
258,153,59955,6,0,P|343:128|429:115,1,175.499991966248,6|0,3:2|0:0,0:0:0:0:
450,93,60301,2,0,P|363:105|279:130,1,175.499991966248,10|0,0:2|0:0,0:0:0:0:
213,220,60648,5,6,3:2:0:0:
213,220,60822,1,2,0:2:0:0:
309,304,60995,2,0,P|345:262|332:212,1,99.0000030212403,10|2,0:2|3:2,0:0:0:0:
114,155,61342,2,0,B|79:196|79:196|103:268,1,99.0000030212403,0|2,3:2|0:2,0:0:0:0:
181,330,61689,1,10,0:2:0:0:
184,141,61862,2,0,P|119:106|84:90,1,99.0000030212403,2|2,0:2|3:2,0:0:0:0:
257,31,62209,1,2,0:2:0:0:
328,141,62382,2,0,P|393:106|428:90,1,99.0000030212403,8|2,0:2|0:2,0:0:0:0:
264,240,62729,6,0,L|254:87,1,148.50000453186,6|0,3:2|0:0,0:0:0:0:
265,56,63076,2,0,L|255:204,1,148.50000453186,10|0,0:2|0:0,0:0:0:0:
325,284,63423,6,0,P|386:236|486:271,1,148.50000453186,14|0,0:2|0:0,0:0:0:0:
504,317,63770,1,10,0:2:0:0:
268,384,63943,2,0,P|256:332|239:268,1,99.0000030212403,2|8,0:2|0:0,0:0:0:0:
152,218,64290,1,2,0:0:0:0:
47,378,64463,2,0,B|124:363|87:297|199:298,1,148.50000453186,10|0,2:0|0:0,0:0:0:0:
63,232,64810,2,0,P|35:163|4:95,1,148.50000453186,8|0,0:2|0:0,0:0:0:0:
87,37,65157,1,8,0:2:0:0:
87,37,65330,1,2,0:0:0:0:
216,191,65504,6,0,P|284:173|298:87,1,148.50000453186,6|0,3:2|0:0,0:0:0:0:
325,129,65850,2,0,P|305:197|236:215,1,148.50000453186,10|0,0:2|0:0,0:0:0:0:
164,148,66197,5,6,3:2:0:0:
164,148,66371,1,2,0:2:0:0:
274,24,66544,2,0,P|310:66|297:116,1,99.0000030212403,10|2,0:2|0:2,0:0:0:0:
38,220,66891,2,0,B|3:179|3:179|27:107,1,99.0000030212403,8|2,0:0|0:0,0:0:0:0:
125,22,67238,1,10,2:0:0:0:
135,227,67411,2,0,P|70:262|35:278,1,99.0000030212403,0|8,3:0|0:2,0:0:0:0:
256,336,67758,1,10,0:0:0:0:
416,224,67931,1,8,0:2:0:0:
256,48,68105,1,10,0:0:0:0:
369,341,68278,5,10,0:2:0:0:
416,224,68452,1,10,0:2:0:0:
125,22,68625,5,10,0:2:0:0:
172,139,68798,1,10,0:2:0:0:
256,48,68972,5,2,0:0:0:0:
128,290,71746,5,4,3:2:0:0:
99,182,71920,1,8,0:2:0:0:
111,349,72093,1,10,0:2:0:0:
277,297,72267,1,2,3:2:0:0:
80,169,72440,6,0,P|63:112|43:39,1,99.0000030212403,2|8,3:2|0:2,0:0:0:0:
160,0,72787,1,10,0:2:0:0:
249,133,72960,2,0,P|189:116|133:100,1,99.0000030212403,2|2,3:2|3:2,0:0:0:0:
326,23,73307,1,0,3:2:0:0:
402,156,73481,2,0,P|462:139|518:123,1,99.0000030212403,6|8,3:2|0:2,0:0:0:0:
169,14,73827,5,10,0:2:0:0:
344,259,74001,1,8,0:2:0:0:
419,184,74174,1,8,0:2:0:0:
37,132,74348,1,6,0:2:0:0:
256,192,75340,6,2,B|166:152|150:275|56:258,1,216,2|2,0:0|0:0,0:1:0:0:
63,259,76647,1,2,0:0:0:0:
63,259,76724,1,2,0:0:0:0:
24,164,81070,6,2,B|149:154|83:39|181:10|271:12|318:85|318:85|269:185|192:128,1,506.250019311906,14|0,0:2|0:0,0:1:0:0:
238,227,82441,2,2,B|291:237|338:186|338:186|348:201|348:201|390:150|474:193,1,247.500007553101,2|0,0:0|0:0,0:1:0:0:
470,197,83470,6,0,P|460:243|443:333,1,135.000005149842,14|0,0:2|3:2,0:0:0:0:
351,370,84083,1,2,3:2:0:0:
303,310,84183,1,14,0:2:0:0:
143,379,84483,2,0,P|115:369|25:341,1,120,0|8,3:2|0:2,0:0:0:0:
213,285,84783,2,0,P|229:240|251:156,1,120,10|10,0:2|0:2,0:0:0:0:
108,114,85083,1,8,0:2:0:0:
114,151,85183,1,8,0:2:0:0:
140,156,85283,2,0,B|204:140|177:96|261:82,2,135.000005149842,8|0|0,0:2|3:2|3:2,0:0:0:0:
256,192,87083,5,0,1:0:0:0:
97,64,94383,6,0,L|18:44,1,67.5000025749208,6|0,3:0|0:0,0:0:0:0:
115,85,94683,1,0,0:0:0:0:
415,64,94983,6,0,L|494:44,1,67.5000025749208,6|0,3:0|0:0,0:0:0:0:
397,85,95283,1,0,0:0:0:0:
256,256,95583,6,0,L|276:335,1,67.5000025749208,6|0,3:0|0:0,0:0:0:0:
235,238,95783,1,0,0:0:0:0:
235,238,95883,1,0,0:0:0:0:
437,320,96083,6,0,L|527:342,1,90.0000034332277,6|0,3:0|0:0,0:0:0:0:
74,320,96383,6,0,L|-15:342,1,90.0000034332277,6|0,3:0|0:0,0:0:0:0:
257,152,96683,6,0,B|370:153|321:230|461:234,1,215.999993408203,14|0,0:2|3:0,0:0:0:0:
403,99,97083,2,0,B|473:74|473:74|502:138,1,143.999995605469,10|0,0:2|0:0,0:0:0:0:
257,152,97383,6,0,P|199:116|206:48,1,143.999995605469,10|0,0:2|3:0,0:0:0:0:
343,155,97683,2,0,P|321:223|297:291,1,143.999995605469,10|0,0:2|3:0,0:0:0:0:
105,194,97983,6,0,P|139:206|173:219,1,71.9999978027344,14|0,0:2|0:0,0:0:0:0:
0,96,98183,2,0,P|31:215|37:243,1,143.999995605469,2|0,3:2|0:0,0:0:0:0:
10,379,98483,1,2,3:2:0:0:
1,367,98583,2,0,P|9:335|51:313,1,71.9999978027344,0|0,3:3|0:0,0:0:0:0:
193,274,98783,1,0,3:3:0:0:
181,286,98883,2,0,P|97:264|72:259,1,71.9999978027344,8|0,0:2|0:0,0:0:0:0:
324,378,99083,6,0,B|387:359|387:359|422:311|422:311|522:289,1,215.999993408203,14|0,0:2|3:0,0:0:0:0:
345,170,99483,2,0,B|302:260|302:260|325:298,1,143.999995605469,10|0,0:2|0:0,0:0:0:0:
483,93,99783,2,0,P|450:30|389:78,1,143.999995605469,10|0,0:2|3:0,0:0:0:0:
325,298,100083,2,0,P|306:229|283:161,1,143.999995605469,10|0,0:2|3:0,0:0:0:0:
216,373,100383,6,2,B|137:352|171:301|83:300,1,153.000002918243,2|0,3:1|0:0,0:1:0:0:
3,217,100583,1,0,3:0:0:0:
7,221,100683,2,2,B|86:200|52:149|140:148,1,153.000002918243,2|0,3:1|0:0,0:1:0:0:
150,47,100883,1,0,3:0:0:0:
150,47,100983,2,2,B|229:68|195:119|283:120,1,153.000002918243,2|0,3:1|0:0,0:1:0:0:
377,43,101183,1,8,0:0:0:0:
308,0,101283,2,0,B|337:110|408:63|410:186,1,204.000003890991,8|0,0:0|3:2,0:0:0:0:
469,250,101583,6,0,P|483:196|495:156,1,90.0000034332277,6|0,3:2|3:2,0:0:0:0:
313,194,101883,2,0,P|325:237|336:280,1,90.0000034332277,10|0,0:0|0:0,0:0:0:0:
447,351,102183,2,0,P|458:307|470:264,1,90.0000034332277,2|0,3:2|3:2,0:0:0:0:
321,298,102483,2,0,P|333:341|344:384,1,90.0000034332277,10|0,0:0|3:2,0:0:0:0:
247,254,102783,2,0,P|190:254|162:212,1,90.0000034332277,2|0,3:2|3:2,0:0:0:0:
106,177,103083,2,0,B|120:135|120:135|181:153,1,90.0000034332277,10|2,0:0|0:0,0:0:0:0:
240,92,103383,2,0,P|240:35|198:7,1,90.0000034332277,10|0,0:0|3:2,0:0:0:0:
166,70,103683,1,2,3:2:0:0:
295,167,103883,1,0,3:2:0:0:
353,115,103983,2,0,L|462:94,1,90.0000034332277,2|0,0:0|3:2,0:0:0:0:
444,223,104283,6,0,P|396:228|370:199,1,90.0000034332277,10|0,0:0|3:2,0:0:0:0:
284,301,104583,2,0,P|272:257|260:214,1,90.0000034332277,2|0,3:2|3:2,0:0:0:0:
144,357,104883,2,0,P|155:313|167:270,1,90.0000034332277,2|2,3:2|0:2,0:0:0:0:
52,182,105183,2,0,P|64:225|75:268,1,90.0000034332277,10|0,0:0|3:2,0:0:0:0:
178,82,105483,2,0,P|165:126|155:170,1,90.0000034332277,2|0,3:2|3:2,0:0:0:0:
85,21,105783,2,0,B|56:51|56:51|92:110,1,90.0000034332277,2|0,3:2|3:2,0:0:0:0:
255,39,106083,2,0,B|209:47|230:71|178:82,1,90.0000034332277,10|0,0:0|3:2,0:0:0:0:
322,115,106383,6,0,P|390:114|396:34,1,161.999995056153,6|8,0:2|0:2,0:0:0:0:
237,178,106883,1,0,0:0:0:0:
213,202,106983,2,0,P|166:172|110:152,1,107.999996704102,2|0,3:2|3:2,0:0:0:0:
5,130,107283,2,0,P|35:177|55:233,1,107.999996704102,2|0,3:2|3:2,0:0:0:0:
6,312,107583,5,6,3:2:0:0:
120,373,107783,1,2,0:2:0:0:
113,363,107883,2,0,P|153:318|215:341,1,107.999996704102,8|2,0:2|0:2,0:0:0:0:
246,381,108183,1,2,3:2:0:0:
317,254,108383,1,0,3:2:0:0:
295,267,108483,2,0,L|318:325,1,53.9999983520508,8|0,0:2|0:0,0:0:0:0:
367,383,108683,2,0,B|331:315|411:298|355:199,1,161.999995056153,6|0,3:2|3:0,0:0:0:0:
289,190,109083,2,0,B|251:160|251:160|191:211,1,107.999996704102,8|0,0:2|3:0,0:0:0:0:
135,252,109383,5,2,3:2:0:0:
65,124,109583,1,0,3:0:0:0:
43,146,109683,1,8,0:2:0:0:
205,47,109883,1,0,3:0:0:0:
184,120,109983,5,6,3:2:0:0:
298,59,110183,1,2,0:2:0:0:
291,69,110283,2,0,P|331:114|393:91,1,107.999996704102,8|2,0:2|0:2,0:0:0:0:
424,50,110583,1,2,3:2:0:0:
495,178,110783,1,2,3:2:0:0:
473,165,110883,2,0,L|496:107,1,53.9999983520508,8|0,0:2|0:0,0:0:0:0:
377,140,111083,6,0,B|378:253|455:204|459:344,1,215.999993408203,14|0,0:2|3:0,0:0:0:0:
324,285,111483,2,0,B|299:355|299:355|363:384,1,143.999995605469,10|0,0:2|0:0,0:0:0:0:
377,140,111783,6,0,P|346:84|258:107,1,143.999995605469,10|0,0:2|3:0,0:0:0:0:
163,131,112083,2,0,P|232:153|300:177,1,143.999995605469,10|0,0:2|3:0,0:0:0:0:
396,293,112383,6,0,P|383:259|371:225,1,71.9999978027344,14|0,0:2|0:0,0:0:0:0:
331,354,112583,2,0,P|212:323|184:317,1,143.999995605469,2|0,3:2|0:0,0:0:0:0:
114,350,112883,1,2,3:2:0:0:
126,358,112983,2,0,P|105:287|103:281,1,71.9999978027344,0|0,3:3|0:0,0:0:0:0:
163,131,113183,1,2,3:2:0:0:
148,139,113283,2,0,L|160:244,1,71.9999978027344,8|0,0:2|0:0,0:0:0:0:
305,270,113483,1,10,0:2:0:0:
331,354,113583,6,0,P|251:349|228:262,1,143.999995605469,6|0,3:2|3:0,0:0:0:0:
138,225,113883,2,0,P|151:145|167:60,1,143.999995605469,10|0,0:2|0:0,0:0:0:0:
63,48,114183,2,0,B|17:77|17:77|68:118,1,120,14|0,0:2|3:0,0:0:0:0:
162,83,114483,2,0,B|229:72|192:20|305:29,1,120,10|0,0:2|3:0,0:0:0:0:
352,102,114783,6,0,P|323:182|318:196,1,53.9999983520508,14|0,0:2|0:0,0:0:0:0:
302,245,114983,1,2,3:2:0:0:
316,258,115083,2,0,P|435:227|463:221,1,107.999996704102,10|6,0:2|3:2,0:0:0:0:
491,263,115383,1,0,3:3:0:0:
391,81,115583,1,2,3:2:0:0:
446,137,115683,2,0,L|504:124,1,48,8|8,0:2|0:2,0:0:0:0:
409,217,115883,1,4,3:2:0:0:
434,304,115983,6,0,B|350:299|381:390|272:386,1,161.999995056153,2|0,0:0|3:0,0:0:0:0:
161,361,116483,1,0,3:0:0:0:
175,352,116583,2,0,P|162:297|146:239,1,107.999996704102,0|0,3:3|3:0,0:0:0:0:
76,205,116883,2,0,P|87:152|102:100,1,107.999996704102,8|0,0:2|3:0,0:0:0:0:
41,46,117183,5,6,3:2:0:0:
176,148,117383,1,2,0:0:0:0:
183,157,117483,2,0,P|236:130|230:64,1,107.999996704102,8|2,0:2|0:0,0:0:0:0:
212,20,117783,1,8,0:2:0:0:
340,75,117983,1,2,3:2:0:0:
352,60,118083,1,0,3:2:0:0:
440,229,118283,6,0,P|461:127|485:37,1,161.999995056153,10|2,0:2|3:2,0:0:0:0:
446,77,118683,2,0,P|433:130|423:183,1,107.999996704102,8|0,0:2|0:0,0:0:0:0:
338,221,118983,2,0,P|331:269|385:304,1,107.999996704102,0|0,3:2|3:2,0:0:0:0:
491,334,119283,2,0,P|435:362|394:388,1,107.999996704102,8|8,0:2|0:2,0:0:0:0:
277,358,119583,6,0,L|202:333,1,53.9999983520508,10|0,0:2|0:0,0:0:0:0:
128,192,119883,6,0,L|66:212,1,66.0000020141602,10|0,0:2|0:0,0:0:0:0:
256,32,120183,6,0,L|329:56,1,77.9999964294435,10|0,0:2|0:0,0:0:0:0:
192,96,120383,1,0,3:2:0:0:
192,96,120483,1,0,3:2:0:0:
298,234,120683,5,6,3:2:0:0:
371,267,120783,1,0,3:0:0:0:
398,100,121083,1,10,0:2:0:0:
249,177,121283,5,8,0:2:0:0:
298,234,121383,2,0,P|318:332|330:399,1,120,8|0,0:2|3:2,0:0:0:0:
236,322,121683,2,0,B|184:296|184:296|244:231,1,120,10|0,0:2|3:2,0:0:0:0:
142,212,121983,1,2,3:2:0:0:
61,361,122183,1,2,3:2:0:0:
100,294,122283,2,0,L|76:170,1,120,8|2,0:2|0:2,0:0:0:0:
111,98,122583,6,0,B|134:92|134:92|150:152,1,71.9999978027344,14|0,3:2|3:2,0:0:0:0:
39,66,122883,2,0,B|15:71|15:71|0:12,1,71.9999978027344,14|0,3:2|3:2,0:0:0:0:
136,92,123183,5,6,3:2:0:0:
271,15,123483,1,10,0:2:0:0:
383,125,123683,5,8,0:2:0:0:
334,182,123783,2,0,P|314:280|302:347,1,120,8|0,0:2|3:2,0:0:0:0:
396,270,124083,2,0,B|448:244|448:244|388:179,1,120,10|0,0:2|3:2,0:0:0:0:
334,182,124383,1,2,3:2:0:0:
379,346,124583,1,2,3:2:0:0:
379,346,124683,2,0,B|309:329|336:400|226:378,1,120,8|2,0:2|0:2,0:0:0:0:
194,343,124983,6,0,B|170:319|170:319|117:329,1,71.9999978027344,14|0,3:2|3:2,0:0:0:0:
61,365,125283,2,0,B|24:373|24:373|0:349,1,71.9999978027344,14|0,3:2|3:2,0:0:0:0:
97,157,125583,6,0,P|84:215|71:274,1,120,6|0,3:2|0:0,0:0:0:0:
52,288,125883,1,10,0:2:0:0:
10,122,126083,1,8,0:2:0:0:
31,141,126183,2,0,P|89:127|147:114,1,120,8|0,0:2|3:2,0:0:0:0:
204,28,126483,2,0,B|226:108|226:108|255:127|255:127|273:186,1,180,10|2,0:2|3:2,0:0:0:0:
382,229,126983,1,2,3:2:0:0:
400,219,127083,2,0,P|420:105|427:60,1,120,8|2,0:2|0:2,0:0:0:0:
350,77,127383,6,0,P|329:58|283:54,1,71.9999978027344,14|0,3:2|3:2,0:0:0:0:
140,52,127683,2,0,P|176:50|204:27,1,71.9999978027344,14|0,3:2|3:2,0:0:0:0:
232,125,127983,6,0,B|144:106|169:220|41:198,1,180,6|10,3:2|0:2,0:0:0:0:
31,334,128483,1,8,0:2:0:0:
39,346,128583,1,8,0:2:0:0:
158,290,128783,1,0,3:2:0:0:
214,334,128883,2,0,P|279:343|324:247,1,180,10|2,0:2|3:2,0:0:0:0:
204,185,129383,1,2,3:2:0:0:
212,197,129483,1,8,0:2:0:0:
326,254,129783,6,0,L|409:231,1,71.9999978027344,14|0,3:2|3:2,0:0:0:0:
512,192,130083,2,0,L|443:173,1,71.9999978027344,14|0,3:2|3:2,0:0:0:0:
478,269,130383,5,6,3:2:0:0:
375,341,130683,2,0,P|321:302|329:250,1,120,10|8,0:2|0:2,0:0:0:0:
365,152,130983,1,8,0:2:0:0:
358,161,131283,2,0,B|296:151|336:96|214:104,1,120,10|0,0:2|3:2,0:0:0:0:
177,156,131583,1,2,3:2:0:0:
288,38,131783,1,2,3:2:0:0:
257,104,131883,2,0,L|120:57,1,120,8|2,0:2|0:2,0:0:0:0:
55,89,132183,6,0,B|36:64|36:64|58:19,1,71.9999978027344,14|0,3:2|3:2,0:0:0:0:
119,142,132483,2,0,B|138:167|138:167|116:212,1,71.9999978027344,14|0,3:2|3:2,0:0:0:0:
19,295,132783,5,6,3:2:0:0:
215,237,133083,2,0,P|199:289|184:358,1,120,10|8,0:2|0:2,0:0:0:0:
264,375,133383,1,8,0:2:0:0:
272,384,133683,2,0,B|309:375|309:375|326:348|326:348|416:327,1,120,10|0,0:2|3:2,0:0:0:0:
452,379,133983,1,2,3:2:0:0:
403,220,134183,1,2,3:2:0:0:
403,220,134283,2,0,P|387:282|372:347,1,120,8|2,0:2|0:2,0:0:0:0:
471,309,134583,6,0,P|494:291|467:288,1,71.9999978027344,14|0,3:2|3:2,0:0:0:0:
440,156,134883,2,0,P|464:141|458:169,1,71.9999978027344,14|0,3:2|3:2,0:0:0:0:
403,220,135183,6,0,P|345:207|286:194,1,120,6|0,3:2|0:0,0:0:0:0:
272,175,135483,1,10,0:2:0:0:
164,50,135683,1,8,0:2:0:0:
145,71,135783,2,0,P|159:129|172:187,1,120,8|0,0:2|3:2,0:0:0:0:
88,309,136083,2,0,B|44:279|44:279|80:150,1,180,10|2,0:2|3:2,0:0:0:0:
198,259,136583,1,2,3:2:0:0:
208,277,136683,2,0,P|322:297|367:304,1,120,8|2,0:2|0:2,0:0:0:0:
388,369,136983,6,0,P|407:348|411:302,1,71.9999978027344,14|0,3:2|3:2,0:0:0:0:
468,197,137283,2,0,P|470:233|493:261,1,71.9999978027344,14|0,3:2|3:2,0:0:0:0:
380,218,137583,6,0,B|390:137|285:155|328:28,1,180,6|10,3:2|0:2,0:0:0:0:
196,18,138083,1,8,0:2:0:0:
208,35,138183,1,8,0:2:0:0:
98,96,138383,1,0,3:2:0:0:
119,107,138483,2,0,P|166:156|242:240,1,180,10|2,0:2|3:2,0:0:0:0:
188,345,138983,1,2,3:2:0:0:
200,337,139083,1,8,0:2:0:0:
117,231,139383,6,0,P|77:202|25:179,1,71.9999978027344,14|0,3:2|3:2,0:0:0:0:
192,162,139683,2,0,P|223:144|251:122,1,71.9999978027344,14|0,3:2|3:2,0:0:0:0:
211,255,139983,5,6,3:2:0:0:
415,235,140283,1,10,0:2:0:0:
355,144,140483,5,8,0:2:0:0:
438,117,140583,2,0,P|427:176|415:235,1,120,8|0,0:2|3:2,0:0:0:0:
508,342,140883,2,0,B|456:316|456:316|516:251,1,120,10|0,0:2|3:2,0:0:0:0:
380,336,141183,1,2,3:2:0:0:
214,242,141383,1,2,3:2:0:0:
214,242,141483,2,0,B|141:245|176:302|97:300,1,120,8|2,0:2|0:2,0:0:0:0:
26,262,141783,6,0,B|6:235|6:235|30:189,1,71.9999978027344,14|0,3:2|3:2,0:0:0:0:
94,103,142083,2,0,B|111:68|111:68|91:41,1,71.9999978027344,14|0,3:2|3:2,0:0:0:0:
130,199,142383,5,6,3:2:0:0:
274,169,142683,1,10,0:2:0:0:
358,289,142883,1,8,0:2:0:0:
392,224,142983,2,0,P|380:165|368:106,1,120,8|0,0:2|3:2,0:0:0:0:
462,0,143283,2,0,B|428:4|410:26|410:26|420:56|470:91,1,120,10|0,0:2|3:2,0:0:0:0:
368,106,143583,1,2,3:2:0:0:
461,193,143783,1,2,3:2:0:0:
392,224,143883,2,0,B|322:207|349:278|239:256,1,120,8|2,0:2|0:2,0:0:0:0:
189,224,144183,6,0,P|202:260|213:309,1,71.9999978027344,14|0,3:2|3:2,0:0:0:0:
90,219,144483,2,0,P|98:184|111:150,1,71.9999978027344,14|0,3:2|3:2,0:0:0:0:
195,101,144783,5,6,3:2:0:0:
61,178,148268,6,0,B|170:173|127:59|226:47|264:74,1,242.999992584229,2|0,0:0|0:0,0:0:0:0:
273,85,150188,2,0,B|274:134|357:180|449:120|444:67|410:38,1,242.999992584229,2|0,0:0|0:0,0:0:0:0:
401,45,152108,2,0,P|386:131|363:290,1,242.999992584229,2|0,0:0|0:0,0:0:0:0:
371,300,154028,2,0,B|325:390|155:376|231:255|277:275,1,242.999992584229,2|0,0:0|0:0,0:0:0:0:
273,281,155948,6,0,P|155:251|29:221,1,242.999992584229,2|0,0:0|0:0,0:0:0:0:
22,232,157868,2,0,P|140:202|266:172,1,242.999992584229,2|0,0:0|0:0,0:0:0:0:
276,184,159788,2,0,P|348:114|275:9,1,242.999992584229,2|0,0:0|0:0,0:0:0:0:
267,22,161708,2,0,B|165:-9|169:141|51:117,1,242.999992584229,2|0,0:0|0:0,0:0:0:0:
267,22,163628,5,2,0:0:0:0:
331,118,164108,1,2,0:0:0:0:
283,182,164588,1,2,0:0:0:0:
364,225,164828,1,2,0:0:0:0:
367,236,164908,1,2,0:0:0:0:
371,247,164988,1,2,0:0:0:0:
376,258,165068,1,2,0:0:0:0:
316,363,165308,2,0,L|321:323,1,40.4999987640381,2|2,0:0|0:0,0:0:0:0:
252,245,165668,6,0,L|236:255,1,10.1249996910095,2|0,0:0|0:0,0:0:0:0:
252,245,165788,2,0,L|236:234,1,10.1249996910095,2|0,0:0|0:0,0:0:0:0:
252,245,165908,2,0,L|254:226,1,10.1249996910095,2|0,0:0|0:0,0:0:0:0:
252,245,166028,2,0,L|270:239,1,19.1250003647804,2|0,0:0|0:0,0:0:0:0:
252,245,166148,2,0,L|264:259,1,19.1250003647804,2|0,0:0|0:0,0:0:0:0:
252,245,166268,2,0,L|244:262,1,19.1250003647804,2|0,0:0|0:0,0:0:0:0:
251,245,166388,2,0,L|233:245,1,19.1250003647804,2|0,0:0|0:0,0:0:0:0:
248,213,166508,6,0,L|227:195,1,23.6249992790222,2|0,0:0|0:0,0:0:0:0:
266,202,166628,6,0,L|262:175,1,23.6249992790222,2|0,0:0|0:0,0:0:0:0:
285,216,166748,6,0,L|300:193,1,23.6249992790222,2|0,0:0|0:0,0:0:0:0:
295,235,166868,6,0,L|321:228,1,23.6249992790222,2|0,0:0|0:0,0:0:0:0:
289,260,166988,6,0,L|322:277,1,33.7500012874604,2|0,0:0|0:0,0:0:0:0:
253,270,167108,6,0,L|265:305,1,33.7500012874604,2|0,0:0|0:0,0:0:0:0:
396,202,167228,5,2,0:0:0:0:
396,202,167348,1,2,0:0:0:0:
478,273,167468,6,0,B|378:254|402:366|280:355,1,175.499991966248,6|0,3:2|0:0,0:0:0:0:
186,310,167948,2,0,P|173:263|289:279,1,175.499991966248,8|0,0:2|0:0,0:0:0:0:
114,365,168428,2,0,P|86:293|145:174,1,175.499991966248,2|0,3:2|0:0,0:0:0:0:
136,187,168908,2,0,P|166:121|126:38,1,116.999994644165,8|0,0:2|0:0,0:0:0:0:
83,19,169268,1,0,0:0:0:0:
148,64,169388,2,0,P|220:46|287:31,1,116.999994644165,2|0,3:2|0:0,0:0:0:0:
343,103,169748,2,0,L|376:26,1,58.4999973220826,2|0,0:2|1:2,0:0:0:0:
263,119,169988,2,0,L|319:249,1,116.999994644165,0|0,0:0|3:2,0:0:0:0:
475,248,170348,2,0,B|368:233|402:329|282:330,1,175.499991966248,10|2,0:2|0:2,0:0:0:0:
255,284,170828,1,0,3:2:0:0:
454,326,171068,1,2,0:2:0:0:
454,326,171188,1,2,0:2:0:0:
475,248,171308,6,0,P|503:148|518:105,1,116.999994644165,2|0,3:2|0:0,0:0:0:0:
384,2,171788,2,0,P|360:40|422:82,1,135,8|0,0:2|0:0,0:0:0:0:
436,93,172268,2,0,B|365:79|385:164|306:149,1,135,2|2,3:2|0:2,0:0:0:0:
314,162,172748,1,8,0:2:0:0:
157,60,172988,1,2,0:2:0:0:
157,60,173108,1,2,0:2:0:0:
99,117,173228,6,0,P|71:217|56:260,1,116.999994644165,2|0,3:2|0:0,0:0:0:0:
165,317,173708,2,0,P|223:316|240:248,1,116.999994644165,10|0,2:2|0:0,0:0:0:0:
183,94,174188,1,2,3:2:0:0:
201,124,174548,1,0,3:2:0:0:
222,153,174908,1,0,3:2:0:0:
222,153,175028,1,2,0:2:0:0:
314,90,175148,6,0,P|372:64|431:43,1,125.999996154785,6|0,3:2|1:2,0:0:0:0:
338,199,175628,2,0,P|280:173|221:152,1,125.999996154785,10|0,0:2|1:2,0:0:0:0:
451,201,176108,2,0,P|483:168|455:103,1,90,2|0,3:2|1:2,0:0:0:0:
249,247,176588,2,0,P|255:292|294:320,1,90,8|0,0:2|1:2,0:0:0:0:
508,270,177068,6,0,P|443:290|377:324,1,135.000005149842,2|0,3:2|1:2,0:0:0:0:
288,318,177428,1,2,1:2:0:0:
203,360,177548,2,0,P|138:340|72:306,1,135.000005149842,0|2,1:2|1:2,0:0:0:0:
0,113,178028,6,0,P|19:172|37:249,1,135,10|2,0:2|0:2,0:0:0:0:
114,186,178508,2,0,P|129:120|149:55,1,135,0|2,3:2|0:2,0:0:0:0:
49,20,178988,1,2,3:2:0:0:
351,192,181148,6,0,L|466:172,1,90,14|0,3:2|0:0,0:0:0:0:
160,192,181388,2,0,L|44:172,1,90,14|0,3:2|0:0,0:0:0:0:
496,112,181628,2,0,L|404:97,1,90,14|0,3:2|0:0,0:0:0:0:
16,112,181868,2,0,L|107:97,1,90,14|0,3:2|0:0,0:0:0:0:
256,192,182348,5,2,0:2:0:0:
182,317,182588,1,2,0:2:0:0:
182,317,182708,1,2,0:2:0:0:
237,155,182828,6,0,B|362:128|334:302|451:282|489:262,1,242.999992584229,6|0,3:2|0:0,0:0:0:0:
506,96,183308,2,0,P|433:85|461:199,1,220.499993270874,8|0,0:2|0:0,0:0:0:0:
261,75,183788,6,0,B|162:52|178:157|73:146|73:146|108:138|124:109,1,242.999992584229,2|0,3:2|0:0,0:0:0:0:
237,155,184268,2,0,B|209:219|209:219|245:296|245:296|207:372,1,220.499993270874,8|0,0:2|0:0,0:0:0:0:
22,363,184748,6,0,B|104:352|68:288|163:291,1,161.999995056153,6|0,3:2|0:0,0:0:0:0:
317,355,185108,1,2,0:2:0:0:
385,297,185228,2,0,P|359:228|336:149,1,144,0|2,1:2|0:2,0:0:0:0:
420,63,185588,1,0,3:2:0:0:
421,90,185708,6,0,L|310:65,1,107.999996704102,10|0,0:2|0:0,0:0:0:0:
204,174,186068,1,2,0:2:0:0:
151,113,186188,2,0,B|108:102|108:102|72:48|72:48|-1:32,1,170.999995433807,0|2,3:2|0:2,0:0:0:0:
22,175,186548,1,2,0:2:0:0:
22,175,186668,6,0,B|116:155|199:217|199:217|160:250|96:328,1,270,2|0,3:2|0:0,0:0:0:0:
239,380,187148,2,0,P|224:322|209:242,1,76.5000014591217,8|0,0:2|0:0,0:0:0:0:
273,185,187388,2,0,P|282:148|291:110,1,76.5000014591217,0|0,3:2|0:0,0:0:0:0:
288,275,187628,6,0,B|333:236|333:236|447:286|486:314,1,202.500007724762,2|2,3:2|0:2,0:0:0:0:
349,328,188108,1,8,0:2:0:0:
467,162,188348,1,2,0:2:0:0:
426,99,188468,1,2,0:2:0:0:
363,207,188588,6,0,B|470:186|388:77|608:79,1,198.000006042481,2|0,3:2|0:0,0:0:0:0:
255,199,189068,6,2,B|137:122|202:-14|202:-14|306:40|238:125,1,377.999988464356,10|0,2:2|0:0,0:1:0:0:
94,93,189548,6,0,L|11:73,1,67.5000025749208,2|0,3:2|0:0,0:0:0:0:
122,172,189908,1,0,3:2:0:0:
59,216,190028,1,0,3:2:0:0:
157,333,190268,1,0,3:2:0:0:
157,333,190388,1,2,0:2:0:0:
48,248,190508,6,0,B|167:280|152:185|256:227|256:227|238:243|240:282,1,242.999992584229,6|0,3:2|0:0,0:0:0:0:
340,370,190988,6,0,P|325:318|319:293,1,70.8749978370667,8|0,0:2|0:0,0:0:0:0:
384,208,191468,6,0,P|442:204|443:304,1,161.999995056153,2|0,3:2|0:0,0:0:0:0:
342,290,191828,1,2,0:2:0:0:
244,188,191948,2,0,B|141:137|143:282|27:242,1,220.499993270874,8|0,0:2|0:0,0:0:0:0:
208,62,192428,6,0,P|140:105|68:142,1,161.999995056153,6|0,3:2|0:0,0:0:0:0:
325,83,192788,1,2,0:2:0:0:
391,140,192908,2,0,P|412:62|427:8,1,108,0|0,1:2|0:0,0:0:0:0:
510,167,193148,2,0,P|431:154|379:216,1,168.75,2|0,0:2|0:0,0:0:0:0:
454,319,193388,6,0,L|468:253,1,67.5,10|2,0:2|0:2,0:0:0:0:
44,253,193868,2,0,L|57:319,1,67.5,0|2,3:2|0:2,0:0:0:0:
256,144,194348,5,6,3:2:0:0:
240,163,194588,6,0,P|197:138|181:118,1,67.5000025749208,0|0,3:2|0:0,0:0:0:0:
321,201,194828,2,0,P|352:162|361:138,1,67.5000025749208,2|0,3:2|0:0,0:0:0:0:
452,113,195068,2,0,P|447:63|436:40,1,67.5000025749208,0|0,3:2|0:0,0:0:0:0:
244,238,195308,6,0,P|198:265|181:286,1,67.5000025749208,2|0,3:2|0:0,0:0:0:0:
356,295,195548,2,0,P|342:346|345:373,1,67.5000025749208,0|0,3:2|0:0,0:0:0:0:
447,187,195788,2,0,P|473:233|495:250,1,67.5000025749208,2|0,3:2|0:0,0:0:0:0:
226,209,196028,2,0,P|180:236|163:257,1,67.5000025749208,0|0,3:2|0:0,0:0:0:0:
343,364,196268,1,2,0:2:0:0:
208,128,196508,6,2,L|68:103,1,141.749995674133,14|0,3:2|0:2,0:1:0:0:
46,93,196748,2,0,L|41:74,1,20.2499993820191,12|0,0:2|0:0,0:0:0:0:
304,128,196988,6,2,L|443:103,1,141.749995674133,14|0,3:2|0:2,0:1:0:0:
466,93,197228,2,0,L|471:74,1,20.2499993820191,12|0,0:2|0:0,0:0:0:0:
256,16,197468,5,2,0:0:0:0:
304,128,197708,1,2,0:0:0:0:
256,208,197948,1,2,0:0:0:0:
254,213,198068,1,2,0:0:0:0:
182,245,198188,6,0,B|135:209|135:209|-46:283,1,202.500007724762,6|0,3:2|0:0,0:0:0:0:
98,365,198668,2,0,P|116:304|126:279,2,67.5000025749208,8|0|2,0:2|0:0|0:0,0:0:0:0:
330,245,199148,6,0,B|377:209|377:209|558:283,1,202.500007724762,2|0,3:2|0:0,0:0:0:0:
414,365,199628,2,0,P|396:304|386:279,1,67.5000025749208,8|0,0:2|0:0,0:0:0:0:
182,139,200108,6,0,B|135:175|135:175|-46:101,1,202.500007724762,2|0,3:2|0:0,0:0:0:0:
98,19,200588,2,0,P|116:80|126:105,2,67.5000025749208,0|0|2,1:2|0:0|0:2,0:0:0:0:
234,84,200948,1,0,3:2:0:0:
234,84,201068,6,0,L|395:94,1,135.000005149842,10|0,0:2|0:0,0:0:0:0:
465,24,201428,1,2,0:2:0:0:
394,65,201548,2,0,P|418:148|435:217,1,135.000005149842,0|2,3:2|0:2,0:0:0:0:
424,325,201908,1,2,0:2:0:0:
463,220,202028,6,0,B|358:197|334:379|230:337,1,242.999992584229,2|0,3:2|0:0,0:0:0:0:
119,234,202508,2,0,P|158:184|258:276,1,220.499993270874,8|0,0:2|0:0,0:0:0:0:
49,350,202988,6,0,P|32:220|9:66,1,242.999992584229,2|2,3:2|0:2,0:0:0:0:
251,34,203468,2,0,B|89:79|89:79|97:130,1,220.499993270874,8|0,0:2|0:0,0:0:0:0:
354,128,203948,6,0,B|436:117|400:53|495:56,1,161.999995056153,2|0,3:2|0:0,0:0:0:0:
478,145,204308,1,2,0:2:0:0:
357,39,204428,2,0,P|331:108|308:187,1,144,10|2,2:2|0:2,0:0:0:0:
433,272,204788,1,0,0:0:0:0:
434,299,204908,6,0,L|323:274,1,107.999996704102,2|0,3:2|0:0,0:0:0:0:
217,383,205268,1,0,3:2:0:0:
296,357,205388,1,8,0:2:0:0:
160,262,205628,1,0,3:2:0:0:
37,365,205868,5,2,3:2:0:0:
118,336,205988,1,2,0:2:0:0:
118,336,206108,1,2,1:2:0:0:
118,336,206228,1,2,0:2:0:0:
54,291,206348,1,10,0:2:0:0:
35,259,206468,1,2,0:2:0:0:
56,238,206588,1,2,0:2:0:0:
256,144,206828,6,0,P|176:120|164:118,1,53.9999983520508,2|0,3:2|0:0,0:0:0:0:
304,59,207068,1,2,1:2:0:0:
322,75,207188,2,0,P|402:51|414:49,1,53.9999983520508,2|10,0:2|0:2,0:0:0:0:
446,106,207428,2,0,P|451:85|456:62,1,45,2|0,0:2|0:0,0:0:0:0:
512,188,207788,6,0,P|462:190|426:258,1,118.125004506111,6|0,3:2|0:0,0:0:0:0:
397,331,208268,2,0,B|306:309|368:235|258:216,1,173.250005287171,14|0,0:2|0:0,0:0:0:0:
189,284,208748,2,0,P|125:281|118:146,1,220.499993270874,6|0,3:2|0:0,0:0:0:0:
81,37,209228,2,0,P|47:29|4:21,1,78.75,14|0,0:2|0:0,0:0:0:0:
133,132,209708,6,0,P|168:123|214:115,1,76.5000014591217,6|0,3:2|0:0,0:0:0:0:
237,36,209948,2,0,P|268:55|306:81,1,76.5000014591217,2|0,1:2|0:0,0:0:0:0:
371,15,210188,6,0,P|381:57|391:112,1,85.4999977169037,14|0,0:2|0:0,0:0:0:0:
483,117,210428,2,0,P|459:154|427:200,1,85.4999977169037,2|0,1:2|0:0,0:0:0:0:
502,271,210668,6,0,P|458:281|404:292,1,94.499997116089,6|0,3:2|0:0,0:0:0:0:
358,386,210908,2,0,P|320:362|274:330,1,94.499997116089,2|0,1:2|0:0,0:0:0:0:
232,0,211148,6,0,P|259:45|298:100,1,116.999994644165,14|0,0:2|0:0,0:0:0:0:
154,384,211388,2,0,P|181:337|220:282,1,116.999994644165,6|0,0:2|0:0,0:0:0:0:
218,272,211868,6,0,L|200:262,1,18,6|0,3:2|0:0,0:0:0:0:
373,107,212108,2,0,L|391:97,1,18,6|0,3:2|0:0,0:0:0:0:
328,343,212348,6,0,L|343:334,1,18,14|0,0:2|0:0,0:0:0:0:
174,52,212588,2,0,L|140:34,1,36,6|0,3:2|0:0,0:0:0:0:
256,192,213068,5,2,0:2:0:0:
171,333,213308,1,2,0:2:0:0:
171,333,213428,1,2,0:2:0:0:
287,205,213548,6,0,B|232:227|198:204|154:118|169:137|162:126|121:30|78:38|11:68,1,315,6|0,3:2|0:0,0:0:0:0:
260,123,214028,2,0,P|409:65|456:53,1,180,8|0,0:2|0:0,0:0:0:0:
503,165,214388,1,0,0:0:0:0:
433,228,214508,2,0,L|461:343,1,110.249996635437,2|0,3:2|0:0,0:0:0:0:
360,317,214988,2,0,B|339:236|422:228|391:130,1,161.999995056153,8|0,0:2|0:0,0:0:0:0:
299,18,215348,1,0,0:0:0:0:
299,18,215468,6,0,B|237:13|209:38|209:38|157:145|66:146,1,270,6|2,3:2|0:2,0:0:0:0:
40,264,215948,2,0,P|25:229|7:193,1,78.75,0|0,1:2|0:0,0:0:0:0:
112,224,216428,6,0,P|188:251|204:260,1,67.5000025749208,10|0,0:2|0:0,0:0:0:0:
246,307,216668,2,0,P|278:296|308:282,1,67.5000025749208,2|0,1:2|0:0,0:0:0:0:
414,310,216908,2,0,P|401:262|498:273,1,173.250005287171,0|0,3:2|0:0,0:0:0:0:
407,205,217388,2,0,P|391:149|381:104,1,99.0000030212403,2|0,3:2|1:2,0:0:0:0:
454,15,217868,2,0,P|431:74|350:81,1,148.50000453186,8|0,0:2|0:0,0:0:0:0:
245,137,218348,6,0,P|200:108|145:107,1,99.0000030212403,2|0,3:2|0:0,0:0:0:0:
48,223,218708,1,2,0:2:0:0:
93,163,218828,2,0,P|81:104|69:59,1,99.0000030212403,8|2,0:2|0:2,0:0:0:0:
213,217,219308,6,0,B|148:224|171:292|102:305,1,141.749995674133,2|0,3:2|0:0,0:0:0:0:
34,341,219788,2,0,P|95:355|158:371,1,121.499996292114,10|0,2:2|0:0,0:0:0:0:
301,266,220268,6,0,L|268:273,1,20.2499993820191,2|0,3:2|0:0,0:0:0:0:
380,188,220628,6,0,L|340:179,1,40.4999987640381,0|0,3:2|0:0,0:0:0:0:
479,92,220988,6,0,L|445:100,1,27,0|0,3:2|0:0,0:0:0:0:
380,188,221228,6,0,B|266:154|337:88|255:13|173:49|173:49|233:83,1,315,6|0,3:2|0:0,0:0:0:0:
221,166,221708,2,0,P|79:160|86:21,1,270,8|0,0:2|0:0,0:0:0:0:
82,198,222188,6,0,P|37:159|30:106,1,110.249996635437,2|0,3:2|0:0,0:0:0:0:
211,221,222668,2,0,B|140:221|146:301|45:288,1,161.999995056153,8|0,0:2|0:0,0:0:0:0:
1,243,223028,1,0,0:0:0:0:
209,302,223148,6,0,B|301:291|301:291|357:341|357:341|481:324,1,270,6|2,3:2|0:2,0:0:0:0:
434,173,223628,2,0,P|416:208|401:245,1,78.75,0|0,1:2|0:0,0:0:0:0:
372,238,224108,2,0,P|348:197|469:95,1,236.250009012223,10|0,0:2|0:0,0:0:0:0:
470,107,224588,2,0,B|372:102|426:22|305:26,1,173.250005287171,0|0,3:2|0:0,0:0:0:0:
256,128,225068,5,6,3:2:0:0:
128,73,225308,2,0,L|66:64,1,45,0|0,3:2|0:0,0:0:0:0:
211,134,225548,2,0,L|273:125,1,45,2|0,3:2|0:0,0:0:0:0:
94,154,225788,2,0,L|32:145,1,45,0|0,3:2|0:0,0:0:0:0:
163,217,226028,2,0,P|132:282|112:335,1,90,2|0,3:2|3:2,0:0:0:0:
35,354,226388,1,0,0:0:0:0:
44,337,226508,1,2,3:2:0:0:
212,290,226748,1,0,3:2:0:0:
272,352,226988,1,2,0:2:0:0:
160,192,227228,6,0,L|71:176,1,90,14|0,3:2|0:0,0:0:0:0:
351,192,227468,2,0,L|439:176,1,90,14|0,3:2|0:0,0:0:0:0:
104,97,227708,2,0,L|16:112,1,90,14|0,3:2|0:0,0:0:0:0:
407,97,227948,2,0,L|496:112,1,90,14|0,3:2|0:0,0:0:0:0:
380,68,228188,1,2,0:2:0:0:
380,68,228428,2,0,B|320:68|345:106|275:115,1,101.250003862381,2|0,0:3|0:0,0:0:0:0:
387,206,228908,5,0,3:0:0:0:
424,275,229148,1,0,1:0:0:0:
366,196,229388,1,0,3:0:0:0:
329,265,229628,1,0,1:0:0:0:
414,192,229868,1,0,3:0:0:0:
451,261,230108,1,0,1:0:0:0:
321,182,230348,1,0,3:0:0:0:
284,251,230588,1,0,1:0:0:0:
413,277,230828,2,0,B|337:264|356:356|268:352,1,168.75,0|0,3:0|0:0,0:0:0:0:
127,321,232748,6,0,P|115:272|106:248,1,45,4|0,3:2|0:0,0:0:0:0:
155,174,233228,2,0,P|167:125|176:101,1,45,0|0,3:2|0:0,0:0:0:0:
80,303,233708,2,0,P|68:254|59:230,1,45,0|0,3:2|0:0,0:0:0:0:
16,205,233948,1,8,0:1:0:0:
178,179,234188,2,0,P|194:110|207:76,1,90,0|2,3:2|0:2,0:0:0:0:
243,282,234668,6,2,P|224:294|125:252,1,144,2|0,3:1|0:0,0:1:0:0:
256,192,240315,6,0,B|346:152|362:275|456:258,1,215.999993408203,2|2,0:0|0:0,0:0:0:0:
256,192,241359,1,0,0:0:0:0:
256,192,241434,1,0,0:0:0:0:
256,192,241509,1,6,1:2:0:0:
374,309,251061,5,0,0:0:0:0:
374,309,251135,1,0,0:0:0:0:
374,309,251210,1,0,0:0:0:0:
374,309,251285,1,0,0:0:0:0:
374,309,251359,1,0,0:0:0:0:
456,251,251509,2,0,L|507:243,2,33.7500012874604
375,182,251807,2,0,L|324:174,2,33.7500012874604
451,101,252106,2,0,L|502:93,2,33.7500012874604
336,47,252404,5,0,0:0:0:0:
332,43,252479,1,0,0:0:0:0:
328,39,252553,1,0,0:0:0:0:
324,35,252628,1,0,0:0:0:0:
320,31,252703,1,0,0:0:0:0:
316,27,252777,1,0,0:0:0:0:
312,23,252852,5,0,0:0:0:0:
225,50,253001,2,0,L|217:-1,2,33.7500012874604
147,113,253300,2,0,L|139:164,2,33.7500012874604
57,73,253598,1,0,0:0:0:0:
57,73,253673,1,0,0:0:0:0:
57,73,253747,2,0,L|49:22,1,33.7500012874604
3,182,253897,5,0,0:0:0:0:
7,186,253971,1,0,0:0:0:0:
11,190,254046,1,0,0:0:0:0:
15,194,254120,1,0,0:0:0:0:
19,198,254195,2,0,L|13:236,2,33.7500012874604
122,313,254494,5,0,0:0:0:0:
126,309,254568,1,0,0:0:0:0:
130,305,254643,2,0,L|124:267,3,33.7500012874604
220,223,254941,2,0,L|228:172,3,33.7500012874604
298,311,255240,5,0,0:0:0:0:
309,290,255315,1,0,0:0:0:0:
325,274,255389,1,0,0:0:0:0:
345,262,255464,1,0,0:0:0:0:
367,255,255538,1,0,0:0:0:0:
390,254,255613,1,0,0:0:0:0:
412,258,255688,1,0,0:0:0:0:
433,268,255762,1,0,0:0:0:0:
453,304,255837,5,0,3:0:0:0:
413,313,255912,1,0,3:0:0:0:
374,307,255986,1,0,3:0:0:0:
340,285,256061,1,0,3:0:0:0:
318,252,256135,1,0,3:0:0:0:
311,212,256210,1,0,3:0:0:0:
320,173,256285,1,0,3:0:0:0:
344,141,256359,1,0,3:0:0:0:
379,121,256434,2,0,L|437:110,1,45,0|0,3:2|3:0,3:0:0:0:
273,33,256583,1,0,3:0:0:0:
271,47,256658,1,0,3:0:0:0:
268,59,256732,2,0,L|222:50,1,45,0|0,3:2|3:0,3:0:0:0:
94,118,256882,1,0,3:0:0:0:
87,101,256956,1,0,3:0:0:0:
80,79,257031,5,0,3:0:0:0:
125,74,257106,1,0,3:0:0:0:
163,101,257180,1,0,3:0:0:0:
174,146,257255,1,0,3:0:0:0:
154,182,257329,1,0,3:0:0:0:
117,211,257404,1,0,3:0:0:0:
111,256,257479,1,0,3:0:0:0:
134,296,257553,1,0,3:0:0:0:
172,312,257628,2,0,L|216:303,1,45,0|0,3:0|3:0,3:0:0:0:
385,176,257777,2,0,L|340:167,1,45,0|0,3:0|3:0,3:0:0:0:
168,134,257926,2,0,L|176:178,1,45,0|0,3:0|3:0,3:0:0:0:
328,341,258076,2,0,L|336:296,1,45,0|0,3:0|3:0,3:0:0:0:
417,105,258225,5,0,3:3:0:0:
399,62,258300,1,0,3:3:0:0:
362,36,258374,1,0,3:3:0:0:
316,35,258449,1,0,3:3:0:0:
278,60,258523,1,0,3:3:0:0:
260,102,258598,1,0,3:3:0:0:
224,128,258673,1,0,3:3:0:0:
178,129,258747,1,0,3:3:0:0:
144,105,258822,1,0,3:3:0:0:
184,67,258897,1,0,3:3:0:0:
239,81,258971,1,0,3:3:0:0:
256,132,259046,1,0,3:3:0:0:
237,175,259120,2,0,L|173:188,1,45,2|0,3:2|3:2,3:2:0:0:
0,38,259270,2,0,L|45:47,1,45,2|0,3:2|3:2,3:2:0:0:
421,55,260613,6,0,B|457:29|457:29|434:161,1,175.499991966248,14|0,0:2|0:0,0:0:0:0:
420,242,260912,1,8,0:2:0:0:
288,80,261061,1,0,3:2:0:0:
429,260,261210,1,0,3:2:0:0:
300,62,261359,1,0,3:2:0:0:
206,231,261509,2,0,P|217:300|299:269,1,175.499991966248,8|0,0:2|0:0,0:0:0:0:
161,361,261807,6,0,B|65:351|117:281|-4:286,1,175.499991966248,10|0,0:2|0:0,0:0:0:0:
6,314,262106,1,8,0:2:0:0:
117,110,262255,1,0,3:2:0:0:
49,209,262404,1,8,0:2:0:0:
0,9,262553,1,0,3:2:0:0:
163,279,262703,2,0,B|245:237|245:237|281:200|264:135,1,175.499991966248,10|0,0:2|0:0,0:0:0:0:
98,35,263001,6,0,B|108:119|201:83|189:207,1,175.499991966248,6|0,3:2|0:0,0:0:0:0:
268,160,263300,1,10,0:2:0:0:
114,30,263449,5,2,3:2:0:0:
254,329,263598,1,8,0:2:0:0:
427,60,263747,2,0,B|342:49|356:138|255:132,1,175.499991966248,2|0,3:2|0:0,0:0:0:0:
269,107,264046,5,2,0:2:0:0:
329,267,264195,2,0,P|416:235|513:205,1,175.499991966248,8|0,0:2|0:0,0:0:0:0:
512,218,264494,1,8,0:2:0:0:
434,337,264643,1,2,0:2:0:0:
264,217,264792,5,10,0:2:0:0:
228,209,264867,1,0,3:2:0:0:
192,213,264941,1,0,3:2:0:0:
160,231,265016,1,0,3:2:0:0:
131,254,265091,1,8,0:2:0:0:
101,275,265165,1,0,3:2:0:0:
70,293,265240,1,0,3:2:0:0:
30,290,265315,1,0,3:2:0:0:
6,263,265389,6,0,B|22:88|22:88|24:122|41:147,1,233.999989288331,6|8,3:2|0:2,0:0:0:0:
133,0,265837,1,2,0:2:0:0:
235,118,265986,2,0,P|319:87|419:54,1,175.499991966248,2|0,3:2|0:0,0:0:0:0:
489,45,266285,2,0,P|459:112|436:161,1,116.999994644165,8|0,0:2|0:0,0:0:0:0:
222,192,266583,2,0,B|322:186|289:251|389:269,1,175.499991966248,6|0,3:2|0:0,0:0:0:0:
460,311,266882,2,0,P|369:355|321:385,1,116.999994644165,8|0,0:2|0:0,0:0:0:0:
163,274,267180,5,2,3:2:0:0:
339,135,267329,1,2,0:2:0:0:
259,354,267479,1,8,0:2:0:0:
166,113,267628,1,2,0:2:0:0:
318,225,267777,6,0,B|226:213|258:309|139:305,1,175.499991966248,6|0,3:2|0:0,0:0:0:0:
104,344,268076,1,0,3:2:0:0:
83,335,268150,2,0,P|61:230|51:184,1,116.999994644165,0|0,3:2|0:0,0:0:0:0:
0,169,268374,1,8,0:2:0:0:
83,11,268523,1,0,0:0:0:0:
168,194,268673,1,8,0:2:0:0:
185,179,268747,2,0,P|290:157|336:147,1,116.999994644165,0|0,3:2|0:0,0:0:0:0:
365,56,268971,6,0,L|379:-3,3,58.4999973220826,14|0|0|0,0:2|3:2|3:2|3:2,0:0:0:0:
428,113,269270,1,0,3:2:0:0:
431,132,269344,1,0,3:2:0:0:
435,151,269419,1,0,3:2:0:0:
438,170,269494,1,0,3:2:0:0:
463,205,269568,1,4,3:3:0:0:
458,229,269643,1,4,3:3:0:0:
453,254,269717,1,4,3:3:0:0:
449,279,269792,1,4,3:3:0:0:
418,302,269867,2,0,L|431:363,1,58.4999973220826,4|4,3:3|3:3,0:0:0:0:
287,212,270016,2,0,L|299:154,1,58.4999973220826,4|4,3:3|3:3,0:0:0:0:
157,313,270165,6,0,B|177:302|201:297|201:297|22:278,1,175.499991966248,6|0,3:2|0:0,0:0:0:0:
10,228,270464,1,10,0:2:0:0:
209,376,270613,2,0,L|403:346,1,175.499991966248,2|0,3:2|0:0,0:0:0:0:
453,305,270912,1,2,3:2:0:0:
358,155,271061,1,8,0:2:0:0:
467,88,271210,2,0,P|443:186|437:218,1,116.999994644165,2|6,0:2|3:2,0:0:0:0:
381,35,271509,1,0,3:2:0:0:
268,210,271658,1,8,0:2:0:0:
373,139,271807,1,0,3:2:0:0:
201,2,271956,6,0,P|214:90|220:141,1,116.999994644165,2|0,0:2|3:2,0:0:0:0:
343,341,272255,2,0,P|350:282|359:225,1,116.999994644165,10|2,0:2|0:2,0:0:0:0:
116,0,272553,2,0,P|132:114|140:180,1,175.499991966248,2|0,3:2|0:0,0:0:0:0:
62,229,272852,2,0,P|52:175|58:154,1,58.4999973220826,8|0,0:2|0:0,0:0:0:0:
428,78,273001,5,14,0:2:0:0:
256,352,273300,1,10,0:2:0:0:
146,63,273598,1,10,0:2:0:0:
305,155,273747,1,0,3:2:0:0:
161,267,273897,1,0,3:2:0:0:
152,272,273971,1,0,3:2:0:0:
140,279,274046,2,0,L|11:269,1,90,8|0,0:2|0:0,0:0:0:0:
209,153,274344,5,10,0:2:0:0:
225,128,274419,1,2,0:2:0:0:
253,119,274494,1,2,0:2:0:0:
280,128,274568,1,2,0:2:0:0:
305,155,274643,1,0,3:2:0:0:
335,191,274717,1,0,3:2:0:0:
381,205,274792,1,0,3:2:0:0:
427,192,274867,1,0,3:2:0:0:
459,157,274941,6,0,B|433:120|427:70|427:70|411:287,1,270,12|0,0:2|3:2,0:0:0:0:
512,384,275538,1,10,0:2:0:0:
512,384,276135,6,0,B|415:383|457:271|327:286|327:286|347:370,1,270,12|0,0:2|3:2,0:0:0:0:
130,277,276732,1,10,0:2:0:0:
129,277,277329,6,0,B|268:225|211:334|362:341|373:233|387:153|275:134|250:187,1,377.999988464356,12|10,0:2|0:2,0:0:0:0:
266,177,278822,1,10,0:2:0:0:
88,69,279120,5,0,0:0:0:0:
83,96,279195,1,0,0:0:0:0:
93,121,279270,1,10,0:2:0:0:
114,137,279344,1,2,0:2:0:0:
155,133,279419,1,2,0:2:0:0:
192,119,279494,1,2,0:2:0:0:
219,89,279568,1,2,3:2:0:0:
248,61,279643,1,2,3:2:0:0:
287,50,279717,6,0,B|384:42|344:132|449:127,1,180,6|8,3:2|0:2,0:0:0:0:
342,237,280165,1,2,3:2:0:0:
342,237,280240,1,2,0:2:0:0:
341,236,280315,2,0,P|322:194|298:156,1,90,2|2,0:2|3:2,0:0:0:0:
466,202,280613,2,0,P|441:239|423:281,1,90,8|0,0:2|0:0,0:0:0:0:
302,358,280912,5,2,3:2:0:0:
436,293,281061,1,0,3:2:0:0:
256,230,281210,1,8,0:2:0:0:
401,384,281359,1,4,3:3:0:0:
436,293,281509,1,0,3:3:0:0:
222,317,281658,1,10,0:2:0:0:
222,317,281807,2,0,B|146:305|189:252|73:263,1,135,2|0,3:2|0:0,0:0:0:0:
38,331,282106,6,0,P|25:235|14:165,1,135,6|0,3:2|0:0,0:0:0:0:
66,138,282404,1,8,0:2:0:0:
222,317,282553,1,2,3:2:0:0:
222,317,282628,1,2,0:2:0:0:
222,317,282703,2,0,B|263:289|333:275|333:275|367:352,1,180,2|8,0:2|0:2,0:0:0:0:
459,213,283150,1,2,0:2:0:0:
459,213,283225,1,2,0:2:0:0:
459,213,283300,5,2,3:2:0:0:
344,254,283449,1,2,3:2:0:0:
225,128,283598,1,10,0:2:0:0:
138,172,283747,1,4,3:3:0:0:
330,272,283897,1,2,3:2:0:0:
344,254,283971,1,0,3:2:0:0:
352,234,284046,1,0,3:2:0:0:
354,211,284120,1,0,3:2:0:0:
334,185,284195,1,0,3:2:0:0:
318,157,284270,1,0,3:2:0:0:
312,130,284344,1,0,3:2:0:0:
315,101,284419,1,0,3:2:0:0:
341,84,284494,5,6,3:2:0:0:
265,34,284643,1,2,0:2:0:0:
157,194,284792,5,10,0:2:0:0:
233,144,284941,1,2,3:2:0:0:
118,29,285091,5,2,0:2:0:0:
68,105,285240,2,0,B|45:141|45:141|72:180,1,90,0|8,3:2|0:2,0:0:0:0:
160,256,285538,1,2,0:2:0:0:
345,254,285688,5,0,3:2:0:0:
287,183,285837,1,2,0:2:0:0:
412,345,285986,5,10,0:2:0:0:
470,274,286135,1,2,3:2:0:0:
276,363,286285,5,2,0:2:0:0:
191,340,286434,2,0,P|170:287|157:248,1,90,10|0,0:2|3:2,0:0:0:0:
337,111,286732,1,2,0:2:0:0:
152,113,286882,5,0,3:2:0:0:
210,184,287031,1,2,0:2:0:0:
85,22,287180,5,10,0:2:0:0:
27,93,287329,1,2,3:2:0:0:
306,27,287479,6,0,P|327:80|340:119,1,90,2|10,0:2|0:2,0:0:0:0:
450,36,287777,1,0,3:2:0:0:
274,167,287926,5,2,0:2:0:0:
230,89,288076,2,0,P|167:64|153:61,1,45,10|0,0:2|3:2,0:0:0:0:
13,32,288225,2,0,P|76:7|90:4,1,45,0|0,3:2|3:2,0:0:0:0:
98,112,288374,5,2,0:2:0:0:
0,192,288523,1,10,0:2:0:0:
97,367,288673,5,2,3:2:0:0:
111,140,288822,2,0,L|98:194,1,45,4|0,3:3|3:2,0:0:0:0:
129,266,288971,1,4,3:2:0:0:
299,174,289120,1,0,3:2:0:0:
299,174,289195,1,0,3:2:0:0:
299,174,289270,5,6,3:2:0:0:
335,251,289419,1,2,3:2:0:0:
177,148,289568,5,2,3:2:0:0:
210,66,289717,1,2,3:2:0:0:
173,305,289867,5,2,3:2:0:0:
91,276,290016,2,0,P|56:245|68:200,1,90,0|8,3:2|0:2,0:0:0:0:
256,96,290315,5,2,3:2:0:0:
289,178,290464,1,0,3:2:0:0:
366,137,290613,1,2,3:2:0:0:
128,72,290762,5,10,0:2:0:0:
165,152,290912,1,2,3:2:0:0:
117,374,291061,5,2,3:2:0:0:
173,305,291210,2,0,P|178:258|139:233,1,90,10|0,0:2|3:2,0:0:0:0:
320,352,291509,5,2,3:2:0:0:
353,270,291658,1,2,3:2:0:0:
192,96,291807,5,2,3:2:0:0:
261,161,291956,1,10,0:2:0:0:
443,74,292106,5,2,3:2:0:0:
352,61,292255,2,0,P|346:103|380:130,1,90,2|10,3:2|0:2,0:0:0:0:
512,179,292553,1,0,3:2:0:0:
307,316,292703,5,2,3:2:0:0:
232,278,292852,1,0,3:2:0:0:
90,349,293001,1,2,3:2:0:0:
439,199,293150,5,10,0:2:0:0:
364,157,293300,1,0,3:2:0:0:
424,366,293449,5,2,3:2:0:0:
456,357,293523,1,0,3:2:0:0:
479,333,293598,1,0,3:2:0:0:
487,300,293673,1,0,3:2:0:0:
477,269,293747,2,0,P|457:224|453:218,1,45,10|0,0:2|0:0,0:0:0:0:
512,42,293897,2,0,P|501:61|494:83,1,45,10|0,0:2|0:0,0:0:0:0:
354,160,294046,5,6,3:2:0:0:
438,134,294195,1,2,3:2:0:0:
157,222,294344,5,2,3:2:0:0:
73,248,294493,1,2,3:2:0:0:
288,16,294643,6,0,P|268:76|257:113,1,90,2|0,3:2|3:2,0:0:0:0:
336,320,294941,1,8,0:2:0:0:
140,121,295091,5,2,3:2:0:0:
255,203,295240,1,0,3:2:0:0:
198,366,295389,1,2,3:2:0:0:
460,322,295538,5,10,0:2:0:0:
238,199,295688,1,2,3:2:0:0:
43,367,295837,5,2,3:2:0:0:
124,336,295986,2,0,L|213:351,1,90,10|0,0:2|3:2,0:0:0:0:
511,170,296285,5,2,3:2:0:0:
464,240,296434,1,10,0:2:0:0:
427,215,296509,1,0,3:2:0:0:
409,174,296583,1,0,3:2:0:0:
415,130,296658,1,0,3:2:0:0:
443,96,296732,6,0,P|501:86|511:85,1,53.9999983520508,10|0,0:2|3:2,0:0:0:0:
318,160,296882,2,0,P|260:149|250:148,1,53.9999983520508,0|0,3:2|3:2,0:0:0:0:
81,68,297031,6,0,P|70:10|69:0,1,53.9999983520508,2|0,3:2|3:2,0:0:0:0:
130,230,297180,2,0,P|119:287|118:297,1,53.9999983520508,0|0,3:2|3:2,0:0:0:0:
54,380,297329,5,0,3:2:0:0:
75,346,297404,1,0,3:2:0:0:
110,326,297479,1,0,3:2:0:0:
150,326,297553,1,8,0:2:0:0:
186,344,297628,1,8,0:2:0:0:
228,375,297703,1,4,3:3:0:0:
281,376,297777,1,4,3:3:0:0:
325,345,297852,1,4,3:3:0:0:
342,295,297926,6,0,P|292:271|275:266,1,53.9999983520508,4|4,3:3|3:3,0:0:0:0:
444,338,298076,2,0,P|494:313|511:308,1,53.9999983520508,4|4,3:3|3:3,0:0:0:0:
242,213,298225,6,0,P|217:162|212:145,1,53.9999983520508,4|4,3:3|3:3,0:0:0:0:
435,209,298374,2,0,P|424:233|411:257,1,53.9999983520508,4|4,3:3|3:3,0:0:0:0:
144,159,298523,6,0,P|162:106|170:90,1,53.9999983520508,14|0,3:2|0:0,0:0:0:0:
493,156,298673,2,0,P|504:181|512:207,1,53.9999983520508,14|8,3:2|3:2,0:0:0:0:
256,16,298822,5,2,3:2:0:0:
256,16,298971,1,2,3:2:0:0:
161,108,299270,5,2,3:2:0:0:
64,128,299419,1,2,3:2:0:0:
37,33,299568,1,2,3:2:0:0:
23,48,299867,6,0,P|36:99|46:142,1,72,8|0,3:2|3:2,0:0:0:0:
130,180,300165,1,10,0:0:0:0:
2,352,300315,2,0,B|60:338|32:285|122:267,1,144,2|0,3:2|0:0,0:0:0:0:
57,72,309161,5,0,1:0:0:0:
139,40,309319,1,0,1:0:0:0:
192,143,309477,1,0,1:2:0:0:
264,79,309635,1,2,0:2:0:0:
264,79,309714,1,2,0:2:0:0:
264,79,309793,2,0,B|360:67,1,72,6|2,1:2|0:2,0:0:0:0:
458,143,310109,1,2,0:2:0:0:
511,78,310267,1,2,1:2:0:0:
376,149,310425,2,0,P|393:198|408:246,1,72,2|0,1:2|0:0,0:0:0:0:
338,298,310740,1,2,1:2:0:0:
491,351,310898,1,8,0:2:0:0:
478,332,310977,1,8,0:2:0:0:
459,334,311056,1,8,0:2:0:0:
317,291,311214,1,8,0:2:0:0:
174,373,311372,1,2,1:2:0:0:
116,324,311530,1,2,0:2:0:0:
256,160,311688,5,0,1:0:0:0:
213,238,311846,1,0,1:0:0:0:
95,156,312004,2,0,B|52:142|52:142|40:121|40:121|-6:109,1,108,14|0,0:0|0:0,0:0:0:0:
11,93,312319,2,0,B|48:102|48:102|60:123|60:123|103:137,1,108,14|0,0:0|0:0,0:0:0:0:
183,101,312635,5,0,1:0:0:0:
226,23,312793,1,0,1:0:0:0:
344,105,312951,2,0,B|391:132|391:132|444:102,1,108,14|0,0:0|0:0,0:0:0:0:
437,136,313267,2,0,B|390:162|390:162|343:135,1,108,14|0,0:0|0:0,0:0:0:0:
454,214,313583,2,0,P|464:266|475:331,1,108,2|0,0:2|0:0,0:0:0:0:
400,367,313898,2,0,P|365:340|389:278,1,108,2|0,0:2|0:0,0:0:0:0:
333,221,314214,5,6,1:2:0:0:
333,221,314372,1,2,0:2:0:0:
269,263,314530,2,0,L|171:280,1,72,2|0,0:2|0:0,0:0:0:0:
128,338,314846,2,0,L|30:321,1,72,2|0,1:2|0:0,0:0:0:0:
123,250,315161,1,2,0:2:0:0:
123,250,315319,1,0,0:0:0:0:
57,200,315477,2,0,B|38:175|38:175|54:129,1,72,2|2,0:2|0:2,0:0:0:0:
129,65,315793,1,2,0:2:0:0:
129,65,315951,2,0,B|224:42|195:165|291:144,1,180,2|0,0:2|0:0,0:0:0:0:
296,157,316425,2,0,P|339:143|399:127,1,108,2|0,0:2|0:0,0:0:0:0:
445,56,316740,5,2,1:2:0:0:
445,56,316898,1,0,0:0:0:0:
399,126,317056,1,2,0:2:0:0:
448,196,317214,1,2,0:2:0:0:
373,322,317372,2,0,L|387:239,1,72,2|0,1:2|0:0,0:0:0:0:
256,161,317688,2,0,L|267:231,1,72,2|0,0:2|0:0,0:0:0:0:
211,300,318004,2,0,B|225:336|225:369|225:369|241:340|272:316,2,144,2|2|2,0:2|0:2|1:2,0:0:0:0:
135,248,318793,1,0,0:0:0:0:
49,323,318951,1,2,0:2:0:0:
49,323,319109,1,0,0:0:0:0:
121,263,319267,6,0,L|98:115,1,144,2|0,1:2|0:0,0:0:0:0:
2,62,319740,1,2,0:2:0:0:
2,62,319898,1,2,1:2:0:0:
74,106,320056,1,2,0:2:0:0:
170,45,320214,2,0,P|184:88|195:128,1,72,2|2,0:2|0:2,0:0:0:0:
191,219,320530,2,0,B|261:208|228:152|323:151,1,144,2|2,0:2|0:2,0:0:0:0:
378,201,321004,1,0,0:0:0:0:
444,57,321161,6,0,P|434:86|432:95,1,36,2|0,0:3|0:0,0:0:0:0:
475,157,321635,1,2,0:2:0:0:
371,232,321793,6,4,L|379:261,4,25.5000004863739,4|4|4|4|4,0:3|0:3|0:3|0:3|0:3,0:3:0:0:
458,283,322109,2,4,L|451:307,4,25.5000004863739,4|4|4|4|4,0:3|0:3|0:3|0:3|0:3,0:3:0:0:
380,364,322425,2,0,P|338:323|241:339,1,153.000002918243,12|2,0:2|0:2,0:0:0:0:
152,269,322898,2,4,L|145:245,2,25.5000004863739,4|4|4,0:3|0:3|0:3,0:3:0:0:
177,289,323056,6,0,P|207:188|250:63,1,229.500004377365,4|0,0:2|0:0,0:0:0:0:
177,12,323688,1,2,0:2:0:0:
177,12,324004,1,2,0:2:0:0:
282,188,324319,6,0,B|366:170|321:102|426:91,1,168.75,6|0,1:2|0:0,0:0:0:0:
479,141,324635,2,0,B|474:176|486:201|486:201|473:176|443:165,1,112.5,10|0,0:0|1:0,0:0:0:0:
347,270,324951,2,0,P|397:305|437:270,1,112.5,2|0,0:0|1:0,0:0:0:0:
252,175,325267,2,0,B|199:213|199:213|228:313,1,168.75,10|0,0:0|0:0,0:0:0:0:
160,371,325583,6,0,B|102:352|133:316|82:295|82:295|28:311,1,168.75,6|0,1:2|0:0,0:0:0:0:
7,338,325898,1,8,0:0:0:0:
111,221,326056,2,0,P|131:101|150:-2,1,225,6|0,1:2|1:0,0:0:0:0:
0,145,326530,2,0,P|15:228|28:311,1,168.75,10|0,0:0|0:0,0:0:0:0:
111,221,326846,6,0,B|152:227|171:189|171:189|180:202|180:202|202:162|251:174,1,168.75,6|0,1:2|0:0,0:0:0:0:
299,245,327161,1,8,0:0:0:0:
254,41,327319,1,2,1:2:0:0:
463,157,327477,2,0,B|442:181|442:181|358:193,1,112.5,2|0,0:0|1:0,0:0:0:0:
357,17,327793,2,0,B|407:-4|407:-4|478:29|485:88,1,168.75,10|0,0:0|0:0,0:0:0:0:
463,157,328109,6,0,B|453:247|366:191|368:318,1,168.75,6|0,1:2|0:0,0:0:0:0:
445,384,328425,2,0,P|469:362|421:286,1,112.5,8|0,0:0|0:0,0:0:0:0:
253,355,328740,2,0,L|130:331,1,112.5,6|0,1:2|1:0,0:0:0:0:
26,218,329056,2,0,B|4:181|39:145|39:145|102:156|95:209,1,168.75,8|0,0:0|0:0,0:0:0:0:
81,280,329372,6,0,B|159:258|113:156|238:167,1,168.75,6|0,1:2|0:0,0:0:0:0:
257,208,329688,1,8,0:0:0:0:
18,77,329846,2,0,P|36:130|54:197,1,112.5,0|0,1:0|0:0,0:0:0:0:
156,74,330161,1,0,1:0:0:0:
12,46,330319,1,8,0:0:0:0:
256,0,330477,1,2,0:0:0:0:
384,192,330635,6,0,B|456:204|456:204|480:32,1,225,6|8,1:2|0:0,0:0:0:0:
256,80,331109,1,2,1:2:0:0:
128,192,331267,2,0,B|56:204|56:204|32:32,1,225,2|14,1:2|0:0,0:0:0:0:
256,96,331740,1,0,0:0:0:0:
218,292,331898,6,0,B|180:294|161:272|159:208|246:171|326:292,1,243.000000926971,6|0,1:2|0:0,0:0:0:0:
499,373,332372,2,0,B|445:383|445:383|382:312|435:204,1,243.000000926971,6|0,1:2|0:0,0:0:0:0:
256,112,332846,2,0,B|178:115|191:-2|93:40|93:40|111:108,1,243.000000926971,6|0,1:2|0:0,0:0:0:0:
283,233,333319,2,0,B|346:230|370:163|370:163|419:106|496:143,1,243.000000926971,6|0,1:2|0:0,0:0:0:0:
246,31,333793,6,0,L|257:120,1,80.9999975280763,6|0,1:2|1:0,0:0:0:0:
218,292,334425,6,0,B|119:285|168:193|42:203,1,198.000006042481,6|8,1:2|0:2,0:0:0:0:
5,305,334898,2,0,B|4:335|19:359|19:359|170:366,1,198.000006042481,0|0,1:0|1:0,0:0:0:0:
256,272,335372,2,0,B|309:245|309:245|408:307,1,148.50000453186,8|0,0:2|0:0,0:0:0:0:
401,370,335688,2,0,P|427:238|444:169,1,198.000006042481,6|2,1:2|0:2,0:0:0:0:
369,15,336161,2,0,P|291:16|340:111,1,198.000006042481,6|0,1:2|1:0,0:0:0:0:
408,165,336635,2,0,B|370:158|370:158|331:183|331:183|267:176,1,148.50000453186,10|0,0:0|0:0,0:0:0:0:
183,121,336951,6,0,B|162:112|145:94|145:94|168:193,1,148.50000453186,6|0,1:2|0:0,0:0:0:0:
215,258,337267,1,8,0:0:0:0:
212,46,337425,1,2,1:2:0:0:
69,130,337583,2,0,B|49:179|49:179|94:216,1,99.0000030212403,2|0,0:0|1:0,0:0:0:0:
221,278,337898,2,0,L|111:319,1,99.0000030212403,10|0,0:0|0:0,0:0:0:0:
392,162,338214,6,0,B|382:250|296:195|298:320,1,148.50000453186,6|0,1:2|0:0,0:0:0:0:
364,378,338530,2,0,P|388:356|340:280,1,99.0000030212403,8|0,0:0|0:0,0:0:0:0:
245,197,338846,1,6,1:2:0:0:
385,136,339004,1,0,1:0:0:0:
203,18,339161,2,0,B|155:44|155:44|187:138,1,148.50000453186,8|0,0:0|0:0,0:0:0:0:
301,120,339477,6,0,B|350:104|350:104|353:83|365:65|365:65|452:41,1,148.50000453186,6|0,1:2|0:0,0:0:0:0:
477,111,339793,1,8,0:0:0:0:
278,44,339951,1,0,1:0:0:0:
144,160,340109,2,0,P|66:145|26:140,1,99.0000030212403,2|0,0:0|1:0,0:0:0:0:
225,299,340425,2,0,B|273:292|273:292|294:248|232:172,1,148.50000453186,10|0,0:0|0:0,0:0:0:0:
169,224,340740,5,6,1:2:0:0:
20,146,340898,1,0,1:0:0:0:
121,71,341056,1,10,0:0:0:0:
177,233,341214,2,0,B|138:246|138:246|126:266|126:266|64:290,2,99.0000030212403,2|0|0,1:2|1:0|1:0,0:0:0:0:
376,233,341688,2,0,P|350:304|327:373,1,148.50000453186,14|0,0:0|0:0,0:0:0:0:
234,331,342004,6,4,P|230:314|225:299,10,33.0000010070801,4|4|4|4|4|4|4|4|4|4|4,0:3|0:3|0:3|0:3|0:3|0:3|0:3|0:3|0:3|0:3|0:3,0:3:0:0:
286,213,342635,2,4,P|289:196|294:181,10,33.0000010070801,4|4|4|4|4|4|4|4|4|4|4,0:3|0:3|0:3|0:3|0:3|0:3|0:3|0:3|0:3|0:3|0:3,0:3:0:0:
192,120,343267,6,4,P|187:99|180:78,10,38.9999982147218,4|4|4|4|4|4|4|4|4|4|4,0:3|0:3|0:3|0:3|0:3|0:3|0:3|0:3|0:3|0:3|0:3,0:3:0:0:
282,160,343898,2,0,B|339:180|379:151|403:81|403:81|421:109|421:109|456:36|538:67|538:67|502:88|509:135,1,405.000015449525,14|0,0:0|1:0,0:0:0:0:
454,284,344530,6,0,P|449:232|443:186,1,90,6|0,1:2|0:0,0:0:0:0:
313,87,344846,1,8,0:0:0:0:
200,177,345004,2,0,B|140:161|140:161|106:112|106:112|27:98,1,180,2|0,1:2|1:0,0:0:0:0:
2,225,345477,2,0,B|32:251|46:294|46:294|37:256|57:216,1,135,10|0,0:0|0:0,0:0:0:0:
123,194,345793,5,2,1:2:0:0:
186,294,345951,1,0,0:0:0:0:
119,354,346109,1,10,0:0:0:0:
192,261,346267,2,0,P|270:250|334:328,1,180,2|0,1:2|1:0,0:0:0:0:
432,384,346740,2,0,B|460:326|460:326|418:233,1,135,8|0,0:0|0:0,0:0:0:0:
488,193,347056,6,0,L|498:103,1,90,6|0,1:2|0:0,0:0:0:0:
378,31,347372,1,8,0:0:0:0:
202,138,347530,2,0,B|293:109|262:228|370:205,1,180,2|0,1:2|1:0,0:0:0:0:
294,288,348004,2,0,B|240:332|240:332|240:245,1,135,10|0,0:0|0:0,0:0:0:0:
228,173,348319,5,2,1:2:0:0:
12,143,348477,1,0,1:0:0:0:
169,106,348635,1,10,0:0:0:0:
227,254,348793,2,0,B|159:247|159:247|104:326|121:387,1,180,2|0,1:2|1:0,0:0:0:0:
24,278,349267,2,0,P|19:210|9:117,1,135,8|0,0:0|0:0,0:0:0:0:
90,83,349583,6,0,P|79:41|25:26,1,90,6|0,1:2|0:0,0:0:0:0:
162,160,349898,1,8,0:0:0:0:
250,67,350056,2,0,B|274:49|302:58|302:58|355:-6|432:60,1,180,2|0,1:2|1:0,0:0:0:0:
500,149,350530,2,0,B|458:230|458:230|402:205,1,135,10|0,0:0|0:0,0:0:0:0:
347,140,350846,5,2,1:2:0:0:
285,230,351004,1,0,0:0:0:0:
404,305,351161,1,10,0:0:0:0:
279,197,351319,2,0,B|201:186|216:301|135:303,1,180,2|0,1:2|1:0,0:0:0:0:
53,348,351793,2,0,P|39:273|23:201,1,135,8|0,0:0|0:0,0:0:0:0:
117,146,352109,6,0,B|146:180|146:180|130:236,1,90,6|0,1:2|0:0,0:0:0:0:
29,110,352425,1,8,0:0:0:0:
197,110,352583,2,0,P|316:84|379:71,1,180,2|0,1:2|1:0,0:0:0:0:
506,121,353056,2,0,B|476:95|462:52|462:52|471:90|451:130,1,135,10|0,0:0|0:0,0:0:0:0:
399,149,353372,5,2,1:2:0:0:
492,223,353530,1,0,1:0:0:0:
451,228,353609,1,0,1:0:0:0:
418,252,353688,1,10,0:0:0:0:
398,288,353767,1,4,0:3:0:0:
378,324,353846,1,4,0:3:0:0:
349,353,353925,1,4,0:3:0:0:
312,370,354004,5,6,1:2:0:0:
109,288,354161,1,0,1:0:0:0:
199,370,354319,5,10,0:0:0:0:
398,288,354477,1,2,0:0:0:0:
208,144,354635,5,6,1:2:0:0:
256,240,354793,1,0,1:0:0:0:
303,65,354951,6,0,P|261:5|217:146,1,323.999990112305,14|0,0:0|1:0,0:0:0:0:
307,159,355740,1,0,1:0:0:0:
437,102,355898,2,0,B|464:55|464:55|434:2,1,108,14|0,0:0|0:0,0:0:0:0:
467,8,356214,2,0,B|502:71|502:71|466:134,1,144,14|0,0:0|0:0,0:0:0:0:
28,185,364348,6,2,B|154:187|58:47|154:-28|287:29|289:147|216:182|165:117,1,395.999987915039,2|0,0:0|0:0,0:0:0:0:
281,26,364919,2,2,P|257:182|239:356,1,323.999990112305,2|0,0:0|0:0,0:0:0:0:
384,272,365491,6,0,B|413:282|447:266|447:266|428:224|381:222,2,135.000005149842,2|10|10,0:0|0:2|0:2,0:0:0:0:
240,348,366348,6,2,B|256:338|272:335|272:335|264:301|184:308|157:358,1,173.24999471283,2|0,0:1|0:0,0:1:0:0:
90,310,367205,2,0,B|87:290|87:290|90:277|90:277|86:247,1,62.9999980773926,6|0,0:3|0:0,0:1:0:0:
92,236,367776,6,0,P|66:175|53:154,1,60,14|0,0:2|0:0,0:0:0:0:
119,76,367967,1,2,0:2:0:0:
196,149,368062,2,0,B|270:139|219:82|350:88,1,120,0|2,3:2|0:2,0:0:0:0:
391,138,368348,2,0,P|444:138|453:75,1,120,10|0,0:2|3:2,0:0:0:0:
321,177,368633,2,0,P|348:253|361:300,1,120,0|8,3:2|0:2,0:0:0:0:
462,377,368919,6,0,P|488:316|501:295,1,60,2|0,0:2|0:0,0:0:0:0:
430,249,369110,1,8,0:2:0:0:
358,290,369205,2,0,B|284:280|335:223|204:229,1,120,0|8,3:2|0:2,0:0:0:0:
181,243,369491,2,0,P|181:296|244:305,1,120,2|2,3:2|3:2,0:0:0:0:
207,169,369776,2,0,P|144:142|91:125,1,120,8|2,0:2|0:2,0:0:0:0:
258,231,370062,6,0,B|357:221|302:140|445:142,1,180,10|8,0:2|0:2,0:0:0:0:
512,294,370538,1,0,3:2:0:0:
433,274,370633,2,0,P|416:248|414:210,1,60,10|0,0:2|0:0,0:0:0:0:
492,97,370824,1,8,0:2:0:0:
492,97,370919,2,0,P|437:69|382:48,1,120,2|8,0:2|0:2,0:0:0:0:
305,98,371205,1,2,3:2:0:0:
174,22,371395,1,8,0:2:0:0:
127,82,371491,2,0,B|134:147|182:126|181:231,1,120,0|8,3:2|0:2,0:0:0:0:
141,286,371776,2,0,P|61:234|135:193,1,180,2|8,3:2|0:2,0:0:0:0:
225,329,372348,6,0,B|286:312|286:312|309:266|309:266|412:240,1,180,14|0,0:2|3:2,0:0:0:0:
452,384,372824,1,2,0:2:0:0:
378,384,372919,2,0,L|359:320,1,60,10|0,0:2|0:0,0:0:0:0:
478,209,373110,1,0,3:2:0:0:
420,164,373205,2,0,L|459:29,1,120,0|8,3:2|0:2,0:0:0:0:
372,2,373491,1,2,0:2:0:0:
273,95,373681,1,8,0:2:0:0:
209,145,373776,2,0,B|141:138|172:87|60:91,1,120,0|8,3:2|0:2,0:0:0:0:
0,120,374062,2,0,B|39:219|39:219|61:192|111:157,1,180,2|8,3:2|0:2,0:0:0:0:
217,32,374538,1,2,0:2:0:0:
288,115,374633,6,0,P|292:162|272:192,1,60,10|0,0:2|0:0,0:0:0:0:
153,243,374824,2,0,P|183:206|218:198,1,60,2|8,3:2|0:2,0:0:0:0:
279,264,375014,1,2,0:2:0:0:
205,360,375205,2,0,P|163:340|158:270,1,120,2|0,3:2|3:2,0:0:0:0:
279,264,375491,6,0,L|343:281,1,60,2|0,0:2|0:0,0:0:0:0:
294,352,375681,1,10,0:2:0:0:
336,279,375776,2,0,B|355:254|355:254|330:191,1,60,2|0,0:2|0:0,0:0:0:0:
266,158,375967,1,2,0:0:0:0:
315,91,376062,2,0,B|357:87|373:39|373:39|408:3|469:10,1,180,2|2,0:3|0:3,0:0:0:0:
239,140,376633,6,2,L|190:133,1,44.999998626709,2|0,0:1|0:0,0:1:0:0:
72,45,376919,6,0,P|95:119|116:194,1,155.999992858887,6|2,3:2|0:3,0:0:0:0:
36,352,377205,2,0,P|3:288|80:270,1,155.999992858887,10|2,0:2|0:3,0:0:0:0:
251,243,377491,2,0,B|224:266|219:309|219:309|193:275|151:270,1,155.999992858887,2|2,3:2|0:3,0:0:0:0:
242,148,377776,2,0,B|338:134|296:245|438:194,1,155.999992858887,10|2,0:2|0:3,0:0:0:0:
471,284,378062,2,0,L|445:67,1,155.999992858887,6|0,3:2|0:0,0:0:0:0:
512,28,378348,1,8,0:2:0:0:
339,84,378538,6,0,L|231:51,1,77.9999964294435,2|0,0:2|3:2,0:0:0:0:
418,22,378729,1,0,0:0:0:0:
242,148,378919,6,0,L|134:181,1,77.9999964294435,10|0,0:2|0:0,0:0:0:0:
14,223,379110,1,2,0:3:0:0:
78,150,379205,6,0,P|52:297|46:354,1,155.999992858887,2|2,3:2|0:3,0:0:0:0:
151,384,379491,2,0,B|197:346|197:346|157:226,1,155.999992858887,10|2,0:2|0:3,0:0:0:0:
202,162,379776,6,0,P|262:116|337:128,1,155.999992858887,2|2,3:2|0:3,0:0:0:0:
440,258,380062,2,0,P|365:274|302:232,1,155.999992858887,10|2,0:2|0:3,0:0:0:0:
459,128,380348,6,0,P|484:155|480:203,1,77.9999964294435,2|0,3:2|0:0,0:0:0:0:
411,334,380538,1,2,0:2:0:0:
440,258,380633,1,10,0:2:0:0:
435,39,380824,1,2,0:2:0:0:
435,39,380919,2,0,P|382:70|333:100,1,77.9999964294435,2|0,3:2|0:0,0:0:0:0:
248,102,381110,1,2,0:2:0:0:
202,162,381205,2,0,B|122:158|160:78|40:97,1,155.999992858887,10|0,0:2|0:0,0:0:0:0:
40,216,381491,6,0,B|67:239|72:282|72:282|98:248|140:243,1,155.999992858887,6|2,3:2|0:3,0:0:0:0:
286,126,381776,2,0,B|273:86|222:93|222:93|187:120|204:170,1,155.999992858887,10|2,0:2|0:3,0:0:0:0:
315,224,382062,2,0,B|388:218|368:178|419:179|419:179|398:201|385:248,1,155.999992858887,2|2,3:2|0:3,0:0:0:0:
409,361,382348,2,0,B|446:367|446:367|485:221,1,155.999992858887,10|2,0:2|0:3,0:0:0:0:
319,145,382633,5,6,3:2:0:0:
314,223,382729,2,0,P|334:256|351:292,1,77.9999964294435
287,371,382919,1,8,0:2:0:0:
189,280,383110,1,2,0:2:0:0:
189,280,383205,1,0,3:2:0:0:
103,375,383395,1,2,0:2:0:0:
43,332,383491,2,0,P|19:242|-5:171,1,155.999992858887,10|2,0:2|0:3,0:0:0:0:
189,55,383776,6,0,B|147:48|129:82|129:82|120:79|120:79|88:118|36:95,1,155.999992858887,2|0,3:2|0:0,0:0:0:0:
89,0,384062,1,2,3:2:0:0:
273,133,384252,2,0,L|348:113,1,77.9999964294435,2|0,0:2|3:2,0:0:0:0:
435,33,384443,2,0,L|359:13,1,77.9999964294435,2|0,0:2|0:0,0:0:0:0:
503,94,384633,6,0,P|463:223|454:258,1,155.999992858887,10|0,0:2|0:0,0:0:0:0:
418,380,384919,2,0,P|398:325|378:281,1,77.9999964294435,2|0,3:2|0:0,0:0:0:0:
457,243,385110,1,2,0:3:0:0:
387,203,385205,2,0,B|313:188|323:280|237:274,1,155.999992858887,0|10,3:2|0:2,0:0:0:0:
87,325,385491,6,2,B|233:332|133:186|233:109|372:168|374:291|298:327|298:327|245:259,1,510.000009727478,6|0,3:2|0:0,0:1:0:0:
179,113,386062,6,0,P|76:82|32:73,1,132.00000402832,6|0,3:2|0:0,0:0:0:0:
5,16,386348,1,8,0:2:0:0:
5,146,386538,1,2,0:3:0:0:
85,130,386633,2,0,B|96:237|-12:184|1:312,1,198.000006042481,2|0,3:2|3:2,0:0:0:0:
136,377,387110,1,2,0:3:0:0:
177,316,387205,2,0,B|169:282|169:282|60:327,1,132.00000402832,2|2,3:2|0:3,0:0:0:0:
230,377,387491,2,0,B|297:366|268:312|353:307,1,132.00000402832,10|2,0:2|0:3,0:0:0:0:
421,359,387776,1,2,3:2:0:0:
419,244,387967,1,2,0:3:0:0:
351,298,388062,2,0,L|331:163,1,132.00000402832,8|2,0:2|0:3,0:0:0:0:
373,65,388348,6,0,B|439:69|439:69|416:130,1,132.00000402832,2|2,3:2|0:3,0:0:0:0:
331,167,388633,2,0,B|283:159|283:159|258:130|258:130|195:118,1,132.00000402832,10|2,0:2|0:3,0:0:0:0:
151,75,388919,1,2,3:2:0:0:
50,182,389205,1,10,0:2:0:0:
111,232,389300,2,0,P|125:207|125:165,1,66.0000020141602,0|2,0:0|0:2,0:0:0:0:
12,256,389491,6,0,P|22:286|30:319,1,66.0000020141602,6|0,3:2|0:0,0:0:0:0:
100,384,389681,1,2,0:2:0:0:
188,327,389776,2,0,P|198:297|206:263,1,66.0000020141602,2|0,3:2|0:0,0:0:0:0:
259,186,389967,1,2,3:2:0:0:
319,284,390062,2,0,P|376:237|457:254,1,132.00000402832,2|0,0:2|0:0,0:0:0:0:
259,186,390348,2,0,B|195:170|234:108|109:118,1,132.00000402832,2|0,0:2|0:0,0:0:0:0:
43,208,390633,6,0,B|67:254|67:254|119:257|148:201,1,132.00000402832,6|0,3:2|0:0,0:0:0:0:
151,117,390919,1,8,0:2:0:0:
20,39,391110,1,2,0:3:0:0:
17,121,391205,2,2,B|127:115|81:1|212:0|212:0|241:117,1,330.000010070801,2|0,3:1|0:0,0:1:0:0:
252,207,391776,5,2,3:2:0:0:
371,138,391967,1,2,0:3:0:0:
350,161,392062,2,0,P|275:137|257:134,1,66.0000020141602,10|0,0:2|0:0,0:0:0:0:
411,225,392252,2,0,B|459:245|459:245|498:190|517:93,1,198.000006042481,2|2,0:3|0:3,0:0:0:0:
398,0,392633,2,0,P|413:73|425:136,1,132.00000402832,8|2,0:2|0:3,0:0:0:0:
388,236,392919,6,0,P|373:309|361:372,1,132.00000402832,2|2,3:2|0:3,0:0:0:0:
258,316,393205,1,10,0:2:0:0:
252,283,393300,1,2,0:2:0:0:
264,254,393395,1,2,0:2:0:0:
292,236,393491,2,0,B|248:224|248:224|160:289,1,132.00000402832,2|2,3:2|0:3,0:0:0:0:
20,251,393776,2,0,P|37:198|108:208,1,132.00000402832,10|2,0:2|0:2,0:0:0:0:
189,137,394062,6,0,P|199:107|207:73,1,66.0000020141602,6|0,3:2|0:0,0:0:0:0:
302,5,394252,1,2,0:2:0:0:
371,49,394348,2,0,P|381:79|389:112,1,66.0000020141602,2|0,3:2|0:0,0:0:0:0:
347,189,394538,1,2,3:2:0:0:
400,115,394633,2,0,P|392:83|382:52,1,66.0000020141602,2|0,0:2|0:0,0:0:0:0:
505,180,394824,2,0,B|410:154|431:294|305:263,1,198.000006042481,2|0,0:2|0:0,0:0:0:0:
234,164,395205,5,6,3:2:0:0:
336,298,395395,1,0,3:2:0:0:
283,353,395491,2,0,P|213:328|162:313,1,107.999996704102,8|0,0:2|3:2,0:0:0:0:
98,350,395776,1,0,3:2:0:0:
163,237,395967,2,0,P|148:178|142:149,1,53.9999983520508,0|8,3:2|0:2,0:0:0:0:
265,36,396252,1,0,3:2:0:0:
332,79,396348,6,0,P|302:157|287:205,1,107.999996704102,2|0,3:2|3:2,0:0:0:0:
196,112,396633,2,0,L|135:93,1,53.9999983520508,8|0,0:2|0:0,0:0:0:0:
397,156,396824,2,0,L|458:137,1,53.9999983520508,2|2,3:2|3:2,0:0:0:0:
206,86,397110,2,0,L|180:0,1,53.9999983520508,0|8,3:2|0:2,0:0:0:0:
148,183,397395,1,0,3:2:0:0:
76,152,397491,6,0,P|61:118|62:78,1,71.9999978027344,2|0,3:2|0:0,0:0:0:0:
147,185,397967,1,2,3:2:0:0:
144,198,398062,1,2,3:2:0:0:
141,211,398157,1,2,0:2:0:0:
139,224,398252,1,2,3:2:0:0:
63,241,398348,1,10,0:2:0:0:
44,269,398443,1,2,0:2:0:0:
80,283,398538,1,2,3:2:0:0:
65,316,398633,1,2,3:2:0:0:
98,346,398729,1,2,0:2:0:0:
69,379,398824,1,2,3:2:0:0:
69,379,398919,2,0,P|16:356|5:352,1,53.9999983520508,8|0,0:2|0:0,0:0:0:0:
152,335,399110,6,0,B|147:318|180:282|239:283|284:301|311:353|283:389,1,215.999993408203,0|0,3:2|3:2,0:0:0:0:
371,331,400348,2,0,L|403:325,1,26.9999991760254,0|0,3:2|0:0,0:0:0:0:
459,371,400538,1,0,3:2:0:0:
397,326,400633,6,0,B|373:249|373:249|477:151|477:151|444:34,1,323.999990112305,8|8,0:2|0:2,0:0:0:0:
295,17,401395,1,0,3:2:0:0:
295,17,401491,1,0,3:2:0:0:
279,159,401776,2,0,P|355:133|423:114,1,107.999996704102,8|0,0:2|3:2,0:0:0:0:
450,54,402062,1,0,3:2:0:0:
332,217,402252,5,0,3:2:0:0:
279,159,402348,2,0,B|227:152|234:199|176:200,1,107.999996704102,8|0,0:2|3:2,0:0:0:0:
93,182,402633,2,0,P|81:113|72:66,1,107.999996704102,0|0,3:2|3:2,0:0:0:0:
178,214,402919,2,0,P|168:267|158:320,1,107.999996704102,8|0,0:2|3:2,0:0:0:0:
68,376,403205,5,0,3:2:0:0:
0,226,403395,1,0,3:2:0:0:
77,259,403491,1,8,0:2:0:0:
131,121,403681,1,0,3:2:0:0:
73,75,403776,2,0,L|82:9,1,60,0|0,3:2|3:2,0:0:0:0:
181,50,404062,2,0,B|208:100|208:100|154:96,1,107.999996704102,8|2,0:2|0:0,0:0:0:0:
251,185,404348,6,0,B|391:145|348:315|492:271,1,270,0|0,0:0|0:0,0:2:0:0:
462,122,407030,6,0,B|377:71|351:215|248:184,1,236.250009012223,2|0,0:0|0:0,0:0:0:0:
233,175,407606,2,0,B|252:138|286:136|286:136|329:146|418:213,1,202.500007724762,2|0,0:0|0:0,0:0:0:0:
272,291,408183,2,0,B|182:324|171:191|65:207,1,236.250009012223,2|0,0:0|0:0,0:0:0:0:
48,220,408760,2,0,P|34:158|29:138,1,67.5000025749208,2|0,0:0|0:0,0:0:0:0:
94,108,408977,6,0,P|117:89|136:79,1,33.7500012874604
0,39,409193,2,0,P|23:58|42:68,1,33.7500012874604
118,187,409337,6,0,B|172:171|172:171|191:142|191:142|252:130,2,135.000005149842,2|6|2,1:2|0:0|0:0,0:0:0:0:
118,187,410203,1,2,0:0:0:0:
246,215,410347,1,0,0:0:0:0:
311,165,410491,6,0,P|355:152|404:141,1,67.5000025749208,2|0,0:0|0:0,0:0:0:0:
457,206,410780,2,0,P|413:193|364:182,1,67.5000025749208,2|0,0:0|0:0,0:0:0:0:
392,75,411068,2,0,P|405:119|416:168,1,67.5000025749208,2|0,0:3|0:0,0:0:0:0:
336,285,411356,1,2,0:0:0:0:
503,341,411645,6,0,P|465:364|435:398,1,67.5000025749208,6|0,0:0|0:0,0:0:0:0:
373,324,411933,2,0,P|335:301|305:267,1,67.5000025749208,2|0,0:2|0:0,0:0:0:0:
196,232,412222,2,0,P|216:322|226:380,1,135.000005149842,2|2,0:0|0:0,0:0:0:0:
102,199,412799,5,8,0:3:0:0:
209,86,412943,1,8,0:3:0:0:
222,104,413015,1,8,0:3:0:0:
212,123,413087,1,8,0:3:0:0:
74,215,413231,1,8,0:3:0:0:
295,110,413376,1,10,0:3:0:0:
305,91,413448,1,8,0:3:0:0:
292,73,413520,1,8,0:3:0:0:
366,198,413664,2,0,B|435:179|409:132|512:115,1,148.50000453186,8|2,0:3|0:2,0:0:0:0:
474,99,413953,6,0,L|453:275,1,148.50000453186,4|0,0:3|0:0,0:0:0:0:
418,263,414241,5,2,1:2:0:0:
482,377,414385,1,4,0:3:0:0:
253,268,414530,5,2,1:2:0:0:
359,119,414674,1,4,0:3:0:0:
369,384,414818,5,6,1:3:0:0:
369,384,415106,1,2,1:2:0:0:
197,258,415251,5,2,1:2:0:0:
288,192,415395,1,2,1:2:0:0:
143,384,415539,5,6,1:3:0:0:
143,384,416260,2,0,P|127:278|114:204,1,148.50000453186,8|0,0:2|0:0,0:0:0:0:
84,221,416549,5,2,1:2:0:0:
206,109,416693,1,4,0:3:0:0:
12,8,416837,5,2,1:2:0:0:
32,288,416981,1,4,0:3:0:0:
256,160,417126,5,6,1:3:0:0:
256,160,417414,1,2,1:2:0:0:
89,86,417558,5,2,1:2:0:0:
256,256,417703,1,2,1:2:0:0:
423,86,417847,5,6,1:3:0:0:
423,86,418568,2,0,B|418:157|418:157|439:192|452:266,1,148.50000453186,12|0,0:2|0:0,0:0:0:0:
505,268,418856,5,2,1:2:0:0:
322,205,419001,1,4,0:3:0:0:
114,329,419145,5,2,1:2:0:0:
226,94,419289,1,4,0:3:0:0:
505,145,419433,5,6,1:3:0:0:
505,145,419722,1,2,1:2:0:0:
148,207,419866,5,2,1:2:0:0:
429,384,420010,1,2,1:2:0:0:
273,73,420155,5,6,1:3:0:0:
273,73,420587,1,8,0:2:0:0:
229,73,420659,1,8,0:2:0:0:
197,104,420731,1,8,0:2:0:0:
164,134,420804,1,8,0:2:0:0:
123,148,420876,6,0,P|107:94|103:85,1,49.5000015106202,0|8,1:2|0:3,0:0:0:0:
51,224,421020,1,8,0:3:0:0:
51,224,421092,1,8,0:3:0:0:
51,224,421164,2,0,P|95:261|138:242,1,99.0000030212403,8|0,0:2|0:0,0:0:0:0:
265,187,421380,5,4,3:0:0:0:
254,209,421453,1,4,3:0:0:0:
244,232,421525,1,4,3:0:0:0:
234,254,421597,1,4,3:0:0:0:
225,277,421669,1,4,3:0:0:0:
199,316,421741,6,0,P|252:362|259:371,1,58.4999973220826,4|4,3:0|3:0,0:0:0:0:
388,302,421885,1,4,3:0:0:0:
388,302,421957,1,4,3:0:0:0:
388,302,422030,6,0,B|428:269|428:269|395:117,1,175.499991966248,6|0,1:2|0:0,0:0:0:0:
428,117,422318,1,2,0:0:0:0:
293,24,422462,6,0,P|206:49|239:131,1,175.499991966248,8|0,0:2|0:0,0:0:0:0:
262,179,422751,2,0,P|297:138|292:101,1,58.4999973220826,0|0,1:2|0:0,0:0:0:0:
126,36,422895,2,0,P|115:63|120:91,1,58.4999973220826,8|0,0:3|0:0,0:0:0:0:
239,254,423039,2,0,P|292:249|315:220,1,58.4999973220826,8|0,0:3|0:0,0:0:0:0:
164,187,423183,1,4,0:3:0:0:
49,384,423328,5,8,0:3:0:0:
189,323,423472,1,8,0:3:0:0:
138,264,423616,1,8,0:3:0:0:
217,116,423760,5,8,0:3:0:0:
345,189,423905,1,8,0:3:0:0:
294,248,424049,1,8,0:3:0:0:
443,245,424193,5,4,0:3:0:0:
345,189,424337,1,4,0:3:0:0:
396,130,424481,1,4,0:3:0:0:
477,314,424626,5,4,0:3:0:0:
319,180,424770,6,0,B|278:200|245:200|245:200|255:241|258:304,1,180,4|0,1:2|0:0,0:0:0:0:
181,361,425203,1,8,0:2:0:0:
177,357,425275,1,8,0:2:0:0:
173,353,425347,1,4,0:3:0:0:
169,349,425419,1,4,0:3:0:0:
165,345,425491,6,0,L|91:323,1,67.5000025749208,0|0,1:2|0:0,0:0:0:0:
43,271,425635,6,0,B|53:241|53:241|90:252,1,67.5000025749208,0|0,1:2|0:0,0:0:0:0:
203,58,425924,6,0,B|162:70|162:70|150:37,1,76.5000014591217,0|0,1:2|0:0,0:0:0:0:
26,250,426212,6,0,B|40:213|40:213|85:227,1,85.4999977169037,0|0,1:2|0:0,0:0:0:0:
223,35,426501,6,0,B|173:49|173:49|158:9,1,94.499997116089,0|0,1:2|0:0,0:0:0:0:
256,192,426789,1,0,1:2:0:0:
372,105,426933,5,2,1:2:0:0:
388,101,427005,1,0,1:2:0:0:
404,98,427078,1,0,1:2:0:0:
420,95,427150,1,0,1:2:0:0:
437,93,427222,2,0,B|504:82|504:82|518:175|450:259,1,202.500007724762,2|0,0:2|0:0,0:0:0:0:
393,211,427510,6,2,L|385:181,1,27,2|0,0:1|0:0,0:1:0:0:
510,250,427799,6,0,B|427:237|451:337|358:334,1,175.499991966248,6|0,1:2|0:0,0:0:0:0:
334,311,428087,1,8,0:0:0:0:
127,363,428231,1,0,1:0:0:0:
210,304,428376,1,2,0:0:0:0:
120,164,428520,1,0,1:0:0:0:
232,40,428664,2,0,L|192:225,1,175.499991966248,0|0,1:0|0:0,0:0:0:0:
155,240,428953,6,0,L|136:166,1,58.4999973220826,2|0,1:2|0:0,0:0:0:0:
291,122,429097,2,0,L|320:-11,1,116.999994644165,2|8,0:2|0:2,0:0:0:0:
233,227,429385,2,0,B|331:193|312:264|406:233,1,175.499991966248,2|0,1:2|0:0,0:0:0:0:
388,206,429674,1,2,1:2:0:0:
493,71,429818,1,8,0:2:0:0:
480,184,429962,2,0,L|468:152,1,18,2|0,0:2|0:0,0:0:0:0:
495,278,430106,6,0,P|398:321|302:371,1,175.499991966248,6|0,1:2|0:0,0:0:0:0:
300,334,430395,1,0,1:2:0:0:
114,384,430539,1,4,0:3:0:0:
235,251,430683,2,0,B|179:233|179:233|147:303,1,116.999994644165,2|0,0:2|1:2,0:0:0:0:
0,143,430972,2,0,L|27:266,1,116.999994644165,10|0,0:2|0:0,0:0:0:0:
220,149,431260,5,8,1:3:0:0:
209,116,431332,1,8,0:3:0:0:
182,94,431404,1,8,0:3:0:0:
147,92,431477,1,8,0:3:0:0:
117,108,431549,2,0,P|59:87|48:83,1,58.4999973220826,8|0,0:3|0:0,0:0:0:0:
220,149,431693,6,0,B|308:143|268:60|392:69,1,175.499991966248,10|0,1:3|0:0,0:0:0:0:
367,105,431981,2,0,B|347:137|347:137|262:148|262:148|220:194,1,175.499991966248,2|0,1:2|0:0,0:0:0:0:
311,251,432270,1,8,0:2:0:0:
311,251,432342,1,8,0:2:0:0:
311,251,432414,6,0,P|409:216|467:196,1,155.250002961159,4|0,1:2|0:0,0:0:0:0:
467,175,432703,2,0,P|484:116|500:68,1,90,10|0,0:2|0:0,0:0:0:0:
330,0,432991,2,0,B|281:19|281:19|299:103,1,135,2|0,1:2|0:0,0:0:0:0:
274,126,433279,2,0,B|196:131|228:174|126:185,1,135,10|0,0:2|0:0,0:0:0:0:
86,155,433568,6,0,P|104:248|120:326,1,135,2|0,1:2|0:2,0:0:0:0:
129,307,433856,1,10,0:0:0:0:
0,384,434001,2,0,P|10:332|22:279,1,90,2|0,1:2|0:0,0:0:0:0:
269,203,434289,5,2,1:2:0:0:
129,307,434433,1,8,0:2:0:0:
274,126,434578,6,0,B|322:134|322:134|342:164|342:164|399:175,1,135,6|0,1:2|0:0,0:0:0:0:
414,208,434866,1,2,0:2:0:0:
378,38,435010,2,0,P|328:71|327:101,1,90,8|2,0:2|0:2,0:0:0:0:
418,211,435299,1,2,1:2:0:0:
485,144,435443,1,0,0:0:0:0:
286,251,435587,2,0,L|308:392,1,135,10|0,0:2|0:0,0:0:0:0:
320,368,435876,6,0,L|268:342,1,45,2|0,1:2|0:0,0:0:0:0:
214,293,436020,2,0,L|162:319,1,45,2|8,0:2|0:2,0:0:0:0:
62,238,436164,1,10,0:2:0:0:
121,363,436308,1,2,1:2:0:0:
121,363,436380,1,0,1:2:0:0:
121,363,436453,2,0,P|126:328|136:250,1,90,0|4,1:2|0:3,0:0:0:0:
36,187,436669,1,4,0:3:0:0:
42,196,436741,1,4,0:3:0:0:
49,205,436813,1,4,0:3:0:0:
56,213,436885,2,0,L|121:182,1,45,4|4,0:3|0:3,0:0:0:0:
197,210,437029,6,0,B|304:191|271:241|370:237,1,175.499991966248,6|0,1:2|0:0,0:0:0:0:
395,216,437318,1,8,0:0:0:0:
402,361,437462,1,0,1:0:0:0:
341,156,437606,1,2,0:0:0:0:
486,84,437751,5,0,1:0:0:0:
322,147,437895,1,0,1:0:0:0:
491,68,438039,1,0,0:0:0:0:
282,22,438183,6,0,L|263:96,1,58.4999973220826,2|0,1:2|0:0,0:0:0:0:
196,209,438328,2,0,L|172:95,1,116.999994644165,2|8,0:2|0:2,0:0:0:0:
21,37,438616,6,0,B|-10:91|-10:91|54:194,1,175.499991966248,2|0,1:2|0:0,0:0:0:0:
77,181,438904,1,2,1:2:0:0:
28,339,439049,1,8,0:2:0:0:
127,251,439193,2,0,P|117:282|108:316,1,58.4999973220826,2|0,0:2|0:0,0:0:0:0:
65,366,439337,6,0,P|201:331|260:316,1,175.499991966248,6|0,1:2|0:0,0:0:0:0:
266,335,439626,1,0,1:2:0:0:
380,171,439770,1,4,0:3:0:0:
468,297,439914,2,0,P|406:289|341:261,1,116.999994644165,2|0,0:2|1:2,0:0:0:0:
274,75,440203,6,0,P|333:55|337:55,1,58.4999973220826,10|0,0:2|0:0,0:0:0:0:
385,299,440347,2,0,P|329:271|326:268,1,58.4999973220826
397,157,440491,6,0,B|420:115|461:108|461:108|517:185|464:279,1,233.999989288331,8|8,1:3|0:3,0:0:0:0:
256,192,440924,2,0,L|105:164,1,116.999994644165,10|0,1:3|0:0,0:0:0:0:
338,27,441212,1,2,1:2:0:0:
338,27,441284,1,8,3:3:0:0:
338,27,441356,2,0,P|295:88|290:97,1,58.4999973220826,8|8,3:3|3:3,0:0:0:0:
392,211,441501,2,0,P|375:186|357:163,1,58.4999973220826,8|8,0:3|0:3,0:0:0:0:
245,179,441645,6,0,P|253:277|257:348,1,155.250002961159,4|0,1:2|0:0,0:0:0:0:
181,356,441933,2,0,B|136:337|105:337|105:337|137:334|171:300,1,135,2|0,1:2|0:0,0:0:0:0:
256,333,442222,2,0,B|331:320|299:274|391:269,1,135,2|0,1:2|0:0,0:0:0:0:
446,314,442510,1,8,0:2:0:0:
446,314,442654,1,0,0:0:0:0:
267,205,442799,6,0,P|259:107|255:36,1,155.250002961159,6|0,1:2|0:0,0:0:0:0:
354,23,443087,2,0,B|399:74|399:74|331:113,1,135,10|0,0:2|1:2,0:0:0:0:
122,23,443376,1,2,1:2:0:0:
177,157,443520,1,4,0:3:0:0:
183,135,443592,1,4,0:3:0:0:
190,112,443664,2,0,L|127:136,1,45,4|4,0:3|0:3,0:0:0:0:
54,86,443808,6,0,B|71:156|71:156|64:183|64:183|87:284,1,161.999995056153,6|0,1:2|0:0,0:0:0:0:
0,340,444097,1,10,0:2:0:0:
0,340,444169,1,8,0:3:0:0:
0,340,444241,2,0,P|24:329|50:321,1,53.9999983520508,8|0,1:3|0:0,0:0:0:0:
169,282,444385,6,0,P|255:301|330:324,1,161.999995056153,6|0,0:2|0:0,0:0:0:0:
337,339,444674,1,4,0:3:0:0:
301,133,444818,1,4,0:3:0:0:
425,384,444962,6,0,P|439:294|455:207,1,161.999995056153,6|0,0:2|0:0,0:0:0:0:
358,160,445251,1,8,0:3:0:0:
358,160,445323,1,8,0:3:0:0:
358,160,445395,2,0,B|439:153|410:95|506:94,1,161.999995056153,6|0,1:2|0:0,0:0:0:0:
474,116,445683,6,0,P|424:100|411:97,1,53.9999983520508,10|8,0:3|0:3,0:0:0:0:
288,119,445828,6,0,P|277:101|286:53,1,67.4999979400635,4|0,1:2|0:0,0:0:0:0:
254,24,446260,5,4,1:2:0:0:
136,42,446549,1,8,0:2:0:0:
64,128,446837,2,0,P|85:180|129:178,1,99.0000030212403,4|0,1:2|0:0,0:0:0:0:
46,110,447126,2,0,B|27:167|27:167|39:201|39:201|21:257,1,148.50000453186,2|0,1:2|0:0,0:0:0:0:
8,268,447414,5,0,1:2:0:0:
102,332,447558,1,0,1:2:0:0:
192,256,447703,1,4,0:3:0:0:
268,301,447847,2,0,B|382:266|350:374|493:336,1,198.000006042481,2|0,0:2|1:2,0:0:0:0:
497,220,448279,1,8,0:2:0:0:
433,268,448424,1,0,1:2:0:0:
424,194,448568,5,4,1:2:0:0:
385,332,448856,1,8,0:2:0:0:
318,374,449145,2,0,P|266:353|268:309,1,99.0000030212403,4|0,1:2|0:0,0:0:0:0:
224,371,449433,2,0,B|182:346|182:346|52:372,1,148.50000453186,2|0,1:2|0:0,0:0:0:0:
53,348,449722,5,0,1:2:0:0:
49,331,449794,1,8,0:3:0:0:
46,315,449866,1,8,0:3:0:0:
42,299,449938,1,8,0:3:0:0:
66,276,450010,6,0,P|74:235|76:217,1,49.5000015106202,8|0,0:2|0:0,0:0:0:0:
15,171,450154,2,0,P|7:130|5:112,1,49.5000015106202,8|8,0:3|0:3,0:0:0:0:
126,12,450299,5,8,0:2:0:0:
122,28,450371,1,8,0:3:0:0:
119,46,450443,2,0,P|84:81|67:87,1,49.5000015106202,4|4,0:3|0:3,0:0:0:0:
283,91,450587,2,0,P|268:71|248:56,1,49.5000015106202,4|4,0:3|0:3,0:0:0:0:
181,150,450731,1,4,0:3:0:0:
181,150,450804,1,4,0:3:0:0:
181,150,450876,6,0,B|275:173|275:173|298:205|295:224,1,148.50000453186,4|0,1:2|0:0,0:0:0:0:
257,277,451164,2,0,B|230:185|230:185|246:149|264:142,1,148.50000453186,8|0,0:2|0:0,0:0:0:0:
333,216,451453,2,0,P|314:267|295:321,1,99.0000030212403,4|0,1:2|0:0,0:0:0:0:
455,262,451741,2,0,B|495:197|495:197|427:138,1,148.50000453186,2|0,1:2|0:0,0:0:0:0:
446,122,452029,6,0,P|492:57|496:52,1,49.5000015106202,0|0,1:2|0:0,0:0:0:0:
349,185,452174,2,0,P|335:164|284:93,1,99.0000030212403,0|4,1:2|0:3,0:0:0:0:
188,219,452462,6,0,B|103:207|153:148|36:149,1,148.50000453186,2|0,0:2|0:0,0:0:0:0:
37,173,452751,1,4,1:2:0:0:
86,279,452895,1,0,1:2:0:0:
225,145,453039,6,0,P|268:114|314:85,1,99.0000030212403,4|0,0:3|1:2,0:0:0:0:
78,62,453328,1,0,1:2:0:0:
149,25,453472,1,8,0:2:0:0:
287,145,453616,6,0,P|244:114|197:85,1,99.0000030212403,4|0,1:2|1:2,0:0:0:0:
438,61,453904,1,4,0:3:0:0:
360,20,454049,1,0,1:2:0:0:
287,239,454193,6,0,P|244:270|197:298,1,99.0000030212403,4|8,1:2|0:2,0:0:0:0:
444,323,454481,1,0,1:2:0:0:
358,368,454626,1,8,0:2:0:0:
245,222,454770,5,0,1:2:0:0:
39,347,454914,1,8,0:2:0:0:
253,303,455058,1,8,0:2:0:0:
253,303,455130,1,8,0:2:0:0:
253,303,455203,2,2,P|199:278|176:269,1,80.9999975280763,10|0,0:0|0:0,0:1:0:0:
157,193,455491,6,0,P|129:148|152:79,1,99.0000030212403,4|0,1:2|0:0,0:0:0:0:
270,293,455779,2,0,P|274:341|247:382,1,99.0000030212403,8|0,0:2|0:0,0:0:0:0:
121,203,456068,2,0,P|93:158|116:89,1,99.0000030212403,4|0,1:2|0:0,0:0:0:0:
380,146,456356,2,0,B|330:157|330:157|316:186|316:186|254:206,1,148.50000453186,2|0,1:2|0:0,0:0:0:0:
267,113,456645,5,0,1:2:0:0:
367,39,456789,1,0,1:2:0:0:
479,221,456933,1,4,0:3:0:0:
379,146,457078,6,0,B|386:264|283:204|289:335,1,198.000006042481,2|0,0:2|1:2,0:0:0:0:
429,381,457510,2,0,P|402:335|392:317,1,49.5000015106202,8|0,0:2|0:0,0:0:0:0:
337,276,457654,1,0,1:2:0:0:
432,90,457799,6,0,P|459:45|436:-23,1,99.0000030212403,4|0,1:2|0:0,0:0:0:0:
315,187,458087,2,0,P|310:235|337:276,1,99.0000030212403,8|0,0:2|0:0,0:0:0:0:
468,100,458376,2,0,P|495:55|472:-13,1,99.0000030212403,4|0,1:2|0:0,0:0:0:0:
261,111,458664,2,0,P|315:96|360:86,1,99.0000030212403,2|0,1:2|0:0,0:0:0:0:
159,35,458953,5,0,1:2:0:0:
155,51,459025,1,8,0:3:0:0:
152,67,459097,1,8,0:3:0:0:
148,83,459169,1,8,0:3:0:0:
172,107,459241,6,0,P|180:148|182:166,1,49.5000015106202,8|0,0:2|0:0,0:0:0:0:
121,212,459385,2,0,P|113:253|111:271,1,49.5000015106202,8|8,0:3|0:3,0:0:0:0:
232,371,459529,5,8,0:2:0:0:
228,355,459602,1,8,0:3:0:0:
225,337,459674,2,0,P|190:302|173:296,1,49.5000015106202,4|4,0:3|0:3,0:0:0:0:
389,292,459818,2,0,P|374:311|354:326,1,49.5000015106202,4|4,0:3|0:3,0:0:0:0:
287,233,459962,1,4,0:3:0:0:
287,233,460034,1,4,0:3:0:0:
287,233,460106,6,0,B|381:210|381:210|404:178|401:159,1,148.50000453186,4|0,1:2|0:0,0:0:0:0:
305,129,460395,2,0,B|211:152|211:152|188:184|191:203,1,148.50000453186,8|0,0:2|0:0,0:0:0:0:
112,260,460683,2,0,P|40:240|-1:229,1,99.0000030212403,4|0,1:2|0:0,0:0:0:0:
137,67,460972,2,0,B|151:118|151:118|174:132|174:132|193:207,1,148.50000453186,2|0,1:2|0:0,0:0:0:0:
220,216,461260,5,0,1:2:0:0:
68,94,461404,1,0,1:2:0:0:
249,0,461549,1,4,0:3:0:0:
221,76,461693,6,0,B|339:68|279:171|410:165,1,198.000006042481,2|4,0:2|1:2,0:0:0:0:
487,15,462126,2,0,L|455:71,1,49.5000015106202,0|0,1:2|0:0,0:0:0:0:
398,147,462270,2,0,L|373:104,1,49.5000015106202,4|0,0:3|0:0,0:0:0:0:
239,157,462414,5,0,1:2:0:0:
13,71,462558,1,0,1:2:0:0:
73,109,462703,2,0,P|116:78|162:49,1,99.0000030212403,8|4,0:2|1:2,0:0:0:0:
245,223,462991,5,0,1:2:0:0:
7,314,463135,1,4,0:3:0:0:
70,274,463279,2,0,P|101:317|129:363,1,99.0000030212403,0|4,1:2|1:2,0:0:0:0:
260,220,463568,5,8,0:2:0:0:
509,315,463712,1,0,1:2:0:0:
443,273,463856,2,0,P|400:304|353:332,1,99.0000030212403,8|0,0:2|1:2,0:0:0:0:
260,163,464145,5,8,0:2:0:0:
509,68,464289,1,0,0:0:0:0:
217,95,464433,6,0,P|205:146|186:249,1,148.50000453186,10|0,0:0|0:0,0:0:0:0:
101,64,464722,6,0,P|50:45|34:42,3,49.5000015106202,4|4|4|0,0:3|0:3|0:3|0:3,0:0:0:0:
171,113,465010,2,0,P|222:94|238:91,3,49.5000015106202,8|8|8|8,0:3|0:3|0:3|0:3,0:0:0:0:
100,151,465299,5,8,0:3:0:0:
100,181,465371,1,8,0:3:0:0:
106,212,465443,1,8,0:3:0:0:
122,238,465515,1,8,0:3:0:0:
145,258,465587,1,8,0:3:0:0:
170,276,465659,1,8,0:3:0:0:
193,297,465731,1,8,0:3:0:0:
208,324,465804,1,8,0:3:0:0:
215,354,465876,1,6,0:2:0:0:
490,97,470491,5,8,0:3:0:0:
450,89,470563,1,8,0:3:0:0:
411,94,470635,1,8,0:3:0:0:
378,116,470707,1,8,0:3:0:0:
353,147,470779,1,8,0:3:0:0:
329,178,470852,1,8,0:3:0:0:
301,206,470924,1,8,0:3:0:0:
266,225,470996,1,8,0:3:0:0:
227,233,471068,6,0,P|213:171|212:165,1,49.5000015106202,8|8,0:3|0:3,0:0:0:0:
98,123,471212,2,0,P|112:61|113:55,1,49.5000015106202,8|8,0:3|0:3,0:0:0:0:
188,238,471356,6,0,P|174:176|173:170,1,49.5000015106202,8|8,0:3|0:3,0:0:0:0:
59,128,471501,2,0,P|73:66|74:60,1,49.5000015106202,8|8,0:3|0:3,0:0:0:0:
2,198,471645,6,0,B|8:225|8:225|47:234|91:291|91:364|23:400|59:353|59:353|97:298|165:293|208:317|215:375,1,431.999986816407,8|0,0:3|0:0,0:0:0:0:
368,58,475809,6,0,L|445:46,1,67.5,4|0,3:3|0:0,0:0:0:0:
366,92,476170,2,0,B|328:57|328:57|225:75,1,107.999996704102,12|2,3:2|3:2,0:0:0:0:
237,137,476441,1,0,0:0:0:0:
237,137,476532,2,0,P|308:154|349:167,1,107.999996704102,0|14,3:2|3:2,0:0:0:0:
181,65,476893,1,0,3:2:0:0:
140,172,477074,1,2,3:2:0:0:
65,12,477255,5,14,3:2:0:0:
144,194,477435,1,2,3:2:0:0:
82,247,477616,1,0,3:2:0:0:
240,224,477797,5,14,3:2:0:0:
240,224,477887,1,0,3:0:0:0:
240,224,477978,2,0,P|311:241|352:254,1,107.999996704102,0|2,3:2|3:2,0:0:0:0:
512,211,478339,5,12,3:2:0:0:
438,147,478520,1,2,3:2:0:0:
382,325,478700,5,12,3:2:0:0:
455,299,478881,1,2,3:2:0:0:
275,384,479062,6,0,B|184:371|230:307|112:315,1,161.999995056153,14|0,3:2|0:0,0:0:0:0:
107,319,479423,2,0,L|121:373,1,53.9999983520508,0|0,3:2|0:0,0:0:0:0:
195,236,479604,6,0,L|221:131,1,107.999996704102,14|0,3:2|3:2,0:0:0:0:
100,35,479965,1,0,3:2:0:0:
93,142,480146,2,0,B|209:143|175:38|295:59,1,215.999993408203,14|0,3:2|3:2,0:0:0:0:
466,51,480688,6,0,P|369:99|276:154,1,215.999993408203,12|2,3:2|3:2,0:0:0:0:
224,259,481230,1,14,3:2:0:0:
401,173,481411,1,0,3:2:0:0:
357,284,481592,5,8,3:3:0:0:
346,272,481682,2,0,B|403:258|395:302|449:296,1,107.999996704102,8|0,3:3|0:0,0:0:0:0:
484,318,481953,6,0,P|429:343|420:348,1,53.9999983520508,12|0,3:2|0:0,0:0:0:0:
300,281,482134,2,0,P|324:292|349:302,1,53.9999983520508,0|0,3:2|0:0,0:0:0:0:
236,365,482315,1,2,3:2:0:0:
227,352,482405,1,0,0:0:0:0:
205,337,482496,6,0,P|130:323|109:321,1,53.9999983520508,14|0,3:2|0:0,0:0:0:0:
20,313,482676,1,2,3:2:0:0:
125,172,482857,1,2,3:2:0:0:
43,210,483038,6,0,P|29:135|27:114,1,53.9999983520508,14|0,3:2|0:0,0:0:0:0:
124,204,483218,2,0,P|119:230|113:256,1,53.9999983520508,2|0,3:2|0:0,0:0:0:0:
59,79,483399,5,2,3:2:0:0:
219,229,483580,1,12,3:2:0:0:
312,154,483761,2,0,B|282:112|282:112|186:128,1,107.999996704102,0|0,3:2|3:2,0:0:0:0:
434,277,484122,6,0,P|420:202|418:181,1,53.9999983520508,14|0,3:2|0:0,0:0:0:0:
494,97,484303,2,0,P|489:123|483:149,1,53.9999983520508,2|0,3:2|0:0,0:0:0:0:
312,154,484483,1,14,3:2:0:0:
511,233,484664,1,2,3:2:0:0:
337,310,484845,5,14,3:2:0:0:
494,97,485026,1,0,3:2:0:0:
412,43,485206,1,0,3:2:0:0:
456,332,485387,1,12,3:2:0:0:
346,187,485568,6,0,L|258:168,1,53.9999983520508,2|0,3:2|0:0,0:0:0:0:
152,129,485749,2,0,L|240:110,1,53.9999983520508,2|0,3:2|0:0,0:0:0:0:
241,262,485929,6,0,P|214:224|204:210,1,53.9999983520508,12|0,3:2|0:0,0:0:0:0:
102,68,486110,2,0,P|86:89|70:112,1,53.9999983520508,2|8,3:2|3:2,0:0:0:0:
104,215,486291,5,6,3:2:0:0:
62,314,486471,2,0,P|9:291|5:231,1,107.999996704102
104,215,486743,1,8,3:3:0:0:
111,227,486833,2,0,P|167:256|215:283,1,107.999996704102,4|6,3:3|3:2,0:0:0:0:
341,165,487194,5,8,3:2:0:0:
381,156,487284,1,8,3:2:0:0:
415,182,487374,1,8,3:3:0:0:
439,218,487465,1,8,3:3:0:0:
468,249,487555,1,4,3:3:0:0:
510,257,487645,1,4,3:3:0:0:
491,225,487737,6,0,B|420:243|420:243|396:310,1,107.999996704102,12|0,3:2|0:0,0:0:0:0:
295,380,488098,2,0,L|301:303,1,53.9999983520508,2|0,3:2|0:0,0:0:0:0:
221,260,488279,2,0,L|215:183,1,53.9999983520508,14|0,3:2|0:0,0:0:0:0:
327,165,488459,2,0,L|333:88,1,53.9999983520508,2|0,3:2|0:0,0:0:0:0:
251,53,488640,2,0,L|245:-24,1,53.9999983520508,2|0,3:2|0:0,0:0:0:0:
108,105,488821,6,0,P|127:119|166:113,1,53.9999983520508,14|0,3:2|0:0,0:0:0:0:
156,118,489002,2,0,B|67:129|111:205|-4:226,1,161.999995056153,2|0,3:2|0:0,0:0:0:0:
4,201,489361,1,14,3:2:0:0:
188,206,489541,2,0,P|219:213|256:224,1,45,2|0,3:2|0:0,0:0:0:0:
272,287,489720,1,0,0:0:0:0:
346,90,489900,1,12,3:2:0:0:
266,128,490080,1,0,3:2:0:0:
333,237,490259,1,12,3:2:0:0:
333,237,490439,1,0,3:2:0:0:
460,91,490619,6,0,B|491:125|491:125|468:199,1,90,12|0,3:2|3:2,0:0:0:0:
423,229,490893,1,0,0:0:0:0:
439,236,490984,2,0,L|464:335,1,90,2|12,3:2|3:2,0:0:0:0:
318,312,491350,6,0,L|361:301,1,45,2|0,3:2|0:0,0:0:0:0:
324,172,491533,2,0,L|367:161,1,45,2|0,3:2|0:0,0:0:0:0:
258,238,491716,1,14,3:2:0:0:
103,142,491899,6,0,P|12:115|-19:110,1,107.999996704102,2|0,3:2|3:2,0:0:0:0:
150,251,492260,2,0,P|182:197|187:192,1,45,14|0,3:2|0:0,0:0:0:0:
123,153,492439,2,0,P|104:47|100:32,1,90,2|0,3:2|3:2,0:0:0:0:
39,242,492796,2,0,B|46:216|61:199|61:199|180:171,1,135,12|0,3:2|0:0,0:0:0:0:
248,232,493153,5,12,3:2:0:0:
60,18,493332,1,0,3:2:0:0:
51,7,493421,1,0,0:0:0:0:
40,33,493510,6,0,P|89:19|143:6,1,90,14|0,3:2|3:2,0:0:0:0:
203,50,493778,1,0,3:2:0:0:
203,50,493867,2,0,P|250:70|257:74,1,45,0|0,3:2|0:0,0:0:0:0:
306,152,494046,6,0,P|337:88|364:40,1,107.999996704102,12|0,3:2|3:2,0:0:0:0:
438,80,494314,1,0,3:2:0:0:
438,80,494403,2,0,P|485:60|492:56,1,53.9999983520508,0|0,3:2|0:0,0:0:0:0:
340,166,494582,6,0,B|403:154|390:211|452:209,1,125.999996154785,14|2,3:2|3:2,0:0:0:0:
501,281,494849,1,0,3:2:0:0:
501,281,494939,2,0,P|449:303|441:307,1,62.9999980773926
339,249,495117,6,0,P|358:287|372:317,1,67.5000025749208,12|0,3:2|3:2,0:0:0:0:
298,375,495299,1,2,3:2:0:0:
316,384,495391,2,0,P|330:353|345:323,1,67.5000025749208,0|0,3:2|3:2,0:0:0:0:
253,239,495574,1,0,3:2:0:0:
231,257,495665,6,0,P|122:230|54:219,1,135.000005149842,12|0,3:2|3:2,0:0:0:0:
309,92,496031,2,0,P|418:65|486:54,1,135.000005149842,12|0,3:2|3:2,0:0:0:0:
197,100,496397,6,0,L|175:11,1,53.9999983520508,12|0,3:2|3:2,0:0:0:0:
344,193,496580,2,0,L|322:282,1,53.9999983520508,0|0,3:2|3:2,0:0:0:0:
309,92,496763,6,0,L|398:70,1,53.9999983520508,0|0,3:2|3:2,0:0:0:0:
216,239,496946,2,0,L|127:217,1,53.9999983520508,2|0,3:2|3:2,0:0:0:0:
83,160,497129,5,14,3:2:0:0:
361,79,497306,1,12,3:2:0:0:
46,231,497484,1,14,3:2:0:0:
370,358,497661,1,12,3:2:0:0:
467,280,497839,6,0,B|357:245|367:355|261:338,1,215.999993408203,4|6,3:2|0:0,0:0:0:0:
65,160,510865,6,0,P|107:136|105:51,1,125.999996154785,6|0,0:0|0:0,0:0:0:0:
34,16,511406,1,0,0:0:0:0:
96,60,511587,6,0,L|173:39,1,62.9999980773926,2|0,0:0|0:0,0:0:0:0:
238,21,511948,1,0,0:0:0:0:
249,30,512310,5,2,0:0:0:0:
224,114,512491,1,0,0:0:0:0:
292,169,512671,1,0,0:0:0:0:
374,137,512852,1,0,0:0:0:0:
369,112,513033,6,0,L|289:97,1,62.9999980773926,2|0,0:0|0:0,0:0:0:0:
249,30,513394,1,0,0:0:0:0:
242,39,513755,5,2,0:0:0:0:
217,123,513936,1,0,0:0:0:0:
149,178,514117,6,0,P|161:229|165:245,1,62.9999980773926
256,256,514479,2,0,P|244:307|240:323,1,62.9999980773926,2|0,0:0|0:0,0:0:0:0:
157,257,514840,2,0,P|149:226|142:195,1,62.9999980773926
271,247,515201,5,2,0:0:0:0:
345,237,515382,1,0,0:0:0:0:
421,229,515563,1,0,0:0:0:0:
402,268,515743,1,0,0:0:0:0:
318,221,515924,2,0,L|299:90,1,125.999996154785,2|0,0:0|0:0,0:0:0:0:
501,23,516647,6,0,P|487:75|478:113,1,62.9999980773926,2|0,0:0|0:0,0:0:0:0:
403,148,517008,1,0,0:0:0:0:
460,91,517189,6,0,P|509:126|501:190,1,125.999996154785
425,237,517731,1,0,0:0:0:0:
425,237,517912,1,0,0:0:0:0:
492,191,518093,6,0,P|501:250|513:341,1,125.999996154785,2|0,0:0|0:0,0:0:0:0:
431,370,518635,1,0,0:0:0:0:
376,313,518816,2,0,B|326:302|318:362|258:355,1,125.999996154785,2|0,0:0|0:0,0:0:0:0:
192,308,519358,1,0,0:0:0:0:
91,337,519539,6,0,B|44:345|-6:254|74:207|100:244|100:244|50:237|3:191|54:152|54:152|49:146|49:146|97:95|63:53,1,431.999986816407
256,32,523154,5,0,0:0:0:0:
445,65,523877,5,0,0:0:0:0:
256,288,524599,6,0,B|241:247|241:247|272:192|272:192|256:136,1,157.5
188,99,525308,5,12,3:2:0:0:
376,24,526768,5,12,3:2:0:0:
459,194,527495,6,0,P|419:268|323:250,1,188.999994232178,12|0,3:2|0:0,0:0:0:0:
288,254,528221,5,14,3:2:0:0:
243,310,528401,1,0,3:2:0:0:
139,242,528582,5,8,3:2:0:0:
210,237,528763,1,2,3:2:0:0:
279,135,528943,5,12,3:2:0:0:
226,69,529123,1,0,3:2:0:0:
105,149,529305,5,10,3:2:0:0:
187,154,529485,1,0,3:2:0:0:
310,54,529666,5,12,3:2:0:0:
407,149,529847,1,0,3:2:0:0:
341,291,530028,1,8,3:2:0:0:
279,135,530208,1,0,3:2:0:0:
433,250,530389,5,12,3:2:0:0:
199,356,530569,1,0,3:2:0:0:
473,331,530750,1,8,3:2:0:0:
223,208,530931,1,8,3:3:0:0:
223,208,531022,1,0,0:0:0:0:
223,208,531105,1,14,3:2:0:0:
380,120,532550,6,0,L|392:23,1,94.4999971160889,12|0,3:2|0:0,0:0:0:0:
333,148,533264,6,0,B|425:146|393:178|486:194,1,157.5,12|0,3:2|0:0,0:0:0:0:
419,270,533978,6,0,P|411:288|405:307,2,30,0|0|0,3:0|3:0|3:0,0:0:0:0:
481,193,534218,1,8,0:2:0:0:
419,113,534339,6,0,P|411:94|405:75,2,30,0|0|0,3:0|3:0|3:0,0:0:0:0:
357,193,534580,1,0,3:0:0:0:
276,146,534700,5,0,3:0:0:0:
198,187,534823,2,0,L|145:172,2,30,0|0|0,3:0|3:0|3:0,0:0:0:0:
273,111,535070,6,0,B|286:85|286:85|245:20,2,102.000001945496,8|0|0,0:2|3:0|3:0,0:0:0:0:
198,187,535442,6,0,B|134:163|136:248|45:222,1,135,2|0,0:0|0:0,0:0:0:0:
9,285,535803,2,0,P|37:332|127:301,1,161.999995056153,2|0,0:0|0:0,0:0:0:0:
248,296,536164,2,0,P|300:243|422:268,1,188.999994232178,2|0,0:0|0:0,0:0:0:0:
484,376,536526,2,0,P|455:225|442:166,1,202.500007724762,2|0,0:0|0:0,0:0:0:0:
324,96,536887,6,0,P|360:35|454:49,1,175.499991966248,6|0,3:2|0:0,0:0:0:0:
432,55,537249,2,0,L|311:23,1,116.999994644165,12|0,3:2|0:0,0:0:0:0:
127,174,537610,5,6,3:2:0:0:
290,11,537791,1,0,3:2:0:0:
331,215,537972,2,0,B|274:229|274:229|240:181,1,116.999994644165,14|0,3:2|3:2,0:0:0:0:
53,57,538333,6,0,B|157:10|171:151|288:84,1,233.999989288331,6|12,3:2|3:2,0:0:0:0:
124,14,538875,1,0,0:0:0:0:
17,170,539056,2,0,P|41:216|103:214,1,116.999994644165,6|0,3:2|3:2,0:0:0:0:
151,150,539327,1,0,3:0:0:0:
151,150,539417,1,14,3:2:0:0:
222,357,539598,1,2,3:2:0:0:
387,199,539779,6,0,B|307:172|307:172|241:246,1,175.499991966248,6|0,3:2|0:0,0:0:0:0:
290,315,540140,2,0,P|414:274|445:268,1,116.999994644165,14|0,3:2|0:0,0:0:0:0:
508,160,540502,1,6,3:2:0:0:
262,85,540682,1,2,0:0:0:0:
461,12,540863,1,14,3:2:0:0:
375,146,541044,1,2,3:2:0:0:
176,40,541225,6,0,B|97:19|100:114|17:107,1,175.499991966248,4|0,3:2|0:0,0:0:0:0:
164,120,541586,2,0,P|272:100|307:94,1,116.999994644165,12|0,3:2|0:0,0:0:0:0:
116,267,541948,6,0,B|70:233|70:233|113:176,1,116.999994644165,6|0,3:2|0:0,0:0:0:0:
284,303,542309,2,0,B|240:329|220:364|220:364|221:324|198:280,1,175.499991966248,14|0,3:2|0:0,0:0:0:0:
307,226,542670,6,0,P|359:261|335:367,1,175.499991966248,6|0,3:2|0:0,0:0:0:0:
284,303,543032,1,12,3:2:0:0:
405,171,543213,1,2,0:0:0:0:
497,356,543393,6,0,P|481:309|466:242,1,116.999994644165,6|0,3:2|0:0,0:0:0:0:
347,30,543755,2,0,P|335:87|317:143,1,116.999994644165,14|0,3:2|3:2,0:0:0:0:
119,43,544116,6,0,B|53:94|53:94|130:248,1,233.999989288331,6|12,3:2|3:2,0:0:0:0:
256,352,544658,1,0,0:0:0:0:
391,228,544839,6,0,B|441:128|441:128|392:89,1,175.499991966248,6|0,3:2|0:0,0:0:0:0:
308,46,545201,1,14,3:2:0:0:
375,334,545381,1,0,3:2:0:0:
496,102,545562,6,0,B|414:69|419:176|318:150,1,175.499991966248,6|0,3:2|0:0,0:0:0:0:
304,137,545923,2,0,P|334:234|351:293,1,116.999994644165,14|0,3:2|0:0,0:0:0:0:
212,383,546285,1,6,3:2:0:0:
33,273,546466,5,2,3:3:0:0:
31,243,546556,1,2,3:3:0:0:
40,216,546646,1,8,3:3:0:0:
60,194,546737,1,8,3:3:0:0:
86,182,546827,1,4,3:3:0:0:
115,180,546917,1,4,3:3:0:0:
142,190,547008,5,12,3:2:0:0:
422,68,547188,1,0,3:2:0:0:
422,68,547279,1,0,3:2:0:0:
422,68,547369,1,12,3:2:0:0:
215,56,547550,1,0,3:2:0:0:
215,56,547641,1,0,3:2:0:0:
215,56,547731,1,14,3:2:0:0:
363,161,547911,1,2,3:3:0:0:
363,161,548002,1,8,3:3:0:0:
363,161,548092,1,14,3:2:0:0:
279,248,548273,1,8,3:3:0:0:
279,248,548364,1,0,3:2:0:0:
279,248,548454,6,0,B|386:235|348:283|459:280,1,175.499991966248,14|0,3:2|0:0,0:0:0:0:
491,284,548815,2,0,P|401:303|368:312,1,116.999994644165,12|0,3:2|3:2,0:0:0:0:
118,357,549176,2,0,P|187:320|181:227,1,175.499991966248,14|0,3:2|0:0,0:0:0:0:
111,169,549538,2,0,P|82:252|74:284,1,116.999994644165,14|0,3:2|3:2,0:0:0:0:
268,111,549899,6,0,B|341:103|341:103|377:53|377:53|501:44,1,233.999989288331,14|12,3:2|3:2,0:0:0:0:
323,213,550442,1,0,3:2:0:0:
181,55,550622,6,0,P|122:32|48:28,1,116.999994644165,10|0,3:2|3:2,0:0:0:0:
331,136,550984,2,0,P|415:137|510:109,1,175.499991966248,10|0,3:2|0:0,0:0:0:0:
480,90,551345,5,14,3:2:0:0:
427,263,551526,1,0,3:2:0:0:
317,163,551707,2,0,B|291:216|291:216|332:268,1,116.999994644165,14|2,3:2|3:2,0:0:0:0:
512,206,552068,5,12,3:2:0:0:
218,139,552249,1,2,3:2:0:0:
151,211,552429,2,0,P|60:225|12:235,1,116.999994644165,12|0,3:2|3:2,0:0:0:0:
221,300,552791,5,14,3:2:0:0:
221,300,552972,1,0,3:2:0:0:
278,216,553152,1,12,3:2:0:0:
191,136,553333,2,0,L|213:9,1,116.999994644165,0|12,3:2|3:2,0:0:0:0:
106,81,553695,1,0,3:2:0:0:
211,221,553875,2,0,B|274:213|250:164|341:164,1,116.999994644165,12|0,3:2|0:0,0:0:0:0:
463,104,554237,5,14,3:2:0:0:
455,121,554327,1,0,3:2:0:0:
447,139,554417,1,0,3:2:0:0:
440,158,554508,1,0,3:2:0:0:
433,176,554598,1,0,3:2:0:0:
427,194,554688,1,0,3:2:0:0:
423,214,554779,6,0,P|431:272|432:295,1,45,2|0,3:2|3:2,0:0:0:0:
505,331,554960,1,8,3:2:0:0:
484,370,555050,1,0,3:2:0:0:
444,387,555140,1,0,3:2:0:0:
402,375,555231,1,0,3:2:0:0:
364,344,555321,6,0,L|283:335,1,45,2|0,3:2|3:2,0:0:0:0:
169,306,555502,2,0,L|88:315,1,45,0|0,3:2|3:2,0:0:0:0:
237,384,555682,6,0,L|246:303,1,45,0|0,3:2|3:2,0:0:0:0:
280,260,555863,2,0,L|271:179,1,45,0|0,3:2|3:2,0:0:0:0:
91,121,556044,5,10,3:2:0:0:
112,160,556134,1,0,3:2:0:0:
152,177,556224,1,0,3:2:0:0:
194,165,556315,1,0,3:2:0:0:
232,134,556405,6,0,L|313:125,1,45,10|0,3:2|3:2,0:0:0:0:
395,81,556586,2,0,L|476:90,1,45,0|0,3:2|3:2,0:0:0:0:
317,55,556767,5,2,3:2:0:0:
313,44,556857,1,0,3:2:0:0:
310,33,556947,1,0,3:2:0:0:
306,22,557038,1,0,3:2:0:0:
301,11,557128,6,0,B|277:55|306:81|306:81|303:86|303:86|325:117|301:177,1,148.50000453186,6|0,3:2|0:0,0:0:0:0:
326,191,557490,5,0,3:2:0:0:
394,163,557670,1,0,3:2:0:0:
256,284,557851,5,8,3:2:0:0:
443,363,558031,1,8,3:2:0:0:
233,123,558213,5,8,3:2:0:0:
98,384,558393,1,8,3:2:0:0:
265,277,558574,6,0,P|202:236|118:245,1,148.50000453186,14|0,3:2|3:2,0:0:0:0:
42,255,558935,1,12,3:2:0:0:
38,243,559025,1,0,3:2:0:0:
34,231,559115,1,0,3:2:0:0:
30,219,559206,1,0,3:2:0:0:
25,210,559297,6,0,L|78:186,1,49.5000015106202,14|0,3:2|3:2,0:0:0:0:
248,65,559478,2,0,L|195:41,1,49.5000015106202,10|0,3:2|3:2,0:0:0:0:
17,146,559658,6,0,L|75:180,1,49.5000015106202,12|0,3:2|3:2,0:0:0:0:
307,58,559839,2,0,L|254:82,1,49.5000015106202,0|0,3:2|3:2,0:0:0:0:
461,180,560020,6,0,B|497:155|497:155|470:103,1,90,6|0,3:2|3:2,0:0:0:0:
293,148,560381,1,8,3:2:0:0:
448,218,560562,1,0,0:0:0:0:
393,134,560743,2,0,P|367:213|359:243,1,90,0|2,3:2|0:2,0:0:0:0:
418,376,561104,5,8,3:2:0:0:
353,222,561285,1,0,3:2:0:0:
450,49,561466,6,0,B|394:27|385:98|320:89,1,135,4|0,3:2|0:0,0:0:0:0:
300,74,561827,2,0,L|198:52,1,90,8|0,3:2|0:0,0:0:0:0:
104,132,562188,2,0,P|91:89|77:47,1,90,0|2,3:2|0:0,0:0:0:0:
4,24,562460,1,2,0:0:0:0:
4,24,562549,5,10,3:2:0:0:
131,149,562730,1,0,0:0:0:0:
53,358,562911,6,0,B|15:316|15:316|43:237,1,135,6|0,3:2|0:0,0:0:0:0:
67,231,563273,2,0,L|174:270,1,90,8|0,3:2|0:0,0:0:0:0:
323,190,563634,5,2,3:2:0:0:
258,344,563815,1,2,3:2:0:0:
296,200,563996,2,0,P|247:177|192:160,1,90,10|0,3:2|3:2,0:0:0:0:
415,330,564357,6,0,P|476:310|479:241,1,135,6|0,3:2|0:0,0:0:0:0:
411,194,564719,2,0,P|438:242|461:274,1,90,10|0,3:2|0:0,0:0:0:0:
476,102,565080,5,2,3:2:0:0:
476,102,565261,1,0,0:0:0:0:
365,15,565442,5,10,3:2:0:0:
321,20,565532,1,0,0:0:0:0:
297,57,565622,1,8,3:2:0:0:
309,99,565713,1,8,3:2:0:0:
354,113,565803,6,0,P|328:194|298:293,1,180,6|8,3:2|3:2,0:0:0:0:
358,369,566345,1,0,0:0:0:0:
267,275,566526,6,0,B|242:311|242:311|190:284,1,90,2|2,3:2|3:2,0:0:0:0:
210,115,566887,1,10,3:2:0:0:
109,327,567068,1,0,0:0:0:0:
221,207,567249,6,0,P|300:181|330:173,1,90,4|0,3:2|0:0,0:0:0:0:
489,237,567610,1,8,3:2:0:0:
315,157,567791,1,0,0:0:0:0:
142,243,567972,6,0,P|88:232|48:227,1,90,2|2,3:2|3:2,0:0:0:0:
244,71,568333,1,10,3:2:0:0:
345,283,568514,1,0,0:0:0:0:
415,112,568695,6,0,B|460:103|460:103|491:150,1,90,6|0,3:2|0:0,0:0:0:0:
334,302,569056,2,0,L|234:286,1,90,8|0,3:2|0:0,0:0:0:0:
183,336,569327,1,8,3:2:0:0:
183,336,569417,6,0,L|231:316,1,45,2|0,3:2|0:0,0:0:0:0:
339,228,569598,2,0,L|387:248,1,45,10|0,3:2|0:0,0:0:0:0:
329,349,569779,1,10,3:2:0:0:
252,127,569960,1,0,3:0:0:0:
474,296,570121,5,14,3:2:0:0:
115,229,570301,1,0,3:2:0:0:
416,64,570482,5,14,3:2:0:0:
257,343,570662,1,0,3:2:0:0:
276,28,570843,5,14,3:2:0:0:
437,296,571023,1,0,3:2:0:0:
404,23,571205,5,14,3:2:0:0:
298,268,571385,1,0,3:2:0:0:
257,42,571586,6,0,B|347:12|328:121|427:103,1,180,14|0,3:2|0:0,0:0:0:0:
490,44,572127,1,0,3:2:0:0:
337,119,572308,2,0,P|278:129|229:140,1,90,14|2,3:2|3:2,0:0:0:0:
149,71,572670,2,0,P|90:61|41:50,1,90,2|0,3:2|0:0,0:0:0:0:
233,163,573031,6,0,L|263:359,1,180,14|0,3:2|0:0,0:0:0:0:
187,379,573572,1,0,0:0:0:0:
323,248,573753,5,10,3:2:0:0:
203,183,573934,1,2,3:2:0:0:
321,271,574115,2,0,B|368:263|368:263|393:228|393:228|450:219,1,135,10|0,3:2|0:0,0:0:0:0:
512,166,574477,6,0,B|537:262|423:230|437:351,1,180,6|0,3:2|0:0,0:0:0:0:
499,373,575018,1,0,0:0:0:0:
386,219,575200,2,0,P|376:160|365:111,1,90,14|2,3:2|0:0,0:0:0:0:
464,88,575561,2,0,P|474:29|485:-20,1,90,6|0,3:2|0:0,0:0:0:0:
283,45,575923,5,6,3:2:0:0:
437,123,576101,1,8,3:2:0:0:
364,56,576277,2,0,L|268:74,1,90,2|0,0:0|0:0,0:0:0:0:
119,38,576630,5,0,3:2:0:0:
120,62,576719,1,8,3:0:0:0:
131,84,576807,1,8,3:3:0:0:
150,101,576895,1,4,3:3:0:0:
174,108,576982,2,0,P|180:76|191:17,1,90,0|4,3:2|3:3,0:0:0:0:
34,189,577356,5,14,3:2:0:0:
369,309,577537,1,0,3:2:0:0:
326,240,577718,1,0,3:2:0:0:
54,355,577899,1,14,3:2:0:0:
142,282,578079,1,0,3:2:0:0:
52,203,578260,1,0,3:2:0:0:
256,64,578441,1,14,3:2:0:0:
320,128,578622,1,2,3:2:0:0:
460,67,578802,5,14,3:2:0:0:
174,206,578982,1,0,3:2:0:0:
128,128,579163,1,0,3:2:0:0:
437,204,579344,1,12,3:2:0:0:
361,368,579524,1,2,3:2:0:0:
445,331,579706,1,0,3:2:0:0:
270,139,579887,1,12,3:2:0:0:
170,257,580067,1,0,3:2:0:0:
170,257,580158,1,0,3:0:0:0:
170,257,580248,6,0,L|207:245,1,22.5,14|0,3:2|0:0,0:0:0:0:
75,200,580610,6,0,L|24:184,1,29.2499986610413,14|0,3:2|0:0,0:0:0:0:
177,110,580971,6,0,L|227:94,1,36,14|0,3:2|0:0,0:0:0:0:
88,27,581332,6,0,L|46:14,1,42.7499988584519,14|0,3:2|0:0,0:0:0:0:
342,257,581694,6,0,L|293:242,1,47.2499985580445,14|0,3:2|0:0,0:0:0:0:
459,142,582055,6,0,L|509:126,1,51.7500009870529,14|0,3:2|0:0,0:0:0:0:
342,27,582416,6,0,L|285:10,1,56.25,14|0,3:2|0:0,0:0:0:0:
384,134,582597,5,0,3:2:0:0:
386,179,582687,1,0,3:2:0:0:
371,221,582777,1,14,3:2:0:0:
342,257,582868,1,0,3:2:0:0:
313,291,582958,1,0,3:2:0:0:
293,333,583048,1,0,3:2:0:0:
289,378,583139,5,0,0:0:0:0:
102,296,583501,2,0,L|50:282,1,45,0|0,1:2|1:2,0:0:0:0:
0,229,583864,2,0,P|31:203|89:206,2,90,2|2|2,3:2|0:0|1:1,0:0:0:0:
256,160,586039,6,0,L|242:108,1,45,2|0,1:2|0:0,0:0:0:0:
189,58,586401,2,0,P|163:89|166:147,2,90,2|2|0,1:2|3:2|0:0,0:0:0:0:
352,192,588939,6,0,P|409:176|452:166,1,90,0|0,0:0|1:2,0:0:0:0:
501,103,589484,1,0,1:2:0:0:
501,103,589664,2,0,P|477:178|468:204,1,90,0|2,3:2|1:1,0:0:0:0:
327,223,590389,2,0,B|413:212|387:303|484:303,1,180,2|0,1:2|3:2,0:0:0:0:
310,310,591477,6,0,L|258:324,1,45,0|0,3:2|3:2,0:0:0:0:
192,301,591839,2,0,P|192:345|219:379,2,90,2|2|10,1:2|0:0|0:1,0:0:0:0:
285,138,592927,1,0,3:2:0:0:
285,138,593108,1,0,3:2:0:0:
229,205,593290,6,0,B|167:192|191:153|108:147,1,126,2|0,1:1|0:0,0:0:0:0:
89,160,594015,2,0,L|100:181,1,18
20,198,594196,2,0,L|31:219,1,18
256,64,594746,5,2,0:0:0:0:
302,118,595101,1,2,0:0:0:0:
259,187,595456,1,2,0:0:0:0:
308,262,595811,1,2,0:0:0:0:
299,290,596168,6,0,P|341:287|386:283,1,80.9999975280763,2|0,0:0|0:0,0:0:0:0:
398,296,597613,5,2,0:0:0:0:
350,226,597975,1,2,0:0:0:0:
392,152,598336,2,0,L|399:129,2,13.4999995880127,2|2|0,0:0|0:0|0:0,0:0:0:0:
297,52,599062,2,0,L|305:108,2,53.9999983520508,2|2|2,0:0|0:0|0:0,0:0:0:0:
271,112,600510,6,0,P|246:100|230:97,1,40.4999987640381,2|0,0:0|0:0,0:0:0:0:
139,58,600892,2,0,P|117:68|79:66,1,50.6250019311906,2|0,0:0|0:0,0:0:0:0:
159,137,601269,2,0,P|183:174|211:263,1,135.000005149842,2|2,0:0|0:0,0:0:0:0:
136,309,602086,1,2,0:0:0:0:
256,190,603904,5,2,0:0:0:0:
271,204,604430,1,2,0:0:0:0:
278,205,604970,1,2,0:0:0:0:
271,289,605564,6,0,B|311:293|338:282|347:206|382:189|425:213,1,188.999994232178,2|0,0:0|0:0,0:0:0:0:
